  0
SECTION
  2
HEADER
  9
$ACADVER
  1
AC1015
  9
$ACADMAINTVER
 70
     6
  9
$DWGCODEPAGE
  3
ANSI_932
  9
$INSBASE
 10
0.0
 20
0.0
 30
0.0
  9
$EXTMIN
 10
0.0
 20
-255.0
 30
0.0
  9
$EXTMAX
 10
6900.0
 20
4455.0
 30
0.0
  9
$LIMMIN
 10
0.0
 20
0.0
  9
$LIMMAX
 10
6300.0
 20
4455.0
  9
$ORTHOMODE
 70
     1
  9
$REGENMODE
 70
     1
  9
$FILLMODE
 70
     1
  9
$QTEXTMODE
 70
     0
  9
$MIRRTEXT
 70
     1
  9
$LTSCALE
 40
4.5
  9
$ATTMODE
 70
     1
  9
$TEXTSIZE
 40
45.0
  9
$TRACEWID
 40
1.0
  9
$TEXTSTYLE
  7
Standard
  9
$CLAYER
  8
11機器
  9
$CELTYPE
  6
ByLayer
  9
$CECOLOR
 62
   256
  9
$CELTSCALE
 40
1.0
  9
$DISPSILH
 70
     0
  9
$DIMSCALE
 40
15.0
  9
$DIMASZ
 40
3.0
  9
$DIMEXO
 40
1.5
  9
$DIMDLI
 40
10.0
  9
$DIMRND
 40
0.0
  9
$DIMDLE
 40
0.0
  9
$DIMEXE
 40
1.0
  9
$DIMTP
 40
0.0
  9
$DIMTM
 40
0.0
  9
$DIMTXT
 40
3.0
  9
$DIMCEN
 40
1.5
  9
$DIMTSZ
 40
0.0
  9
$DIMTOL
 70
     0
  9
$DIMLIM
 70
     0
  9
$DIMTIH
 70
     0
  9
$DIMTOH
 70
     0
  9
$DIMSE1
 70
     0
  9
$DIMSE2
 70
     0
  9
$DIMTAD
 70
     1
  9
$DIMZIN
 70
     8
  9
$DIMBLK
  1
Open
  9
$DIMASO
 70
     1
  9
$DIMSHO
 70
     1
  9
$DIMPOST
  1

  9
$DIMAPOST
  1

  9
$DIMALT
 70
     0
  9
$DIMALTD
 70
     3
  9
$DIMALTF
 40
0.03937007874016
  9
$DIMLFAC
 40
1.0
  9
$DIMTOFL
 70
     1
  9
$DIMTVP
 40
0.0
  9
$DIMTIX
 70
     0
  9
$DIMSOXD
 70
     0
  9
$DIMSAH
 70
     0
  9
$DIMBLK1
  1

  9
$DIMBLK2
  1

  9
$DIMSTYLE
  2
NEMY-15
  9
$DIMCLRD
 70
     0
  9
$DIMCLRE
 70
     0
  9
$DIMCLRT
 70
     0
  9
$DIMTFAC
 40
1.0
  9
$DIMGAP
 40
1.0
  9
$DIMJUST
 70
     0
  9
$DIMSD1
 70
     0
  9
$DIMSD2
 70
     0
  9
$DIMTOLJ
 70
     0
  9
$DIMTZIN
 70
     8
  9
$DIMALTZ
 70
     0
  9
$DIMALTTZ
 70
     0
  9
$DIMUPT
 70
     0
  9
$DIMDEC
 70
     1
  9
$DIMTDEC
 70
     1
  9
$DIMALTU
 70
     2
  9
$DIMALTTD
 70
     3
  9
$DIMTXSTY
  7
Standard
  9
$DIMAUNIT
 70
     0
  9
$DIMADEC
 70
     0
  9
$DIMALTRND
 40
0.0
  9
$DIMAZIN
 70
     0
  9
$DIMDSEP
 70
    46
  9
$DIMATFIT
 70
     3
  9
$DIMFRAC
 70
     0
  9
$DIMLDRBLK
  1
Open
  9
$DIMLUNIT
 70
     2
  9
$DIMLWD
 70
    -2
  9
$DIMLWE
 70
    -2
  9
$DIMTMOVE
 70
     0
  9
$LUNITS
 70
     2
  9
$LUPREC
 70
     4
  9
$SKETCHINC
 40
1.0
  9
$FILLETRAD
 40
8.0
  9
$AUNITS
 70
     0
  9
$AUPREC
 70
     0
  9
$MENU
  1
.
  9
$ELEVATION
 40
0.0
  9
$PELEVATION
 40
0.0
  9
$THICKNESS
 40
0.0
  9
$LIMCHECK
 70
     0
  9
$CHAMFERA
 40
1.0
  9
$CHAMFERB
 40
1.0
  9
$CHAMFERC
 40
20.0
  9
$CHAMFERD
 40
0.0
  9
$SKPOLY
 70
     0
  9
$TDCREATE
 40
2455859.405048461
  9
$TDUCREATE
 40
2455859.030048461
  9
$TDUPDATE
 40
2459010.40385419
  9
$TDUUPDATE
 40
2459010.02885419
  9
$TDINDWG
 40
1.1755263773
  9
$TDUSRTIMER
 40
0.0005911111
  9
$USRTIMER
 70
     1
  9
$ANGBASE
 50
0.0
  9
$ANGDIR
 70
     0
  9
$PDMODE
 70
     0
  9
$PDSIZE
 40
0.0
  9
$PLINEWID
 40
0.0
  9
$SPLFRAME
 70
     0
  9
$SPLINETYPE
 70
     6
  9
$SPLINESEGS
 70
     8
  9
$HANDSEED
  5
FEFB
  9
$SURFTAB1
 70
     6
  9
$SURFTAB2
 70
     6
  9
$SURFTYPE
 70
     6
  9
$SURFU
 70
     6
  9
$SURFV
 70
     6
  9
$UCSBASE
  2

  9
$UCSNAME
  2

  9
$UCSORG
 10
0.0
 20
0.0
 30
0.0
  9
$UCSXDIR
 10
1.0
 20
0.0
 30
0.0
  9
$UCSYDIR
 10
0.0
 20
1.0
 30
0.0
  9
$UCSORTHOREF
  2

  9
$UCSORTHOVIEW
 70
     0
  9
$UCSORGTOP
 10
0.0
 20
0.0
 30
0.0
  9
$UCSORGBOTTOM
 10
0.0
 20
0.0
 30
0.0
  9
$UCSORGLEFT
 10
0.0
 20
0.0
 30
0.0
  9
$UCSORGRIGHT
 10
0.0
 20
0.0
 30
0.0
  9
$UCSORGFRONT
 10
0.0
 20
0.0
 30
0.0
  9
$UCSORGBACK
 10
0.0
 20
0.0
 30
0.0
  9
$PUCSBASE
  2

  9
$PUCSNAME
  2

  9
$PUCSORG
 10
0.0
 20
0.0
 30
0.0
  9
$PUCSXDIR
 10
1.0
 20
0.0
 30
0.0
  9
$PUCSYDIR
 10
0.0
 20
1.0
 30
0.0
  9
$PUCSORTHOREF
  2

  9
$PUCSORTHOVIEW
 70
     0
  9
$PUCSORGTOP
 10
0.0
 20
0.0
 30
0.0
  9
$PUCSORGBOTTOM
 10
0.0
 20
0.0
 30
0.0
  9
$PUCSORGLEFT
 10
0.0
 20
0.0
 30
0.0
  9
$PUCSORGRIGHT
 10
0.0
 20
0.0
 30
0.0
  9
$PUCSORGFRONT
 10
0.0
 20
0.0
 30
0.0
  9
$PUCSORGBACK
 10
0.0
 20
0.0
 30
0.0
  9
$USERI1
 70
     0
  9
$USERI2
 70
     0
  9
$USERI3
 70
     0
  9
$USERI4
 70
     0
  9
$USERI5
 70
     0
  9
$USERR1
 40
0.0
  9
$USERR2
 40
0.0
  9
$USERR3
 40
0.0
  9
$USERR4
 40
0.0
  9
$USERR5
 40
0.0
  9
$WORLDVIEW
 70
     1
  9
$SHADEDGE
 70
     3
  9
$SHADEDIF
 70
    70
  9
$TILEMODE
 70
     1
  9
$MAXACTVP
 70
    64
  9
$PINSBASE
 10
0.0
 20
0.0
 30
0.0
  9
$PLIMCHECK
 70
     0
  9
$PEXTMIN
 10
1.000000000000000E+20
 20
1.000000000000000E+20
 30
1.000000000000000E+20
  9
$PEXTMAX
 10
-1.000000000000000E+20
 20
-1.000000000000000E+20
 30
-1.000000000000000E+20
  9
$PLIMMIN
 10
-7.5
 20
-20.0
  9
$PLIMMAX
 10
412.5
 20
277.0
  9
$UNITMODE
 70
     0
  9
$VISRETAIN
 70
     1
  9
$PLINEGEN
 70
     0
  9
$PSLTSCALE
 70
     1
  9
$TREEDEPTH
 70
  3020
  9
$CMLSTYLE
  2
Standard
  9
$CMLJUST
 70
     0
  9
$CMLSCALE
 40
20.0
  9
$PROXYGRAPHICS
 70
     1
  9
$MEASUREMENT
 70
     1
  9
$CELWEIGHT
370
    -1
  9
$ENDCAPS
280
     0
  9
$JOINSTYLE
280
     0
  9
$LWDISPLAY
290
     0
  9
$INSUNITS
 70
     4
  9
$HYPERLINKBASE
  1

  9
$STYLESHEET
  1
monochrome.ctb
  9
$XEDIT
290
     1
  9
$CEPSNTYPE
380
     0
  9
$PSTYLEMODE
290
     1
  9
$FINGERPRINTGUID
  2
{FDEAD578-A652-11D2-9A35-0060089B3A3F}
  9
$VERSIONGUID
  2
{11DB8456-EC16-47A0-BA21-BBDA07550E8A}
  9
$EXTNAMES
290
     1
  9
$PSVPSCALE
 40
0.0
  9
$OLESTARTUP
290
     0
  0
ENDSEC
  0
SECTION
  2
CLASSES
  0
CLASS
  1
ACDBDICTIONARYWDFLT
  2
AcDbDictionaryWithDefault
  3
ObjectDBX Classes
 90
        0
280
     0
281
     0
  0
CLASS
  1
ACDBPLACEHOLDER
  2
AcDbPlaceHolder
  3
ObjectDBX Classes
 90
        0
280
     0
281
     0
  0
CLASS
  1
LAYOUT
  2
AcDbLayout
  3
ObjectDBX Classes
 90
        0
280
     0
281
     0
  0
CLASS
  1
DICTIONARYVAR
  2
AcDbDictionaryVar
  3
ObjectDBX Classes
 90
        0
280
     0
281
     0
  0
CLASS
  1
SCALE
  2
AcDbScale
  3
ObjectDBX Classes
 90
     1153
280
     0
281
     0
  0
CLASS
  1
MATERIAL
  2
AcDbMaterial
  3
ObjectDBX Classes
 90
     1153
280
     0
281
     0
  0
CLASS
  1
VISUALSTYLE
  2
AcDbVisualStyle
  3
ObjectDBX Classes
 90
     4095
280
     0
281
     0
  0
CLASS
  1
TABLESTYLE
  2
AcDbTableStyle
  3
ObjectDBX Classes
 90
     4095
280
     0
281
     0
  0
CLASS
  1
RASTERVARIABLES
  2
AcDbRasterVariables
  3
ISM
 90
        0
280
     0
281
     0
  0
CLASS
  1
SORTENTSTABLE
  2
AcDbSortentsTable
  3
ObjectDBX Classes
 90
        0
280
     0
281
     0
  0
CLASS
  1
SUN
  2
AcDbSun
  3
SCENEOE
 90
     1153
280
     0
281
     0
  0
CLASS
  1
MLEADERSTYLE
  2
AcDbMLeaderStyle
  3
ACDB_MLEADERSTYLE_CLASS
 90
     4095
280
     0
281
     0
  0
ENDSEC
  0
SECTION
  2
TABLES
  0
TABLE
  2
VPORT
  5
8
330
0
100
AcDbSymbolTable
 70
     1
  0
VPORT
  5
7A57
330
8
100
AcDbSymbolTableRecord
100
AcDbViewportTableRecord
  2
*Active
 70
     0
 10
0.0
 20
0.0
 11
1.0
 21
1.0
 12
2751.675128211958
 22
2687.600015900718
 13
0.0
 23
0.0
 14
10.0
 24
10.0
 15
10.0
 25
10.0
 16
0.0
 26
0.0
 36
1.0
 17
0.0
 27
0.0
 37
0.0
 40
2759.710900533833
 41
1.448916408668731
 42
50.0
 43
0.0
 44
0.0
 50
0.0
 51
0.0
 71
    16
 72
   100
 73
     1
 74
     2
 75
     0
 76
     0
 77
     0
 78
     0
281
     0
 65
     1
110
0.0
120
0.0
130
0.0
111
1.0
121
0.0
131
0.0
112
0.0
122
1.0
132
0.0
 79
     0
146
0.0
  0
ENDTAB
  0
TABLE
  2
LTYPE
  5
5
330
0
100
AcDbSymbolTable
 70
     5
  0
LTYPE
  5
14
330
5
100
AcDbSymbolTableRecord
100
AcDbLinetypeTableRecord
  2
ByBlock
 70
     0
  3

 72
    65
 73
     0
 40
0.0
  0
LTYPE
  5
15
330
5
100
AcDbSymbolTableRecord
100
AcDbLinetypeTableRecord
  2
ByLayer
 70
     0
  3

 72
    65
 73
     0
 40
0.0
  0
LTYPE
  5
16
330
5
100
AcDbSymbolTableRecord
100
AcDbLinetypeTableRecord
  2
Continuous
 70
     0
  3
Solid line
 72
    65
 73
     0
 40
0.0
  0
LTYPE
  5
BA
330
5
100
AcDbSymbolTableRecord
100
AcDbLinetypeTableRecord
  2
HIDDEN
 70
     0
  3
Hidden __ __ __ __ __ __ __ __ __ __ __ __ __ _
 72
    65
 73
     2
 40
9.524999999999999
 49
6.35
 74
     0
 49
-3.175
 74
     0
  0
LTYPE
  5
BB
330
5
100
AcDbSymbolTableRecord
100
AcDbLinetypeTableRecord
  2
PHANTOM
 70
     0
  3
Phantom ______  __  __  ______  __  __  ______
 72
    65
 73
     6
 40
63.5
 49
31.75
 74
     0
 49
-6.35
 74
     0
 49
6.35
 74
     0
 49
-6.35
 74
     0
 49
6.35
 74
     0
 49
-6.35
 74
     0
  0
LTYPE
  5
BC
330
5
100
AcDbSymbolTableRecord
100
AcDbLinetypeTableRecord
  2
CENTER
 70
     0
  3
Center ____ _ ____ _ ____ _ ____ _ ____ _ ____
 72
    65
 73
     4
 40
50.8
 49
31.75
 74
     0
 49
-6.35
 74
     0
 49
6.35
 74
     0
 49
-6.35
 74
     0
  0
LTYPE
  5
47C
330
5
100
AcDbSymbolTableRecord
100
AcDbLinetypeTableRecord
  2
DOT
 70
     0
  3
Dot . . . . . . . . . . . . . . . . . . . . . .
 72
    65
 73
     2
 40
6.35
 49
0.0
 74
     0
 49
-6.35
 74
     0
  0
ENDTAB
  0
TABLE
  2
LAYER
  5
2
102
{ACAD_XDICTIONARY
360
7A6F
102
}
330
0
100
AcDbSymbolTable
 70
    15
  0
LAYER
  5
10
330
2
100
AcDbSymbolTableRecord
100
AcDbLayerTableRecord
  2
0
 70
     0
 62
    -7
  6
Continuous
370
    -3
390
F
  0
LAYER
  5
45
330
2
100
AcDbSymbolTableRecord
100
AcDbLayerTableRecord
  2
01注記寸法
 70
     0
 62
    -7
  6
Continuous
370
     9
390
F
  0
LAYER
  5
46
330
2
100
AcDbSymbolTableRecord
100
AcDbLayerTableRecord
  2
02実線
 70
     0
 62
     2
  6
Continuous
370
    15
390
F
  0
LAYER
  5
5F
330
2
100
AcDbSymbolTableRecord
100
AcDbLayerTableRecord
  2
Defpoints
 70
     1
 62
    -7
  6
Continuous
290
     0
370
    -3
390
F
  0
LAYER
  5
7E52
330
2
100
AcDbSymbolTableRecord
100
AcDbLayerTableRecord
  2
03破線
 70
     0
 62
    -3
  6
HIDDEN
370
     9
390
F
  0
LAYER
  5
7E55
330
2
100
AcDbSymbolTableRecord
100
AcDbLayerTableRecord
  2
04一点鎖線
 70
     0
 62
   -70
  6
CENTER
370
     9
390
F
  0
LAYER
  5
7E58
330
2
100
AcDbSymbolTableRecord
100
AcDbLayerTableRecord
  2
05二点鎖線
 70
     0
 62
  -110
  6
PHANTOM
370
     9
390
F
  0
LAYER
  5
7E5B
330
2
100
AcDbSymbolTableRecord
100
AcDbLayerTableRecord
  2
06点線
 70
     0
 62
   -96
  6
DOT
370
     9
390
F
  0
LAYER
  5
7E5E
330
2
100
AcDbSymbolTableRecord
100
AcDbLayerTableRecord
  2
07その他
 70
     0
 62
    -6
  6
Continuous
370
     5
390
F
  0
LAYER
  5
7E60
330
2
100
AcDbSymbolTableRecord
100
AcDbLayerTableRecord
  2
08非表示
 70
     0
 62
    -4
  6
Continuous
290
     0
370
     0
390
F
  0
LAYER
  5
7E62
330
2
100
AcDbSymbolTableRecord
100
AcDbLayerTableRecord
  2
09図枠
 70
     0
 62
    -1
  6
Continuous
370
    30
390
F
  0
LAYER
  5
835A
330
2
100
AcDbSymbolTableRecord
100
AcDbLayerTableRecord
  2
10副資材
 70
     0
 62
   -51
  6
Continuous
290
     0
370
    -3
390
F
1001
AcAecLayerStandard
1000

1000

  0
LAYER
  5
8CAC
330
2
100
AcDbSymbolTableRecord
100
AcDbLayerTableRecord
  2
11機器
 70
     0
 62
   -11
  6
Continuous
290
     0
370
    -3
390
F
1001
AcAecLayerStandard
1000

1000

  0
LAYER
  5
8CB1
330
2
100
AcDbSymbolTableRecord
100
AcDbLayerTableRecord
  2
12防振架台
 70
     0
 62
  -190
  6
Continuous
290
     0
370
    -3
390
F
1001
AcAecLayerStandard
1000

1000

  0
LAYER
  5
A15B
330
2
100
AcDbSymbolTableRecord
100
AcDbLayerTableRecord
  2
13製作用注記
 70
     1
 62
    -5
  6
Continuous
290
     0
370
     9
390
F
1001
AcAecLayerStandard
1000

1000

  0
ENDTAB
  0
TABLE
  2
STYLE
  5
3
330
0
100
AcDbSymbolTable
 70
     2
  0
STYLE
  5
11
330
3
100
AcDbSymbolTableRecord
100
AcDbTextStyleTableRecord
  2
Standard
 70
     0
 40
0.0
 41
1.0
 50
0.0
 71
     0
 42
45.0
  3
MSGOTHIC.TTC
  4

1001
ACAD
1000
MS Gothic
1071
    32817
  0
STYLE
  5
47B
330
3
100
AcDbSymbolTableRecord
100
AcDbTextStyleTableRecord
  2

 70
     1
 40
0.0
 41
1.0
 50
0.0
 71
     0
 42
3.0
  3
ltypeshp.shx
  4

  0
ENDTAB
  0
TABLE
  2
VIEW
  5
6
330
0
100
AcDbSymbolTable
 70
     0
  0
ENDTAB
  0
TABLE
  2
UCS
  5
7
330
0
100
AcDbSymbolTable
 70
     0
  0
ENDTAB
  0
TABLE
  2
APPID
  5
9
330
0
100
AcDbSymbolTable
 70
     6
  0
APPID
  5
12
330
9
100
AcDbSymbolTableRecord
100
AcDbRegAppTableRecord
  2
ACAD
 70
     0
  0
APPID
  5
6A9E
330
9
100
AcDbSymbolTableRecord
100
AcDbRegAppTableRecord
  2
ACAD_DSTYLE_DIMRADIAL_EXTENSION
 70
     0
  0
APPID
  5
742C
330
9
100
AcDbSymbolTableRecord
100
AcDbRegAppTableRecord
  2
ACAD_PSEXT
 70
     0
  0
APPID
  5
742D
330
9
100
AcDbSymbolTableRecord
100
AcDbRegAppTableRecord
  2
ACAD_DSTYLE_DIMJAG
 70
     0
  0
APPID
  5
742E
330
9
100
AcDbSymbolTableRecord
100
AcDbRegAppTableRecord
  2
ACAD_DSTYLE_DIMTALN
 70
     0
  0
APPID
  5
835C
330
9
100
AcDbSymbolTableRecord
100
AcDbRegAppTableRecord
  2
AcAecLayerStandard
 70
     0
  0
ENDTAB
  0
TABLE
  2
DIMSTYLE
  5
A
330
0
100
AcDbSymbolTable
 70
    24
100
AcDbDimStyleTable
  0
DIMSTYLE
105
73
330
A
100
AcDbSymbolTableRecord
100
AcDbDimStyleTableRecord
  2
NEMY-1
 70
     0
 41
3.0
 42
1.5
 43
10.0
 44
1.0
 73
     0
 74
     0
 77
     1
 78
     8
140
3.0
141
1.5
143
0.03937007874016
147
1.0
171
     3
172
     1
178
     0
271
     1
272
     1
274
     3
283
     0
284
     8
340
11
341
8F
342
8F
  0
DIMSTYLE
105
4DCE
330
A
100
AcDbSymbolTableRecord
100
AcDbDimStyleTableRecord
  2
NEMY-2
 70
     0
 40
2.0
 41
3.0
 42
1.5
 43
10.0
 44
1.0
 73
     0
 74
     0
 77
     1
 78
     8
140
3.0
141
1.5
143
0.03937007874016
147
1.0
171
     3
172
     1
178
     0
271
     1
272
     1
274
     3
283
     0
284
     8
340
11
341
8F
342
8F
  0
DIMSTYLE
105
4DCF
330
A
100
AcDbSymbolTableRecord
100
AcDbDimStyleTableRecord
  2
NEMY-3
 70
     0
 40
3.0
 41
3.0
 42
1.5
 43
10.0
 44
1.0
 73
     0
 74
     0
 77
     1
 78
     8
140
3.0
141
1.5
143
0.03937007874016
147
1.0
171
     3
172
     1
178
     0
271
     1
272
     1
274
     3
283
     0
284
     8
340
11
341
8F
342
8F
  0
DIMSTYLE
105
4DD0
330
A
100
AcDbSymbolTableRecord
100
AcDbDimStyleTableRecord
  2
NEMY-5
 70
     0
 40
5.0
 41
3.0
 42
1.5
 43
10.0
 44
1.0
 73
     0
 74
     0
 77
     1
 78
     8
140
3.0
141
1.5
143
0.03937007874016
147
1.0
171
     3
172
     1
178
     0
271
     1
272
     1
274
     3
283
     0
284
     8
340
11
341
8F
342
8F
  0
DIMSTYLE
105
4DD1
330
A
100
AcDbSymbolTableRecord
100
AcDbDimStyleTableRecord
  2
NEMY-8
 70
     0
 40
8.0
 41
3.0
 42
1.5
 43
10.0
 44
1.0
 73
     0
 74
     0
 77
     1
 78
     8
140
3.0
141
1.5
143
0.03937007874016
147
1.0
171
     3
172
     1
178
     0
271
     1
272
     1
274
     3
283
     0
284
     8
340
11
341
8F
342
8F
  0
DIMSTYLE
105
4DD2
102
{ACAD_REACTORS
330
C04C
330
C04D
330
FBE5
330
FBF5
330
FC02
330
FC11
330
FC1E
330
FC2B
330
FC38
330
FC45
330
FC54
330
FC61
330
FC70
330
FC80
330
FC8D
330
BF9C
330
F267
330
F274
330
D6DC
330
D9A1
330
D9A2
330
BD44
330
BD36
330
BD27
330
BD64
330
BD74
330
BD84
330
BD91
330
BD9E
330
BDAB
330
BDB8
330
BDCF
330
D849
330
D84C
330
D84F
330
D852
330
D855
330
FCB3
330
FCC0
330
FCCD
330
FCDA
330
FCE7
330
FCF4
330
FD03
330
FD20
330
FD21
330
FD22
330
FD23
330
FD24
330
FD25
330
FD70
330
FD8D
330
FD8E
330
FD8F
330
FD90
330
FD91
330
FD92
330
D867
330
D86A
330
D86D
330
D870
330
D873
102
}
330
A
100
AcDbSymbolTableRecord
100
AcDbDimStyleTableRecord
  2
NEMY-15
 70
     0
 40
15.0
 41
3.0
 42
1.5
 43
10.0
 44
1.0
 73
     0
 74
     0
 77
     1
 78
     8
140
3.0
141
1.5
143
0.03937007874016
147
1.0
171
     3
172
     1
178
     0
271
     1
272
     1
274
     3
283
     0
284
     8
340
11
341
8F
342
8F
  0
DIMSTYLE
105
4DD3
102
{ACAD_REACTORS
330
BD0F
330
FADC
330
FAE9
102
}
330
A
100
AcDbSymbolTableRecord
100
AcDbDimStyleTableRecord
  2
NEMY-10
 70
     0
 40
10.0
 41
3.0
 42
1.5
 43
10.0
 44
1.0
 73
     0
 74
     0
 77
     1
 78
     8
140
3.0
141
1.5
143
0.03937007874016
147
1.0
171
     3
172
     1
178
     0
271
     1
272
     1
274
     3
283
     0
284
     8
340
11
341
8F
342
8F
  0
DIMSTYLE
105
4DD4
330
A
100
AcDbSymbolTableRecord
100
AcDbDimStyleTableRecord
  2
NEMY-25
 70
     0
 40
25.0
 41
3.0
 42
1.5
 43
10.0
 44
1.0
 73
     0
 74
     0
 77
     1
 78
     8
140
3.0
141
1.5
143
0.03937007874016
147
1.0
171
     3
172
     1
178
     0
271
     1
272
     1
274
     3
283
     0
284
     8
340
11
341
8F
342
8F
  0
DIMSTYLE
105
4DD5
330
A
100
AcDbSymbolTableRecord
100
AcDbDimStyleTableRecord
  2
NEMY-30
 70
     0
 40
30.0
 41
3.0
 42
1.5
 43
10.0
 44
1.0
 73
     0
 74
     0
 77
     1
 78
     8
140
3.0
141
1.5
143
0.03937007874016
147
1.0
171
     3
172
     1
178
     0
271
     1
272
     1
274
     3
283
     0
284
     8
340
11
341
8F
342
8F
  0
DIMSTYLE
105
4DD6
330
A
100
AcDbSymbolTableRecord
100
AcDbDimStyleTableRecord
  2
NEMY-50
 70
     0
 40
50.0
 41
3.0
 42
1.5
 43
10.0
 44
1.0
 73
     0
 74
     0
 77
     1
 78
     8
140
3.0
141
1.5
143
0.03937007874016
147
1.0
171
     3
172
     1
178
     0
271
     1
272
     1
274
     3
283
     0
284
     8
340
11
341
8F
342
8F
  0
DIMSTYLE
105
4E6F
330
A
100
AcDbSymbolTableRecord
100
AcDbDimStyleTableRecord
  2
NEMY-20
 70
     0
 40
20.0
 41
3.0
 42
1.5
 43
10.0
 44
1.0
 73
     0
 74
     0
 77
     1
 78
     8
140
3.0
141
1.5
143
0.03937007874016
147
1.0
171
     3
172
     1
178
     0
271
     1
272
     1
274
     3
283
     0
284
     8
340
11
341
8F
342
8F
  0
DIMSTYLE
105
4F44
330
A
100
AcDbSymbolTableRecord
100
AcDbDimStyleTableRecord
  2
NEMY-10$3
 70
     0
 40
10.0
 41
3.0
 42
1.5
 43
10.0
 44
1.0
 77
     1
 78
     8
140
3.0
141
1.5
143
0.03937007874016
147
1.0
171
     3
172
     1
178
     0
271
     1
272
     1
274
     3
283
     0
284
     8
340
11
341
8F
342
8F
  0
DIMSTYLE
105
4F45
330
A
100
AcDbSymbolTableRecord
100
AcDbDimStyleTableRecord
  2
NEMY-1$3
 70
     0
 41
3.0
 42
1.5
 43
10.0
 44
1.0
 77
     1
 78
     8
140
3.0
141
1.5
143
0.03937007874016
147
1.0
171
     3
172
     1
178
     0
271
     1
272
     1
274
     3
283
     0
284
     8
340
11
341
8F
342
8F
  0
DIMSTYLE
105
4F46
330
A
100
AcDbSymbolTableRecord
100
AcDbDimStyleTableRecord
  2
NEMY-12
 70
     0
 40
12.0
 41
3.0
 42
1.5
 43
10.0
 44
1.0
 73
     0
 74
     0
 77
     1
 78
     8
140
3.0
141
1.5
143
0.03937007874016
147
1.0
171
     3
172
     1
178
     0
271
     1
272
     1
274
     3
283
     0
284
     8
340
11
341
8F
342
8F
  0
DIMSTYLE
105
4F47
330
A
100
AcDbSymbolTableRecord
100
AcDbDimStyleTableRecord
  2
NEMY-12$3
 70
     0
 40
12.0
 41
3.0
 42
1.5
 43
10.0
 44
1.0
 77
     1
 78
     8
140
3.0
141
1.5
143
0.03937007874016
147
1.0
171
     3
172
     1
178
     0
271
     1
272
     1
274
     3
283
     0
284
     8
340
11
341
8F
342
8F
  0
DIMSTYLE
105
5E6E
330
A
100
AcDbSymbolTableRecord
100
AcDbDimStyleTableRecord
  2
NEMY-8$3
 70
     0
 40
8.0
 41
3.0
 42
1.5
 43
10.0
 44
1.0
 77
     1
 78
     8
140
3.0
141
1.5
143
0.03937007874016
147
1.0
171
     3
172
     1
178
     0
271
     1
272
     1
274
     3
283
     0
284
     8
340
11
341
8F
342
8F
  0
DIMSTYLE
105
5E6F
330
A
100
AcDbSymbolTableRecord
100
AcDbDimStyleTableRecord
  2
NEMY-50$3
 70
     0
 40
50.0
 41
3.0
 42
1.5
 43
10.0
 44
1.0
 77
     1
 78
     8
140
3.0
141
1.5
143
0.03937007874016
147
1.0
171
     3
172
     1
178
     0
271
     1
272
     1
274
     3
283
     0
284
     8
340
11
341
8F
342
8F
  0
DIMSTYLE
105
5E70
330
A
100
AcDbSymbolTableRecord
100
AcDbDimStyleTableRecord
  2
NEMY-5$3
 70
     0
 40
5.0
 41
3.0
 42
1.5
 43
10.0
 44
1.0
 77
     1
 78
     8
140
3.0
141
1.5
143
0.03937007874016
147
1.0
171
     3
172
     1
178
     0
271
     1
272
     1
274
     3
283
     0
284
     8
340
11
341
8F
342
8F
  0
DIMSTYLE
105
5E71
330
A
100
AcDbSymbolTableRecord
100
AcDbDimStyleTableRecord
  2
NEMY-30$3
 70
     0
 40
30.0
 41
3.0
 42
1.5
 43
10.0
 44
1.0
 77
     1
 78
     8
140
3.0
141
1.5
143
0.03937007874016
147
1.0
171
     3
172
     1
178
     0
271
     1
272
     1
274
     3
283
     0
284
     8
340
11
341
8F
342
8F
  0
DIMSTYLE
105
5E72
330
A
100
AcDbSymbolTableRecord
100
AcDbDimStyleTableRecord
  2
NEMY-3$3
 70
     0
 40
3.0
 41
3.0
 42
1.5
 43
10.0
 44
1.0
 77
     1
 78
     8
140
3.0
141
1.5
143
0.03937007874016
147
1.0
171
     3
172
     1
178
     0
271
     1
272
     1
274
     3
283
     0
284
     8
340
11
341
8F
342
8F
  0
DIMSTYLE
105
5E73
330
A
100
AcDbSymbolTableRecord
100
AcDbDimStyleTableRecord
  2
NEMY-25$3
 70
     0
 40
25.0
 41
3.0
 42
1.5
 43
10.0
 44
1.0
 77
     1
 78
     8
140
3.0
141
1.5
143
0.03937007874016
147
1.0
171
     3
172
     1
178
     0
271
     1
272
     1
274
     3
283
     0
284
     8
340
11
341
8F
342
8F
  0
DIMSTYLE
105
5E74
330
A
100
AcDbSymbolTableRecord
100
AcDbDimStyleTableRecord
  2
NEMY-20$3
 70
     0
 40
20.0
 41
3.0
 42
1.5
 43
10.0
 44
1.0
 77
     1
 78
     8
140
3.0
141
1.5
143
0.03937007874016
147
1.0
171
     3
172
     1
178
     0
271
     1
272
     1
274
     3
283
     0
284
     8
340
11
341
8F
342
8F
  0
DIMSTYLE
105
5E75
330
A
100
AcDbSymbolTableRecord
100
AcDbDimStyleTableRecord
  2
NEMY-2$3
 70
     0
 40
2.0
 41
3.0
 42
1.5
 43
10.0
 44
1.0
 77
     1
 78
     8
140
3.0
141
1.5
143
0.03937007874016
147
1.0
171
     3
172
     1
178
     0
271
     1
272
     1
274
     3
283
     0
284
     8
340
11
341
8F
342
8F
  0
DIMSTYLE
105
5E76
330
A
100
AcDbSymbolTableRecord
100
AcDbDimStyleTableRecord
  2
NEMY-15$3
 70
     0
 40
15.0
 41
3.0
 42
1.5
 43
10.0
 44
1.0
 77
     1
 78
     8
140
3.0
141
1.5
143
0.03937007874016
147
1.0
171
     3
172
     1
178
     0
271
     1
272
     1
274
     3
283
     0
284
     8
340
11
341
8F
342
8F
  0
ENDTAB
  0
TABLE
  2
BLOCK_RECORD
  5
1
330
0
100
AcDbSymbolTable
 70
    65
  0
BLOCK_RECORD
  5
1F
102
{ACAD_XDICTIONARY
360
969E
102
}
330
1
100
AcDbSymbolTableRecord
100
AcDbBlockTableRecord
  2
*Model_Space
340
22
  0
BLOCK_RECORD
  5
1B
330
1
100
AcDbSymbolTableRecord
100
AcDbBlockTableRecord
  2
*Paper_Space
340
1E
  0
BLOCK_RECORD
  5
8F
330
1
100
AcDbSymbolTableRecord
100
AcDbBlockTableRecord
  2
_Open
340
0
102
{BLKREFS
331
BD16
331
BD4B
331
BD8B
331
BD98
331
BDA5
331
BDB2
331
BDBF
331
BDD6
331
C054
331
C060
331
FAE2
331
FAEF
331
FBFC
331
FC18
331
FC25
331
FC32
331
FC3F
331
FC5B
331
FC87
331
FCBA
331
FCC7
331
FCD4
331
FCE1
331
FCEE
331
FCFB
331
FD2C
331
FD38
331
FD44
331
FD50
331
FD5C
331
FD68
331
FD99
331
FDA5
331
FDB1
331
FDBD
331
FDC9
331
FDD5
331
BD17
331
BD4C
331
BD8C
331
BD99
331
BDA6
331
BDB3
331
BDC0
331
BDD7
331
C055
331
C061
331
D6F8
331
FAE3
331
FAF0
331
FBFD
331
FC19
331
FC26
331
FC33
331
FC40
331
FC5C
331
FC88
331
FCBB
331
FCC8
331
FCD5
331
FCE2
331
FCEF
331
FCFC
331
FD2D
331
FD39
331
FD45
331
FD51
331
FD5D
331
FD69
331
FD9A
331
FDA6
331
FDB2
331
FDBE
331
FDCA
331
FDD6
331
BD30
331
BD3F
331
D6F9
331
FC0B
331
FC4E
331
FC6A
331
FC96
331
BD31
331
BD40
331
BD6E
331
BD7E
331
FBEF
331
FC0C
331
FC4F
331
FC6B
331
FC7A
331
FC97
331
BD6F
331
BD7F
331
FBF0
331
FC7B
102
}
  0
BLOCK_RECORD
  5
82F2
330
1
100
AcDbSymbolTableRecord
100
AcDbBlockTableRecord
  2
hole-φ16
340
0
102
{BLKREFS
331
FB25
331
FB29
331
FB2D
331
FB31
331
FB35
331
FB39
331
FB87
331
FB88
331
FB8A
331
FB8C
102
}
  0
BLOCK_RECORD
  5
836D
330
1
100
AcDbSymbolTableRecord
100
AcDbBlockTableRecord
  2
平W-M12
340
0
102
{BLKREFS
331
FB26
331
FB2A
331
FB2E
331
FB32
331
FB36
331
FB3A
331
FB86
331
FB89
331
FB8B
331
FB8D
102
}
  0
BLOCK_RECORD
  5
83FA
330
1
100
AcDbSymbolTableRecord
100
AcDbBlockTableRecord
  2
BH-端柱(L60)-300H-側面
340
0
102
{BLKREFS
331
A54E
331
A558
102
}
  0
BLOCK_RECORD
  5
840E
330
1
100
AcDbSymbolTableRecord
100
AcDbBlockTableRecord
  2
BH-端柱(L60)-300H-正面
340
0
102
{BLKREFS
331
A54F
331
A559
102
}
  0
BLOCK_RECORD
  5
841D
330
1
100
AcDbSymbolTableRecord
100
AcDbBlockTableRecord
  2
BH-端柱補強桟(L40x15xt3.2)
340
0
102
{BLKREFS
331
862F
331
841C
102
}
  0
BLOCK_RECORD
  5
8522
330
1
100
AcDbSymbolTableRecord
100
AcDbBlockTableRecord
  2
BH-anchor-L60-背面
340
0
102
{BLKREFS
331
A591
331
A592
331
A5D4
102
}
  0
BLOCK_RECORD
  5
8548
330
1
100
AcDbSymbolTableRecord
100
AcDbBlockTableRecord
  2
BH-anchor-L60-立面
340
0
102
{BLKREFS
331
A599
331
A59A
102
}
  0
BLOCK_RECORD
  5
856D
330
1
100
AcDbSymbolTableRecord
100
AcDbBlockTableRecord
  2
BH-端柱(L60)-平面
340
0
102
{BLKREFS
331
A846
331
A847
331
A848
331
A849
331
0
331
0
331
0
331
0
331
0
331
0
331
0
331
0
331
0
331
0
331
0
331
0
102
}
  0
BLOCK_RECORD
  5
858C
330
1
100
AcDbSymbolTableRecord
100
AcDbBlockTableRecord
  2
BH-anchor-L60-平面(実線)
340
0
102
{BLKREFS
331
0
331
0
331
0
331
0
331
0
331
0
331
0
331
0
331
0
331
0
331
0
331
0
331
0
331
0
331
0
331
0
331
0
331
0
102
}
  0
BLOCK_RECORD
  5
85C5
330
1
100
AcDbSymbolTableRecord
100
AcDbBlockTableRecord
  2
BH-レベル調整ボルト
340
0
102
{BLKREFS
331
0
102
}
  0
BLOCK_RECORD
  5
8629
330
1
100
AcDbSymbolTableRecord
100
AcDbBlockTableRecord
  2
BH-中柱(L60)-300H
340
0
102
{BLKREFS
331
A5D2
102
}
  0
BLOCK_RECORD
  5
9946
330
1
100
AcDbSymbolTableRecord
100
AcDbBlockTableRecord
  2
BH-筋交(柱L60)-300H
340
0
102
{BLKREFS
331
A54C
331
A670
102
}
  0
BLOCK_RECORD
  5
99B0
330
1
100
AcDbSymbolTableRecord
100
AcDbBlockTableRecord
  2
BH-中柱(L60)-平面
340
0
102
{BLKREFS
331
A85D
331
A85E
331
0
331
0
331
0
331
0
331
0
331
0
102
}
  0
BLOCK_RECORD
  5
B858
330
1
100
AcDbSymbolTableRecord
100
AcDbBlockTableRecord
  2
角ワッシャーM12
340
0
102
{BLKREFS
331
FB27
331
FB2B
331
FB2F
331
FB33
331
FB37
331
FB3B
102
}
  0
BLOCK_RECORD
  5
BD10
330
1
100
AcDbSymbolTableRecord
100
AcDbBlockTableRecord
  2
*D524
340
0
  0
BLOCK_RECORD
  5
BD28
330
1
100
AcDbSymbolTableRecord
100
AcDbBlockTableRecord
  2
*D525
340
0
  0
BLOCK_RECORD
  5
BD37
330
1
100
AcDbSymbolTableRecord
100
AcDbBlockTableRecord
  2
*D526
340
0
  0
BLOCK_RECORD
  5
BD45
330
1
100
AcDbSymbolTableRecord
100
AcDbBlockTableRecord
  2
*D527
340
0
  0
BLOCK_RECORD
  5
BD65
330
1
100
AcDbSymbolTableRecord
100
AcDbBlockTableRecord
  2
*D529
340
0
  0
BLOCK_RECORD
  5
BD75
330
1
100
AcDbSymbolTableRecord
100
AcDbBlockTableRecord
  2
*D530
340
0
  0
BLOCK_RECORD
  5
BD85
330
1
100
AcDbSymbolTableRecord
100
AcDbBlockTableRecord
  2
*D531
340
0
  0
BLOCK_RECORD
  5
BD92
330
1
100
AcDbSymbolTableRecord
100
AcDbBlockTableRecord
  2
*D532
340
0
  0
BLOCK_RECORD
  5
BD9F
330
1
100
AcDbSymbolTableRecord
100
AcDbBlockTableRecord
  2
*D533
340
0
  0
BLOCK_RECORD
  5
BDAC
330
1
100
AcDbSymbolTableRecord
100
AcDbBlockTableRecord
  2
*D534
340
0
  0
BLOCK_RECORD
  5
BDB9
330
1
100
AcDbSymbolTableRecord
100
AcDbBlockTableRecord
  2
*D535
340
0
  0
BLOCK_RECORD
  5
BDD0
330
1
100
AcDbSymbolTableRecord
100
AcDbBlockTableRecord
  2
*D536
340
0
  0
BLOCK_RECORD
  5
C04E
330
1
100
AcDbSymbolTableRecord
100
AcDbBlockTableRecord
  2
*D560
340
0
  0
BLOCK_RECORD
  5
C05A
330
1
100
AcDbSymbolTableRecord
100
AcDbBlockTableRecord
  2
*D561
340
0
  0
BLOCK_RECORD
  5
D6F1
330
1
100
AcDbSymbolTableRecord
100
AcDbBlockTableRecord
  2
*D825
340
0
  0
BLOCK_RECORD
  5
FA0E
330
1
100
AcDbSymbolTableRecord
100
AcDbBlockTableRecord
  2
RAS-AP450SG他
340
0
102
{BLKREFS
331
FB24
102
}
  0
BLOCK_RECORD
  5
FADD
330
1
100
AcDbSymbolTableRecord
100
AcDbBlockTableRecord
  2
*D1223
340
0
  0
BLOCK_RECORD
  5
FAEA
330
1
100
AcDbSymbolTableRecord
100
AcDbBlockTableRecord
  2
*D1224
340
0
  0
BLOCK_RECORD
  5
FB76
330
1
100
AcDbSymbolTableRecord
100
AcDbBlockTableRecord
  2
N-SPH1600
340
0
102
{BLKREFS
331
FB85
102
}
  0
BLOCK_RECORD
  5
FBE6
330
1
100
AcDbSymbolTableRecord
100
AcDbBlockTableRecord
  2
*D1226
340
0
  0
BLOCK_RECORD
  5
FBF6
330
1
100
AcDbSymbolTableRecord
100
AcDbBlockTableRecord
  2
*D1227
340
0
  0
BLOCK_RECORD
  5
FC03
330
1
100
AcDbSymbolTableRecord
100
AcDbBlockTableRecord
  2
*D1228
340
0
  0
BLOCK_RECORD
  5
FC12
330
1
100
AcDbSymbolTableRecord
100
AcDbBlockTableRecord
  2
*D1229
340
0
  0
BLOCK_RECORD
  5
FC1F
330
1
100
AcDbSymbolTableRecord
100
AcDbBlockTableRecord
  2
*D1230
340
0
  0
BLOCK_RECORD
  5
FC2C
330
1
100
AcDbSymbolTableRecord
100
AcDbBlockTableRecord
  2
*D1231
340
0
  0
BLOCK_RECORD
  5
FC39
330
1
100
AcDbSymbolTableRecord
100
AcDbBlockTableRecord
  2
*D1232
340
0
  0
BLOCK_RECORD
  5
FC46
330
1
100
AcDbSymbolTableRecord
100
AcDbBlockTableRecord
  2
*D1233
340
0
  0
BLOCK_RECORD
  5
FC55
330
1
100
AcDbSymbolTableRecord
100
AcDbBlockTableRecord
  2
*D1234
340
0
  0
BLOCK_RECORD
  5
FC62
330
1
100
AcDbSymbolTableRecord
100
AcDbBlockTableRecord
  2
*D1235
340
0
  0
BLOCK_RECORD
  5
FC71
330
1
100
AcDbSymbolTableRecord
100
AcDbBlockTableRecord
  2
*D1236
340
0
  0
BLOCK_RECORD
  5
FC81
330
1
100
AcDbSymbolTableRecord
100
AcDbBlockTableRecord
  2
*D1237
340
0
  0
BLOCK_RECORD
  5
FC8E
330
1
100
AcDbSymbolTableRecord
100
AcDbBlockTableRecord
  2
*D1238
340
0
  0
BLOCK_RECORD
  5
FCB4
330
1
100
AcDbSymbolTableRecord
100
AcDbBlockTableRecord
  2
*D1240
340
0
  0
BLOCK_RECORD
  5
FCC1
330
1
100
AcDbSymbolTableRecord
100
AcDbBlockTableRecord
  2
*D1241
340
0
  0
BLOCK_RECORD
  5
FCCE
330
1
100
AcDbSymbolTableRecord
100
AcDbBlockTableRecord
  2
*D1242
340
0
  0
BLOCK_RECORD
  5
FCDB
330
1
100
AcDbSymbolTableRecord
100
AcDbBlockTableRecord
  2
*D1243
340
0
  0
BLOCK_RECORD
  5
FCE8
330
1
100
AcDbSymbolTableRecord
100
AcDbBlockTableRecord
  2
*D1244
340
0
  0
BLOCK_RECORD
  5
FCF5
330
1
100
AcDbSymbolTableRecord
100
AcDbBlockTableRecord
  2
*D1245
340
0
  0
BLOCK_RECORD
  5
FD26
330
1
100
AcDbSymbolTableRecord
100
AcDbBlockTableRecord
  2
*D1246
340
0
  0
BLOCK_RECORD
  5
FD32
330
1
100
AcDbSymbolTableRecord
100
AcDbBlockTableRecord
  2
*D1247
340
0
  0
BLOCK_RECORD
  5
FD3E
330
1
100
AcDbSymbolTableRecord
100
AcDbBlockTableRecord
  2
*D1248
340
0
  0
BLOCK_RECORD
  5
FD4A
330
1
100
AcDbSymbolTableRecord
100
AcDbBlockTableRecord
  2
*D1249
340
0
  0
BLOCK_RECORD
  5
FD56
330
1
100
AcDbSymbolTableRecord
100
AcDbBlockTableRecord
  2
*D1250
340
0
  0
BLOCK_RECORD
  5
FD62
330
1
100
AcDbSymbolTableRecord
100
AcDbBlockTableRecord
  2
*D1251
340
0
  0
BLOCK_RECORD
  5
FD93
330
1
100
AcDbSymbolTableRecord
100
AcDbBlockTableRecord
  2
*D1252
340
0
  0
BLOCK_RECORD
  5
FD9F
330
1
100
AcDbSymbolTableRecord
100
AcDbBlockTableRecord
  2
*D1253
340
0
  0
BLOCK_RECORD
  5
FDAB
330
1
100
AcDbSymbolTableRecord
100
AcDbBlockTableRecord
  2
*D1254
340
0
  0
BLOCK_RECORD
  5
FDB7
330
1
100
AcDbSymbolTableRecord
100
AcDbBlockTableRecord
  2
*D1255
340
0
  0
BLOCK_RECORD
  5
FDC3
330
1
100
AcDbSymbolTableRecord
100
AcDbBlockTableRecord
  2
*D1256
340
0
  0
BLOCK_RECORD
  5
FDCF
330
1
100
AcDbSymbolTableRecord
100
AcDbBlockTableRecord
  2
*D1257
340
0
  0
ENDTAB
  0
ENDSEC
  0
SECTION
  2
BLOCKS
  0
BLOCK
  5
20
330
1F
100
AcDbEntity
  8
0
100
AcDbBlockBegin
  2
*Model_Space
 70
     0
 10
0.0
 20
0.0
 30
0.0
  3
*Model_Space
  1

  0
ENDBLK
  5
21
330
1F
100
AcDbEntity
  8
0
100
AcDbBlockEnd
  0
BLOCK
  5
1C
330
1B
100
AcDbEntity
 67
     1
  8
0
100
AcDbBlockBegin
  2
*Paper_Space
 70
     0
 10
0.0
 20
0.0
 30
0.0
  3
*Paper_Space
  1

  0
ENDBLK
  5
1D
330
1B
100
AcDbEntity
 67
     1
  8
0
100
AcDbBlockEnd
  0
BLOCK
  5
93
330
8F
100
AcDbEntity
  8
0
100
AcDbBlockBegin
  2
_Open
 70
     0
 10
0.0
 20
0.0
 30
0.0
  3
_Open
  1

  0
LINE
  5
90
330
8F
100
AcDbEntity
  8
01注記寸法
 62
     0
370
    -2
100
AcDbLine
 10
-1.0
 20
0.1666666666666667
 30
0.0
 11
0.0
 21
0.0
 31
0.0
  0
LINE
  5
91
330
8F
100
AcDbEntity
  8
01注記寸法
 62
     0
370
    -2
100
AcDbLine
 10
-1.0
 20
-0.1666666666666667
 30
0.0
 11
0.0
 21
0.0
 31
0.0
  0
LINE
  5
92
330
8F
100
AcDbEntity
  8
01注記寸法
 62
     0
370
    -2
100
AcDbLine
 10
0.0
 20
0.0
 30
0.0
 11
-1.0
 21
0.0
 31
0.0
  0
ENDBLK
  5
94
330
8F
100
AcDbEntity
  8
0
100
AcDbBlockEnd
  0
BLOCK
  5
82F3
330
82F2
100
AcDbEntity
  8
0
100
AcDbBlockBegin
  2
hole-φ16
 70
     0
 10
0.0
 20
0.0
 30
0.0
  3
hole-φ16
  1

  0
CIRCLE
  5
82F4
330
82F2
100
AcDbEntity
  8
02実線
100
AcDbCircle
 10
0.0
 20
0.0
 30
0.0
 40
8.0
  0
LINE
  5
82F5
330
82F2
100
AcDbEntity
  8
04一点鎖線
  6
CENTER
 48
0.2
100
AcDbLine
 10
0.0
 20
-20.0
 30
0.0
 11
0.0
 21
20.0
 31
0.0
  0
LINE
  5
82F6
330
82F2
100
AcDbEntity
  8
04一点鎖線
  6
CENTER
 48
0.2
100
AcDbLine
 10
-20.0
 20
0.0
 30
0.0
 11
20.0
 21
0.0
 31
0.0
  0
ENDBLK
  5
82F7
330
82F2
100
AcDbEntity
  8
0
100
AcDbBlockEnd
  0
BLOCK
  5
836E
330
836D
100
AcDbEntity
  8
0
100
AcDbBlockBegin
  2
平W-M12
 70
     0
 10
0.0
 20
0.0
 30
0.0
  3
平W-M12
  1

  0
CIRCLE
  5
836F
330
836D
100
AcDbEntity
  8
10副資材
100
AcDbCircle
 10
0.0
 20
0.0
 30
0.0
 40
6.0
  0
CIRCLE
  5
8370
330
836D
100
AcDbEntity
  8
10副資材
100
AcDbCircle
 10
0.0
 20
0.0
 30
0.0
 40
13.0
  0
TEXT
  5
8371
330
836D
100
AcDbEntity
  8
10副資材
100
AcDbText
 10
-3.899921878130408
 20
-11.29716620919794
 30
0.0
 40
4.0
  1
M12
 72
     1
 11
0.000078121869592
 21
-9.29716620919794
 31
0.0
100
AcDbText
 73
     2
  0
ENDBLK
  5
8372
330
836D
100
AcDbEntity
  8
0
100
AcDbBlockEnd
  0
BLOCK
  5
83FB
330
83FA
100
AcDbEntity
  8
0
100
AcDbBlockBegin
  2
BH-端柱(L60)-300H-側面
 70
     0
 10
0.0
 20
0.0
 30
0.0
  3
BH-端柱(L60)-300H-側面
  1

  0
CIRCLE
  5
83FC
330
83FA
100
AcDbEntity
  8
02実線
100
AcDbCircle
 10
34.70000000000073
 20
199.9999999999991
 30
0.0
 40
6.5
  0
CIRCLE
  5
83FD
330
83FA
100
AcDbEntity
  8
02実線
100
AcDbCircle
 10
34.70000000000073
 20
269.9999999999991
 30
0.0
 40
6.5
  0
LWPOLYLINE
  5
83FE
330
83FA
100
AcDbEntity
  8
02実線
100
AcDbPolyline
 90
        4
 70
     1
 43
0.0
 10
0.0
 20
0.0
 10
0.0
 20
297.0
 10
60.0
 20
297.0
 10
60.0
 20
0.0
  0
LINE
  5
83FF
330
83FA
100
AcDbEntity
  8
03破線
100
AcDbLine
 10
3.200000000000728
 20
-0.0000000000009095
 30
0.0
 11
3.200000000000728
 21
296.9999999999991
 31
0.0
  0
ARC
  5
8400
330
83FA
100
AcDbEntity
  8
02実線
100
AcDbCircle
 10
22.0
 20
29.99999999999909
 30
0.0
 40
7.0
100
AcDbArc
 50
90.0
 51
270.0
  0
LINE
  5
8401
330
83FA
100
AcDbEntity
  8
02実線
100
AcDbLine
 10
22.0
 20
22.99999999999909
 30
0.0
 11
42.0
 21
22.99999999999909
 31
0.0
  0
LINE
  5
8402
330
83FA
100
AcDbEntity
  8
02実線
100
AcDbLine
 10
22.0
 20
36.99999999999909
 30
0.0
 11
42.0
 21
36.99999999999909
 31
0.0
  0
ARC
  5
8403
330
83FA
100
AcDbEntity
  8
02実線
100
AcDbCircle
 10
42.0
 20
29.99999999999909
 30
0.0
 40
7.0
100
AcDbArc
 50
270.0
 51
90.0
  0
LINE
  5
8404
330
83FA
100
AcDbEntity
  8
04一点鎖線
 48
0.2
100
AcDbLine
 10
32.0
 20
12.99999999999909
 30
0.0
 11
32.0
 21
46.99999999999909
 31
0.0
  0
LINE
  5
8407
330
83FA
100
AcDbEntity
  8
04一点鎖線
 48
0.2
100
AcDbLine
 10
34.70000000000073
 20
183.4999999999991
 30
0.0
 11
34.70000000000073
 21
216.4999999999991
 31
0.0
  0
LINE
  5
8408
330
83FA
100
AcDbEntity
  8
04一点鎖線
 48
0.2
100
AcDbLine
 10
51.20000000000073
 20
269.9999999999991
 30
0.0
 11
18.20000000000073
 21
269.9999999999991
 31
0.0
  0
LINE
  5
8409
330
83FA
100
AcDbEntity
  8
04一点鎖線
 48
0.2
100
AcDbLine
 10
59.0
 20
29.99999999999909
 30
0.0
 11
-10.0
 21
29.99999999999909
 31
0.0
  0
LINE
  5
840A
330
83FA
100
AcDbEntity
  8
04一点鎖線
 48
0.2
100
AcDbLine
 10
51.20000000000073
 20
199.9999999999991
 30
0.0
 11
18.20000000000073
 21
199.9999999999991
 31
0.0
  0
LINE
  5
840B
330
83FA
100
AcDbEntity
  8
04一点鎖線
 48
0.2
100
AcDbLine
 10
34.70000000000073
 20
253.4999999999991
 30
0.0
 11
34.70000000000073
 21
286.4999999999991
 31
0.0
  0
ENDBLK
  5
840C
330
83FA
100
AcDbEntity
  8
0
100
AcDbBlockEnd
  0
BLOCK
  5
840F
330
840E
100
AcDbEntity
  8
0
100
AcDbBlockBegin
  2
BH-端柱(L60)-300H-正面
 70
     0
 10
0.0
 20
0.0
 30
0.0
  3
BH-端柱(L60)-300H-正面
  1

  0
CIRCLE
  5
8410
330
840E
100
AcDbEntity
  8
02実線
100
AcDbCircle
 10
30.00000000000091
 20
266.0
 30
0.0
 40
6.5
  0
CIRCLE
  5
8411
330
840E
100
AcDbEntity
  8
02実線
100
AcDbCircle
 10
30.00000000000091
 20
105.0
 30
0.0
 40
6.5
  0
ARC
  5
8412
330
840E
100
AcDbEntity
  8
02実線
100
AcDbCircle
 10
42.00000000000091
 20
30.0
 30
0.0
 40
7.0
100
AcDbArc
 50
270.0
 51
90.0
  0
LINE
  5
8413
330
840E
100
AcDbEntity
  8
02実線
100
AcDbLine
 10
22.00000000000091
 20
37.0
 30
0.0
 11
42.00000000000091
 21
37.0
 31
0.0
  0
LINE
  5
8414
330
840E
100
AcDbEntity
  8
02実線
100
AcDbLine
 10
22.00000000000091
 20
23.0
 30
0.0
 11
42.00000000000091
 21
23.0
 31
0.0
  0
ARC
  5
8415
330
840E
100
AcDbEntity
  8
02実線
100
AcDbCircle
 10
22.00000000000091
 20
30.0
 30
0.0
 40
7.0
100
AcDbArc
 50
90.0
 51
270.0
  0
LINE
  5
8416
330
840E
100
AcDbEntity
  8
03破線
100
AcDbLine
 10
3.200000000000728
 20
0.0
 30
0.0
 11
3.200000000000728
 21
297.0
 31
0.0
  0
LWPOLYLINE
  5
8417
330
840E
100
AcDbEntity
  8
02実線
100
AcDbPolyline
 90
        4
 70
     1
 43
0.0
 10
0.0
 20
0.0
 10
0.0
 20
297.0
 10
60.0
 20
297.0
 10
60.0
 20
0.0
  0
LINE
  5
8418
330
840E
100
AcDbEntity
  8
04一点鎖線
 48
0.2
100
AcDbLine
 10
32.00000000000091
 20
13.0
 30
0.0
 11
32.00000000000091
 21
47.0
 31
0.0
  0
LINE
  5
8419
330
840E
100
AcDbEntity
  8
04一点鎖線
 48
0.2
100
AcDbLine
 10
46.50000000000091
 20
105.0
 30
0.0
 11
13.50000000000091
 21
105.0
 31
0.0
  0
LINE
  5
841A
330
840E
100
AcDbEntity
  8
04一点鎖線
 48
0.2
100
AcDbLine
 10
30.00000000000091
 20
121.5
 30
0.0
 11
30.00000000000091
 21
88.5
 31
0.0
  0
LINE
  5
841B
330
840E
100
AcDbEntity
  8
04一点鎖線
 48
0.2
100
AcDbLine
 10
30.00000000000091
 20
282.5
 30
0.0
 11
30.00000000000091
 21
249.5
 31
0.0
  0
INSERT
  5
841C
330
840E
100
AcDbEntity
  8
03破線
100
AcDbBlockReference
  2
BH-端柱補強桟(L40x15xt3.2)
 10
3.200000000000728
 20
130.0
 30
0.0
  0
LINE
  5
8426
330
840E
100
AcDbEntity
  8
04一点鎖線
 48
0.2
100
AcDbLine
 10
59.00000000000091
 20
30.0
 30
0.0
 11
-10.0
 21
30.0
 31
0.0
  0
LINE
  5
8427
330
840E
100
AcDbEntity
  8
04一点鎖線
 48
0.2
100
AcDbLine
 10
46.50000000000091
 20
266.0
 30
0.0
 11
13.50000000000091
 21
266.0
 31
0.0
  0
ENDBLK
  5
8428
330
840E
100
AcDbEntity
  8
0
100
AcDbBlockEnd
  0
BLOCK
  5
841E
330
841D
100
AcDbEntity
  8
0
100
AcDbBlockBegin
  2
BH-端柱補強桟(L40x15xt3.2)
 70
     0
 10
0.0
 20
0.0
 30
0.0
  3
BH-端柱補強桟(L40x15xt3.2)
  1

  0
LINE
  5
841F
330
841D
100
AcDbEntity
  8
03破線
  6
HIDDEN
 48
0.5
100
AcDbLine
 10
3.199999999999818
 20
-3.199999999999818
 30
0.0
 11
3.199999999999818
 21
-40.0
 31
0.0
  0
LINE
  5
8420
330
841D
100
AcDbEntity
  8
03破線
  6
HIDDEN
 48
0.5
100
AcDbLine
 10
15.0
 20
0.0
 30
0.0
 11
15.0
 21
-3.199999999999818
 31
0.0
  0
LINE
  5
8421
330
841D
100
AcDbEntity
  8
03破線
  6
HIDDEN
 48
0.5
100
AcDbLine
 10
15.0
 20
-3.199999999999818
 30
0.0
 11
3.199999999999818
 21
-3.199999999999818
 31
0.0
  0
LINE
  5
8422
330
841D
100
AcDbEntity
  8
03破線
  6
HIDDEN
 48
0.5
100
AcDbLine
 10
0.0
 20
0.0
 30
0.0
 11
0.0
 21
-40.0
 31
0.0
  0
LINE
  5
8423
330
841D
100
AcDbEntity
  8
03破線
  6
HIDDEN
 48
0.5
100
AcDbLine
 10
15.0
 20
0.0
 30
0.0
 11
0.0
 21
0.0
 31
0.0
  0
LINE
  5
8424
330
841D
100
AcDbEntity
  8
03破線
  6
HIDDEN
 48
0.5
100
AcDbLine
 10
3.199999999999818
 20
-40.0
 30
0.0
 11
0.0
 21
-40.0
 31
0.0
  0
ENDBLK
  5
8425
330
841D
100
AcDbEntity
  8
0
100
AcDbBlockEnd
  0
BLOCK
  5
8523
330
8522
100
AcDbEntity
  8
0
100
AcDbBlockBegin
  2
BH-anchor-L60-背面
 70
     0
 10
0.0
 20
0.0
 30
0.0
  3
BH-anchor-L60-背面
  1

  0
LINE
  5
8524
330
8522
100
AcDbEntity
  8
04一点鎖線
 48
0.2
100
AcDbLine
 10
0.0
 20
-15.0
 30
0.0
 11
0.0
 21
19.5
 31
0.0
  0
LINE
  5
8525
330
8522
100
AcDbEntity
  8
03破線
100
AcDbLine
 10
-28.5
 20
4.5
 30
0.0
 11
28.5
 21
4.5
 31
0.0
  0
LINE
  5
8526
330
8522
100
AcDbEntity
  8
03破線
100
AcDbLine
 10
-28.5
 20
0.0
 30
0.0
 11
28.5
 21
0.0
 31
0.0
  0
LINE
  5
8527
330
8522
100
AcDbEntity
  8
03破線
100
AcDbLine
 10
-15.82435206036507
 20
56.11709862642329
 30
0.0
 11
4.175647939634928
 21
26.11709862642329
 31
0.0
  0
LINE
  5
8528
330
8522
100
AcDbEntity
  8
03破線
100
AcDbLine
 10
-4.175647939634928
 20
63.88290137357671
 30
0.0
 11
15.82435206036507
 21
33.88290137357671
 31
0.0
  0
ARC
  5
8529
330
8522
100
AcDbEntity
  8
03破線
100
AcDbCircle
 10
10.0
 20
30.0
 30
0.0
 40
7.0
100
AcDbArc
 50
213.6900675259766
 51
33.69006752597669
  0
ARC
  5
852A
330
8522
100
AcDbEntity
  8
03破線
100
AcDbCircle
 10
-10.0
 20
60.0
 30
0.0
 40
7.0
100
AcDbArc
 50
33.69006752597669
 51
213.6900675259766
  0
LINE
  5
852B
330
8522
100
AcDbEntity
  8
03破線
100
AcDbLine
 10
-23.5
 20
80.0
 30
0.0
 11
-28.5
 21
75.0
 31
0.0
  0
LINE
  5
852C
330
8522
100
AcDbEntity
  8
03破線
100
AcDbLine
 10
-28.5
 20
0.0
 30
0.0
 11
-28.5
 21
75.0
 31
0.0
  0
LINE
  5
852D
330
8522
100
AcDbEntity
  8
03破線
100
AcDbLine
 10
28.5
 20
75.0
 30
0.0
 11
23.5
 21
80.0
 31
0.0
  0
LINE
  5
852E
330
8522
100
AcDbEntity
  8
03破線
100
AcDbLine
 10
-23.5
 20
80.0
 30
0.0
 11
23.5
 21
80.0
 31
0.0
  0
LINE
  5
852F
330
8522
100
AcDbEntity
  8
03破線
100
AcDbLine
 10
28.5
 20
0.0
 30
0.0
 11
28.5
 21
75.0
 31
0.0
  0
ENDBLK
  5
8530
330
8522
100
AcDbEntity
  8
0
100
AcDbBlockEnd
  0
BLOCK
  5
8549
330
8548
100
AcDbEntity
  8
0
100
AcDbBlockBegin
  2
BH-anchor-L60-立面
 70
     0
 10
0.0
 20
0.0
 30
0.0
  3
BH-anchor-L60-立面
  1

  0
LINE
  5
854A
330
8548
100
AcDbEntity
  8
04一点鎖線
 48
0.2
100
AcDbLine
 10
-22.5
 20
45.0
 30
0.0
 11
-47.0
 21
45.0
 31
0.0
  0
ARC
  5
854B
330
8548
100
AcDbEntity
  8
03破線
100
AcDbCircle
 10
-29.19999999999982
 20
7.799999999999727
 30
0.0
 40
3.300000000000002
100
AcDbArc
 50
180.0
 51
270.0
  0
ARC
  5
854C
330
8548
100
AcDbEntity
  8
03破線
100
AcDbCircle
 10
-29.19999999999982
 20
7.799999999999727
 30
0.0
 40
7.800000000000002
100
AcDbArc
 50
179.9999999999967
 51
270.0
  0
LINE
  5
854D
330
8548
100
AcDbEntity
  8
03破線
100
AcDbLine
 10
-37.0
 20
80.0
 30
0.0
 11
-32.5
 21
80.0
 31
0.0
  0
LINE
  5
854E
330
8548
100
AcDbEntity
  8
03破線
100
AcDbLine
 10
23.0
 20
4.5
 30
0.0
 11
23.0
 21
0.0
 31
0.0
  0
LINE
  5
854F
330
8548
100
AcDbEntity
  8
03破線
100
AcDbLine
 10
-32.5
 20
80.0
 30
0.0
 11
-32.5
 21
7.799999999999727
 31
0.0
  0
LINE
  5
8550
330
8548
100
AcDbEntity
  8
03破線
100
AcDbLine
 10
-29.19999999999982
 20
4.5
 30
0.0
 11
23.0
 21
4.5
 31
0.0
  0
LINE
  5
8551
330
8548
100
AcDbEntity
  8
03破線
100
AcDbLine
 10
-37.0
 20
80.0
 30
0.0
 11
-37.0
 21
7.799999999999727
 31
0.0
  0
LINE
  5
8552
330
8548
100
AcDbEntity
  8
03破線
100
AcDbLine
 10
-29.19999999999982
 20
0.0
 30
0.0
 11
23.0
 21
0.0
 31
0.0
  0
LINE
  5
8553
330
8548
100
AcDbEntity
  8
04一点鎖線
 48
0.2
100
AcDbLine
 10
0.0
 20
19.5
 30
0.0
 11
0.0
 21
-15.0
 31
0.0
  0
ENDBLK
  5
8554
330
8548
100
AcDbEntity
  8
0
100
AcDbBlockEnd
  0
BLOCK
  5
856E
330
856D
100
AcDbEntity
  8
0
100
AcDbBlockBegin
  2
BH-端柱(L60)-平面
 70
     0
 10
0.0
 20
0.0
 30
0.0
  3
BH-端柱(L60)-平面
  1

  0
LINE
  5
856F
330
856D
100
AcDbEntity
  8
02実線
100
AcDbLine
 10
60.0
 20
3.199999999999818
 30
0.0
 11
60.0
 21
0.0
 31
0.0
  0
LINE
  5
8570
330
856D
100
AcDbEntity
  8
02実線
100
AcDbLine
 10
3.200000000000728
 20
3.199999999999818
 30
0.0
 11
60.0
 21
3.199999999999818
 31
0.0
  0
LINE
  5
8571
330
856D
100
AcDbEntity
  8
02実線
100
AcDbLine
 10
0.0
 20
60.0
 30
0.0
 11
3.200000000000728
 21
60.0
 31
0.0
  0
LINE
  5
8572
330
856D
100
AcDbEntity
  8
02実線
100
AcDbLine
 10
0.0
 20
0.0
 30
0.0
 11
60.0
 21
0.0
 31
0.0
  0
LINE
  5
8573
330
856D
100
AcDbEntity
  8
02実線
100
AcDbLine
 10
0.0
 20
60.0
 30
0.0
 11
0.0
 21
0.0
 31
0.0
  0
LINE
  5
8574
330
856D
100
AcDbEntity
  8
02実線
100
AcDbLine
 10
3.200000000000728
 20
60.0
 30
0.0
 11
3.200000000000728
 21
3.199999999999818
 31
0.0
  0
LINE
  5
8575
330
856D
100
AcDbEntity
  8
08非表示
100
AcDbLine
 10
3.200000000000728
 20
4.699999999999818
 30
0.0
 11
60.0
 21
4.699999999999818
 31
0.0
  0
ENDBLK
  5
8576
330
856D
100
AcDbEntity
  8
0
100
AcDbBlockEnd
  0
BLOCK
  5
858D
330
858C
100
AcDbEntity
  8
0
100
AcDbBlockBegin
  2
BH-anchor-L60-平面(実線)
 70
     0
 10
0.0
 20
0.0
 30
0.0
  3
BH-anchor-L60-平面(実線)
  1

  0
LINE
  5
858E
330
858C
100
AcDbEntity
  8
02実線
100
AcDbLine
 10
-32.5
 20
-28.5
 30
0.0
 11
-32.5
 21
28.5
 31
0.0
  0
LINE
  5
858F
330
858C
100
AcDbEntity
  8
02実線
100
AcDbLine
 10
-37.0
 20
-28.5
 30
0.0
 11
-37.0
 21
28.5
 31
0.0
  0
CIRCLE
  5
8590
330
858C
100
AcDbEntity
  8
02実線
100
AcDbCircle
 10
0.0
 20
0.0
 30
0.0
 40
8.0
  0
LINE
  5
8591
330
858C
100
AcDbEntity
  8
02実線
100
AcDbLine
 10
23.0
 20
18.5
 30
0.0
 11
13.0
 21
28.5
 31
0.0
  0
LINE
  5
8592
330
858C
100
AcDbEntity
  8
02実線
100
AcDbLine
 10
23.0
 20
-18.5
 30
0.0
 11
13.0
 21
-28.5
 31
0.0
  0
LINE
  5
8593
330
858C
100
AcDbEntity
  8
02実線
100
AcDbLine
 10
-37.0
 20
28.5
 30
0.0
 11
13.0
 21
28.5
 31
0.0
  0
LINE
  5
8594
330
858C
100
AcDbEntity
  8
02実線
100
AcDbLine
 10
-37.0
 20
-28.5
 30
0.0
 11
13.0
 21
-28.5
 31
0.0
  0
LINE
  5
8595
330
858C
100
AcDbEntity
  8
02実線
100
AcDbLine
 10
23.0
 20
-18.5
 30
0.0
 11
23.0
 21
18.5
 31
0.0
  0
ARC
  5
A0C7
330
858C
100
AcDbEntity
  8
08非表示
100
AcDbCircle
 10
-5.0
 20
0.0
 30
0.0
 40
8.0
100
AcDbArc
 50
90.0
 51
270.0
  0
ARC
  5
A0C8
330
858C
100
AcDbEntity
  8
08非表示
100
AcDbCircle
 10
5.0
 20
0.0
 30
0.0
 40
8.0
100
AcDbArc
 50
270.0
 51
90.0
  0
LINE
  5
A0C9
330
858C
100
AcDbEntity
  8
08非表示
100
AcDbLine
 10
5.0
 20
-8.0
 30
0.0
 11
-5.0
 21
-8.0
 31
0.0
  0
LINE
  5
A0CA
330
858C
100
AcDbEntity
  8
08非表示
100
AcDbLine
 10
5.0
 20
8.0
 30
0.0
 11
-5.0
 21
8.0
 31
0.0
  0
ENDBLK
  5
8596
330
858C
100
AcDbEntity
  8
0
100
AcDbBlockEnd
  0
BLOCK
  5
85C6
330
85C5
100
AcDbEntity
  8
0
100
AcDbBlockBegin
  2
BH-レベル調整ボルト
 70
     0
 10
0.0
 20
0.0
 30
0.0
  3
BH-レベル調整ボルト
  1

  0
LINE
  5
85C7
330
85C5
100
AcDbEntity
  8
04一点鎖線
  6
CENTER
 48
0.2
100
AcDbLine
 10
-28.39999999999964
 20
0.0
 30
0.0
 11
13.00000001115222
 21
0.0
 31
0.0
  0
LINE
  5
85C8
330
85C5
100
AcDbEntity
  8
02実線
100
AcDbLine
 10
-23.39999999999964
 20
-4.0
 30
0.0
 11
-17.3000000111515
 21
-4.0
 31
0.0
  0
LINE
  5
85C9
330
85C5
100
AcDbEntity
  8
02実線
100
AcDbLine
 10
-23.39999999999964
 20
4.0
 30
0.0
 11
-17.3000000111515
 21
4.0
 31
0.0
  0
LINE
  5
85CA
330
85C5
100
AcDbEntity
  8
02実線
100
AcDbLine
 10
-23.39999999999964
 20
-4.0
 30
0.0
 11
-23.39999999999964
 21
4.0
 31
0.0
  0
LINE
  5
85CB
330
85C5
100
AcDbEntity
  8
02実線
100
AcDbLine
 10
-22.39999999999964
 20
5.0
 30
0.0
 11
-17.3000000111515
 21
5.0
 31
0.0
  0
LINE
  5
85CC
330
85C5
100
AcDbEntity
  8
02実線
100
AcDbLine
 10
-22.39999999999964
 20
-5.0
 30
0.0
 11
-22.39999999999964
 21
5.0
 31
0.0
  0
LINE
  5
85CD
330
85C5
100
AcDbEntity
  8
02実線
100
AcDbLine
 10
-22.39999999999964
 20
-5.0
 30
0.0
 11
-17.3000000111515
 21
-5.0
 31
0.0
  0
LINE
  5
85CE
330
85C5
100
AcDbEntity
  8
02実線
100
AcDbLine
 10
-23.39999999999964
 20
-4.0
 30
0.0
 11
-22.39999999999964
 21
-5.0
 31
0.0
  0
LINE
  5
85CF
330
85C5
100
AcDbEntity
  8
02実線
100
AcDbLine
 10
-22.39999999999964
 20
5.0
 30
0.0
 11
-23.39999999999964
 21
4.0
 31
0.0
  0
LINE
  5
85D0
330
85C5
100
AcDbEntity
  8
02実線
100
AcDbLine
 10
-7.700000000000728
 20
11.0
 30
0.0
 11
-7.700000000000728
 21
-11.0
 31
0.0
  0
LINE
  5
85D1
330
85C5
100
AcDbEntity
  8
02実線
100
AcDbLine
 10
-9.299999999999272
 20
11.0
 30
0.0
 11
-7.700000000000728
 21
11.0
 31
0.0
  0
LINE
  5
85D2
330
85C5
100
AcDbEntity
  8
02実線
100
AcDbLine
 10
-9.299999999999272
 20
-11.0
 30
0.0
 11
-7.700000000000728
 21
-11.0
 31
0.0
  0
LINE
  5
85D3
330
85C5
100
AcDbEntity
  8
02実線
100
AcDbLine
 10
-9.299999999999272
 20
11.0
 30
0.0
 11
-9.299999999999272
 21
-11.0
 31
0.0
  0
LINE
  5
85D4
330
85C5
100
AcDbEntity
  8
02実線
100
AcDbLine
 10
-9.299999999999272
 20
9.237604307033962
 30
0.0
 11
-9.299999999999272
 21
-9.237604307033962
 31
0.0
  0
ARC
  5
85D5
330
85C5
100
AcDbEntity
  8
02実線
100
AcDbCircle
 10
-12.68119784648297
 20
6.927925269031675
 30
0.0
 40
4.618802164669552
100
AcDbArc
 50
149.9960184984644
 51
209.9960184984832
  0
ARC
  5
85D6
330
85C5
100
AcDbEntity
  8
02実線
100
AcDbCircle
 10
-12.68119784648297
 20
-6.927925269031675
 30
0.0
 40
4.618802164669552
100
AcDbArc
 50
150.0039815015167
 51
210.0039815015356
  0
ARC
  5
85D7
330
85C5
100
AcDbEntity
  8
02実線
100
AcDbCircle
 10
0.2513967268932902
 20
0.0
 30
0.0
 40
17.55139672689282
100
AcDbArc
 50
164.7424308899368
 51
195.2575691100632
  0
LINE
  5
85D8
330
85C5
100
AcDbEntity
  8
02実線
100
AcDbLine
 10
-9.299999999999272
 20
4.618802153516754
 30
0.0
 11
-16.68135832748158
 21
4.618802153516754
 31
0.0
  0
LINE
  5
85D9
330
85C5
100
AcDbEntity
  8
02実線
100
AcDbLine
 10
-17.3000000111515
 20
6.927925269031675
 30
0.0
 11
-17.3000000111515
 21
-6.927925269031675
 31
0.0
  0
LINE
  5
85DA
330
85C5
100
AcDbEntity
  8
02実線
100
AcDbLine
 10
-9.299999999999272
 20
-4.618802153516754
 30
0.0
 11
-16.68135832748158
 21
-4.618802153516754
 31
0.0
  0
LINE
  5
85DB
330
85C5
100
AcDbEntity
  8
02実線
100
AcDbLine
 10
-9.299999999999272
 20
-9.237604307033962
 30
0.0
 11
-16.68103736548437
 21
-9.237604307033962
 31
0.0
  0
LINE
  5
85DC
330
85C5
100
AcDbEntity
  8
02実線
100
AcDbLine
 10
-9.299999999999272
 20
9.237604307033962
 30
0.0
 11
-16.68103736548437
 21
9.237604307033962
 31
0.0
  0
LINE
  5
85DD
330
85C5
100
AcDbEntity
  8
02実線
100
AcDbLine
 10
0.0
 20
-11.0
 30
0.0
 11
1.600000000000364
 21
-11.0
 31
0.0
  0
LINE
  5
85DE
330
85C5
100
AcDbEntity
  8
02実線
100
AcDbLine
 10
0.0
 20
11.0
 30
0.0
 11
1.600000000000364
 21
11.0
 31
0.0
  0
LINE
  5
85DF
330
85C5
100
AcDbEntity
  8
02実線
100
AcDbLine
 10
1.600000000000364
 20
11.0
 30
0.0
 11
1.600000000000364
 21
-11.0
 31
0.0
  0
LINE
  5
85E0
330
85C5
100
AcDbEntity
  8
02実線
100
AcDbLine
 10
0.0
 20
11.0
 30
0.0
 11
0.0
 21
-11.0
 31
0.0
  0
LINE
  5
85E1
330
85C5
100
AcDbEntity
  8
02実線
100
AcDbLine
 10
1.600000000000364
 20
-4.618802153516754
 30
0.0
 11
7.381358327482303
 21
-4.618802153516754
 31
0.0
  0
LINE
  5
85E2
330
85C5
100
AcDbEntity
  8
02実線
100
AcDbLine
 10
1.600000000000364
 20
-9.237604307033962
 30
0.0
 11
7.38103736548328
 21
-9.237604307033962
 31
0.0
  0
LINE
  5
85E3
330
85C5
100
AcDbEntity
  8
02実線
100
AcDbLine
 10
8.000000011152224
 20
6.927925269031675
 30
0.0
 11
8.000000011152224
 21
-6.927925269031675
 31
0.0
  0
LINE
  5
85E4
330
85C5
100
AcDbEntity
  8
02実線
100
AcDbLine
 10
1.600000000000364
 20
4.618802153516754
 30
0.0
 11
7.381358327482303
 21
4.618802153516754
 31
0.0
  0
LINE
  5
85E5
330
85C5
100
AcDbEntity
  8
02実線
100
AcDbLine
 10
1.600000000000364
 20
9.237604307033962
 30
0.0
 11
7.38103736548328
 21
9.237604307033962
 31
0.0
  0
ARC
  5
85E6
330
85C5
100
AcDbEntity
  8
02実線
100
AcDbCircle
 10
-9.551396726892563
 20
0.0
 30
0.0
 40
17.55139672689282
100
AcDbArc
 50
344.7424308899368
 51
15.25756911006317
  0
ARC
  5
85E7
330
85C5
100
AcDbEntity
  8
02実線
100
AcDbCircle
 10
3.381197846481882
 20
-6.927925269031675
 30
0.0
 40
4.618802164669552
100
AcDbArc
 50
329.9960184984644
 51
29.99601849845809
  0
ARC
  5
85E8
330
85C5
100
AcDbEntity
  8
02実線
100
AcDbCircle
 10
3.381197846481882
 20
6.927925269031675
 30
0.0
 40
4.618802164669552
100
AcDbArc
 50
330.0039815015419
 51
30.00398150153562
  0
LINE
  5
85E9
330
85C5
100
AcDbEntity
  8
02実線
100
AcDbLine
 10
1.600000000000364
 20
9.237604307033962
 30
0.0
 11
1.600000000000364
 21
-9.237604307033962
 31
0.0
  0
ENDBLK
  5
85EA
330
85C5
100
AcDbEntity
  8
0
100
AcDbBlockEnd
  0
BLOCK
  5
862A
330
8629
100
AcDbEntity
  8
0
100
AcDbBlockBegin
  2
BH-中柱(L60)-300H
 70
     0
 10
0.0
 20
0.0
 30
0.0
  3
BH-中柱(L60)-300H
  1

  0
LINE
  5
862B
330
8629
100
AcDbEntity
  8
02実線
100
AcDbLine
 10
12.0
 20
-274.0
 30
0.0
 11
-8.0
 21
-274.0
 31
0.0
  0
LINE
  5
862C
330
8629
100
AcDbEntity
  8
02実線
100
AcDbLine
 10
12.0
 20
-260.0
 30
0.0
 11
-8.0
 21
-260.0
 31
0.0
  0
ARC
  5
862D
330
8629
100
AcDbEntity
  8
02実線
100
AcDbCircle
 10
-8.0
 20
-267.0
 30
0.0
 40
7.0
100
AcDbArc
 50
90.0
 51
270.0
  0
ARC
  5
862E
330
8629
100
AcDbEntity
  8
02実線
100
AcDbCircle
 10
12.0
 20
-267.0
 30
0.0
 40
7.0
100
AcDbArc
 50
270.0
 51
90.0
  0
INSERT
  5
862F
330
8629
100
AcDbEntity
  8
03破線
100
AcDbBlockReference
  2
BH-端柱補強桟(L40x15xt3.2)
 10
-26.80000000000018
 20
-167.0
 30
0.0
  0
LINE
  5
8630
330
8629
100
AcDbEntity
  8
02実線
100
AcDbLine
 10
30.0
 20
-120.0
 30
0.0
 11
30.0
 21
-297.0
 31
0.0
  0
LINE
  5
8631
330
8629
100
AcDbEntity
  8
02実線
100
AcDbLine
 10
-30.0
 20
-120.0
 30
0.0
 11
-30.0
 21
-297.0
 31
0.0
  0
LINE
  5
8632
330
8629
100
AcDbEntity
  8
03破線
100
AcDbLine
 10
30.0
 20
-57.0
 30
0.0
 11
30.0
 21
-120.0
 31
0.0
  0
LINE
  5
8633
330
8629
100
AcDbEntity
  8
03破線
100
AcDbLine
 10
-30.0
 20
-57.0
 30
0.0
 11
-30.0
 21
-120.0
 31
0.0
  0
LINE
  5
8634
330
8629
100
AcDbEntity
  8
02実線
100
AcDbLine
 10
30.0
 20
-297.0
 30
0.0
 11
-30.0
 21
-297.0
 31
0.0
  0
LINE
  5
8635
330
8629
100
AcDbEntity
  8
03破線
100
AcDbLine
 10
-26.80000000000018
 20
-57.0
 30
0.0
 11
-26.80000000000018
 21
-297.0
 31
0.0
  0
LINE
  5
8636
330
8629
100
AcDbEntity
  8
03破線
100
AcDbLine
 10
-30.0
 20
-57.0
 30
0.0
 11
30.0
 21
-57.0
 31
0.0
  0
CIRCLE
  5
8637
330
8629
100
AcDbEntity
  8
02実線
100
AcDbCircle
 10
60.0
 20
-27.0
 30
0.0
 40
6.5
  0
CIRCLE
  5
8638
330
8629
100
AcDbEntity
  8
02実線
100
AcDbCircle
 10
-60.0
 20
-27.0
 30
0.0
 40
6.5
  0
LWPOLYLINE
  5
8639
330
8629
100
AcDbEntity
  8
02実線
100
AcDbPolyline
 90
        6
 70
     1
 43
0.0
 10
-90.0
 20
-57.0
 10
-90.0
 20
0.0
 10
90.0
 20
0.0
 10
90.0
 20
-57.0
 10
30.0
 20
-120.0
 10
-30.0
 20
-120.0
  0
LINE
  5
863B
330
8629
100
AcDbEntity
  8
04一点鎖線
 48
0.2
100
AcDbLine
 10
-60.0
 20
-43.5
 30
0.0
 11
-60.0
 21
-10.5
 31
0.0
  0
LINE
  5
863C
330
8629
100
AcDbEntity
  8
04一点鎖線
 48
0.2
100
AcDbLine
 10
60.0
 20
-43.5
 30
0.0
 11
60.0
 21
-10.5
 31
0.0
  0
LINE
  5
863D
330
8629
100
AcDbEntity
  8
04一点鎖線
 48
0.2
100
AcDbLine
 10
76.5
 20
-27.0
 30
0.0
 11
43.5
 21
-27.0
 31
0.0
  0
LINE
  5
863E
330
8629
100
AcDbEntity
  8
04一点鎖線
 48
0.2
100
AcDbLine
 10
-43.5
 20
-27.0
 30
0.0
 11
-76.5
 21
-27.0
 31
0.0
  0
LINE
  5
863F
330
8629
100
AcDbEntity
  8
04一点鎖線
 48
0.2
100
AcDbLine
 10
29.0
 20
-267.0
 30
0.0
 11
-25.0
 21
-267.0
 31
0.0
  0
LINE
  5
8640
330
8629
100
AcDbEntity
  8
04一点鎖線
 48
0.2
100
AcDbLine
 10
2.0
 20
-284.0
 30
0.0
 11
2.0
 21
-250.0
 31
0.0
  0
LINE
  5
B74F
330
8629
100
AcDbEntity
  8
08非表示
100
AcDbLine
 10
-90.0
 20
3.0
 30
0.0
 11
90.0
 21
3.0
 31
0.0
  0
LINE
  5
B750
330
8629
100
AcDbEntity
  8
08非表示
100
AcDbLine
 10
0.0
 20
0.0
 30
0.0
 11
0.0
 21
3.0
 31
0.0
  0
ENDBLK
  5
8641
330
8629
100
AcDbEntity
  8
0
100
AcDbBlockEnd
  0
BLOCK
  5
9947
330
9946
100
AcDbEntity
  8
0
100
AcDbBlockBegin
  2
BH-筋交(柱L60)-300H
 70
     0
 10
0.0
 20
0.0
 30
0.0
  3
BH-筋交(柱L60)-300H
  1

  0
CIRCLE
  5
9949
330
9946
100
AcDbEntity
  8
03破線
100
AcDbCircle
 10
249.4818267727433
 20
127.1173399270735
 30
0.0
 40
6.499999999999985
  0
CIRCLE
  5
994A
330
9946
100
AcDbEntity
  8
03破線
100
AcDbCircle
 10
0.0
 20
0.0000000000002274
 30
0.0
 40
6.499999999999985
  0
LINE
  5
994B
330
9946
100
AcDbEntity
  8
03破線
100
AcDbLine
 10
-18.7221857597533
 20
3.704019489329767
 30
0.0
 11
257.489836738644
 21
144.4410744085899
 31
0.0
  0
LINE
  5
994C
330
9946
100
AcDbEntity
  8
03破線
100
AcDbLine
 10
267.3868296329647
 20
125.0171321812832
 30
0.0
 11
256.0370671394758
 21
147.2922952859922
 31
0.0
  0
LINE
  5
994D
330
9946
100
AcDbEntity
  8
03破線
100
AcDbLine
 10
-20.17495535891885
 20
6.55524036673296
 30
0.0
 11
-8.825192865429926
 21
-15.71992273797605
 31
0.0
  0
LINE
  5
994E
330
9946
100
AcDbEntity
  8
03破線
100
AcDbLine
 10
-8.825192865429926
 20
-15.71992273797605
 30
0.0
 11
-2.100207745790613
 21
-17.90500286022007
 31
0.0
  0
LINE
  5
994F
330
9946
100
AcDbEntity
  8
03破線
100
AcDbLine
 10
265.2017495107193
 20
118.2921470616434
 30
0.0
 11
267.3868296329647
 21
125.0171321812832
 31
0.0
  0
LINE
  5
9950
330
9946
100
AcDbEntity
  8
03破線
100
AcDbLine
 10
-2.100207745790613
 20
-17.90500286022007
 30
0.0
 11
29.99643471700529
 21
-1.550946682102222
 31
0.0
  0
LINE
  5
9951
330
9946
100
AcDbEntity
  8
03破線
100
AcDbLine
 10
35.0812845624755
 20
34.70970085005388
 30
0.0
 11
-20.17495535891885
 21
6.55524036673296
 31
0.0
  0
LINE
  5
9952
330
9946
100
AcDbEntity
  8
03破線
100
AcDbLine
 10
256.0370671394758
 20
147.2922952859922
 30
0.0
 11
184.4166026484741
 21
110.7998459232149
 31
0.0
  0
LINE
  5
9953
330
9946
100
AcDbEntity
  8
02実線
100
AcDbLine
 10
184.4166026484741
 20
110.7998459232149
 30
0.0
 11
35.0812845624755
 21
34.70970085005388
 31
0.0
  0
LINE
  5
9954
330
9946
100
AcDbEntity
  8
03破線
100
AcDbLine
 10
236.3996833505685
 20
103.6167613550247
 30
0.0
 11
265.2017495107193
 21
118.2921470616434
 31
0.0
  0
LINE
  5
9955
330
9946
100
AcDbEntity
  8
02実線
100
AcDbLine
 10
29.99643471700483
 20
-1.550946682102222
 30
0.0
 11
236.3996833505685
 21
103.6167613550242
 31
0.0
  0
ENDBLK
  5
9948
330
9946
100
AcDbEntity
  8
0
100
AcDbBlockEnd
  0
BLOCK
  5
99B1
330
99B0
100
AcDbEntity
  8
0
100
AcDbBlockBegin
  2
BH-中柱(L60)-平面
 70
     0
 10
0.0
 20
0.0
 30
0.0
  3
BH-中柱(L60)-平面
  1

  0
LINE
  5
99B3
330
99B0
100
AcDbEntity
  8
04一点鎖線
 48
0.2
100
AcDbLine
 10
-60.00000000000045
 20
9.999999999999996
 30
0.0
 11
-60.00000000000045
 21
-13.2
 31
0.0
  0
LINE
  5
99B4
330
99B0
100
AcDbEntity
  8
04一点鎖線
 48
0.2
100
AcDbLine
 10
59.99999999999955
 20
9.999999999999996
 30
0.0
 11
59.99999999999955
 21
-13.2
 31
0.0
  0
LWPOLYLINE
  5
99B5
330
99B0
100
AcDbEntity
  8
02実線
100
AcDbPolyline
 90
        4
 70
     1
 43
0.0
 10
-90.0
 20
-3.200000000000003
 10
-90.0
 20
0.0
 10
89.99999999999955
 20
0.0
 10
89.99999999999955
 20
-3.200000000000003
  0
LWPOLYLINE
  5
99B6
330
99B0
100
AcDbEntity
  8
03破線
100
AcDbPolyline
 90
        7
 70
     0
 43
0.0
 10
30.0
 20
0.0
 10
-30.0
 20
0.0
 10
-30.0
 20
60.0
 10
-26.80000000000018
 20
60.0
 10
-26.80000000000018
 20
3.200000000000003
 10
30.0
 20
3.200000000000003
 10
30.0
 20
0.0
  0
ENDBLK
  5
99B2
330
99B0
100
AcDbEntity
  8
0
100
AcDbBlockEnd
  0
BLOCK
  5
B859
330
B858
100
AcDbEntity
  8
0
100
AcDbBlockBegin
  2
角ワッシャーM12
 70
     0
 10
0.0
 20
0.0
 30
0.0
  3
角ワッシャーM12
  1

  0
LWPOLYLINE
  5
B85A
330
B858
100
AcDbEntity
  8
10副資材
100
AcDbPolyline
 90
        4
 70
     1
 43
0.0
 10
-17.5
 20
-17.5
 10
-17.5
 20
17.5
 10
17.5
 20
17.5
 10
17.5
 20
-17.5
  0
CIRCLE
  5
B85B
330
B858
100
AcDbEntity
  8
10副資材
100
AcDbCircle
 10
0.0
 20
0.0
 30
0.0
 40
7.0
  0
TEXT
  5
B85C
330
B858
100
AcDbEntity
  8
10副資材
100
AcDbText
 10
-2.925
 20
-16.5
 30
0.0
 40
3.0
  1
M12
 72
     1
 11
0.0
 21
-15.0
 31
0.0
100
AcDbText
 73
     2
  0
ENDBLK
  5
B85D
330
B858
100
AcDbEntity
  8
0
100
AcDbBlockEnd
  0
BLOCK
  5
BD11
330
BD10
100
AcDbEntity
  8
0
100
AcDbBlockBegin
  2
*D524
 70
     1
 10
0.0
 20
0.0
 30
0.0
  3
*D524
  1

  0
LINE
  5
BD13
330
BD10
100
AcDbEntity
  8
08非表示
 62
     0
370
    -2
100
AcDbLine
 10
3350.0
 20
1965.000000000001
 30
0.0
 11
3350.0
 21
2060.000000000001
 31
0.0
  0
LINE
  5
BD14
330
BD10
100
AcDbEntity
  8
08非表示
 62
     0
370
    -2
100
AcDbLine
 10
4125.0
 20
1965.000000000001
 30
0.0
 11
4125.0
 21
2060.000000000001
 31
0.0
  0
LINE
  5
BD15
330
BD10
100
AcDbEntity
  8
08非表示
 62
     0
370
    -2
100
AcDbLine
 10
3380.0
 20
2050.000000000001
 30
0.0
 11
4095.0
 21
2050.000000000001
 31
0.0
  0
INSERT
  5
BD16
330
BD10
100
AcDbEntity
  8
08非表示
 62
     0
370
    -2
100
AcDbBlockReference
  2
_Open
 10
3350.0
 20
2050.000000000001
 30
0.0
 41
30.0
 42
30.0
 43
30.0
 50
180.0
  0
INSERT
  5
BD17
330
BD10
100
AcDbEntity
  8
08非表示
 62
     0
370
    -2
100
AcDbBlockReference
  2
_Open
 10
4125.0
 20
2050.000000000001
 30
0.0
 41
30.0
 42
30.0
 43
30.0
  0
MTEXT
  5
BD18
330
BD10
100
AcDbEntity
  8
08非表示
 62
     0
100
AcDbMText
 10
3737.5
 20
2075.000000000001
 30
0.0
 40
30.0
 41
0.0
 71
     5
 72
     1
  1
775
 73
     1
 44
1.0
  0
POINT
  5
BD19
330
BD10
100
AcDbEntity
  8
Defpoints
 62
     0
100
AcDbPoint
 10
3350.0
 20
1950.000000000001
 30
0.0
  0
POINT
  5
BD1A
330
BD10
100
AcDbEntity
  8
Defpoints
 62
     0
100
AcDbPoint
 10
4125.0
 20
1950.000000000001
 30
0.0
  0
POINT
  5
BD1B
330
BD10
100
AcDbEntity
  8
Defpoints
 62
     0
100
AcDbPoint
 10
4125.0
 20
2050.000000000001
 30
0.0
  0
ENDBLK
  5
BD12
330
BD10
100
AcDbEntity
  8
0
100
AcDbBlockEnd
  0
BLOCK
  5
BD29
330
BD28
100
AcDbEntity
  8
0
100
AcDbBlockBegin
  2
*D525
 70
     1
 10
0.0
 20
0.0
 30
0.0
  3
*D525
  1

  0
LINE
  5
BD2B
330
BD28
100
AcDbEntity
  8
13製作用注記
 62
     0
370
    -2
100
AcDbLine
 10
1376.799999999999
 20
1794.000000000001
 30
0.0
 11
1376.799999999999
 21
1844.037128224684
 31
0.0
  0
LINE
  5
BD2C
330
BD28
100
AcDbEntity
  8
13製作用注記
 62
     0
370
    -2
100
AcDbLine
 10
1346.799999999999
 20
1794.000000000001
 30
0.0
 11
1346.799999999999
 21
1844.037128224684
 31
0.0
  0
LINE
  5
BD2D
330
BD28
100
AcDbEntity
  8
13製作用注記
 62
     0
370
    -2
100
AcDbLine
 10
1301.799999999999
 20
1829.037128224684
 30
0.0
 11
1173.114999999999
 21
1829.037128224684
 31
0.0
  0
LINE
  5
BD2E
330
BD28
100
AcDbEntity
  8
13製作用注記
 62
     0
370
    -2
100
AcDbLine
 10
1376.799999999999
 20
1829.037128224684
 30
0.0
 11
1346.799999999999
 21
1829.037128224684
 31
0.0
  0
LINE
  5
BD2F
330
BD28
100
AcDbEntity
  8
13製作用注記
 62
     0
370
    -2
100
AcDbLine
 10
1421.799999999999
 20
1829.037128224684
 30
0.0
 11
1466.799999999999
 21
1829.037128224684
 31
0.0
  0
INSERT
  5
BD30
330
BD28
100
AcDbEntity
  8
13製作用注記
 62
     0
370
    -2
100
AcDbBlockReference
  2
_Open
 10
1376.799999999999
 20
1829.037128224684
 30
0.0
 41
45.0
 42
45.0
 43
45.0
 50
180.0
  0
INSERT
  5
BD31
330
BD28
100
AcDbEntity
  8
13製作用注記
 62
     0
370
    -2
100
AcDbBlockReference
  2
_Open
 10
1346.799999999999
 20
1829.037128224684
 30
0.0
 41
45.0
 42
45.0
 43
45.0
  0
MTEXT
  5
BD32
330
BD28
100
AcDbEntity
  8
13製作用注記
 62
     0
100
AcDbMText
 10
1214.957499999999
 20
1866.537128224684
 30
0.0
 40
45.0
 41
0.0
 71
     5
 72
     1
  1
30
 73
     1
 44
1.0
  0
POINT
  5
BD33
330
BD28
100
AcDbEntity
  8
Defpoints
 62
     0
100
AcDbPoint
 10
1376.799999999999
 20
1771.500000000001
 30
0.0
  0
POINT
  5
BD34
330
BD28
100
AcDbEntity
  8
Defpoints
 62
     0
100
AcDbPoint
 10
1346.799999999999
 20
1771.500000000001
 30
0.0
  0
POINT
  5
BD35
330
BD28
100
AcDbEntity
  8
Defpoints
 62
     0
100
AcDbPoint
 10
1346.799999999999
 20
1829.037128224684
 30
0.0
  0
ENDBLK
  5
BD2A
330
BD28
100
AcDbEntity
  8
0
100
AcDbBlockEnd
  0
BLOCK
  5
BD38
330
BD37
100
AcDbEntity
  8
0
100
AcDbBlockBegin
  2
*D526
 70
     1
 10
0.0
 20
0.0
 30
0.0
  3
*D526
  1

  0
LINE
  5
BD3A
330
BD37
100
AcDbEntity
  8
13製作用注記
 62
     0
370
    -2
100
AcDbLine
 10
1324.299999999999
 20
1650.000000000001
 30
0.0
 11
1181.799999999999
 21
1650.000000000001
 31
0.0
  0
LINE
  5
BD3B
330
BD37
100
AcDbEntity
  8
13製作用注記
 62
     0
370
    -2
100
AcDbLine
 10
1337.799999999999
 20
1755.000000000001
 30
0.0
 11
1181.799999999999
 21
1755.000000000001
 31
0.0
  0
LINE
  5
BD3C
330
BD37
100
AcDbEntity
  8
13製作用注記
 62
     0
370
    -2
100
AcDbLine
 10
1196.799999999999
 20
1650.000000000001
 30
0.0
 11
1196.799999999999
 21
1755.000000000001
 31
0.0
  0
LINE
  5
BD3D
330
BD37
100
AcDbEntity
  8
13製作用注記
 62
     0
370
    -2
100
AcDbLine
 10
1196.799999999999
 20
1605.000000000001
 30
0.0
 11
1196.799999999999
 21
1560.000000000001
 31
0.0
  0
LINE
  5
BD3E
330
BD37
100
AcDbEntity
  8
13製作用注記
 62
     0
370
    -2
100
AcDbLine
 10
1196.799999999999
 20
1800.000000000001
 30
0.0
 11
1196.799999999999
 21
1845.000000000001
 31
0.0
  0
INSERT
  5
BD3F
330
BD37
100
AcDbEntity
  8
13製作用注記
 62
     0
370
    -2
100
AcDbBlockReference
  2
_Open
 10
1196.799999999999
 20
1650.000000000001
 30
0.0
 41
45.0
 42
45.0
 43
45.0
 50
90.0
  0
INSERT
  5
BD40
330
BD37
100
AcDbEntity
  8
13製作用注記
 62
     0
370
    -2
100
AcDbBlockReference
  2
_Open
 10
1196.799999999999
 20
1755.000000000001
 30
0.0
 41
45.0
 42
45.0
 43
45.0
 50
270.0
  0
MTEXT
  5
BD41
330
BD37
100
AcDbEntity
  8
13製作用注記
 62
     0
100
AcDbMText
 10
1159.299999999999
 20
1702.500000000001
 30
0.0
 40
45.0
 41
0.0
 71
     5
 72
     1
  1
105
 11
0.0
 21
1.0
 31
0.0
 73
     1
 44
1.0
  0
POINT
  5
BD42
330
BD37
100
AcDbEntity
  8
Defpoints
 62
     0
100
AcDbPoint
 10
1346.799999999999
 20
1650.000000000001
 30
0.0
  0
POINT
  5
FCAD
330
BD37
100
AcDbEntity
  8
Defpoints
 62
     0
100
AcDbPoint
 10
1360.299999999999
 20
1755.000000000001
 30
0.0
  0
POINT
  5
FCAE
330
BD37
100
AcDbEntity
  8
Defpoints
 62
     0
100
AcDbPoint
 10
1196.799999999999
 20
1755.000000000001
 30
0.0
  0
ENDBLK
  5
BD39
330
BD37
100
AcDbEntity
  8
0
100
AcDbBlockEnd
  0
BLOCK
  5
BD46
330
BD45
100
AcDbEntity
  8
0
100
AcDbBlockBegin
  2
*D527
 70
     1
 10
0.0
 20
0.0
 30
0.0
  3
*D527
  1

  0
LINE
  5
BD48
330
BD45
100
AcDbEntity
  8
01注記寸法
 62
     0
370
    -2
100
AcDbLine
 10
1324.299999999999
 20
1650.000000000001
 30
0.0
 11
1085.0
 21
1650.000000000001
 31
0.0
  0
LINE
  5
BD49
330
BD45
100
AcDbEntity
  8
01注記寸法
 62
     0
370
    -2
100
AcDbLine
 10
1327.5
 20
1950.000000000001
 30
0.0
 11
1085.0
 21
1950.000000000001
 31
0.0
  0
LINE
  5
BD4A
330
BD45
100
AcDbEntity
  8
01注記寸法
 62
     0
370
    -2
100
AcDbLine
 10
1100.0
 20
1695.000000000001
 30
0.0
 11
1100.0
 21
1905.000000000001
 31
0.0
  0
INSERT
  5
BD4B
330
BD45
100
AcDbEntity
  8
01注記寸法
 62
     0
370
    -2
100
AcDbBlockReference
  2
_Open
 10
1100.0
 20
1650.000000000001
 30
0.0
 41
45.0
 42
45.0
 43
45.0
 50
270.0
  0
INSERT
  5
BD4C
330
BD45
100
AcDbEntity
  8
01注記寸法
 62
     0
370
    -2
100
AcDbBlockReference
  2
_Open
 10
1100.0
 20
1950.000000000001
 30
0.0
 41
45.0
 42
45.0
 43
45.0
 50
90.0
  0
MTEXT
  5
BD4D
330
BD45
100
AcDbEntity
  8
01注記寸法
 62
     0
100
AcDbMText
 10
1062.5
 20
1800.000000000001
 30
0.0
 40
45.0
 41
0.0
 71
     5
 72
     1
  1
300
 11
0.0
 21
1.0
 31
0.0
 73
     1
 44
1.0
  0
POINT
  5
BD4E
330
BD45
100
AcDbEntity
  8
Defpoints
 62
     0
100
AcDbPoint
 10
1346.799999999999
 20
1650.000000000001
 30
0.0
  0
POINT
  5
BD4F
330
BD45
100
AcDbEntity
  8
Defpoints
 62
     0
100
AcDbPoint
 10
1350.0
 20
1950.000000000001
 30
0.0
  0
POINT
  5
BD50
330
BD45
100
AcDbEntity
  8
Defpoints
 62
     0
100
AcDbPoint
 10
1100.0
 20
1950.000000000001
 30
0.0
  0
ENDBLK
  5
BD47
330
BD45
100
AcDbEntity
  8
0
100
AcDbBlockEnd
  0
BLOCK
  5
BD66
330
BD65
100
AcDbEntity
  8
0
100
AcDbBlockBegin
  2
*D529
 70
     1
 10
0.0
 20
0.0
 30
0.0
  3
*D529
  1

  0
LINE
  5
BD68
330
BD65
100
AcDbEntity
  8
13製作用注記
 62
     0
370
    -2
100
AcDbLine
 10
1645.0
 20
1915.000000000001
 30
0.0
 11
1741.843323007461
 21
1915.000000000001
 31
0.0
  0
LINE
  5
BD69
330
BD65
100
AcDbEntity
  8
13製作用注記
 62
     0
370
    -2
100
AcDbLine
 10
1645.0
 20
1950.000000000001
 30
0.0
 11
1741.843323007461
 21
1950.000000000001
 31
0.0
  0
LINE
  5
BD6A
330
BD65
100
AcDbEntity
  8
13製作用注記
 62
     0
370
    -2
100
AcDbLine
 10
1726.843323007461
 20
1915.000000000001
 30
0.0
 11
1726.843323007461
 21
1742.485000000001
 31
0.0
  0
LINE
  5
BD6B
330
BD65
100
AcDbEntity
  8
13製作用注記
 62
     0
370
    -2
100
AcDbLine
 10
1726.843323007461
 20
1915.000000000001
 30
0.0
 11
1726.843323007461
 21
1950.000000000001
 31
0.0
  0
LINE
  5
BD6C
330
BD65
100
AcDbEntity
  8
13製作用注記
 62
     0
370
    -2
100
AcDbLine
 10
1726.843323007461
 20
1870.000000000001
 30
0.0
 11
1726.843323007461
 21
1825.000000000001
 31
0.0
  0
LINE
  5
BD6D
330
BD65
100
AcDbEntity
  8
13製作用注記
 62
     0
370
    -2
100
AcDbLine
 10
1726.843323007461
 20
1995.000000000001
 30
0.0
 11
1726.843323007461
 21
2040.000000000001
 31
0.0
  0
INSERT
  5
BD6E
330
BD65
100
AcDbEntity
  8
13製作用注記
 62
     0
370
    -2
100
AcDbBlockReference
  2
_Open
 10
1726.843323007461
 20
1915.000000000001
 30
0.0
 41
45.0
 42
45.0
 43
45.0
 50
90.0
  0
INSERT
  5
BD6F
330
BD65
100
AcDbEntity
  8
13製作用注記
 62
     0
370
    -2
100
AcDbBlockReference
  2
_Open
 10
1726.843323007461
 20
1950.000000000001
 30
0.0
 41
45.0
 42
45.0
 43
45.0
 50
270.0
  0
MTEXT
  5
BD70
330
BD65
100
AcDbEntity
  8
13製作用注記
 62
     0
100
AcDbMText
 10
1689.343323007461
 20
1783.742500000001
 30
0.0
 40
45.0
 41
0.0
 71
     5
 72
     1
  1
35
 11
0.0
 21
1.0
 31
0.0
 73
     1
 44
1.0
  0
POINT
  5
BD71
330
BD65
100
AcDbEntity
  8
Defpoints
 62
     0
100
AcDbPoint
 10
1622.5
 20
1915.000000000001
 30
0.0
  0
POINT
  5
BD72
330
BD65
100
AcDbEntity
  8
Defpoints
 62
     0
100
AcDbPoint
 10
1622.5
 20
1950.000000000001
 30
0.0
  0
POINT
  5
BD73
330
BD65
100
AcDbEntity
  8
Defpoints
 62
     0
100
AcDbPoint
 10
1726.843323007461
 20
1950.000000000001
 30
0.0
  0
ENDBLK
  5
BD67
330
BD65
100
AcDbEntity
  8
0
100
AcDbBlockEnd
  0
BLOCK
  5
BD76
330
BD75
100
AcDbEntity
  8
0
100
AcDbBlockBegin
  2
*D530
 70
     1
 10
0.0
 20
0.0
 30
0.0
  3
*D530
  1

  0
LINE
  5
BD78
330
BD75
100
AcDbEntity
  8
13製作用注記
 62
     0
370
    -2
100
AcDbLine
 10
2051.0
 20
1920.000000000001
 30
0.0
 11
1907.208537805307
 21
1920.000000000001
 31
0.0
  0
LINE
  5
BD79
330
BD75
100
AcDbEntity
  8
13製作用注記
 62
     0
370
    -2
100
AcDbLine
 10
2051.0
 20
1950.000000000001
 30
0.0
 11
1907.208537805307
 21
1950.000000000001
 31
0.0
  0
LINE
  5
BD7A
330
BD75
100
AcDbEntity
  8
13製作用注記
 62
     0
370
    -2
100
AcDbLine
 10
1922.208537805307
 20
1920.000000000001
 30
0.0
 11
1922.208537805307
 21
1746.315000000001
 31
0.0
  0
LINE
  5
BD7B
330
BD75
100
AcDbEntity
  8
13製作用注記
 62
     0
370
    -2
100
AcDbLine
 10
1922.208537805307
 20
1920.000000000001
 30
0.0
 11
1922.208537805307
 21
1950.000000000001
 31
0.0
  0
LINE
  5
BD7C
330
BD75
100
AcDbEntity
  8
13製作用注記
 62
     0
370
    -2
100
AcDbLine
 10
1922.208537805307
 20
1875.000000000001
 30
0.0
 11
1922.208537805307
 21
1830.000000000001
 31
0.0
  0
LINE
  5
BD7D
330
BD75
100
AcDbEntity
  8
13製作用注記
 62
     0
370
    -2
100
AcDbLine
 10
1922.208537805307
 20
1995.000000000001
 30
0.0
 11
1922.208537805307
 21
2040.000000000001
 31
0.0
  0
INSERT
  5
BD7E
330
BD75
100
AcDbEntity
  8
13製作用注記
 62
     0
370
    -2
100
AcDbBlockReference
  2
_Open
 10
1922.208537805307
 20
1920.000000000001
 30
0.0
 41
45.0
 42
45.0
 43
45.0
 50
90.0
  0
INSERT
  5
BD7F
330
BD75
100
AcDbEntity
  8
13製作用注記
 62
     0
370
    -2
100
AcDbBlockReference
  2
_Open
 10
1922.208537805307
 20
1950.000000000001
 30
0.0
 41
45.0
 42
45.0
 43
45.0
 50
270.0
  0
MTEXT
  5
BD80
330
BD75
100
AcDbEntity
  8
13製作用注記
 62
     0
100
AcDbMText
 10
1884.708537805307
 20
1788.157500000001
 30
0.0
 40
45.0
 41
0.0
 71
     5
 72
     1
  1
30
 11
0.0
 21
1.0
 31
0.0
 73
     1
 44
1.0
  0
POINT
  5
BD81
330
BD75
100
AcDbEntity
  8
Defpoints
 62
     0
100
AcDbPoint
 10
2073.5
 20
1920.000000000001
 30
0.0
  0
POINT
  5
BD82
330
BD75
100
AcDbEntity
  8
Defpoints
 62
     0
100
AcDbPoint
 10
2073.5
 20
1950.000000000001
 30
0.0
  0
POINT
  5
BD83
330
BD75
100
AcDbEntity
  8
Defpoints
 62
     0
100
AcDbPoint
 10
1922.208537805307
 20
1950.000000000001
 30
0.0
  0
ENDBLK
  5
BD77
330
BD75
100
AcDbEntity
  8
0
100
AcDbBlockEnd
  0
BLOCK
  5
BD86
330
BD85
100
AcDbEntity
  8
0
100
AcDbBlockBegin
  2
*D531
 70
     1
 10
0.0
 20
0.0
 30
0.0
  3
*D531
  1

  0
LINE
  5
BD88
330
BD85
100
AcDbEntity
  8
13製作用注記
 62
     0
370
    -2
100
AcDbLine
 10
1350.0
 20
1972.500000000001
 30
0.0
 11
1350.0
 21
2035.000000000001
 31
0.0
  0
LINE
  5
BD89
330
BD85
100
AcDbEntity
  8
13製作用注記
 62
     0
370
    -2
100
AcDbLine
 10
1606.0
 20
1954.000000000001
 30
0.0
 11
1606.0
 21
2035.000000000001
 31
0.0
  0
LINE
  5
BD8A
330
BD85
100
AcDbEntity
  8
13製作用注記
 62
     0
370
    -2
100
AcDbLine
 10
1395.0
 20
2020.000000000001
 30
0.0
 11
1561.0
 21
2020.000000000001
 31
0.0
  0
INSERT
  5
BD8B
330
BD85
100
AcDbEntity
  8
13製作用注記
 62
     0
370
    -2
100
AcDbBlockReference
  2
_Open
 10
1350.0
 20
2020.000000000001
 30
0.0
 41
45.0
 42
45.0
 43
45.0
 50
180.0
  0
INSERT
  5
BD8C
330
BD85
100
AcDbEntity
  8
13製作用注記
 62
     0
370
    -2
100
AcDbBlockReference
  2
_Open
 10
1606.0
 20
2020.000000000001
 30
0.0
 41
45.0
 42
45.0
 43
45.0
  0
MTEXT
  5
BD8D
330
BD85
100
AcDbEntity
  8
13製作用注記
 62
     0
100
AcDbMText
 10
1478.0
 20
2057.500000000001
 30
0.0
 40
45.0
 41
0.0
 71
     5
 72
     1
  1
256
 73
     1
 44
1.0
  0
POINT
  5
BD8E
330
BD85
100
AcDbEntity
  8
Defpoints
 62
     0
100
AcDbPoint
 10
1350.0
 20
1950.000000000001
 30
0.0
  0
POINT
  5
BD8F
330
BD85
100
AcDbEntity
  8
Defpoints
 62
     0
100
AcDbPoint
 10
1606.0
 20
1931.500000000001
 30
0.0
  0
POINT
  5
BD90
330
BD85
100
AcDbEntity
  8
Defpoints
 62
     0
100
AcDbPoint
 10
1606.0
 20
2020.000000000001
 30
0.0
  0
ENDBLK
  5
BD87
330
BD85
100
AcDbEntity
  8
0
100
AcDbBlockEnd
  0
BLOCK
  5
BD93
330
BD92
100
AcDbEntity
  8
0
100
AcDbBlockBegin
  2
*D532
 70
     1
 10
0.0
 20
0.0
 30
0.0
  3
*D532
  1

  0
LINE
  5
BD95
330
BD92
100
AcDbEntity
  8
13製作用注記
 62
     0
370
    -2
100
AcDbLine
 10
1606.0
 20
1954.000000000001
 30
0.0
 11
1606.0
 21
2035.000000000001
 31
0.0
  0
LINE
  5
BD96
330
BD92
100
AcDbEntity
  8
13製作用注記
 62
     0
370
    -2
100
AcDbLine
 10
2090.0
 20
1959.000000000001
 30
0.0
 11
2090.0
 21
2035.000000000001
 31
0.0
  0
LINE
  5
BD97
330
BD92
100
AcDbEntity
  8
13製作用注記
 62
     0
370
    -2
100
AcDbLine
 10
1651.0
 20
2020.000000000001
 30
0.0
 11
2045.0
 21
2020.000000000001
 31
0.0
  0
INSERT
  5
BD98
330
BD92
100
AcDbEntity
  8
13製作用注記
 62
     0
370
    -2
100
AcDbBlockReference
  2
_Open
 10
1606.0
 20
2020.000000000001
 30
0.0
 41
45.0
 42
45.0
 43
45.0
 50
180.0
  0
INSERT
  5
BD99
330
BD92
100
AcDbEntity
  8
13製作用注記
 62
     0
370
    -2
100
AcDbBlockReference
  2
_Open
 10
2090.0
 20
2020.000000000001
 30
0.0
 41
45.0
 42
45.0
 43
45.0
  0
MTEXT
  5
BD9A
330
BD92
100
AcDbEntity
  8
13製作用注記
 62
     0
100
AcDbMText
 10
1848.0
 20
2057.500000000001
 30
0.0
 40
45.0
 41
0.0
 71
     5
 72
     1
  1
484
 73
     1
 44
1.0
  0
POINT
  5
BD9B
330
BD92
100
AcDbEntity
  8
Defpoints
 62
     0
100
AcDbPoint
 10
1606.0
 20
1931.500000000001
 30
0.0
  0
POINT
  5
BD9C
330
BD92
100
AcDbEntity
  8
Defpoints
 62
     0
100
AcDbPoint
 10
2090.0
 20
1936.500000000001
 30
0.0
  0
POINT
  5
BD9D
330
BD92
100
AcDbEntity
  8
Defpoints
 62
     0
100
AcDbPoint
 10
2090.0
 20
2020.000000000001
 30
0.0
  0
ENDBLK
  5
BD94
330
BD92
100
AcDbEntity
  8
0
100
AcDbBlockEnd
  0
BLOCK
  5
BDA0
330
BD9F
100
AcDbEntity
  8
0
100
AcDbBlockBegin
  2
*D533
 70
     1
 10
0.0
 20
0.0
 30
0.0
  3
*D533
  1

  0
LINE
  5
BDA2
330
BD9F
100
AcDbEntity
  8
13製作用注記
 62
     0
370
    -2
100
AcDbLine
 10
2090.0
 20
1959.000000000001
 30
0.0
 11
2090.0
 21
2035.000000000001
 31
0.0
  0
LINE
  5
BDA3
330
BD9F
100
AcDbEntity
  8
13製作用注記
 62
     0
370
    -2
100
AcDbLine
 10
2210.0
 20
1959.000000000001
 30
0.0
 11
2210.0
 21
2035.000000000001
 31
0.0
  0
LINE
  5
BDA4
330
BD9F
100
AcDbEntity
  8
13製作用注記
 62
     0
370
    -2
100
AcDbLine
 10
2135.0
 20
2020.000000000001
 30
0.0
 11
2165.0
 21
2020.000000000001
 31
0.0
  0
INSERT
  5
BDA5
330
BD9F
100
AcDbEntity
  8
13製作用注記
 62
     0
370
    -2
100
AcDbBlockReference
  2
_Open
 10
2090.0
 20
2020.000000000001
 30
0.0
 41
45.0
 42
45.0
 43
45.0
 50
180.0
  0
INSERT
  5
BDA6
330
BD9F
100
AcDbEntity
  8
13製作用注記
 62
     0
370
    -2
100
AcDbBlockReference
  2
_Open
 10
2210.0
 20
2020.000000000001
 30
0.0
 41
45.0
 42
45.0
 43
45.0
  0
MTEXT
  5
BDA7
330
BD9F
100
AcDbEntity
  8
13製作用注記
 62
     0
100
AcDbMText
 10
2150.0
 20
2057.500000000001
 30
0.0
 40
45.0
 41
0.0
 71
     5
 72
     1
  1
120
 73
     1
 44
1.0
  0
POINT
  5
BDA8
330
BD9F
100
AcDbEntity
  8
Defpoints
 62
     0
100
AcDbPoint
 10
2090.0
 20
1936.500000000001
 30
0.0
  0
POINT
  5
BDA9
330
BD9F
100
AcDbEntity
  8
Defpoints
 62
     0
100
AcDbPoint
 10
2210.0
 20
1936.500000000001
 30
0.0
  0
POINT
  5
BDAA
330
BD9F
100
AcDbEntity
  8
Defpoints
 62
     0
100
AcDbPoint
 10
2210.0
 20
2020.000000000001
 30
0.0
  0
ENDBLK
  5
BDA1
330
BD9F
100
AcDbEntity
  8
0
100
AcDbBlockEnd
  0
BLOCK
  5
BDAD
330
BDAC
100
AcDbEntity
  8
0
100
AcDbBlockBegin
  2
*D534
 70
     1
 10
0.0
 20
0.0
 30
0.0
  3
*D534
  1

  0
LINE
  5
BDAF
330
BDAC
100
AcDbEntity
  8
13製作用注記
 62
     0
370
    -2
100
AcDbLine
 10
2210.0
 20
1959.000000000001
 30
0.0
 11
2210.0
 21
2035.000000000001
 31
0.0
  0
LINE
  5
BDB0
330
BDAC
100
AcDbEntity
  8
13製作用注記
 62
     0
370
    -2
100
AcDbLine
 10
2694.0
 20
1954.000000000001
 30
0.0
 11
2694.0
 21
2035.000000000001
 31
0.0
  0
LINE
  5
BDB1
330
BDAC
100
AcDbEntity
  8
13製作用注記
 62
     0
370
    -2
100
AcDbLine
 10
2255.0
 20
2020.000000000001
 30
0.0
 11
2649.0
 21
2020.000000000001
 31
0.0
  0
INSERT
  5
BDB2
330
BDAC
100
AcDbEntity
  8
13製作用注記
 62
     0
370
    -2
100
AcDbBlockReference
  2
_Open
 10
2210.0
 20
2020.000000000001
 30
0.0
 41
45.0
 42
45.0
 43
45.0
 50
180.0
  0
INSERT
  5
BDB3
330
BDAC
100
AcDbEntity
  8
13製作用注記
 62
     0
370
    -2
100
AcDbBlockReference
  2
_Open
 10
2694.0
 20
2020.000000000001
 30
0.0
 41
45.0
 42
45.0
 43
45.0
  0
MTEXT
  5
BDB4
330
BDAC
100
AcDbEntity
  8
13製作用注記
 62
     0
100
AcDbMText
 10
2452.0
 20
2057.500000000001
 30
0.0
 40
45.0
 41
0.0
 71
     5
 72
     1
  1
484
 73
     1
 44
1.0
  0
POINT
  5
BDB5
330
BDAC
100
AcDbEntity
  8
Defpoints
 62
     0
100
AcDbPoint
 10
2210.0
 20
1936.500000000001
 30
0.0
  0
POINT
  5
BDB6
330
BDAC
100
AcDbEntity
  8
Defpoints
 62
     0
100
AcDbPoint
 10
2694.0
 20
1931.500000000001
 30
0.0
  0
POINT
  5
BDB7
330
BDAC
100
AcDbEntity
  8
Defpoints
 62
     0
100
AcDbPoint
 10
2694.0
 20
2020.000000000001
 30
0.0
  0
ENDBLK
  5
BDAE
330
BDAC
100
AcDbEntity
  8
0
100
AcDbBlockEnd
  0
BLOCK
  5
BDBA
330
BDB9
100
AcDbEntity
  8
0
100
AcDbBlockBegin
  2
*D535
 70
     1
 10
0.0
 20
0.0
 30
0.0
  3
*D535
  1

  0
LINE
  5
BDBC
330
BDB9
100
AcDbEntity
  8
13製作用注記
 62
     0
370
    -2
100
AcDbLine
 10
2694.0
 20
1954.000000000001
 30
0.0
 11
2694.0
 21
2035.000000000001
 31
0.0
  0
LINE
  5
BDBD
330
BDB9
100
AcDbEntity
  8
13製作用注記
 62
     0
370
    -2
100
AcDbLine
 10
2950.0
 20
1972.500000000001
 30
0.0
 11
2950.0
 21
2035.000000000001
 31
0.0
  0
LINE
  5
BDBE
330
BDB9
100
AcDbEntity
  8
13製作用注記
 62
     0
370
    -2
100
AcDbLine
 10
2739.0
 20
2020.000000000001
 30
0.0
 11
2905.0
 21
2020.000000000001
 31
0.0
  0
INSERT
  5
BDBF
330
BDB9
100
AcDbEntity
  8
13製作用注記
 62
     0
370
    -2
100
AcDbBlockReference
  2
_Open
 10
2694.0
 20
2020.000000000001
 30
0.0
 41
45.0
 42
45.0
 43
45.0
 50
180.0
  0
INSERT
  5
BDC0
330
BDB9
100
AcDbEntity
  8
13製作用注記
 62
     0
370
    -2
100
AcDbBlockReference
  2
_Open
 10
2950.0
 20
2020.000000000001
 30
0.0
 41
45.0
 42
45.0
 43
45.0
  0
MTEXT
  5
BDC1
330
BDB9
100
AcDbEntity
  8
13製作用注記
 62
     0
100
AcDbMText
 10
2822.0
 20
2057.500000000001
 30
0.0
 40
45.0
 41
0.0
 71
     5
 72
     1
  1
256
 73
     1
 44
1.0
  0
POINT
  5
BDC2
330
BDB9
100
AcDbEntity
  8
Defpoints
 62
     0
100
AcDbPoint
 10
2694.0
 20
1931.500000000001
 30
0.0
  0
POINT
  5
BDC3
330
BDB9
100
AcDbEntity
  8
Defpoints
 62
     0
100
AcDbPoint
 10
2950.0
 20
1950.000000000001
 30
0.0
  0
POINT
  5
BDC4
330
BDB9
100
AcDbEntity
  8
Defpoints
 62
     0
100
AcDbPoint
 10
2950.0
 20
2020.000000000001
 30
0.0
  0
ENDBLK
  5
BDBB
330
BDB9
100
AcDbEntity
  8
0
100
AcDbBlockEnd
  0
BLOCK
  5
BDD1
330
BDD0
100
AcDbEntity
  8
0
100
AcDbBlockBegin
  2
*D536
 70
     1
 10
0.0
 20
0.0
 30
0.0
  3
*D536
  1

  0
LINE
  5
BDD3
330
BDD0
100
AcDbEntity
  8
01注記寸法
 62
     0
370
    -2
100
AcDbLine
 10
3322.799999999999
 20
1650.000000000003
 30
0.0
 11
3183.5
 21
1650.000000000003
 31
0.0
  0
LINE
  5
BDD4
330
BDD0
100
AcDbEntity
  8
01注記寸法
 62
     0
370
    -2
100
AcDbLine
 10
3333.500000000004
 20
1780.000000000001
 30
0.0
 11
3183.5
 21
1780.000000000001
 31
0.0
  0
LINE
  5
BDD5
330
BDD0
100
AcDbEntity
  8
01注記寸法
 62
     0
370
    -2
100
AcDbLine
 10
3198.5
 20
1695.000000000003
 30
0.0
 11
3198.5
 21
1735.000000000001
 31
0.0
  0
INSERT
  5
BDD6
330
BDD0
100
AcDbEntity
  8
01注記寸法
 62
     0
370
    -2
100
AcDbBlockReference
  2
_Open
 10
3198.5
 20
1650.000000000003
 30
0.0
 41
45.0
 42
45.0
 43
45.0
 50
270.0
  0
INSERT
  5
BDD7
330
BDD0
100
AcDbEntity
  8
01注記寸法
 62
     0
370
    -2
100
AcDbBlockReference
  2
_Open
 10
3198.5
 20
1780.000000000001
 30
0.0
 41
45.0
 42
45.0
 43
45.0
 50
90.0
  0
MTEXT
  5
BDD8
330
BDD0
100
AcDbEntity
  8
01注記寸法
 62
     0
100
AcDbMText
 10
3161.0
 20
1715.000000000002
 30
0.0
 40
45.0
 41
0.0
 71
     5
 72
     1
  1
130
 11
0.0
 21
1.0
 31
0.0
 73
     1
 44
1.0
  0
POINT
  5
BDD9
330
BDD0
100
AcDbEntity
  8
Defpoints
 62
     0
100
AcDbPoint
 10
3345.299999999999
 20
1650.000000000003
 30
0.0
  0
POINT
  5
BDDA
330
BDD0
100
AcDbEntity
  8
Defpoints
 62
     0
100
AcDbPoint
 10
3356.000000000004
 20
1780.000000000001
 30
0.0
  0
POINT
  5
BDDB
330
BDD0
100
AcDbEntity
  8
Defpoints
 62
     0
100
AcDbPoint
 10
3198.5
 20
1780.000000000001
 30
0.0
  0
ENDBLK
  5
BDD2
330
BDD0
100
AcDbEntity
  8
0
100
AcDbBlockEnd
  0
BLOCK
  5
C04F
330
C04E
100
AcDbEntity
  8
0
100
AcDbBlockBegin
  2
*D560
 70
     1
 10
0.0
 20
0.0
 30
0.0
  3
*D560
  1

  0
LINE
  5
C051
330
C04E
100
AcDbEntity
  8
01注記寸法
 62
     0
370
    -2
100
AcDbLine
 10
1350.0
 20
3729.0
 30
0.0
 11
1350.0
 21
4169.999999999998
 31
0.0
  0
LINE
  5
C052
330
C04E
100
AcDbEntity
  8
01注記寸法
 62
     0
370
    -2
100
AcDbLine
 10
2950.0
 20
3728.999999999999
 30
0.0
 11
2950.0
 21
4169.999999999998
 31
0.0
  0
LINE
  5
C053
330
C04E
100
AcDbEntity
  8
01注記寸法
 62
     0
370
    -2
100
AcDbLine
 10
1395.0
 20
4154.999999999998
 30
0.0
 11
2905.0
 21
4154.999999999998
 31
0.0
  0
INSERT
  5
C054
330
C04E
100
AcDbEntity
  8
01注記寸法
 62
     0
370
    -2
100
AcDbBlockReference
  2
_Open
 10
1350.0
 20
4154.999999999998
 30
0.0
 41
45.0
 42
45.0
 43
45.0
 50
180.0
  0
INSERT
  5
C055
330
C04E
100
AcDbEntity
  8
01注記寸法
 62
     0
370
    -2
100
AcDbBlockReference
  2
_Open
 10
2950.0
 20
4154.999999999998
 30
0.0
 41
45.0
 42
45.0
 43
45.0
  0
MTEXT
  5
C056
330
C04E
100
AcDbEntity
  8
01注記寸法
 62
     0
100
AcDbMText
 10
2150.0
 20
4192.499999999998
 30
0.0
 40
45.0
 41
0.0
 71
     5
 72
     1
  1
1600
 73
     1
 44
1.0
  0
POINT
  5
C057
330
C04E
100
AcDbEntity
  8
Defpoints
 62
     0
100
AcDbPoint
 10
1350.0
 20
3706.5
 30
0.0
  0
POINT
  5
C058
330
C04E
100
AcDbEntity
  8
Defpoints
 62
     0
100
AcDbPoint
 10
2950.0
 20
3706.499999999999
 30
0.0
  0
POINT
  5
C059
330
C04E
100
AcDbEntity
  8
Defpoints
 62
     0
100
AcDbPoint
 10
2950.0
 20
4154.999999999998
 30
0.0
  0
ENDBLK
  5
C050
330
C04E
100
AcDbEntity
  8
0
100
AcDbBlockEnd
  0
BLOCK
  5
C05B
330
C05A
100
AcDbEntity
  8
0
100
AcDbBlockBegin
  2
*D561
 70
     1
 10
0.0
 20
0.0
 30
0.0
  3
*D561
  1

  0
LINE
  5
C05D
330
C05A
100
AcDbEntity
  8
01注記寸法
 62
     0
370
    -2
100
AcDbLine
 10
1327.5
 20
3704.999999999998
 30
0.0
 11
1035.0
 21
3704.999999999998
 31
0.0
  0
LINE
  5
C05E
330
C05A
100
AcDbEntity
  8
01注記寸法
 62
     0
370
    -2
100
AcDbLine
 10
1327.5
 20
2929.999999999998
 30
0.0
 11
1035.0
 21
2929.999999999998
 31
0.0
  0
LINE
  5
C05F
330
C05A
100
AcDbEntity
  8
01注記寸法
 62
     0
370
    -2
100
AcDbLine
 10
1050.0
 20
3659.999999999998
 30
0.0
 11
1050.0
 21
2974.999999999998
 31
0.0
  0
INSERT
  5
C060
330
C05A
100
AcDbEntity
  8
01注記寸法
 62
     0
370
    -2
100
AcDbBlockReference
  2
_Open
 10
1050.0
 20
3704.999999999998
 30
0.0
 41
45.0
 42
45.0
 43
45.0
 50
90.0
  0
INSERT
  5
C061
330
C05A
100
AcDbEntity
  8
01注記寸法
 62
     0
370
    -2
100
AcDbBlockReference
  2
_Open
 10
1050.0
 20
2929.999999999998
 30
0.0
 41
45.0
 42
45.0
 43
45.0
 50
270.0
  0
MTEXT
  5
C062
330
C05A
100
AcDbEntity
  8
01注記寸法
 62
     0
100
AcDbMText
 10
1012.5
 20
3317.499999999998
 30
0.0
 40
45.0
 41
0.0
 71
     5
 72
     1
  1
775
 11
0.0
 21
1.0
 31
0.0
 73
     1
 44
1.0
  0
POINT
  5
C063
330
C05A
100
AcDbEntity
  8
Defpoints
 62
     0
100
AcDbPoint
 10
1350.0
 20
3704.999999999998
 30
0.0
  0
POINT
  5
C064
330
C05A
100
AcDbEntity
  8
Defpoints
 62
     0
100
AcDbPoint
 10
1350.0
 20
2929.999999999998
 30
0.0
  0
POINT
  5
C065
330
C05A
100
AcDbEntity
  8
Defpoints
 62
     0
100
AcDbPoint
 10
1050.0
 20
2929.999999999998
 30
0.0
  0
ENDBLK
  5
C05C
330
C05A
100
AcDbEntity
  8
0
100
AcDbBlockEnd
  0
BLOCK
  5
D6F2
330
D6F1
100
AcDbEntity
  8
0
100
AcDbBlockBegin
  2
*D825
 70
     1
 10
0.0
 20
0.0
 30
0.0
  3
*D825
  1

  0
LINE
  5
D6F4
330
D6F1
100
AcDbEntity
  8
01注記寸法
 62
     0
370
    -2
100
AcDbLine
 10
4498.418814455152
 20
433.7004795614739
 30
0.0
 11
4377.529669687498
 21
433.7004795614739
 31
0.0
  0
LINE
  5
D6F5
330
D6F1
100
AcDbEntity
  8
01注記寸法
 62
     0
370
    -2
100
AcDbLine
 10
4498.418814455152
 20
298.7004795614698
 30
0.0
 11
4377.529669687498
 21
298.7004795614698
 31
0.0
  0
LINE
  5
D6F6
330
D6F1
100
AcDbEntity
  8
01注記寸法
 62
     0
370
    -2
100
AcDbLine
 10
4392.529669687498
 20
433.7004795614739
 30
0.0
 11
4392.529669687498
 21
738.7854795614744
 31
0.0
  0
LINE
  5
D6F7
330
D6F1
100
AcDbEntity
  8
01注記寸法
 62
     0
370
    -2
100
AcDbLine
 10
4392.529669687498
 20
388.7004795614739
 30
0.0
 11
4392.529669687498
 21
343.7004795614698
 31
0.0
  0
INSERT
  5
D6F8
330
D6F1
100
AcDbEntity
  8
01注記寸法
 62
     0
370
    -2
100
AcDbBlockReference
  2
_Open
 10
4392.529669687498
 20
433.7004795614739
 30
0.0
 41
45.0
 42
45.0
 43
45.0
 50
90.0
  0
INSERT
  5
D6F9
330
D6F1
100
AcDbEntity
  8
01注記寸法
 62
     0
370
    -2
100
AcDbBlockReference
  2
_Open
 10
4392.529669687498
 20
298.7004795614698
 30
0.0
 41
45.0
 42
45.0
 43
45.0
 50
270.0
  0
MTEXT
  5
D6FA
330
D6F1
100
AcDbEntity
  8
01注記寸法
 62
     0
100
AcDbMText
 10
4355.029669687498
 20
608.7429795614748
 30
0.0
 40
45.0
 41
0.0
 71
     5
 72
     1
  1
MAX 30mm
 11
0.0
 21
1.0
 31
0.0
 73
     1
 44
1.0
  0
POINT
  5
D6FB
330
D6F1
100
AcDbEntity
  8
Defpoints
 62
     0
100
AcDbPoint
 10
4520.918814455152
 20
433.7004795614739
 30
0.0
  0
POINT
  5
D6FC
330
D6F1
100
AcDbEntity
  8
Defpoints
 62
     0
100
AcDbPoint
 10
4520.918814455152
 20
298.7004795614698
 30
0.0
  0
POINT
  5
D6FD
330
D6F1
100
AcDbEntity
  8
Defpoints
 62
     0
100
AcDbPoint
 10
4392.529669687498
 20
298.7004795614698
 30
0.0
  0
ENDBLK
  5
D6F3
330
D6F1
100
AcDbEntity
  8
0
100
AcDbBlockEnd
  0
BLOCK
  5
FA0F
330
FA0E
100
AcDbEntity
  8
0
100
AcDbBlockBegin
  2
RAS-AP450SG他
 70
     0
 10
0.0
 20
0.0
 30
0.0
  3
RAS-AP450SG他
  1

  0
LINE
  5
FA10
330
FA0E
100
AcDbEntity
  8
11機器
100
AcDbLine
 10
-130.0
 20
-2.299999999999727
 30
0.0
 11
-130.0
 21
731.9999999999995
 31
0.0
  0
LINE
  5
FA11
330
FA0E
100
AcDbEntity
  8
11機器
100
AcDbLine
 10
1468.000013
 20
-2.299999999999727
 30
0.0
 11
1468.000013
 21
731.9999999999995
 31
0.0
  0
LINE
  5
FA12
330
FA0E
100
AcDbEntity
  8
11機器
100
AcDbLine
 10
-127.3000000000001
 20
-2.0
 30
0.0
 11
-127.3000000000001
 21
-5.400000000000091
 31
0.0
  0
LINE
  5
FA13
330
FA0E
100
AcDbEntity
  8
11機器
100
AcDbLine
 10
1431.947488
 20
746.7006779999997
 30
0.0
 11
1428.600031
 21
746.7006779999997
 31
0.0
  0
LINE
  5
FA14
330
FA0E
100
AcDbEntity
  8
11機器
100
AcDbLine
 10
-90.59998900000005
 20
747.0000130000003
 30
0.0
 11
1428.600031
 21
747.0000130000003
 31
0.0
  0
LINE
  5
FA15
330
FA0E
100
AcDbEntity
  8
11機器
100
AcDbLine
 10
-90.59998900000005
 20
747.0000130000003
 30
0.0
 11
-90.59998900000005
 21
744.3999989999998
 31
0.0
  0
LINE
  5
FA16
330
FA0E
100
AcDbEntity
  8
11機器
100
AcDbLine
 10
-93.80087800000001
 20
746.6006620000003
 30
0.0
 11
-90.59998900000005
 21
746.6006620000003
 31
0.0
  0
ARC
  5
FA17
330
FA0E
100
AcDbEntity
  8
11機器
100
AcDbCircle
 10
-95.0
 20
744.9999999999995
 30
0.0
 40
2.0
100
AcDbArc
 50
0.0
 51
90.0
  0
ARC
  5
FA18
330
FA0E
100
AcDbEntity
  8
11機器
100
AcDbCircle
 10
-95.0
 20
744.9999999999995
 30
0.0
 40
1.0
100
AcDbArc
 50
0.0
 51
90.0
  0
ARC
  5
FA19
330
FA0E
100
AcDbEntity
  8
11機器
100
AcDbCircle
 10
-88.80000000000007
 20
743.7999999999997
 30
0.0
 40
3.2
100
AcDbArc
 50
124.2285850000005
 51
169.1930769999989
  0
ARC
  5
FA1A
330
FA0E
100
AcDbEntity
  8
11機器
100
AcDbCircle
 10
-116.0
 20
731.9999999999995
 30
0.0
 40
14.0
100
AcDbArc
 50
90.0
 51
180.0
  0
LINE
  5
FA1B
330
FA0E
100
AcDbEntity
  8
11機器
100
AcDbLine
 10
-127.299987
 20
734.4000080000001
 30
0.0
 11
-117.299988
 21
744.3999989999998
 31
0.0
  0
LINE
  5
FA1C
330
FA0E
100
AcDbEntity
  8
11機器
100
AcDbLine
 10
-117.299988
 20
744.3999989999998
 30
0.0
 11
-90.59998900000005
 21
744.3999989999998
 31
0.0
  0
LINE
  5
FA1D
330
FA0E
100
AcDbEntity
  8
11機器
100
AcDbLine
 10
-116.0
 20
746.0000260000002
 30
0.0
 11
-95.0
 21
746.0000260000002
 31
0.0
  0
LINE
  5
FA1E
330
FA0E
100
AcDbEntity
  8
11機器
100
AcDbLine
 10
-94.000002
 20
744.9999789999997
 30
0.0
 11
-94.000002
 21
744.3999989999998
 31
0.0
  0
LINE
  5
FA1F
330
FA0E
100
AcDbEntity
  8
11機器
100
AcDbLine
 10
-93.0
 20
744.9999789999997
 30
0.0
 11
-93.0
 21
744.3999989999998
 31
0.0
  0
LINE
  5
FA20
330
FA0E
100
AcDbEntity
  8
11機器
100
AcDbLine
 10
-129.899987
 20
730.99998
 30
0.0
 11
-127.299987
 21
730.99998
 31
0.0
  0
LINE
  5
FA21
330
FA0E
100
AcDbEntity
  8
11機器
100
AcDbLine
 10
-127.299987
 20
730.99998
 30
0.0
 11
-127.299987
 21
734.4000080000001
 31
0.0
  0
LINE
  5
FA22
330
FA0E
100
AcDbEntity
  8
11機器
100
AcDbLine
 10
-90.70787700000005
 20
744.3999989999998
 30
0.0
 11
-90.64775800000007
 21
744.5653420000003
 31
0.0
  0
LINE
  5
FA23
330
FA0E
100
AcDbEntity
  8
11機器
100
AcDbLine
 10
-90.64775800000007
 20
744.5653420000003
 30
0.0
 11
-90.59998900000005
 21
744.6717960000001
 31
0.0
  0
LINE
  5
FA24
330
FA0E
100
AcDbEntity
  8
11機器
100
AcDbLine
 10
-116.0
 20
746.9999999999995
 30
0.0
 11
-95.0
 21
747.0000130000003
 31
0.0
  0
LINE
  5
FA25
330
FA0E
100
AcDbEntity
  8
11機器
100
AcDbLine
 10
-96.19998700000008
 20
-15.40000000000009
 30
0.0
 11
-96.19998700000008
 21
-17.29999999999973
 31
0.0
  0
ARC
  5
FA26
330
FA0E
100
AcDbEntity
  8
11機器
100
AcDbCircle
 10
-96.19998700000008
 20
-15.29999999999973
 30
0.0
 40
1.0
100
AcDbArc
 50
185.739170000015
 51
270.0
  0
LINE
  5
FA27
330
FA0E
100
AcDbEntity
  8
11機器
100
AcDbLine
 10
1434.40004
 20
-15.40000000000009
 30
0.0
 11
1434.40004
 21
-17.29999999999973
 31
0.0
  0
LINE
  5
FA28
330
FA0E
100
AcDbEntity
  8
11機器
100
AcDbLine
 10
1436.200041
 20
-15.5
 30
0.0
 11
1436.200041
 21
-15.40000000000009
 31
0.0
  0
LINE
  5
FA29
330
FA0E
100
AcDbEntity
  8
11機器
100
AcDbLine
 10
1435.400027
 20
-15.5
 30
0.0
 11
1435.400027
 21
-15.40000000000009
 31
0.0
  0
ARC
  5
FA2A
330
FA0E
100
AcDbEntity
  8
11機器
100
AcDbCircle
 10
1434.400013
 20
-15.5
 30
0.0
 40
1.8
100
AcDbArc
 50
270.0
 51
0.0
  0
ARC
  5
FA2B
330
FA0E
100
AcDbEntity
  8
11機器
100
AcDbCircle
 10
1434.400013
 20
-15.5
 30
0.0
 40
1.0
100
AcDbArc
 50
270.0
 51
0.0
  0
ARC
  5
FA2C
330
FA0E
100
AcDbEntity
  8
11機器
100
AcDbCircle
 10
-96.39998700000001
 20
-15.5
 30
0.0
 40
1.8
100
AcDbArc
 50
180.0
 51
270.0
  0
ARC
  5
FA2D
330
FA0E
100
AcDbEntity
  8
11機器
100
AcDbCircle
 10
1427.0
 20
743.7999999999997
 30
0.0
 40
3.2
100
AcDbArc
 50
10.8069230000007
 51
59.99973100000695
  0
ARC
  5
FA2E
330
FA0E
100
AcDbEntity
  8
11機器
100
AcDbCircle
 10
1427.0
 20
743.7999999999997
 30
0.0
 40
2.0
100
AcDbArc
 50
17.45760300000483
 51
36.86927700001889
  0
ARC
  5
FA2F
330
FA0E
100
AcDbEntity
  8
11機器
100
AcDbCircle
 10
-116.0
 20
731.9999999999995
 30
0.0
 40
15.0
100
AcDbArc
 50
90.0
 51
180.0
  0
ARC
  5
FA30
330
FA0E
100
AcDbEntity
  8
11機器
100
AcDbCircle
 10
1433.000013
 20
744.9999999999995
 30
0.0
 40
1.0
100
AcDbArc
 50
90.0
 51
180.0
  0
ARC
  5
FA31
330
FA0E
100
AcDbEntity
  8
11機器
100
AcDbCircle
 10
1433.000013
 20
744.9999999999995
 30
0.0
 40
2.0
100
AcDbArc
 50
90.00074699999963
 51
180.0
  0
ARC
  5
FA32
330
FA0E
100
AcDbEntity
  8
11機器
100
AcDbCircle
 10
1454.000013
 20
731.9999999999995
 30
0.0
 40
14.0
100
AcDbArc
 50
0.0
 51
90.0
  0
ARC
  5
FA33
330
FA0E
100
AcDbEntity
  8
11機器
100
AcDbCircle
 10
1454.000013
 20
731.9999999999995
 30
0.0
 40
15.0
100
AcDbArc
 50
0.0
 51
90.0
  0
LINE
  5
FA34
330
FA0E
100
AcDbEntity
  8
11機器
100
AcDbLine
 10
1454.000014
 20
746.0000260000002
 30
0.0
 11
1432.999987
 21
746.0000260000002
 31
0.0
  0
LINE
  5
FA35
330
FA0E
100
AcDbEntity
  8
11機器
100
AcDbLine
 10
1431.999999
 20
744.9999789999997
 30
0.0
 11
1431.999999
 21
744.3999989999998
 31
0.0
  0
LINE
  5
FA36
330
FA0E
100
AcDbEntity
  8
11機器
100
AcDbLine
 10
1431.000012
 20
744.9999789999997
 30
0.0
 11
1431.000012
 21
744.3999989999998
 31
0.0
  0
ARC
  5
FA37
330
FA0E
100
AcDbEntity
  8
11機器
100
AcDbCircle
 10
1441.000013
 20
-15.29999999999973
 30
0.0
 40
2.0
100
AcDbArc
 50
182.8659840000097
 51
270.0
  0
LINE
  5
FA38
330
FA0E
100
AcDbEntity
  8
11機器
100
AcDbLine
 10
1428.599972
 20
-17.29999999999973
 30
0.0
 11
1434.40004
 21
-17.29999999999973
 31
0.0
  0
ARC
  5
FA39
330
FA0E
100
AcDbEntity
  8
11機器
100
AcDbCircle
 10
1454.000013
 20
-2.299999999999727
 30
0.0
 40
15.0
100
AcDbArc
 50
270.0
 51
0.0
  0
ARC
  5
FA3A
330
FA0E
100
AcDbEntity
  8
11機器
100
AcDbCircle
 10
1454.000013
 20
-2.299999999999727
 30
0.0
 40
14.0
100
AcDbArc
 50
270.0
 51
0.0
  0
LINE
  5
FA3B
330
FA0E
100
AcDbEntity
  8
11機器
100
AcDbLine
 10
1441.000003
 20
-16.29999999999973
 30
0.0
 11
1454.000014
 21
-16.29999999999973
 31
0.0
  0
ARC
  5
FA3C
330
FA0E
100
AcDbEntity
  8
11機器
100
AcDbCircle
 10
1441.000013
 20
-15.29999999999973
 30
0.0
 40
1.0
100
AcDbArc
 50
185.7391700000157
 51
270.0
  0
ARC
  5
FA3D
330
FA0E
100
AcDbEntity
  8
11機器
100
AcDbCircle
 10
-103.0
 20
-15.29999999999973
 30
0.0
 40
1.0
100
AcDbArc
 50
270.0
 51
354.2608299999849
  0
LINE
  5
FA3E
330
FA0E
100
AcDbEntity
  8
11機器
100
AcDbLine
 10
-103.0
 20
-16.29999999999973
 30
0.0
 11
-116.0
 21
-16.29999999999973
 31
0.0
  0
ARC
  5
FA3F
330
FA0E
100
AcDbEntity
  8
11機器
100
AcDbCircle
 10
-116.0
 20
-2.299999999999727
 30
0.0
 40
14.0
100
AcDbArc
 50
180.0
 51
270.0
  0
ARC
  5
FA40
330
FA0E
100
AcDbEntity
  8
11機器
100
AcDbCircle
 10
-116.0
 20
-2.299999999999727
 30
0.0
 40
15.0
100
AcDbArc
 50
180.0
 51
270.0
  0
LINE
  5
FA41
330
FA0E
100
AcDbEntity
  8
11機器
100
AcDbLine
 10
-90.60000000000002
 20
-17.29999999999973
 30
0.0
 11
-96.39998700000001
 21
-17.29999999999973
 31
0.0
  0
ARC
  5
FA42
330
FA0E
100
AcDbEntity
  8
11機器
100
AcDbCircle
 10
-103.0
 20
-15.29999999999973
 30
0.0
 40
2.0
100
AcDbArc
 50
270.0
 51
357.1340159999901
  0
LINE
  5
FA43
330
FA0E
100
AcDbEntity
  8
11機器
100
AcDbLine
 10
-131.0
 20
731.4999999999995
 30
0.0
 11
-131.0
 21
-2.299999999999727
 31
0.0
  0
LINE
  5
FA44
330
FA0E
100
AcDbEntity
  8
11機器
100
AcDbLine
 10
1469.0
 20
731.51953
 30
0.0
 11
1469.0
 21
-2.467717999999877
 31
0.0
  0
LINE
  5
FA45
330
FA0E
100
AcDbEntity
  8
11機器
100
AcDbLine
 10
-101.947497
 20
-17.00065799999993
 30
0.0
 11
-97.39398400000005
 21
-17.00065799999993
 31
0.0
  0
LINE
  5
FA46
330
FA0E
100
AcDbEntity
  8
11機器
100
AcDbLine
 10
1439.800877
 20
-16.90065800000002
 30
0.0
 11
1435.530561
 21
-16.90065800000002
 31
0.0
  0
LINE
  5
FA47
330
FA0E
100
AcDbEntity
  8
11機器
100
AcDbLine
 10
-117.3000010000001
 20
-15.40000000000009
 30
0.0
 11
-127.3000000000001
 21
-5.400000000000091
 31
0.0
  0
LINE
  5
FA48
330
FA0E
100
AcDbEntity
  8
11機器
100
AcDbLine
 10
-117.3000010000001
 20
-15.40000000000009
 30
0.0
 11
-90.60000000000002
 21
-15.40000000000009
 31
0.0
  0
LINE
  5
FA49
330
FA0E
100
AcDbEntity
  8
11機器
100
AcDbLine
 10
1455.299991
 20
-15.40000000000009
 30
0.0
 11
1428.599972
 21
-15.40000000000009
 31
0.0
  0
LINE
  5
FA4A
330
FA0E
100
AcDbEntity
  8
11機器
100
AcDbLine
 10
1465.299982
 20
-5.400000000000091
 30
0.0
 11
1455.299991
 21
-15.40000000000009
 31
0.0
  0
LINE
  5
FA4B
330
FA0E
100
AcDbEntity
  8
11機器
100
AcDbLine
 10
1465.299982
 20
-2.0
 30
0.0
 11
1465.299982
 21
-5.400000000000091
 31
0.0
  0
LINE
  5
FA4C
330
FA0E
100
AcDbEntity
  8
11機器
100
AcDbLine
 10
-129.9
 20
-2.0
 30
0.0
 11
-127.3000000000001
 21
-2.0
 31
0.0
  0
LINE
  5
FA4D
330
FA0E
100
AcDbEntity
  8
11機器
100
AcDbLine
 10
1465.299982
 20
-2.0
 30
0.0
 11
1468.000013
 21
-2.0
 31
0.0
  0
LINE
  5
FA4E
330
FA0E
100
AcDbEntity
  8
11機器
100
AcDbLine
 10
1428.599972
 20
-18.0
 30
0.0
 11
-90.60000000000002
 21
-18.0
 31
0.0
  0
LINE
  5
FA4F
330
FA0E
100
AcDbEntity
  8
11機器
100
AcDbLine
 10
1428.600031
 20
747.0000130000003
 30
0.0
 11
1428.600031
 21
744.3999989999998
 31
0.0
  0
LINE
  5
FA50
330
FA0E
100
AcDbEntity
  8
11機器
100
AcDbLine
 10
1432.916931
 20
747.0000130000003
 30
0.0
 11
1454.008585
 21
747.0000130000003
 31
0.0
  0
LINE
  5
FA51
330
FA0E
100
AcDbEntity
  8
11機器
100
AcDbLine
 10
1465.300042
 20
734.4000080000001
 30
0.0
 11
1465.300042
 21
730.99998
 31
0.0
  0
LINE
  5
FA52
330
FA0E
100
AcDbEntity
  8
11機器
100
AcDbLine
 10
1455.299991
 20
744.3999989999998
 30
0.0
 11
1465.300042
 21
734.4000080000001
 31
0.0
  0
LINE
  5
FA53
330
FA0E
100
AcDbEntity
  8
11機器
100
AcDbLine
 10
1455.299991
 20
744.3999989999998
 30
0.0
 11
1428.600031
 21
744.3999989999998
 31
0.0
  0
LINE
  5
FA54
330
FA0E
100
AcDbEntity
  8
11機器
100
AcDbLine
 10
1465.300042
 20
730.99998
 30
0.0
 11
1467.899996
 21
730.99998
 31
0.0
  0
LINE
  5
FA55
330
FA0E
100
AcDbEntity
  8
11機器
100
AcDbLine
 10
1428.599972
 20
-15.40000000000009
 30
0.0
 11
1428.599972
 21
-18.0
 31
0.0
  0
LINE
  5
FA56
330
FA0E
100
AcDbEntity
  8
11機器
100
AcDbLine
 10
-90.60000000000002
 20
-15.40000000000009
 30
0.0
 11
-90.60000000000002
 21
-18.0
 31
0.0
  0
LINE
  5
FA57
330
FA0E
100
AcDbEntity
  8
11機器
100
AcDbLine
 10
-103.0
 20
-17.29999999999973
 30
0.0
 11
-116.0
 21
-17.29999999999973
 31
0.0
  0
LINE
  5
FA58
330
FA0E
100
AcDbEntity
  8
11機器
100
AcDbLine
 10
1441.000013
 20
-17.29999999999973
 30
0.0
 11
1454.000014
 21
-17.29999999999973
 31
0.0
  0
ARC
  5
FA59
330
FA0E
100
AcDbEntity
  8
11機器
100
AcDbCircle
 10
-116.0
 20
731.9999999999995
 30
0.0
 40
11.0
100
AcDbArc
 50
106.723111999999
 51
163.2768879999986
  0
ARC
  5
FA5A
330
FA0E
100
AcDbEntity
  8
11機器
100
AcDbCircle
 10
-110.1
 20
744.9999999999995
 30
0.0
 40
1.0
100
AcDbArc
 50
0.0
 51
90.0
  0
LINE
  5
FA5B
330
FA0E
100
AcDbEntity
  8
11機器
100
AcDbLine
 10
-109.100001
 20
744.5000150000001
 30
0.0
 11
-102.9
 21
744.5000150000001
 31
0.0
  0
ARC
  5
FA5C
330
FA0E
100
AcDbEntity
  8
11機器
100
AcDbCircle
 10
-101.9
 20
744.9999999999995
 30
0.0
 40
1.0
100
AcDbArc
 50
90.0
 51
180.0
  0
LINE
  5
FA5D
330
FA0E
100
AcDbEntity
  8
11機器
100
AcDbLine
 10
-102.9
 20
744.9999789999997
 30
0.0
 11
-102.9
 21
744.5000150000001
 31
0.0
  0
LINE
  5
FA5E
330
FA0E
100
AcDbEntity
  8
11機器
100
AcDbLine
 10
-109.100001
 20
744.5000150000001
 30
0.0
 11
-109.100001
 21
744.9999789999997
 31
0.0
  0
LINE
  5
FA5F
330
FA0E
100
AcDbEntity
  8
11機器
100
AcDbLine
 10
-95.0
 20
746.0000260000002
 30
0.0
 11
-95.0
 21
744.3999989999998
 31
0.0
  0
LINE
  5
FA60
330
FA0E
100
AcDbEntity
  8
11機器
100
AcDbLine
 10
665.8
 20
53.00001599999996
 30
0.0
 11
665.799998
 21
677.0000159999995
 31
0.0
  0
LINE
  5
FA61
330
FA0E
100
AcDbEntity
  8
11機器
100
AcDbLine
 10
672.1999969999999
 20
677.0000159999995
 30
0.0
 11
672.1999999999999
 21
53.00001599999996
 31
0.0
  0
ARC
  5
FA62
330
FA0E
100
AcDbEntity
  8
11機器
100
AcDbCircle
 10
1439.900013
 20
744.9999999999995
 30
0.0
 40
1.0
100
AcDbArc
 50
0.0
 51
90.0
  0
ARC
  5
FA63
330
FA0E
100
AcDbEntity
  8
11機器
100
AcDbCircle
 10
1448.100013
 20
744.9999999999995
 30
0.0
 40
1.0
100
AcDbArc
 50
90.0
 51
180.0
  0
LINE
  5
FA64
330
FA0E
100
AcDbEntity
  8
11機器
100
AcDbLine
 10
1447.100002
 20
744.9999789999997
 30
0.0
 11
1447.100002
 21
744.5000150000001
 31
0.0
  0
LINE
  5
FA65
330
FA0E
100
AcDbEntity
  8
11機器
100
AcDbLine
 10
1440.899986
 20
744.5000150000001
 30
0.0
 11
1440.899986
 21
744.9999789999997
 31
0.0
  0
LINE
  5
FA66
330
FA0E
100
AcDbEntity
  8
11機器
100
AcDbLine
 10
-98.19998700000008
 20
-15.40000000000009
 30
0.0
 11
-98.19998700000008
 21
-15.5
 31
0.0
  0
LINE
  5
FA67
330
FA0E
100
AcDbEntity
  8
11機器
100
AcDbLine
 10
1440.899986
 20
744.5000150000001
 30
0.0
 11
1447.100002
 21
744.5000150000001
 31
0.0
  0
ARC
  5
FA68
330
FA0E
100
AcDbEntity
  8
11機器
100
AcDbCircle
 10
1454.000013
 20
731.9999999999995
 30
0.0
 40
11.0
100
AcDbArc
 50
16.72321300000264
 51
73.27678700000145
  0
LINE
  5
FA69
330
FA0E
100
AcDbEntity
  8
11機器
100
AcDbLine
 10
1432.999987
 20
746.0000260000002
 30
0.0
 11
1432.999987
 21
744.3999989999998
 31
0.0
  0
LINE
  5
FA6A
330
FA0E
100
AcDbEntity
  8
11機器
100
AcDbLine
 10
1441.000003
 20
-15.40000000000009
 30
0.0
 11
1441.000003
 21
-16.29999999999973
 31
0.0
  0
ARC
  5
FA6B
330
FA0E
100
AcDbEntity
  8
11機器
100
AcDbCircle
 10
1454.000013
 20
-2.299999999999727
 30
0.0
 40
11.0
100
AcDbArc
 50
292.7690309999998
 51
337.230968999998
  0
LINE
  5
FA6C
330
FA0E
100
AcDbEntity
  8
11機器
100
AcDbLine
 10
-103.0
 20
-15.40000000000009
 30
0.0
 11
-103.0
 21
-16.29999999999973
 31
0.0
  0
ARC
  5
FA6D
330
FA0E
100
AcDbEntity
  8
11機器
100
AcDbCircle
 10
-116.0
 20
-2.299999999999727
 30
0.0
 40
11.0
100
AcDbArc
 50
202.769158000001
 51
247.2308420000011
  0
LINE
  5
FA6E
330
FA0E
100
AcDbEntity
  8
11機器
100
AcDbLine
 10
1468.000013
 20
52.5
 30
0.0
 11
-130.0
 21
52.5
 31
0.0
  0
LINE
  5
FA6F
330
FA0E
100
AcDbEntity
  8
11機器
100
AcDbLine
 10
1326.499987
 20
-7.5
 30
0.0
 11
1349.499989
 21
-7.5
 31
0.0
  0
ARC
  5
FA70
330
FA0E
100
AcDbEntity
  8
11機器
100
AcDbCircle
 10
1326.5
 20
0.0
 30
0.0
 40
7.5
100
AcDbArc
 50
90.0
 51
270.0
  0
LINE
  5
FA71
330
FA0E
100
AcDbEntity
  8
11機器
100
AcDbLine
 10
1349.499989
 20
7.5
 30
0.0
 11
1326.499987
 21
7.5
 31
0.0
  0
ARC
  5
FA72
330
FA0E
100
AcDbEntity
  8
11機器
100
AcDbCircle
 10
1349.5
 20
0.0
 30
0.0
 40
7.5
100
AcDbArc
 50
270.0
 51
90.0
  0
LINE
  5
FA73
330
FA0E
100
AcDbEntity
  8
11機器
100
AcDbLine
 10
-11.499999
 20
-7.5
 30
0.0
 11
11.49999500000001
 21
-7.5
 31
0.0
  0
ARC
  5
FA74
330
FA0E
100
AcDbEntity
  8
11機器
100
AcDbCircle
 10
-11.5
 20
0.0
 30
0.0
 40
7.5
100
AcDbArc
 50
90.0
 51
270.0
  0
LINE
  5
FA75
330
FA0E
100
AcDbEntity
  8
11機器
100
AcDbLine
 10
11.49999500000001
 20
7.5
 30
0.0
 11
-11.499999
 21
7.5
 31
0.0
  0
ARC
  5
FA76
330
FA0E
100
AcDbEntity
  8
11機器
100
AcDbCircle
 10
11.5
 20
0.0
 30
0.0
 40
7.5
100
AcDbArc
 50
270.0
 51
90.0
  0
LINE
  5
FA77
330
FA0E
100
AcDbEntity
  8
11機器
100
AcDbLine
 10
11.50000999999997
 20
736.5000219999997
 30
0.0
 11
-11.49998400000004
 21
736.5000219999997
 31
0.0
  0
ARC
  5
FA78
330
FA0E
100
AcDbEntity
  8
11機器
100
AcDbCircle
 10
11.50001299999997
 20
728.9999999999995
 30
0.0
 40
7.5
100
AcDbArc
 50
270.0
 51
90.0
  0
LINE
  5
FA79
330
FA0E
100
AcDbEntity
  8
11機器
100
AcDbLine
 10
-11.49998400000004
 20
721.499977
 30
0.0
 11
11.50000999999997
 21
721.499977
 31
0.0
  0
ARC
  5
FA7A
330
FA0E
100
AcDbEntity
  8
11機器
100
AcDbCircle
 10
-11.49998700000003
 20
728.9999999999995
 30
0.0
 40
7.5
100
AcDbArc
 50
90.0
 51
270.0
  0
LINE
  5
FA7B
330
FA0E
100
AcDbEntity
  8
11機器
100
AcDbLine
 10
1349.499989
 20
736.5000219999997
 30
0.0
 11
1326.499987
 21
736.5000219999997
 31
0.0
  0
ARC
  5
FA7C
330
FA0E
100
AcDbEntity
  8
11機器
100
AcDbCircle
 10
1349.500013
 20
728.9999999999995
 30
0.0
 40
7.5
100
AcDbArc
 50
270.0
 51
90.0
  0
LINE
  5
FA7D
330
FA0E
100
AcDbEntity
  8
11機器
100
AcDbLine
 10
1326.499987
 20
721.499977
 30
0.0
 11
1349.499989
 21
721.499977
 31
0.0
  0
ARC
  5
FA7E
330
FA0E
100
AcDbEntity
  8
11機器
100
AcDbCircle
 10
1326.500013
 20
728.9999999999995
 30
0.0
 40
7.5
100
AcDbArc
 50
90.0
 51
270.0
  0
LINE
  5
FA7F
330
FA0E
100
AcDbEntity
  8
11機器
100
AcDbLine
 10
-130.0
 20
676.50002
 30
0.0
 11
1468.000013
 21
676.50002
 31
0.0
  0
LINE
  5
FA80
330
FA0E
100
AcDbEntity
  8
11機器
100
AcDbLine
 10
190.00001
 20
172.0029800000002
 30
0.0
 11
204.999996
 21
172.0029800000002
 31
0.0
  0
ARC
  5
FA81
330
FA0E
100
AcDbEntity
  8
11機器
100
AcDbCircle
 10
205.0
 20
152.002978
 30
0.0
 40
20.0
100
AcDbArc
 50
0.0
 51
90.0
  0
LINE
  5
FA82
330
FA0E
100
AcDbEntity
  8
11機器
100
AcDbLine
 10
225.000007
 20
152.0029840000002
 30
0.0
 11
225.000007
 21
133.5029770000001
 31
0.0
  0
LINE
  5
FA83
330
FA0E
100
AcDbEntity
  8
11機器
100
AcDbLine
 10
16.0
 20
133.5029770000001
 30
0.0
 11
16.0
 21
152.0029840000002
 31
0.0
  0
ARC
  5
FA84
330
FA0E
100
AcDbEntity
  8
11機器
100
AcDbCircle
 10
36.0
 20
152.002978
 30
0.0
 40
20.0
100
AcDbArc
 50
90.0
 51
180.0
  0
LINE
  5
FA85
330
FA0E
100
AcDbEntity
  8
11機器
100
AcDbLine
 10
35.99999600000001
 20
172.0029800000002
 30
0.0
 11
77.99999200000002
 21
172.0029800000002
 31
0.0
  0
LINE
  5
FA86
330
FA0E
100
AcDbEntity
  8
11機器
100
AcDbLine
 10
151.999993
 20
130.502978
 30
0.0
 11
151.999993
 21
112.002978
 31
0.0
  0
LINE
  5
FA87
330
FA0E
100
AcDbEntity
  8
11機器
100
AcDbLine
 10
172.000004
 20
92.00297499999988
 30
0.0
 11
186.999989
 21
92.00297499999988
 31
0.0
  0
ARC
  5
FA88
330
FA0E
100
AcDbEntity
  8
11機器
100
AcDbCircle
 10
172.0
 20
112.002978
 30
0.0
 40
20.0
100
AcDbArc
 50
180.0
 51
270.0
  0
LINE
  5
FA89
330
FA0E
100
AcDbEntity
  8
11機器
100
AcDbLine
 10
81.00001299999997
 20
92.00297499999988
 30
0.0
 11
123.000009
 21
92.00297499999988
 31
0.0
  0
LINE
  5
FA8A
330
FA0E
100
AcDbEntity
  8
11機器
100
AcDbLine
 10
142.999989
 20
112.002978
 30
0.0
 11
142.999989
 21
130.502978
 31
0.0
  0
ARC
  5
FA8B
330
FA0E
100
AcDbEntity
  8
11機器
100
AcDbCircle
 10
123.0
 20
112.002978
 30
0.0
 40
20.0
100
AcDbArc
 50
270.0
 51
0.0
  0
ARC
  5
FA8C
330
FA0E
100
AcDbEntity
  8
11機器
100
AcDbCircle
 10
-21.0
 20
87.0
 30
0.0
 40
16.5
100
AcDbArc
 50
212.6052510000007
 51
327.3947489999993
  0
ARC
  5
FA8D
330
FA0E
100
AcDbEntity
  8
11機器
100
AcDbCircle
 10
-21.0
 20
87.0
 30
0.0
 40
16.5
100
AcDbArc
 50
332.6052510000001
 51
84.78409100000002
  0
ARC
  5
FA8E
330
FA0E
100
AcDbEntity
  8
11機器
100
AcDbCircle
 10
-26.0
 20
152.0
 30
0.0
 40
27.5
100
AcDbArc
 50
93.12677599999994
 51
208.4371939999998
  0
ARC
  5
FA8F
330
FA0E
100
AcDbEntity
  8
11機器
100
AcDbCircle
 10
-21.0
 20
232.0
 30
0.0
 40
32.5
100
AcDbArc
 50
211.3223279999995
 51
328.6776719999996
  0
ARC
  5
FA90
330
FA0E
100
AcDbEntity
  8
11機器
100
AcDbCircle
 10
-21.0
 20
232.0
 30
0.0
 40
32.5
100
AcDbArc
 50
92.64536000000004
 51
208.6776719999997
  0
ARC
  5
FA91
330
FA0E
100
AcDbEntity
  8
11機器
100
AcDbCircle
 10
-21.0
 20
232.0
 30
0.0
 40
32.5
100
AcDbArc
 50
331.3223280000003
 51
87.35463999999997
  0
ARC
  5
FA92
330
FA0E
100
AcDbEntity
  8
11機器
100
AcDbCircle
 10
-26.0
 20
152.0
 30
0.0
 40
27.5
100
AcDbArc
 50
211.5628059999993
 51
328.4371939999996
  0
ARC
  5
FA93
330
FA0E
100
AcDbEntity
  8
11機器
100
AcDbCircle
 10
-26.0
 20
152.0
 30
0.0
 40
27.5
100
AcDbArc
 50
331.5628060000001
 51
86.87322400000008
  0
ARC
  5
FA94
330
FA0E
100
AcDbEntity
  8
11機器
100
AcDbCircle
 10
-21.0
 20
87.0
 30
0.0
 40
16.5
100
AcDbArc
 50
95.215909
 51
207.3947489999999
  0
LINE
  5
FA95
330
FA0E
100
AcDbEntity
  8
11機器
100
AcDbLine
 10
16.0
 20
130.502978
 30
0.0
 11
16.0
 21
112.002978
 31
0.0
  0
LINE
  5
FA96
330
FA0E
100
AcDbEntity
  8
11機器
100
AcDbLine
 10
35.99999600000001
 20
92.00297499999988
 30
0.0
 11
77.99999200000002
 21
92.00297499999988
 31
0.0
  0
ARC
  5
FA97
330
FA0E
100
AcDbEntity
  8
11機器
100
AcDbCircle
 10
36.0
 20
112.002978
 30
0.0
 40
20.0
100
AcDbArc
 50
180.0
 51
270.0
  0
LINE
  5
FA98
330
FA0E
100
AcDbEntity
  8
11機器
100
AcDbLine
 10
186.999989
 20
172.0029800000002
 30
0.0
 11
172.000004
 21
172.0029800000002
 31
0.0
  0
LINE
  5
FA99
330
FA0E
100
AcDbEntity
  8
11機器
100
AcDbLine
 10
151.999993
 20
152.0029840000002
 30
0.0
 11
151.999993
 21
133.5029770000001
 31
0.0
  0
ARC
  5
FA9A
330
FA0E
100
AcDbEntity
  8
11機器
100
AcDbCircle
 10
172.0
 20
152.002978
 30
0.0
 40
20.0
100
AcDbArc
 50
90.0
 51
180.0
  0
LINE
  5
FA9B
330
FA0E
100
AcDbEntity
  8
11機器
100
AcDbLine
 10
211.857868
 20
97.86084500000015
 30
0.0
 11
219.142122
 21
105.145113
 31
0.0
  0
ARC
  5
FA9C
330
FA0E
100
AcDbEntity
  8
11機器
100
AcDbCircle
 10
197.715728
 20
112.002978
 30
0.0
 40
20.0
100
AcDbArc
 50
270.0
 51
314.9999999999996
  0
LINE
  5
FA9D
330
FA0E
100
AcDbEntity
  8
11機器
100
AcDbLine
 10
190.00001
 20
92.00297499999988
 30
0.0
 11
197.715742
 21
92.00297499999988
 31
0.0
  0
LINE
  5
FA9E
330
FA0E
100
AcDbEntity
  8
11機器
100
AcDbLine
 10
225.000007
 20
119.2872470000002
 30
0.0
 11
225.000007
 21
130.502978
 31
0.0
  0
ARC
  5
FA9F
330
FA0E
100
AcDbEntity
  8
11機器
100
AcDbCircle
 10
205.0
 20
119.287249
 30
0.0
 40
20.0
100
AcDbArc
 50
314.9999999999996
 51
0.0
  0
LINE
  5
FAA0
330
FA0E
100
AcDbEntity
  8
11機器
100
AcDbLine
 10
81.00001299999997
 20
172.0029800000002
 30
0.0
 11
123.000009
 21
172.0029800000002
 31
0.0
  0
ARC
  5
FAA1
330
FA0E
100
AcDbEntity
  8
11機器
100
AcDbCircle
 10
123.0
 20
152.002978
 30
0.0
 40
20.0
100
AcDbArc
 50
0.0
 51
90.0
  0
LINE
  5
FAA2
330
FA0E
100
AcDbEntity
  8
11機器
100
AcDbLine
 10
142.999989
 20
152.0029840000002
 30
0.0
 11
142.999989
 21
133.5029770000001
 31
0.0
  0
LINE
  5
FAA3
330
FA0E
100
AcDbEntity
  8
11機器
100
AcDbLine
 10
680.50001
 20
736.5000219999997
 30
0.0
 11
657.500016
 21
736.5000219999997
 31
0.0
  0
ARC
  5
FAA4
330
FA0E
100
AcDbEntity
  8
11機器
100
AcDbCircle
 10
680.500013
 20
728.9999999999995
 30
0.0
 40
7.5
100
AcDbArc
 50
270.0
 51
90.0
  0
LINE
  5
FAA5
330
FA0E
100
AcDbEntity
  8
11機器
100
AcDbLine
 10
657.500016
 20
721.499977
 30
0.0
 11
680.50001
 21
721.499977
 31
0.0
  0
ARC
  5
FAA6
330
FA0E
100
AcDbEntity
  8
11機器
100
AcDbCircle
 10
657.500013
 20
728.9999999999995
 30
0.0
 40
7.5
100
AcDbArc
 50
90.0
 51
270.0
  0
ARC
  5
FAA7
330
FA0E
100
AcDbEntity
  8
11機器
100
AcDbCircle
 10
657.500013
 20
0.0
 30
0.0
 40
7.5
100
AcDbArc
 50
90.0
 51
270.0
  0
LINE
  5
FAA8
330
FA0E
100
AcDbEntity
  8
11機器
100
AcDbLine
 10
657.500016
 20
-7.500023000000056
 30
0.0
 11
680.50001
 21
-7.500023000000056
 31
0.0
  0
ARC
  5
FAA9
330
FA0E
100
AcDbEntity
  8
11機器
100
AcDbCircle
 10
680.500013
 20
0.0
 30
0.0
 40
7.5
100
AcDbArc
 50
270.0
 51
90.0
  0
LINE
  5
FAAA
330
FA0E
100
AcDbEntity
  8
11機器
100
AcDbLine
 10
680.50001
 20
7.500022000000172
 30
0.0
 11
657.500016
 21
7.500022000000172
 31
0.0
  0
LINE
  5
FAAB
330
FA0E
100
AcDbEntity
  8
11機器
100
AcDbLine
 10
106.1999979999999
 20
624.5000009999999
 30
0.0
 11
100.801503
 21
624.5000009999999
 31
0.0
  0
LINE
  5
FAAC
330
FA0E
100
AcDbEntity
  8
11機器
100
AcDbLine
 10
106.1999979999999
 20
609.5000009999999
 30
0.0
 11
106.1999979999999
 21
624.5000009999999
 31
0.0
  0
LINE
  5
FAAD
330
FA0E
100
AcDbEntity
  8
11機器
100
AcDbLine
 10
79.19849399999998
 20
624.5000009999999
 30
0.0
 11
73.79999799999996
 21
624.5000009999999
 31
0.0
  0
LINE
  5
FAAE
330
FA0E
100
AcDbEntity
  8
11機器
100
AcDbLine
 10
412.799998
 20
609.5000020000002
 30
0.0
 11
418.198494
 21
609.5000020000002
 31
0.0
  0
LINE
  5
FAAF
330
FA0E
100
AcDbEntity
  8
11機器
100
AcDbLine
 10
73.79999799999996
 20
624.5000009999999
 30
0.0
 11
73.79999799999996
 21
609.5000009999999
 31
0.0
  0
LINE
  5
FAB0
330
FA0E
100
AcDbEntity
  8
11機器
100
AcDbLine
 10
439.8015029999999
 20
609.5000020000002
 30
0.0
 11
445.1999979999999
 21
609.5000020000002
 31
0.0
  0
LINE
  5
FAB1
330
FA0E
100
AcDbEntity
  8
11機器
100
AcDbLine
 10
445.1999979999999
 20
622.4303750000004
 30
0.0
 11
443.956698
 21
623.3090120000002
 31
0.0
  0
LINE
  5
FAB2
330
FA0E
100
AcDbEntity
  8
11機器
100
AcDbLine
 10
443.956698
 20
623.3090120000002
 30
0.0
 11
442.023177
 21
624.5000020000002
 31
0.0
  0
ARC
  5
FAB3
330
FA0E
100
AcDbEntity
  8
11機器
100
AcDbCircle
 10
89.999998
 20
617.0000009999999
 30
0.0
 40
13.15
100
AcDbArc
 50
34.77409200000083
 51
145.2259079999992
  0
ARC
  5
FAB4
330
FA0E
100
AcDbEntity
  8
11機器
100
AcDbCircle
 10
428.999998
 20
617.0000020000002
 30
0.0
 40
13.15
100
AcDbArc
 50
34.77409200000083
 51
145.2259079999992
  0
ARC
  5
FAB5
330
FA0E
100
AcDbEntity
  8
11機器
100
AcDbCircle
 10
428.999998
 20
617.0000020000002
 30
0.0
 40
13.15
100
AcDbArc
 50
214.7740920000008
 51
325.2259079999992
  0
LINE
  5
FAB6
330
FA0E
100
AcDbEntity
  8
11機器
100
AcDbLine
 10
100.801503
 20
609.5000009999999
 30
0.0
 11
106.1999979999999
 21
609.5000009999999
 31
0.0
  0
LINE
  5
FAB7
330
FA0E
100
AcDbEntity
  8
11機器
100
AcDbLine
 10
411.942993
 20
635.0097680000003
 30
0.0
 11
411.928002
 21
635.0000020000002
 31
0.0
  0
LINE
  5
FAB8
330
FA0E
100
AcDbEntity
  8
11機器
100
AcDbLine
 10
107.057003
 20
598.9902340000003
 30
0.0
 11
107.071994
 21
599.0000009999999
 31
0.0
  0
LINE
  5
FAB9
330
FA0E
100
AcDbEntity
  8
11機器
100
AcDbLine
 10
411.928002
 20
599.0000020000002
 30
0.0
 11
411.942993
 21
598.9902349999998
 31
0.0
  0
LINE
  5
FABA
330
FA0E
100
AcDbEntity
  8
11機器
100
AcDbLine
 10
72.92800199999999
 20
599.0000009999999
 30
0.0
 11
72.942993
 21
598.9902340000003
 31
0.0
  0
LINE
  5
FABB
330
FA0E
100
AcDbEntity
  8
11機器
100
AcDbLine
 10
446.071994
 20
635.0000020000002
 30
0.0
 11
446.057003
 21
635.0097680000003
 31
0.0
  0
LINE
  5
FABC
330
FA0E
100
AcDbEntity
  8
11機器
100
AcDbLine
 10
73.79999799999996
 20
609.5000009999999
 30
0.0
 11
79.19849399999998
 21
609.5000009999999
 31
0.0
  0
LINE
  5
FABD
330
FA0E
100
AcDbEntity
  8
11機器
100
AcDbLine
 10
445.1999979999999
 20
624.5000020000002
 30
0.0
 11
439.8015029999999
 21
624.5000020000002
 31
0.0
  0
LINE
  5
FABE
330
FA0E
100
AcDbEntity
  8
11機器
100
AcDbLine
 10
445.1999979999999
 20
609.5000020000002
 30
0.0
 11
445.1999979999999
 21
624.5000020000002
 31
0.0
  0
LINE
  5
FABF
330
FA0E
100
AcDbEntity
  8
11機器
100
AcDbLine
 10
418.198494
 20
624.5000020000002
 30
0.0
 11
412.799998
 21
624.5000020000002
 31
0.0
  0
ARC
  5
FAC0
330
FA0E
100
AcDbEntity
  8
11機器
100
AcDbCircle
 10
89.999998
 20
617.0000009999999
 30
0.0
 40
13.15
100
AcDbArc
 50
214.7740920000008
 51
325.2259079999992
  0
LINE
  5
FAC1
330
FA0E
100
AcDbEntity
  8
11機器
100
AcDbLine
 10
412.799998
 20
624.5000020000002
 30
0.0
 11
412.799998
 21
609.5000020000002
 31
0.0
  0
LINE
  5
FAC2
330
FA0E
100
AcDbEntity
  8
11機器
100
AcDbLine
 10
446.057003
 20
598.9902349999998
 30
0.0
 11
446.071994
 21
599.0000020000002
 31
0.0
  0
LINE
  5
FAC3
330
FA0E
100
AcDbEntity
  8
11機器
100
AcDbLine
 10
1240.801502
 20
609.5000050000003
 30
0.0
 11
1246.199997
 21
609.5000050000003
 31
0.0
  0
LINE
  5
FAC4
330
FA0E
100
AcDbEntity
  8
11機器
100
AcDbLine
 10
1213.799997
 20
609.5000050000003
 30
0.0
 11
1219.198493
 21
609.5000050000003
 31
0.0
  0
LINE
  5
FAC5
330
FA0E
100
AcDbEntity
  8
11機器
100
AcDbLine
 10
1246.199997
 20
624.5000050000003
 30
0.0
 11
1240.801502
 21
624.5000050000003
 31
0.0
  0
LINE
  5
FAC6
330
FA0E
100
AcDbEntity
  8
11機器
100
AcDbLine
 10
1246.199997
 20
609.5000050000003
 30
0.0
 11
1246.199997
 21
624.5000050000003
 31
0.0
  0
ARC
  5
FAC7
330
FA0E
100
AcDbEntity
  8
11機器
100
AcDbCircle
 10
1229.999997
 20
617.0000050000003
 30
0.0
 40
13.15
100
AcDbArc
 50
34.77409200000098
 51
145.225907999999
  0
ARC
  5
FAC8
330
FA0E
100
AcDbEntity
  8
11機器
100
AcDbCircle
 10
1229.999997
 20
617.0000050000003
 30
0.0
 40
13.15
100
AcDbArc
 50
214.774092000001
 51
325.225907999999
  0
ARC
  5
FAC9
330
FA0E
100
AcDbEntity
  8
11機器
100
AcDbCircle
 10
890.999997
 20
617.000004
 30
0.0
 40
13.15
100
AcDbArc
 50
34.7740920000007
 51
145.2259079999993
  0
ARC
  5
FACA
330
FA0E
100
AcDbEntity
  8
11機器
100
AcDbCircle
 10
890.999997
 20
617.000004
 30
0.0
 40
13.15
100
AcDbArc
 50
214.7740920000007
 51
325.2259079999993
  0
LINE
  5
FACB
330
FA0E
100
AcDbEntity
  8
11機器
100
AcDbLine
 10
907.1999969999999
 20
624.500004
 30
0.0
 11
901.801502
 21
624.500004
 31
0.0
  0
LINE
  5
FACC
330
FA0E
100
AcDbEntity
  8
11機器
100
AcDbLine
 10
907.1999969999999
 20
609.500004
 30
0.0
 11
907.1999969999999
 21
624.500004
 31
0.0
  0
LINE
  5
FACD
330
FA0E
100
AcDbEntity
  8
11機器
100
AcDbLine
 10
874.799997
 20
624.500004
 30
0.0
 11
874.799997
 21
609.500004
 31
0.0
  0
LINE
  5
FACE
330
FA0E
100
AcDbEntity
  8
11機器
100
AcDbLine
 10
880.198493
 20
624.500004
 30
0.0
 11
874.799997
 21
624.500004
 31
0.0
  0
LINE
  5
FACF
330
FA0E
100
AcDbEntity
  8
11機器
100
AcDbLine
 10
1213.799997
 20
624.5000050000003
 30
0.0
 11
1213.799997
 21
609.5000050000003
 31
0.0
  0
LINE
  5
FAD0
330
FA0E
100
AcDbEntity
  8
11機器
100
AcDbLine
 10
1219.198493
 20
624.5000050000003
 30
0.0
 11
1213.799997
 21
624.5000050000003
 31
0.0
  0
LINE
  5
FAD1
330
FA0E
100
AcDbEntity
  8
11機器
100
AcDbLine
 10
901.801502
 20
609.500004
 30
0.0
 11
907.1999969999999
 21
609.500004
 31
0.0
  0
LINE
  5
FAD2
330
FA0E
100
AcDbEntity
  8
11機器
100
AcDbLine
 10
874.799997
 20
609.500004
 30
0.0
 11
880.198493
 21
609.500004
 31
0.0
  0
LINE
  5
FAD3
330
FA0E
100
AcDbEntity
  8
11機器
100
AcDbLine
 10
1246.199997
 20
623.0795130000001
 30
0.0
 11
1244.145439
 21
624.5000050000003
 31
0.0
  0
CIRCLE
  5
FAD4
330
FA0E
100
AcDbEntity
  8
11機器
100
AcDbCircle
 10
0.0000129999999672
 20
728.9999999999995
 30
0.0
 40
7.5
  0
CIRCLE
  5
FAD5
330
FA0E
100
AcDbEntity
  8
11機器
100
AcDbCircle
 10
0.0
 20
0.0
 30
0.0
 40
7.5
  0
CIRCLE
  5
FAD6
330
FA0E
100
AcDbEntity
  8
11機器
100
AcDbCircle
 10
1338.0
 20
0.0
 30
0.0
 40
7.5
  0
CIRCLE
  5
FAD7
330
FA0E
100
AcDbEntity
  8
11機器
100
AcDbCircle
 10
1338.000013
 20
728.9999999999995
 30
0.0
 40
7.5
  0
CIRCLE
  5
FAD8
330
FA0E
100
AcDbEntity
  8
11機器
100
AcDbCircle
 10
669.000013
 20
0.0
 30
0.0
 40
7.5
  0
CIRCLE
  5
FAD9
330
FA0E
100
AcDbEntity
  8
11機器
100
AcDbCircle
 10
669.000013
 20
728.9999999999995
 30
0.0
 40
7.5
  0
CIRCLE
  5
FADA
330
FA0E
100
AcDbEntity
  8
11機器
100
AcDbCircle
 10
704.0
 20
307.0
 30
0.0
 40
30.0
  0
TEXT
  5
FADB
330
FA0E
100
AcDbEntity
  8
11機器
100
AcDbText
 10
694.25
 20
292.0
 30
0.0
 40
30.0
  1
G
 72
     1
 11
704.0
 21
307.0
 31
0.0
100
AcDbText
 73
     2
  0
DIMENSION
  5
FADC
330
FA0E
100
AcDbEntity
  8
11機器
100
AcDbDimension
  2
*D1223
 10
851.0425915823638
 20
-18.00000000000001
 30
0.0
 11
826.0425915823638
 21
144.5
 31
0.0
 70
    32
 71
     5
 42
325.0
  3
NEMY-10
100
AcDbAlignedDimension
 13
734.0
 23
307.0
 33
0.0
 14
734.0
 24
-18.0
 34
0.0
 50
90.0
100
AcDbRotatedDimension
  0
DIMENSION
  5
FAE9
330
FA0E
100
AcDbEntity
  8
11機器
100
AcDbDimension
  2
*D1224
 10
-131.0
 20
417.7365328688188
 30
0.0
 11
286.5
 21
442.7365328688188
 31
0.0
 70
    32
 71
     5
 42
835.0
  3
NEMY-10
100
AcDbAlignedDimension
 13
704.0
 23
337.0
 33
0.0
 14
-131.0
 24
337.0
 34
0.0
100
AcDbRotatedDimension
  0
ENDBLK
  5
FAF6
330
FA0E
100
AcDbEntity
  8
0
100
AcDbBlockEnd
  0
BLOCK
  5
FADE
330
FADD
100
AcDbEntity
  8
0
100
AcDbBlockBegin
  2
*D1223
 70
     1
 10
0.0
 20
0.0
 30
0.0
  3
*D1223
  1

  0
LINE
  5
FADF
330
FADD
100
AcDbEntity
  8
11機器
 62
     0
370
    -2
100
AcDbLine
 10
749.0
 20
307.0
 30
0.0
 11
861.0425915823638
 21
307.0
 31
0.0
  0
LINE
  5
FAE0
330
FADD
100
AcDbEntity
  8
11機器
 62
     0
370
    -2
100
AcDbLine
 10
749.0
 20
-18.0
 30
0.0
 11
861.0425915823638
 21
-18.00000000000001
 31
0.0
  0
LINE
  5
FAE1
330
FADD
100
AcDbEntity
  8
11機器
 62
     0
370
    -2
100
AcDbLine
 10
851.0425915823638
 20
277.0
 30
0.0
 11
851.0425915823638
 21
11.99999999999999
 31
0.0
  0
INSERT
  5
FAE2
330
FADD
100
AcDbEntity
  8
11機器
 62
     0
370
    -2
100
AcDbBlockReference
  2
_Open
 10
851.0425915823638
 20
307.0
 30
0.0
 41
30.0
 42
30.0
 43
30.0
 50
90.0
  0
INSERT
  5
FAE3
330
FADD
100
AcDbEntity
  8
11機器
 62
     0
370
    -2
100
AcDbBlockReference
  2
_Open
 10
851.0425915823638
 20
-18.00000000000001
 30
0.0
 41
30.0
 42
30.0
 43
30.0
 50
270.0
  0
MTEXT
  5
FAE4
330
FADD
100
AcDbEntity
  8
11機器
 62
     0
100
AcDbMText
 10
826.0425915823638
 20
144.5
 30
0.0
 40
30.0
 41
0.0
 71
     5
 72
     1
  1
325
 11
0.0
 21
1.0
 31
0.0
 73
     1
 44
1.0
  0
POINT
  5
FAE5
330
FADD
100
AcDbEntity
  8
Defpoints
 62
     0
100
AcDbPoint
 10
734.0
 20
307.0
 30
0.0
  0
POINT
  5
FAE6
330
FADD
100
AcDbEntity
  8
Defpoints
 62
     0
100
AcDbPoint
 10
734.0
 20
-18.0
 30
0.0
  0
POINT
  5
FAE7
330
FADD
100
AcDbEntity
  8
Defpoints
 62
     0
100
AcDbPoint
 10
851.0425915823638
 20
-18.00000000000001
 30
0.0
  0
ENDBLK
  5
FAE8
330
FADD
100
AcDbEntity
  8
0
100
AcDbBlockEnd
  0
BLOCK
  5
FAEB
330
FAEA
100
AcDbEntity
  8
0
100
AcDbBlockBegin
  2
*D1224
 70
     1
 10
0.0
 20
0.0
 30
0.0
  3
*D1224
  1

  0
LINE
  5
FAEC
330
FAEA
100
AcDbEntity
  8
11機器
 62
     0
370
    -2
100
AcDbLine
 10
704.0
 20
352.0
 30
0.0
 11
704.0
 21
427.7365328688188
 31
0.0
  0
LINE
  5
FAED
330
FAEA
100
AcDbEntity
  8
11機器
 62
     0
370
    -2
100
AcDbLine
 10
-131.0
 20
352.0
 30
0.0
 11
-131.0
 21
427.7365328688188
 31
0.0
  0
LINE
  5
FAEE
330
FAEA
100
AcDbEntity
  8
11機器
 62
     0
370
    -2
100
AcDbLine
 10
674.0
 20
417.7365328688188
 30
0.0
 11
-101.0
 21
417.7365328688188
 31
0.0
  0
INSERT
  5
FAEF
330
FAEA
100
AcDbEntity
  8
11機器
 62
     0
370
    -2
100
AcDbBlockReference
  2
_Open
 10
704.0
 20
417.7365328688188
 30
0.0
 41
30.0
 42
30.0
 43
30.0
  0
INSERT
  5
FAF0
330
FAEA
100
AcDbEntity
  8
11機器
 62
     0
370
    -2
100
AcDbBlockReference
  2
_Open
 10
-131.0
 20
417.7365328688188
 30
0.0
 41
30.0
 42
30.0
 43
30.0
 50
180.0
  0
MTEXT
  5
FAF1
330
FAEA
100
AcDbEntity
  8
11機器
 62
     0
100
AcDbMText
 10
286.5
 20
442.7365328688188
 30
0.0
 40
30.0
 41
0.0
 71
     5
 72
     1
  1
835
 73
     1
 44
1.0
  0
POINT
  5
FAF2
330
FAEA
100
AcDbEntity
  8
Defpoints
 62
     0
100
AcDbPoint
 10
704.0
 20
337.0
 30
0.0
  0
POINT
  5
FAF3
330
FAEA
100
AcDbEntity
  8
Defpoints
 62
     0
100
AcDbPoint
 10
-131.0
 20
337.0
 30
0.0
  0
POINT
  5
FAF4
330
FAEA
100
AcDbEntity
  8
Defpoints
 62
     0
100
AcDbPoint
 10
-131.0
 20
417.7365328688188
 30
0.0
  0
ENDBLK
  5
FAF5
330
FAEA
100
AcDbEntity
  8
0
100
AcDbBlockEnd
  0
BLOCK
  5
FB83
330
FB76
100
AcDbEntity
  8
0
100
AcDbBlockBegin
  2
N-SPH1600
 70
     0
 10
0.0
 20
0.0
 30
0.0
  3
N-SPH1600
  1

  0
LWPOLYLINE
  5
FB77
330
FB76
100
AcDbEntity
  8
12防振架台
100
AcDbPolyline
 90
        4
 70
     1
 43
0.0
 10
0.0
 20
0.0
 10
0.0
 20
765.0
 10
1600.0
 20
765.0
 10
1600.0
 20
0.0
  0
LWPOLYLINE
  5
FB78
330
FB76
100
AcDbEntity
  8
12防振架台
100
AcDbPolyline
 90
        4
 70
     1
 43
0.0
 10
60.0
 20
60.0
 10
60.0
 20
705.0
 10
1540.0
 20
705.0
 10
1540.0
 20
60.0
  0
CIRCLE
  5
FB79
330
FB76
100
AcDbEntity
  8
12防振架台
100
AcDbCircle
 10
100.0
 20
30.0
 30
0.0
 40
8.0
  0
CIRCLE
  5
FB7A
330
FB76
100
AcDbEntity
  8
12防振架台
100
AcDbCircle
 10
131.0
 20
18.0
 30
0.0
 40
8.0
  0
CIRCLE
  5
FB7B
330
FB76
100
AcDbEntity
  8
12防振架台
100
AcDbCircle
 10
100.0
 20
735.0
 30
0.0
 40
8.0
  0
CIRCLE
  5
FB7C
330
FB76
100
AcDbEntity
  8
12防振架台
100
AcDbCircle
 10
131.0
 20
747.0
 30
0.0
 40
8.0
  0
CIRCLE
  5
FB7D
330
FB76
100
AcDbEntity
  8
12防振架台
100
AcDbCircle
 10
1500.0
 20
30.0
 30
0.0
 40
8.0
  0
CIRCLE
  5
FB7E
330
FB76
100
AcDbEntity
  8
12防振架台
100
AcDbCircle
 10
1469.0
 20
18.0
 30
0.0
 40
8.0
  0
CIRCLE
  5
FB7F
330
FB76
100
AcDbEntity
  8
12防振架台
100
AcDbCircle
 10
1500.0
 20
735.0
 30
0.0
 40
8.0
  0
CIRCLE
  5
FB80
330
FB76
100
AcDbEntity
  8
12防振架台
100
AcDbCircle
 10
1469.0
 20
747.0
 30
0.0
 40
8.0
  0
CIRCLE
  5
FB81
330
FB76
100
AcDbEntity
  8
12防振架台
100
AcDbCircle
 10
800.0
 20
747.0
 30
0.0
 40
8.0
  0
CIRCLE
  5
FB82
330
FB76
100
AcDbEntity
  8
12防振架台
100
AcDbCircle
 10
800.0
 20
18.0
 30
0.0
 40
8.0
  0
ENDBLK
  5
FB84
330
FB76
100
AcDbEntity
  8
0
100
AcDbBlockEnd
  0
BLOCK
  5
FBE7
330
FBE6
100
AcDbEntity
  8
0
100
AcDbBlockBegin
  2
*D1226
 70
     1
 10
0.0
 20
0.0
 30
0.0
  3
*D1226
  1

  0
LINE
  5
FBE9
330
FBE6
100
AcDbEntity
  8
01注記寸法
 62
     0
370
    -2
100
AcDbLine
 10
1327.5
 20
3704.999999999999
 30
0.0
 11
1185.0
 21
3704.999999999999
 31
0.0
  0
LINE
  5
FBEA
330
FBE6
100
AcDbEntity
  8
01注記寸法
 62
     0
370
    -2
100
AcDbLine
 10
1438.5
 20
3681.974094
 30
0.0
 11
1185.0
 21
3681.974094
 31
0.0
  0
LINE
  5
FBEB
330
FBE6
100
AcDbEntity
  8
01注記寸法
 62
     0
370
    -2
100
AcDbLine
 10
1200.0
 20
3704.999999999999
 30
0.0
 11
1200.0
 21
3877.29
 31
0.0
  0
LINE
  5
FBEC
330
FBE6
100
AcDbEntity
  8
01注記寸法
 62
     0
370
    -2
100
AcDbLine
 10
1200.0
 20
3704.999999999999
 30
0.0
 11
1200.0
 21
3681.974094
 31
0.0
  0
LINE
  5
FBED
330
FBE6
100
AcDbEntity
  8
01注記寸法
 62
     0
370
    -2
100
AcDbLine
 10
1200.0
 20
3749.999999999999
 30
0.0
 11
1200.0
 21
3794.999999999999
 31
0.0
  0
LINE
  5
FBEE
330
FBE6
100
AcDbEntity
  8
01注記寸法
 62
     0
370
    -2
100
AcDbLine
 10
1200.0
 20
3636.974094
 30
0.0
 11
1200.0
 21
3591.974094
 31
0.0
  0
INSERT
  5
FBEF
330
FBE6
100
AcDbEntity
  8
01注記寸法
 62
     0
370
    -2
100
AcDbBlockReference
  2
_Open
 10
1200.0
 20
3704.999999999999
 30
0.0
 41
45.0
 42
45.0
 43
45.0
 50
270.0
  0
INSERT
  5
FBF0
330
FBE6
100
AcDbEntity
  8
01注記寸法
 62
     0
370
    -2
100
AcDbBlockReference
  2
_Open
 10
1200.0
 20
3681.974094
 30
0.0
 41
45.0
 42
45.0
 43
45.0
 50
90.0
  0
MTEXT
  5
FBF1
330
FBE6
100
AcDbEntity
  8
01注記寸法
 62
     0
100
AcDbMText
 10
1162.5
 20
3836.145
 30
0.0
 40
45.0
 41
0.0
 71
     5
 72
     1
  1
23
 11
0.0
 21
1.0
 31
0.0
 73
     1
 44
1.0
  0
POINT
  5
FBF2
330
FBE6
100
AcDbEntity
  8
Defpoints
 62
     0
100
AcDbPoint
 10
1350.0
 20
3704.999999999999
 30
0.0
  0
POINT
  5
FBF3
330
FBE6
100
AcDbEntity
  8
Defpoints
 62
     0
100
AcDbPoint
 10
1461.0
 20
3681.974094
 30
0.0
  0
POINT
  5
FBF4
330
FBE6
100
AcDbEntity
  8
Defpoints
 62
     0
100
AcDbPoint
 10
1200.0
 20
3681.974094
 30
0.0
  0
ENDBLK
  5
FBE8
330
FBE6
100
AcDbEntity
  8
0
100
AcDbBlockEnd
  0
BLOCK
  5
FBF7
330
FBF6
100
AcDbEntity
  8
0
100
AcDbBlockBegin
  2
*D1227
 70
     1
 10
0.0
 20
0.0
 30
0.0
  3
*D1227
  1

  0
LINE
  5
FBF9
330
FBF6
100
AcDbEntity
  8
01注記寸法
 62
     0
370
    -2
100
AcDbLine
 10
1438.5
 20
3681.974094
 30
0.0
 11
1185.0
 21
3681.974094
 31
0.0
  0
LINE
  5
FBFA
330
FBF6
100
AcDbEntity
  8
01注記寸法
 62
     0
370
    -2
100
AcDbLine
 10
1438.5
 20
2952.974094
 30
0.0
 11
1185.0
 21
2952.974094
 31
0.0
  0
LINE
  5
FBFB
330
FBF6
100
AcDbEntity
  8
01注記寸法
 62
     0
370
    -2
100
AcDbLine
 10
1200.0
 20
3636.974094
 30
0.0
 11
1200.0
 21
2997.974094
 31
0.0
  0
INSERT
  5
FBFC
330
FBF6
100
AcDbEntity
  8
01注記寸法
 62
     0
370
    -2
100
AcDbBlockReference
  2
_Open
 10
1200.0
 20
3681.974094
 30
0.0
 41
45.0
 42
45.0
 43
45.0
 50
90.0
  0
INSERT
  5
FBFD
330
FBF6
100
AcDbEntity
  8
01注記寸法
 62
     0
370
    -2
100
AcDbBlockReference
  2
_Open
 10
1200.0
 20
2952.974094
 30
0.0
 41
45.0
 42
45.0
 43
45.0
 50
270.0
  0
MTEXT
  5
FBFE
330
FBF6
100
AcDbEntity
  8
01注記寸法
 62
     0
100
AcDbMText
 10
1162.5
 20
3317.474094
 30
0.0
 40
45.0
 41
0.0
 71
     5
 72
     1
  1
729
 11
0.0
 21
1.0
 31
0.0
 73
     1
 44
1.0
  0
POINT
  5
FBFF
330
FBF6
100
AcDbEntity
  8
Defpoints
 62
     0
100
AcDbPoint
 10
1461.0
 20
3681.974094
 30
0.0
  0
POINT
  5
FC00
330
FBF6
100
AcDbEntity
  8
Defpoints
 62
     0
100
AcDbPoint
 10
1461.0
 20
2952.974094
 30
0.0
  0
POINT
  5
FC01
330
FBF6
100
AcDbEntity
  8
Defpoints
 62
     0
100
AcDbPoint
 10
1200.0
 20
2952.974094
 30
0.0
  0
ENDBLK
  5
FBF8
330
FBF6
100
AcDbEntity
  8
0
100
AcDbBlockEnd
  0
BLOCK
  5
FC04
330
FC03
100
AcDbEntity
  8
0
100
AcDbBlockBegin
  2
*D1228
 70
     1
 10
0.0
 20
0.0
 30
0.0
  3
*D1228
  1

  0
LINE
  5
FC06
330
FC03
100
AcDbEntity
  8
01注記寸法
 62
     0
370
    -2
100
AcDbLine
 10
1438.5
 20
2952.974094
 30
0.0
 11
1185.0
 21
2952.974094
 31
0.0
  0
LINE
  5
FC07
330
FC03
100
AcDbEntity
  8
01注記寸法
 62
     0
370
    -2
100
AcDbLine
 10
1327.5
 20
2929.999999999999
 30
0.0
 11
1185.0
 21
2929.999999999999
 31
0.0
  0
LINE
  5
FC08
330
FC03
100
AcDbEntity
  8
01注記寸法
 62
     0
370
    -2
100
AcDbLine
 10
1200.0
 20
2884.999999999999
 30
0.0
 11
1200.0
 21
2757.709999999999
 31
0.0
  0
LINE
  5
FC09
330
FC03
100
AcDbEntity
  8
01注記寸法
 62
     0
370
    -2
100
AcDbLine
 10
1200.0
 20
2952.974094
 30
0.0
 11
1200.0
 21
2929.999999999999
 31
0.0
  0
LINE
  5
FC0A
330
FC03
100
AcDbEntity
  8
01注記寸法
 62
     0
370
    -2
100
AcDbLine
 10
1200.0
 20
2997.974094
 30
0.0
 11
1200.0
 21
3042.974094
 31
0.0
  0
INSERT
  5
FC0B
330
FC03
100
AcDbEntity
  8
01注記寸法
 62
     0
370
    -2
100
AcDbBlockReference
  2
_Open
 10
1200.0
 20
2952.974094
 30
0.0
 41
45.0
 42
45.0
 43
45.0
 50
270.0
  0
INSERT
  5
FC0C
330
FC03
100
AcDbEntity
  8
01注記寸法
 62
     0
370
    -2
100
AcDbBlockReference
  2
_Open
 10
1200.0
 20
2929.999999999999
 30
0.0
 41
45.0
 42
45.0
 43
45.0
 50
90.0
  0
MTEXT
  5
FC0D
330
FC03
100
AcDbEntity
  8
01注記寸法
 62
     0
100
AcDbMText
 10
1162.5
 20
2798.854999999999
 30
0.0
 40
45.0
 41
0.0
 71
     5
 72
     1
  1
23
 11
0.0
 21
1.0
 31
0.0
 73
     1
 44
1.0
  0
POINT
  5
FC0E
330
FC03
100
AcDbEntity
  8
Defpoints
 62
     0
100
AcDbPoint
 10
1461.0
 20
2952.974094
 30
0.0
  0
POINT
  5
FC0F
330
FC03
100
AcDbEntity
  8
Defpoints
 62
     0
100
AcDbPoint
 10
1350.0
 20
2929.999999999999
 30
0.0
  0
POINT
  5
FC10
330
FC03
100
AcDbEntity
  8
Defpoints
 62
     0
100
AcDbPoint
 10
1200.0
 20
2929.999999999999
 30
0.0
  0
ENDBLK
  5
FC05
330
FC03
100
AcDbEntity
  8
0
100
AcDbBlockEnd
  0
BLOCK
  5
FC13
330
FC12
100
AcDbEntity
  8
0
100
AcDbBlockBegin
  2
*D1229
 70
     1
 10
0.0
 20
0.0
 30
0.0
  3
*D1229
  1

  0
LINE
  5
FC15
330
FC12
100
AcDbEntity
  8
01注記寸法
 62
     0
370
    -2
100
AcDbLine
 10
1350.0
 20
3728.999999999999
 30
0.0
 11
1350.0
 21
4020.0
 31
0.0
  0
LINE
  5
FC16
330
FC12
100
AcDbEntity
  8
01注記寸法
 62
     0
370
    -2
100
AcDbLine
 10
1481.0
 20
3724.474094
 30
0.0
 11
1481.0
 21
4020.0
 31
0.0
  0
LINE
  5
FC17
330
FC12
100
AcDbEntity
  8
01注記寸法
 62
     0
370
    -2
100
AcDbLine
 10
1395.0
 20
4005.0
 30
0.0
 11
1436.0
 21
4005.0
 31
0.0
  0
INSERT
  5
FC18
330
FC12
100
AcDbEntity
  8
01注記寸法
 62
     0
370
    -2
100
AcDbBlockReference
  2
_Open
 10
1350.0
 20
4005.0
 30
0.0
 41
45.0
 42
45.0
 43
45.0
 50
180.0
  0
INSERT
  5
FC19
330
FC12
100
AcDbEntity
  8
01注記寸法
 62
     0
370
    -2
100
AcDbBlockReference
  2
_Open
 10
1481.0
 20
4005.0
 30
0.0
 41
45.0
 42
45.0
 43
45.0
  0
MTEXT
  5
FC1A
330
FC12
100
AcDbEntity
  8
01注記寸法
 62
     0
100
AcDbMText
 10
1415.5
 20
4042.5
 30
0.0
 40
45.0
 41
0.0
 71
     5
 72
     1
  1
131
 73
     1
 44
1.0
  0
POINT
  5
FC1B
330
FC12
100
AcDbEntity
  8
Defpoints
 62
     0
100
AcDbPoint
 10
1350.0
 20
3706.499999999999
 30
0.0
  0
POINT
  5
FC1C
330
FC12
100
AcDbEntity
  8
Defpoints
 62
     0
100
AcDbPoint
 10
1481.0
 20
3701.974094
 30
0.0
  0
POINT
  5
FC1D
330
FC12
100
AcDbEntity
  8
Defpoints
 62
     0
100
AcDbPoint
 10
1481.0
 20
4005.0
 30
0.0
  0
ENDBLK
  5
FC14
330
FC12
100
AcDbEntity
  8
0
100
AcDbBlockEnd
  0
BLOCK
  5
FC20
330
FC1F
100
AcDbEntity
  8
0
100
AcDbBlockBegin
  2
*D1230
 70
     1
 10
0.0
 20
0.0
 30
0.0
  3
*D1230
  1

  0
LINE
  5
FC22
330
FC1F
100
AcDbEntity
  8
01注記寸法
 62
     0
370
    -2
100
AcDbLine
 10
1481.0
 20
3724.474094
 30
0.0
 11
1481.0
 21
4020.0
 31
0.0
  0
LINE
  5
FC23
330
FC1F
100
AcDbEntity
  8
01注記寸法
 62
     0
370
    -2
100
AcDbLine
 10
2150.000013
 20
3724.474093999999
 30
0.0
 11
2150.000013
 21
4020.0
 31
0.0
  0
LINE
  5
FC24
330
FC1F
100
AcDbEntity
  8
01注記寸法
 62
     0
370
    -2
100
AcDbLine
 10
1526.0
 20
4005.0
 30
0.0
 11
2105.000013
 21
4005.0
 31
0.0
  0
INSERT
  5
FC25
330
FC1F
100
AcDbEntity
  8
01注記寸法
 62
     0
370
    -2
100
AcDbBlockReference
  2
_Open
 10
1481.0
 20
4005.0
 30
0.0
 41
45.0
 42
45.0
 43
45.0
 50
180.0
  0
INSERT
  5
FC26
330
FC1F
100
AcDbEntity
  8
01注記寸法
 62
     0
370
    -2
100
AcDbBlockReference
  2
_Open
 10
2150.000013
 20
4005.0
 30
0.0
 41
45.0
 42
45.0
 43
45.0
  0
MTEXT
  5
FC27
330
FC1F
100
AcDbEntity
  8
01注記寸法
 62
     0
100
AcDbMText
 10
1815.5000065
 20
4042.5
 30
0.0
 40
45.0
 41
0.0
 71
     5
 72
     1
  1
669
 73
     1
 44
1.0
  0
POINT
  5
FC28
330
FC1F
100
AcDbEntity
  8
Defpoints
 62
     0
100
AcDbPoint
 10
1481.0
 20
3701.974094
 30
0.0
  0
POINT
  5
FC29
330
FC1F
100
AcDbEntity
  8
Defpoints
 62
     0
100
AcDbPoint
 10
2150.000013
 20
3701.974093999999
 30
0.0
  0
POINT
  5
FC2A
330
FC1F
100
AcDbEntity
  8
Defpoints
 62
     0
100
AcDbPoint
 10
2150.000013
 20
4005.0
 30
0.0
  0
ENDBLK
  5
FC21
330
FC1F
100
AcDbEntity
  8
0
100
AcDbBlockEnd
  0
BLOCK
  5
FC2D
330
FC2C
100
AcDbEntity
  8
0
100
AcDbBlockBegin
  2
*D1231
 70
     1
 10
0.0
 20
0.0
 30
0.0
  3
*D1231
  1

  0
LINE
  5
FC2F
330
FC2C
100
AcDbEntity
  8
01注記寸法
 62
     0
370
    -2
100
AcDbLine
 10
2150.000013
 20
3724.474093999999
 30
0.0
 11
2150.000013
 21
4020.0
 31
0.0
  0
LINE
  5
FC30
330
FC2C
100
AcDbEntity
  8
01注記寸法
 62
     0
370
    -2
100
AcDbLine
 10
2819.0
 20
3724.474094
 30
0.0
 11
2819.0
 21
4020.0
 31
0.0
  0
LINE
  5
FC31
330
FC2C
100
AcDbEntity
  8
01注記寸法
 62
     0
370
    -2
100
AcDbLine
 10
2195.000013
 20
4005.0
 30
0.0
 11
2774.0
 21
4005.0
 31
0.0
  0
INSERT
  5
FC32
330
FC2C
100
AcDbEntity
  8
01注記寸法
 62
     0
370
    -2
100
AcDbBlockReference
  2
_Open
 10
2150.000013
 20
4005.0
 30
0.0
 41
45.0
 42
45.0
 43
45.0
 50
180.0
  0
INSERT
  5
FC33
330
FC2C
100
AcDbEntity
  8
01注記寸法
 62
     0
370
    -2
100
AcDbBlockReference
  2
_Open
 10
2819.0
 20
4005.0
 30
0.0
 41
45.0
 42
45.0
 43
45.0
  0
MTEXT
  5
FC34
330
FC2C
100
AcDbEntity
  8
01注記寸法
 62
     0
100
AcDbMText
 10
2484.5000065
 20
4042.5
 30
0.0
 40
45.0
 41
0.0
 71
     5
 72
     1
  1
669
 73
     1
 44
1.0
  0
POINT
  5
FC35
330
FC2C
100
AcDbEntity
  8
Defpoints
 62
     0
100
AcDbPoint
 10
2150.000013
 20
3701.974093999999
 30
0.0
  0
POINT
  5
FC36
330
FC2C
100
AcDbEntity
  8
Defpoints
 62
     0
100
AcDbPoint
 10
2819.0
 20
3701.974094
 30
0.0
  0
POINT
  5
FC37
330
FC2C
100
AcDbEntity
  8
Defpoints
 62
     0
100
AcDbPoint
 10
2819.0
 20
4005.0
 30
0.0
  0
ENDBLK
  5
FC2E
330
FC2C
100
AcDbEntity
  8
0
100
AcDbBlockEnd
  0
BLOCK
  5
FC3A
330
FC39
100
AcDbEntity
  8
0
100
AcDbBlockBegin
  2
*D1232
 70
     1
 10
0.0
 20
0.0
 30
0.0
  3
*D1232
  1

  0
LINE
  5
FC3C
330
FC39
100
AcDbEntity
  8
01注記寸法
 62
     0
370
    -2
100
AcDbLine
 10
2819.0
 20
3724.474094
 30
0.0
 11
2819.0
 21
4020.0
 31
0.0
  0
LINE
  5
FC3D
330
FC39
100
AcDbEntity
  8
01注記寸法
 62
     0
370
    -2
100
AcDbLine
 10
2950.0
 20
3728.999999999999
 30
0.0
 11
2950.0
 21
4020.0
 31
0.0
  0
LINE
  5
FC3E
330
FC39
100
AcDbEntity
  8
01注記寸法
 62
     0
370
    -2
100
AcDbLine
 10
2864.0
 20
4005.0
 30
0.0
 11
2905.0
 21
4005.0
 31
0.0
  0
INSERT
  5
FC3F
330
FC39
100
AcDbEntity
  8
01注記寸法
 62
     0
370
    -2
100
AcDbBlockReference
  2
_Open
 10
2819.0
 20
4005.0
 30
0.0
 41
45.0
 42
45.0
 43
45.0
 50
180.0
  0
INSERT
  5
FC40
330
FC39
100
AcDbEntity
  8
01注記寸法
 62
     0
370
    -2
100
AcDbBlockReference
  2
_Open
 10
2950.0
 20
4005.0
 30
0.0
 41
45.0
 42
45.0
 43
45.0
  0
MTEXT
  5
FC41
330
FC39
100
AcDbEntity
  8
01注記寸法
 62
     0
100
AcDbMText
 10
2884.5
 20
4042.5
 30
0.0
 40
45.0
 41
0.0
 71
     5
 72
     1
  1
131
 73
     1
 44
1.0
  0
POINT
  5
FC42
330
FC39
100
AcDbEntity
  8
Defpoints
 62
     0
100
AcDbPoint
 10
2819.0
 20
3701.974094
 30
0.0
  0
POINT
  5
FC43
330
FC39
100
AcDbEntity
  8
Defpoints
 62
     0
100
AcDbPoint
 10
2950.0
 20
3706.499999999999
 30
0.0
  0
POINT
  5
FC44
330
FC39
100
AcDbEntity
  8
Defpoints
 62
     0
100
AcDbPoint
 10
2950.0
 20
4005.0
 30
0.0
  0
ENDBLK
  5
FC3B
330
FC39
100
AcDbEntity
  8
0
100
AcDbBlockEnd
  0
BLOCK
  5
FC47
330
FC46
100
AcDbEntity
  8
0
100
AcDbBlockBegin
  2
*D1233
 70
     1
 10
0.0
 20
0.0
 30
0.0
  3
*D1233
  1

  0
LINE
  5
FC49
330
FC46
100
AcDbEntity
  8
01注記寸法
 62
     0
370
    -2
100
AcDbLine
 10
1350.0
 20
2905.999999999999
 30
0.0
 11
1350.0
 21
2615.0
 31
0.0
  0
LINE
  5
FC4A
330
FC46
100
AcDbEntity
  8
01注記寸法
 62
     0
370
    -2
100
AcDbLine
 10
1450.0
 20
2922.474094
 30
0.0
 11
1450.0
 21
2615.0
 31
0.0
  0
LINE
  5
FC4B
330
FC46
100
AcDbEntity
  8
01注記寸法
 62
     0
370
    -2
100
AcDbLine
 10
1350.0
 20
2630.0
 30
0.0
 11
1450.0
 21
2630.0
 31
0.0
  0
LINE
  5
FC4C
330
FC46
100
AcDbEntity
  8
01注記寸法
 62
     0
370
    -2
100
AcDbLine
 10
1305.0
 20
2630.0
 30
0.0
 11
1260.0
 21
2630.0
 31
0.0
  0
LINE
  5
FC4D
330
FC46
100
AcDbEntity
  8
01注記寸法
 62
     0
370
    -2
100
AcDbLine
 10
1495.0
 20
2630.0
 30
0.0
 11
1540.0
 21
2630.0
 31
0.0
  0
INSERT
  5
FC4E
330
FC46
100
AcDbEntity
  8
01注記寸法
 62
     0
370
    -2
100
AcDbBlockReference
  2
_Open
 10
1350.0
 20
2630.0
 30
0.0
 41
45.0
 42
45.0
 43
45.0
  0
INSERT
  5
FC4F
330
FC46
100
AcDbEntity
  8
01注記寸法
 62
     0
370
    -2
100
AcDbBlockReference
  2
_Open
 10
1450.0
 20
2630.0
 30
0.0
 41
45.0
 42
45.0
 43
45.0
 50
180.0
  0
MTEXT
  5
FC50
330
FC46
100
AcDbEntity
  8
01注記寸法
 62
     0
100
AcDbMText
 10
1400.0
 20
2667.5
 30
0.0
 40
45.0
 41
0.0
 71
     5
 72
     1
  1
100
 73
     1
 44
1.0
  0
POINT
  5
FC51
330
FC46
100
AcDbEntity
  8
Defpoints
 62
     0
100
AcDbPoint
 10
1350.0
 20
2928.499999999999
 30
0.0
  0
POINT
  5
FC52
330
FC46
100
AcDbEntity
  8
Defpoints
 62
     0
100
AcDbPoint
 10
1450.0
 20
2944.974094
 30
0.0
  0
POINT
  5
FC53
330
FC46
100
AcDbEntity
  8
Defpoints
 62
     0
100
AcDbPoint
 10
1450.0
 20
2630.0
 30
0.0
  0
ENDBLK
  5
FC48
330
FC46
100
AcDbEntity
  8
0
100
AcDbBlockEnd
  0
BLOCK
  5
FC56
330
FC55
100
AcDbEntity
  8
0
100
AcDbBlockBegin
  2
*D1234
 70
     1
 10
0.0
 20
0.0
 30
0.0
  3
*D1234
  1

  0
LINE
  5
FC58
330
FC55
100
AcDbEntity
  8
01注記寸法
 62
     0
370
    -2
100
AcDbLine
 10
1450.0
 20
2922.474094
 30
0.0
 11
1450.0
 21
2615.0
 31
0.0
  0
LINE
  5
FC59
330
FC55
100
AcDbEntity
  8
01注記寸法
 62
     0
370
    -2
100
AcDbLine
 10
2850.0
 20
2922.474094
 30
0.0
 11
2850.0
 21
2615.0
 31
0.0
  0
LINE
  5
FC5A
330
FC55
100
AcDbEntity
  8
01注記寸法
 62
     0
370
    -2
100
AcDbLine
 10
1495.0
 20
2630.0
 30
0.0
 11
2805.0
 21
2630.0
 31
0.0
  0
INSERT
  5
FC5B
330
FC55
100
AcDbEntity
  8
01注記寸法
 62
     0
370
    -2
100
AcDbBlockReference
  2
_Open
 10
1450.0
 20
2630.0
 30
0.0
 41
45.0
 42
45.0
 43
45.0
 50
180.0
  0
INSERT
  5
FC5C
330
FC55
100
AcDbEntity
  8
01注記寸法
 62
     0
370
    -2
100
AcDbBlockReference
  2
_Open
 10
2850.0
 20
2630.0
 30
0.0
 41
45.0
 42
45.0
 43
45.0
  0
MTEXT
  5
FC5D
330
FC55
100
AcDbEntity
  8
01注記寸法
 62
     0
100
AcDbMText
 10
2150.0
 20
2668.985
 30
0.0
 40
45.0
 41
0.0
 71
     5
 72
     1
  1
※ 1400
 73
     1
 44
1.0
  0
POINT
  5
FC5E
330
FC55
100
AcDbEntity
  8
Defpoints
 62
     0
100
AcDbPoint
 10
1450.0
 20
2944.974094
 30
0.0
  0
POINT
  5
FC5F
330
FC55
100
AcDbEntity
  8
Defpoints
 62
     0
100
AcDbPoint
 10
2850.0
 20
2944.974094
 30
0.0
  0
POINT
  5
FC60
330
FC55
100
AcDbEntity
  8
Defpoints
 62
     0
100
AcDbPoint
 10
2850.0
 20
2630.0
 30
0.0
  0
ENDBLK
  5
FC57
330
FC55
100
AcDbEntity
  8
0
100
AcDbBlockEnd
  0
BLOCK
  5
FC63
330
FC62
100
AcDbEntity
  8
0
100
AcDbBlockBegin
  2
*D1235
 70
     1
 10
0.0
 20
0.0
 30
0.0
  3
*D1235
  1

  0
LINE
  5
FC65
330
FC62
100
AcDbEntity
  8
01注記寸法
 62
     0
370
    -2
100
AcDbLine
 10
2850.0
 20
2922.474094
 30
0.0
 11
2850.0
 21
2615.0
 31
0.0
  0
LINE
  5
FC66
330
FC62
100
AcDbEntity
  8
01注記寸法
 62
     0
370
    -2
100
AcDbLine
 10
2950.0
 20
2905.999999999999
 30
0.0
 11
2950.0
 21
2615.0
 31
0.0
  0
LINE
  5
FC67
330
FC62
100
AcDbEntity
  8
01注記寸法
 62
     0
370
    -2
100
AcDbLine
 10
2850.0
 20
2630.0
 30
0.0
 11
2950.0
 21
2630.0
 31
0.0
  0
LINE
  5
FC68
330
FC62
100
AcDbEntity
  8
01注記寸法
 62
     0
370
    -2
100
AcDbLine
 10
2805.0
 20
2630.0
 30
0.0
 11
2760.0
 21
2630.0
 31
0.0
  0
LINE
  5
FC69
330
FC62
100
AcDbEntity
  8
01注記寸法
 62
     0
370
    -2
100
AcDbLine
 10
2995.0
 20
2630.0
 30
0.0
 11
3040.0
 21
2630.0
 31
0.0
  0
INSERT
  5
FC6A
330
FC62
100
AcDbEntity
  8
01注記寸法
 62
     0
370
    -2
100
AcDbBlockReference
  2
_Open
 10
2850.0
 20
2630.0
 30
0.0
 41
45.0
 42
45.0
 43
45.0
  0
INSERT
  5
FC6B
330
FC62
100
AcDbEntity
  8
01注記寸法
 62
     0
370
    -2
100
AcDbBlockReference
  2
_Open
 10
2950.0
 20
2630.0
 30
0.0
 41
45.0
 42
45.0
 43
45.0
 50
180.0
  0
MTEXT
  5
FC6C
330
FC62
100
AcDbEntity
  8
01注記寸法
 62
     0
100
AcDbMText
 10
2900.0
 20
2667.5
 30
0.0
 40
45.0
 41
0.0
 71
     5
 72
     1
  1
100
 73
     1
 44
1.0
  0
POINT
  5
FC6D
330
FC62
100
AcDbEntity
  8
Defpoints
 62
     0
100
AcDbPoint
 10
2850.0
 20
2944.974094
 30
0.0
  0
POINT
  5
FC6E
330
FC62
100
AcDbEntity
  8
Defpoints
 62
     0
100
AcDbPoint
 10
2950.0
 20
2928.499999999999
 30
0.0
  0
POINT
  5
FC6F
330
FC62
100
AcDbEntity
  8
Defpoints
 62
     0
100
AcDbPoint
 10
2950.0
 20
2630.0
 30
0.0
  0
ENDBLK
  5
FC64
330
FC62
100
AcDbEntity
  8
0
100
AcDbBlockEnd
  0
BLOCK
  5
FC72
330
FC71
100
AcDbEntity
  8
0
100
AcDbBlockBegin
  2
*D1236
 70
     1
 10
0.0
 20
0.0
 30
0.0
  3
*D1236
  1

  0
LINE
  5
FC74
330
FC71
100
AcDbEntity
  8
01注記寸法
 62
     0
370
    -2
100
AcDbLine
 10
2972.5
 20
2930.0
 30
0.0
 11
3115.0
 21
2930.0
 31
0.0
  0
LINE
  5
FC75
330
FC71
100
AcDbEntity
  8
01注記寸法
 62
     0
370
    -2
100
AcDbLine
 10
2892.5
 20
2964.974094
 30
0.0
 11
3115.0
 21
2964.974094
 31
0.0
  0
LINE
  5
FC76
330
FC71
100
AcDbEntity
  8
01注記寸法
 62
     0
370
    -2
100
AcDbLine
 10
3100.0
 20
2930.0
 30
0.0
 11
3100.0
 21
2757.485
 31
0.0
  0
LINE
  5
FC77
330
FC71
100
AcDbEntity
  8
01注記寸法
 62
     0
370
    -2
100
AcDbLine
 10
3100.0
 20
2930.0
 30
0.0
 11
3100.0
 21
2964.974094
 31
0.0
  0
LINE
  5
FC78
330
FC71
100
AcDbEntity
  8
01注記寸法
 62
     0
370
    -2
100
AcDbLine
 10
3100.0
 20
2885.0
 30
0.0
 11
3100.0
 21
2840.0
 31
0.0
  0
LINE
  5
FC79
330
FC71
100
AcDbEntity
  8
01注記寸法
 62
     0
370
    -2
100
AcDbLine
 10
3100.0
 20
3009.974094
 30
0.0
 11
3100.0
 21
3054.974094
 31
0.0
  0
INSERT
  5
FC7A
330
FC71
100
AcDbEntity
  8
01注記寸法
 62
     0
370
    -2
100
AcDbBlockReference
  2
_Open
 10
3100.0
 20
2930.0
 30
0.0
 41
45.0
 42
45.0
 43
45.0
 50
90.0
  0
INSERT
  5
FC7B
330
FC71
100
AcDbEntity
  8
01注記寸法
 62
     0
370
    -2
100
AcDbBlockReference
  2
_Open
 10
3100.0
 20
2964.974094
 30
0.0
 41
45.0
 42
45.0
 43
45.0
 50
270.0
  0
MTEXT
  5
FC7C
330
FC71
100
AcDbEntity
  8
01注記寸法
 62
     0
100
AcDbMText
 10
3062.5
 20
2798.7425
 30
0.0
 40
45.0
 41
0.0
 71
     5
 72
     1
  1
35
 11
0.0
 21
1.0
 31
0.0
 73
     1
 44
1.0
  0
POINT
  5
FC7D
330
FC71
100
AcDbEntity
  8
Defpoints
 62
     0
100
AcDbPoint
 10
2950.0
 20
2930.0
 30
0.0
  0
POINT
  5
FC7E
330
FC71
100
AcDbEntity
  8
Defpoints
 62
     0
100
AcDbPoint
 10
2870.0
 20
2964.974094
 30
0.0
  0
POINT
  5
FC7F
330
FC71
100
AcDbEntity
  8
Defpoints
 62
     0
100
AcDbPoint
 10
3100.0
 20
2964.974094
 30
0.0
  0
ENDBLK
  5
FC73
330
FC71
100
AcDbEntity
  8
0
100
AcDbBlockEnd
  0
BLOCK
  5
FC82
330
FC81
100
AcDbEntity
  8
0
100
AcDbBlockBegin
  2
*D1237
 70
     1
 10
0.0
 20
0.0
 30
0.0
  3
*D1237
  1

  0
LINE
  5
FC84
330
FC81
100
AcDbEntity
  8
01注記寸法
 62
     0
370
    -2
100
AcDbLine
 10
2892.5
 20
2964.974094
 30
0.0
 11
3115.0
 21
2964.974094
 31
0.0
  0
LINE
  5
FC85
330
FC81
100
AcDbEntity
  8
01注記寸法
 62
     0
370
    -2
100
AcDbLine
 10
2892.5
 20
3669.974094
 30
0.0
 11
3115.0
 21
3669.974094
 31
0.0
  0
LINE
  5
FC86
330
FC81
100
AcDbEntity
  8
01注記寸法
 62
     0
370
    -2
100
AcDbLine
 10
3100.0
 20
3009.974094
 30
0.0
 11
3100.0
 21
3624.974094
 31
0.0
  0
INSERT
  5
FC87
330
FC81
100
AcDbEntity
  8
01注記寸法
 62
     0
370
    -2
100
AcDbBlockReference
  2
_Open
 10
3100.0
 20
2964.974094
 30
0.0
 41
45.0
 42
45.0
 43
45.0
 50
270.0
  0
INSERT
  5
FC88
330
FC81
100
AcDbEntity
  8
01注記寸法
 62
     0
370
    -2
100
AcDbBlockReference
  2
_Open
 10
3100.0
 20
3669.974094
 30
0.0
 41
45.0
 42
45.0
 43
45.0
 50
90.0
  0
MTEXT
  5
FC89
330
FC81
100
AcDbEntity
  8
01注記寸法
 62
     0
100
AcDbMText
 10
3061.015
 20
3317.474094
 30
0.0
 40
45.0
 41
0.0
 71
     5
 72
     1
  1
※ 705
 11
0.0
 21
1.0
 31
0.0
 73
     1
 44
1.0
  0
POINT
  5
FC8A
330
FC81
100
AcDbEntity
  8
Defpoints
 62
     0
100
AcDbPoint
 10
2870.0
 20
2964.974094
 30
0.0
  0
POINT
  5
FC8B
330
FC81
100
AcDbEntity
  8
Defpoints
 62
     0
100
AcDbPoint
 10
2870.0
 20
3669.974094
 30
0.0
  0
POINT
  5
FC8C
330
FC81
100
AcDbEntity
  8
Defpoints
 62
     0
100
AcDbPoint
 10
3100.0
 20
3669.974094
 30
0.0
  0
ENDBLK
  5
FC83
330
FC81
100
AcDbEntity
  8
0
100
AcDbBlockEnd
  0
BLOCK
  5
FC8F
330
FC8E
100
AcDbEntity
  8
0
100
AcDbBlockBegin
  2
*D1238
 70
     1
 10
0.0
 20
0.0
 30
0.0
  3
*D1238
  1

  0
LINE
  5
FC91
330
FC8E
100
AcDbEntity
  8
01注記寸法
 62
     0
370
    -2
100
AcDbLine
 10
2892.5
 20
3669.974094
 30
0.0
 11
3115.0
 21
3669.974094
 31
0.0
  0
LINE
  5
FC92
330
FC8E
100
AcDbEntity
  8
01注記寸法
 62
     0
370
    -2
100
AcDbLine
 10
2972.5
 20
3704.999999999999
 30
0.0
 11
3115.0
 21
3704.999999999999
 31
0.0
  0
LINE
  5
FC93
330
FC8E
100
AcDbEntity
  8
01注記寸法
 62
     0
370
    -2
100
AcDbLine
 10
3100.0
 20
3749.999999999999
 30
0.0
 11
3100.0
 21
3877.514999999999
 31
0.0
  0
LINE
  5
FC94
330
FC8E
100
AcDbEntity
  8
01注記寸法
 62
     0
370
    -2
100
AcDbLine
 10
3100.0
 20
3669.974094
 30
0.0
 11
3100.0
 21
3704.999999999999
 31
0.0
  0
LINE
  5
FC95
330
FC8E
100
AcDbEntity
  8
01注記寸法
 62
     0
370
    -2
100
AcDbLine
 10
3100.0
 20
3624.974094
 30
0.0
 11
3100.0
 21
3579.974094
 31
0.0
  0
INSERT
  5
FC96
330
FC8E
100
AcDbEntity
  8
01注記寸法
 62
     0
370
    -2
100
AcDbBlockReference
  2
_Open
 10
3100.0
 20
3669.974094
 30
0.0
 41
45.0
 42
45.0
 43
45.0
 50
90.0
  0
INSERT
  5
FC97
330
FC8E
100
AcDbEntity
  8
01注記寸法
 62
     0
370
    -2
100
AcDbBlockReference
  2
_Open
 10
3100.0
 20
3704.999999999999
 30
0.0
 41
45.0
 42
45.0
 43
45.0
 50
270.0
  0
MTEXT
  5
FC98
330
FC8E
100
AcDbEntity
  8
01注記寸法
 62
     0
100
AcDbMText
 10
3062.5
 20
3836.257499999999
 30
0.0
 40
45.0
 41
0.0
 71
     5
 72
     1
  1
35
 11
0.0
 21
1.0
 31
0.0
 73
     1
 44
1.0
  0
POINT
  5
FC99
330
FC8E
100
AcDbEntity
  8
Defpoints
 62
     0
100
AcDbPoint
 10
2870.0
 20
3669.974094
 30
0.0
  0
POINT
  5
FC9A
330
FC8E
100
AcDbEntity
  8
Defpoints
 62
     0
100
AcDbPoint
 10
2950.0
 20
3704.999999999999
 30
0.0
  0
POINT
  5
FC9B
330
FC8E
100
AcDbEntity
  8
Defpoints
 62
     0
100
AcDbPoint
 10
3100.0
 20
3704.999999999999
 30
0.0
  0
ENDBLK
  5
FC90
330
FC8E
100
AcDbEntity
  8
0
100
AcDbBlockEnd
  0
BLOCK
  5
FCB5
330
FCB4
100
AcDbEntity
  8
0
100
AcDbBlockBegin
  2
*D1240
 70
     1
 10
0.0
 20
0.0
 30
0.0
  3
*D1240
  1

  0
LINE
  5
FCB7
330
FCB4
100
AcDbEntity
  8
01注記寸法
 62
     0
370
    -2
100
AcDbLine
 10
391.8999999999996
 20
901.0
 30
0.0
 11
235.0
 21
901.0
 31
0.0
  0
LINE
  5
FCB8
330
FCB4
100
AcDbEntity
  8
01注記寸法
 62
     0
370
    -2
100
AcDbLine
 10
391.8999999999996
 20
549.0
 30
0.0
 11
235.0
 21
549.0
 31
0.0
  0
LINE
  5
FCB9
330
FCB4
100
AcDbEntity
  8
01注記寸法
 62
     0
370
    -2
100
AcDbLine
 10
250.0
 20
856.0
 30
0.0
 11
250.0
 21
594.0
 31
0.0
  0
INSERT
  5
FCBA
330
FCB4
100
AcDbEntity
  8
01注記寸法
 62
     0
370
    -2
100
AcDbBlockReference
  2
_Open
 10
250.0
 20
901.0
 30
0.0
 41
45.0
 42
45.0
 43
45.0
 50
90.0
  0
INSERT
  5
FCBB
330
FCB4
100
AcDbEntity
  8
01注記寸法
 62
     0
370
    -2
100
AcDbBlockReference
  2
_Open
 10
250.0
 20
549.0
 30
0.0
 41
45.0
 42
45.0
 43
45.0
 50
270.0
  0
MTEXT
  5
FCBC
330
FCB4
100
AcDbEntity
  8
01注記寸法
 62
     0
100
AcDbMText
 10
212.5
 20
725.0
 30
0.0
 40
45.0
 41
0.0
 71
     5
 72
     1
  1
704
 11
8.074349270001139E-17
 21
1.0
 31
0.0
 73
     1
 44
1.0
  0
POINT
  5
FCBD
330
FCB4
100
AcDbEntity
  8
Defpoints
 62
     0
100
AcDbPoint
 10
414.3999999999996
 20
901.0
 30
0.0
  0
POINT
  5
FCBE
330
FCB4
100
AcDbEntity
  8
Defpoints
 62
     0
100
AcDbPoint
 10
414.3999999999996
 20
549.0
 30
0.0
  0
POINT
  5
FCBF
330
FCB4
100
AcDbEntity
  8
Defpoints
 62
     0
100
AcDbPoint
 10
250.0
 20
549.0
 30
0.0
  0
ENDBLK
  5
FCB6
330
FCB4
100
AcDbEntity
  8
0
100
AcDbBlockEnd
  0
BLOCK
  5
FCC2
330
FCC1
100
AcDbEntity
  8
0
100
AcDbBlockBegin
  2
*D1241
 70
     1
 10
0.0
 20
0.0
 30
0.0
  3
*D1241
  1

  0
LINE
  5
FCC4
330
FCC1
100
AcDbEntity
  8
01注記寸法
 62
     0
370
    -2
100
AcDbLine
 10
414.3999999999996
 20
923.5
 30
0.0
 11
414.3999999999996
 21
1083.75
 31
0.0
  0
LINE
  5
FCC5
330
FCC1
100
AcDbEntity
  8
01注記寸法
 62
     0
370
    -2
100
AcDbLine
 10
801.0
 20
921.8999999999996
 30
0.0
 11
801.0
 21
1083.75
 31
0.0
  0
LINE
  5
FCC6
330
FCC1
100
AcDbEntity
  8
01注記寸法
 62
     0
370
    -2
100
AcDbLine
 10
459.3999999999996
 20
1068.75
 30
0.0
 11
756.0
 21
1068.75
 31
0.0
  0
INSERT
  5
FCC7
330
FCC1
100
AcDbEntity
  8
01注記寸法
 62
     0
370
    -2
100
AcDbBlockReference
  2
_Open
 10
414.3999999999996
 20
1068.75
 30
0.0
 41
45.0
 42
45.0
 43
45.0
 50
180.0
  0
INSERT
  5
FCC8
330
FCC1
100
AcDbEntity
  8
01注記寸法
 62
     0
370
    -2
100
AcDbBlockReference
  2
_Open
 10
801.0
 20
1068.75
 30
0.0
 41
45.0
 42
45.0
 43
45.0
  0
MTEXT
  5
FCC9
330
FCC1
100
AcDbEntity
  8
01注記寸法
 62
     0
100
AcDbMText
 10
607.6999999999998
 20
1106.25
 30
0.0
 40
45.0
 41
0.0
 71
     5
 72
     1
  1
773
 73
     1
 44
1.0
  0
POINT
  5
FCCA
330
FCC1
100
AcDbEntity
  8
Defpoints
 62
     0
100
AcDbPoint
 10
414.3999999999996
 20
901.0
 30
0.0
  0
POINT
  5
FCCB
330
FCC1
100
AcDbEntity
  8
Defpoints
 62
     0
100
AcDbPoint
 10
801.0
 20
899.3999999999996
 30
0.0
  0
POINT
  5
FCCC
330
FCC1
100
AcDbEntity
  8
Defpoints
 62
     0
100
AcDbPoint
 10
801.0
 20
1068.75
 30
0.0
  0
ENDBLK
  5
FCC3
330
FCC1
100
AcDbEntity
  8
0
100
AcDbBlockEnd
  0
BLOCK
  5
FCCF
330
FCCE
100
AcDbEntity
  8
0
100
AcDbBlockBegin
  2
*D1242
 70
     1
 10
0.0
 20
0.0
 30
0.0
  3
*D1242
  1

  0
LINE
  5
FCD1
330
FCCE
100
AcDbEntity
  8
01注記寸法
 62
     0
370
    -2
100
AcDbLine
 10
801.0
 20
921.8999999999996
 30
0.0
 11
801.0
 21
1083.75
 31
0.0
  0
LINE
  5
FCD2
330
FCCE
100
AcDbEntity
  8
01注記寸法
 62
     0
370
    -2
100
AcDbLine
 10
1185.6
 20
923.5
 30
0.0
 11
1185.6
 21
1083.75
 31
0.0
  0
LINE
  5
FCD3
330
FCCE
100
AcDbEntity
  8
01注記寸法
 62
     0
370
    -2
100
AcDbLine
 10
846.0
 20
1068.75
 30
0.0
 11
1140.6
 21
1068.75
 31
0.0
  0
INSERT
  5
FCD4
330
FCCE
100
AcDbEntity
  8
01注記寸法
 62
     0
370
    -2
100
AcDbBlockReference
  2
_Open
 10
801.0
 20
1068.75
 30
0.0
 41
45.0
 42
45.0
 43
45.0
 50
180.0
  0
INSERT
  5
FCD5
330
FCCE
100
AcDbEntity
  8
01注記寸法
 62
     0
370
    -2
100
AcDbBlockReference
  2
_Open
 10
1185.6
 20
1068.75
 30
0.0
 41
45.0
 42
45.0
 43
45.0
  0
MTEXT
  5
FCD6
330
FCCE
100
AcDbEntity
  8
01注記寸法
 62
     0
100
AcDbMText
 10
993.3000000000002
 20
1106.25
 30
0.0
 40
45.0
 41
0.0
 71
     5
 72
     1
  1
769
 73
     1
 44
1.0
  0
POINT
  5
FCD7
330
FCCE
100
AcDbEntity
  8
Defpoints
 62
     0
100
AcDbPoint
 10
801.0
 20
899.3999999999996
 30
0.0
  0
POINT
  5
FCD8
330
FCCE
100
AcDbEntity
  8
Defpoints
 62
     0
100
AcDbPoint
 10
1185.6
 20
901.0
 30
0.0
  0
POINT
  5
FCD9
330
FCCE
100
AcDbEntity
  8
Defpoints
 62
     0
100
AcDbPoint
 10
1185.6
 20
1068.75
 30
0.0
  0
ENDBLK
  5
FCD0
330
FCCE
100
AcDbEntity
  8
0
100
AcDbBlockEnd
  0
BLOCK
  5
FCDC
330
FCDB
100
AcDbEntity
  8
0
100
AcDbBlockBegin
  2
*D1243
 70
     1
 10
0.0
 20
0.0
 30
0.0
  3
*D1243
  1

  0
LINE
  5
FCDE
330
FCDB
100
AcDbEntity
  8
08非表示
 62
     0
370
    -2
100
AcDbLine
 10
1088.375845678362
 20
918.75
 30
0.0
 11
1052.020728804338
 21
918.75
 31
0.0
  0
LINE
  5
FCDF
330
FCDB
100
AcDbEntity
  8
08非表示
 62
     0
370
    -2
100
AcDbLine
 10
1088.375845678362
 20
531.25
 30
0.0
 11
1052.020728804338
 21
531.25
 31
0.0
  0
LINE
  5
FCE0
330
FCDB
100
AcDbEntity
  8
08非表示
 62
     0
370
    -2
100
AcDbLine
 10
1067.020728804338
 20
873.75
 30
0.0
 11
1067.020728804338
 21
576.25
 31
0.0
  0
INSERT
  5
FCE1
330
FCDB
100
AcDbEntity
  8
08非表示
 62
     0
370
    -2
100
AcDbBlockReference
  2
_Open
 10
1067.020728804338
 20
918.75
 30
0.0
 41
45.0
 42
45.0
 43
45.0
 50
90.0
  0
INSERT
  5
FCE2
330
FCDB
100
AcDbEntity
  8
08非表示
 62
     0
370
    -2
100
AcDbBlockReference
  2
_Open
 10
1067.020728804338
 20
531.25
 30
0.0
 41
45.0
 42
45.0
 43
45.0
 50
270.0
  0
MTEXT
  5
FCE3
330
FCDB
100
AcDbEntity
  8
08非表示
 62
     0
100
AcDbMText
 10
1029.520728804338
 20
725.0
 30
0.0
 40
45.0
 41
0.0
 71
     5
 72
     1
  1
775
 11
0.0
 21
1.0
 31
0.0
 73
     1
 44
1.0
  0
POINT
  5
FCE4
330
FCDB
100
AcDbEntity
  8
Defpoints
 62
     0
100
AcDbPoint
 10
1110.875845678362
 20
918.75
 30
0.0
  0
POINT
  5
FCE5
330
FCDB
100
AcDbEntity
  8
Defpoints
 62
     0
100
AcDbPoint
 10
1110.875845678362
 20
531.25
 30
0.0
  0
POINT
  5
FCE6
330
FCDB
100
AcDbEntity
  8
Defpoints
 62
     0
100
AcDbPoint
 10
1067.020728804338
 20
531.25
 30
0.0
  0
ENDBLK
  5
FCDD
330
FCDB
100
AcDbEntity
  8
0
100
AcDbBlockEnd
  0
BLOCK
  5
FCE9
330
FCE8
100
AcDbEntity
  8
0
100
AcDbBlockBegin
  2
*D1244
 70
     1
 10
0.0
 20
0.0
 30
0.0
  3
*D1244
  1

  0
LINE
  5
FCEB
330
FCE8
100
AcDbEntity
  8
08非表示
 62
     0
370
    -2
100
AcDbLine
 10
400.0
 20
640.6449726165329
 30
0.0
 11
400.0
 21
641.542760954112
 31
0.0
  0
LINE
  5
FCEC
330
FCE8
100
AcDbEntity
  8
08非表示
 62
     0
370
    -2
100
AcDbLine
 10
1200.0
 20
635.0464470581469
 30
0.0
 11
1200.0
 21
641.542760954112
 31
0.0
  0
LINE
  5
FCED
330
FCE8
100
AcDbEntity
  8
08非表示
 62
     0
370
    -2
100
AcDbLine
 10
445.0
 20
626.542760954112
 30
0.0
 11
1155.0
 21
626.542760954112
 31
0.0
  0
INSERT
  5
FCEE
330
FCE8
100
AcDbEntity
  8
08非表示
 62
     0
370
    -2
100
AcDbBlockReference
  2
_Open
 10
400.0
 20
626.542760954112
 30
0.0
 41
45.0
 42
45.0
 43
45.0
 50
180.0
  0
INSERT
  5
FCEF
330
FCE8
100
AcDbEntity
  8
08非表示
 62
     0
370
    -2
100
AcDbBlockReference
  2
_Open
 10
1200.0
 20
626.542760954112
 30
0.0
 41
45.0
 42
45.0
 43
45.0
  0
MTEXT
  5
FCF0
330
FCE8
100
AcDbEntity
  8
08非表示
 62
     0
100
AcDbMText
 10
800.0
 20
664.042760954112
 30
0.0
 40
45.0
 41
0.0
 71
     5
 72
     1
  1
1600
 73
     1
 44
1.0
  0
POINT
  5
FCF1
330
FCE8
100
AcDbEntity
  8
Defpoints
 62
     0
100
AcDbPoint
 10
400.0
 20
618.1449726165329
 30
0.0
  0
POINT
  5
FCF2
330
FCE8
100
AcDbEntity
  8
Defpoints
 62
     0
100
AcDbPoint
 10
1200.0
 20
612.5464470581469
 30
0.0
  0
POINT
  5
FCF3
330
FCE8
100
AcDbEntity
  8
Defpoints
 62
     0
100
AcDbPoint
 10
1200.0
 20
626.542760954112
 30
0.0
  0
ENDBLK
  5
FCEA
330
FCE8
100
AcDbEntity
  8
0
100
AcDbBlockEnd
  0
BLOCK
  5
FCF6
330
FCF5
100
AcDbEntity
  8
0
100
AcDbBlockBegin
  2
*D1245
 70
     1
 10
0.0
 20
0.0
 30
0.0
  3
*D1245
  1

  0
LINE
  5
FCF8
330
FCF5
100
AcDbEntity
  8
01注記寸法
 62
     0
370
    -2
100
AcDbLine
 10
778.5
 20
899.3999999999996
 30
0.0
 11
674.0892639081421
 21
899.3999999999996
 31
0.0
  0
LINE
  5
FCF9
330
FCF5
100
AcDbEntity
  8
01注記寸法
 62
     0
370
    -2
100
AcDbLine
 10
778.5
 20
550.5999999999995
 30
0.0
 11
674.0892639081421
 21
550.5999999999995
 31
0.0
  0
LINE
  5
FCFA
330
FCF5
100
AcDbEntity
  8
01注記寸法
 62
     0
370
    -2
100
AcDbLine
 10
689.0892639081421
 20
854.3999999999996
 30
0.0
 11
689.0892639081421
 21
595.5999999999995
 31
0.0
  0
INSERT
  5
FCFB
330
FCF5
100
AcDbEntity
  8
01注記寸法
 62
     0
370
    -2
100
AcDbBlockReference
  2
_Open
 10
689.0892639081421
 20
899.3999999999996
 30
0.0
 41
45.0
 42
45.0
 43
45.0
 50
90.0
  0
INSERT
  5
FCFC
330
FCF5
100
AcDbEntity
  8
01注記寸法
 62
     0
370
    -2
100
AcDbBlockReference
  2
_Open
 10
689.0892639081421
 20
550.5999999999995
 30
0.0
 41
45.0
 42
45.0
 43
45.0
 50
270.0
  0
MTEXT
  5
FCFD
330
FCF5
100
AcDbEntity
  8
01注記寸法
 62
     0
100
AcDbMText
 10
651.5892639081421
 20
724.9999999999995
 30
0.0
 40
45.0
 41
0.0
 71
     5
 72
     1
  1
698
 11
0.0
 21
1.0
 31
0.0
 73
     1
 44
1.0
  0
POINT
  5
FCFE
330
FCF5
100
AcDbEntity
  8
Defpoints
 62
     0
100
AcDbPoint
 10
801.0
 20
899.3999999999996
 30
0.0
  0
POINT
  5
FCFF
330
FCF5
100
AcDbEntity
  8
Defpoints
 62
     0
100
AcDbPoint
 10
801.0
 20
550.5999999999995
 30
0.0
  0
POINT
  5
FD00
330
FCF5
100
AcDbEntity
  8
Defpoints
 62
     0
100
AcDbPoint
 10
689.0892639081421
 20
550.5999999999995
 30
0.0
  0
ENDBLK
  5
FCF7
330
FCF5
100
AcDbEntity
  8
0
100
AcDbBlockEnd
  0
BLOCK
  5
FD27
330
FD26
100
AcDbEntity
  8
0
100
AcDbBlockBegin
  2
*D1246
 70
     1
 10
0.0
 20
0.0
 30
0.0
  3
*D1246
  1

  0
LINE
  5
FD29
330
FD26
100
AcDbEntity
  8
01注記寸法
 62
     0
370
    -2
100
AcDbLine
 10
1557.4
 20
905.0999999999995
 30
0.0
 11
1435.0
 21
905.0999999999995
 31
0.0
  0
LINE
  5
FD2A
330
FD26
100
AcDbEntity
  8
01注記寸法
 62
     0
370
    -2
100
AcDbLine
 10
1557.4
 20
544.8999999999996
 30
0.0
 11
1435.0
 21
544.8999999999996
 31
0.0
  0
LINE
  5
FD2B
330
FD26
100
AcDbEntity
  8
01注記寸法
 62
     0
370
    -2
100
AcDbLine
 10
1450.0
 20
860.0999999999995
 30
0.0
 11
1450.0
 21
589.8999999999996
 31
0.0
  0
INSERT
  5
FD2C
330
FD26
100
AcDbEntity
  8
01注記寸法
 62
     0
370
    -2
100
AcDbBlockReference
  2
_Open
 10
1450.0
 20
905.0999999999995
 30
0.0
 41
45.0
 42
45.0
 43
45.0
 50
90.0
  0
INSERT
  5
FD2D
330
FD26
100
AcDbEntity
  8
01注記寸法
 62
     0
370
    -2
100
AcDbBlockReference
  2
_Open
 10
1450.0
 20
544.8999999999996
 30
0.0
 41
45.0
 42
45.0
 43
45.0
 50
270.0
  0
MTEXT
  5
FD2E
330
FD26
100
AcDbEntity
  8
01注記寸法
 62
     0
100
AcDbMText
 10
1412.5
 20
724.9999999999995
 30
0.0
 40
45.0
 41
0.0
 71
     5
 72
     1
  1
720
 11
0.0
 21
1.0
 31
0.0
 73
     1
 44
1.0
  0
POINT
  5
FD2F
330
FD26
100
AcDbEntity
  8
Defpoints
 62
     0
100
AcDbPoint
 10
1579.9
 20
905.0999999999995
 30
0.0
  0
POINT
  5
FD30
330
FD26
100
AcDbEntity
  8
Defpoints
 62
     0
100
AcDbPoint
 10
1579.9
 20
544.8999999999996
 30
0.0
  0
POINT
  5
FD31
330
FD26
100
AcDbEntity
  8
Defpoints
 62
     0
100
AcDbPoint
 10
1450.0
 20
544.8999999999996
 30
0.0
  0
ENDBLK
  5
FD28
330
FD26
100
AcDbEntity
  8
0
100
AcDbBlockEnd
  0
BLOCK
  5
FD33
330
FD32
100
AcDbEntity
  8
0
100
AcDbBlockBegin
  2
*D1247
 70
     1
 10
0.0
 20
0.0
 30
0.0
  3
*D1247
  1

  0
LINE
  5
FD35
330
FD32
100
AcDbEntity
  8
01注記寸法
 62
     0
370
    -2
100
AcDbLine
 10
1579.9
 20
927.5999999999995
 30
0.0
 11
1579.9
 21
1083.75
 31
0.0
  0
LINE
  5
FD36
330
FD32
100
AcDbEntity
  8
01注記寸法
 62
     0
370
    -2
100
AcDbLine
 10
2001.0
 20
921.8999999999996
 30
0.0
 11
2001.0
 21
1083.75
 31
0.0
  0
LINE
  5
FD37
330
FD32
100
AcDbEntity
  8
01注記寸法
 62
     0
370
    -2
100
AcDbLine
 10
1624.9
 20
1068.75
 30
0.0
 11
1956.0
 21
1068.75
 31
0.0
  0
INSERT
  5
FD38
330
FD32
100
AcDbEntity
  8
01注記寸法
 62
     0
370
    -2
100
AcDbBlockReference
  2
_Open
 10
1579.9
 20
1068.75
 30
0.0
 41
45.0
 42
45.0
 43
45.0
 50
180.0
  0
INSERT
  5
FD39
330
FD32
100
AcDbEntity
  8
01注記寸法
 62
     0
370
    -2
100
AcDbBlockReference
  2
_Open
 10
2001.0
 20
1068.75
 30
0.0
 41
45.0
 42
45.0
 43
45.0
  0
MTEXT
  5
FD3A
330
FD32
100
AcDbEntity
  8
01注記寸法
 62
     0
100
AcDbMText
 10
1790.45
 20
1106.25
 30
0.0
 40
45.0
 41
0.0
 71
     5
 72
     1
  1
842
 73
     1
 44
1.0
  0
POINT
  5
FD3B
330
FD32
100
AcDbEntity
  8
Defpoints
 62
     0
100
AcDbPoint
 10
1579.9
 20
905.0999999999995
 30
0.0
  0
POINT
  5
FD3C
330
FD32
100
AcDbEntity
  8
Defpoints
 62
     0
100
AcDbPoint
 10
2001.0
 20
899.3999999999996
 30
0.0
  0
POINT
  5
FD3D
330
FD32
100
AcDbEntity
  8
Defpoints
 62
     0
100
AcDbPoint
 10
2001.0
 20
1068.75
 30
0.0
  0
ENDBLK
  5
FD34
330
FD32
100
AcDbEntity
  8
0
100
AcDbBlockEnd
  0
BLOCK
  5
FD3F
330
FD3E
100
AcDbEntity
  8
0
100
AcDbBlockBegin
  2
*D1248
 70
     1
 10
0.0
 20
0.0
 30
0.0
  3
*D1248
  1

  0
LINE
  5
FD41
330
FD3E
100
AcDbEntity
  8
01注記寸法
 62
     0
370
    -2
100
AcDbLine
 10
2001.0
 20
921.8999999999996
 30
0.0
 11
2001.0
 21
1083.75
 31
0.0
  0
LINE
  5
FD42
330
FD3E
100
AcDbEntity
  8
01注記寸法
 62
     0
370
    -2
100
AcDbLine
 10
2420.1
 20
927.5999999999995
 30
0.0
 11
2420.1
 21
1083.75
 31
0.0
  0
LINE
  5
FD43
330
FD3E
100
AcDbEntity
  8
01注記寸法
 62
     0
370
    -2
100
AcDbLine
 10
2046.0
 20
1068.75
 30
0.0
 11
2375.1
 21
1068.75
 31
0.0
  0
INSERT
  5
FD44
330
FD3E
100
AcDbEntity
  8
01注記寸法
 62
     0
370
    -2
100
AcDbBlockReference
  2
_Open
 10
2001.0
 20
1068.75
 30
0.0
 41
45.0
 42
45.0
 43
45.0
 50
180.0
  0
INSERT
  5
FD45
330
FD3E
100
AcDbEntity
  8
01注記寸法
 62
     0
370
    -2
100
AcDbBlockReference
  2
_Open
 10
2420.1
 20
1068.75
 30
0.0
 41
45.0
 42
45.0
 43
45.0
  0
MTEXT
  5
FD46
330
FD3E
100
AcDbEntity
  8
01注記寸法
 62
     0
100
AcDbMText
 10
2210.55
 20
1106.25
 30
0.0
 40
45.0
 41
0.0
 71
     5
 72
     1
  1
838
 73
     1
 44
1.0
  0
POINT
  5
FD47
330
FD3E
100
AcDbEntity
  8
Defpoints
 62
     0
100
AcDbPoint
 10
2001.0
 20
899.3999999999996
 30
0.0
  0
POINT
  5
FD48
330
FD3E
100
AcDbEntity
  8
Defpoints
 62
     0
100
AcDbPoint
 10
2420.1
 20
905.0999999999995
 30
0.0
  0
POINT
  5
FD49
330
FD3E
100
AcDbEntity
  8
Defpoints
 62
     0
100
AcDbPoint
 10
2420.1
 20
1068.75
 30
0.0
  0
ENDBLK
  5
FD40
330
FD3E
100
AcDbEntity
  8
0
100
AcDbBlockEnd
  0
BLOCK
  5
FD4B
330
FD4A
100
AcDbEntity
  8
0
100
AcDbBlockBegin
  2
*D1249
 70
     1
 10
0.0
 20
0.0
 30
0.0
  3
*D1249
  1

  0
LINE
  5
FD4D
330
FD4A
100
AcDbEntity
  8
08非表示
 62
     0
370
    -2
100
AcDbLine
 10
2288.375845678362
 20
918.75
 30
0.0
 11
2252.020728804338
 21
918.75
 31
0.0
  0
LINE
  5
FD4E
330
FD4A
100
AcDbEntity
  8
08非表示
 62
     0
370
    -2
100
AcDbLine
 10
2288.375845678362
 20
531.25
 30
0.0
 11
2252.020728804338
 21
531.25
 31
0.0
  0
LINE
  5
FD4F
330
FD4A
100
AcDbEntity
  8
08非表示
 62
     0
370
    -2
100
AcDbLine
 10
2267.020728804338
 20
873.75
 30
0.0
 11
2267.020728804338
 21
576.25
 31
0.0
  0
INSERT
  5
FD50
330
FD4A
100
AcDbEntity
  8
08非表示
 62
     0
370
    -2
100
AcDbBlockReference
  2
_Open
 10
2267.020728804338
 20
918.75
 30
0.0
 41
45.0
 42
45.0
 43
45.0
 50
90.0
  0
INSERT
  5
FD51
330
FD4A
100
AcDbEntity
  8
08非表示
 62
     0
370
    -2
100
AcDbBlockReference
  2
_Open
 10
2267.020728804338
 20
531.25
 30
0.0
 41
45.0
 42
45.0
 43
45.0
 50
270.0
  0
MTEXT
  5
FD52
330
FD4A
100
AcDbEntity
  8
08非表示
 62
     0
100
AcDbMText
 10
2229.520728804338
 20
725.0
 30
0.0
 40
45.0
 41
0.0
 71
     5
 72
     1
  1
775
 11
0.0
 21
1.0
 31
0.0
 73
     1
 44
1.0
  0
POINT
  5
FD53
330
FD4A
100
AcDbEntity
  8
Defpoints
 62
     0
100
AcDbPoint
 10
2310.875845678362
 20
918.75
 30
0.0
  0
POINT
  5
FD54
330
FD4A
100
AcDbEntity
  8
Defpoints
 62
     0
100
AcDbPoint
 10
2310.875845678362
 20
531.25
 30
0.0
  0
POINT
  5
FD55
330
FD4A
100
AcDbEntity
  8
Defpoints
 62
     0
100
AcDbPoint
 10
2267.020728804338
 20
531.25
 30
0.0
  0
ENDBLK
  5
FD4C
330
FD4A
100
AcDbEntity
  8
0
100
AcDbBlockEnd
  0
BLOCK
  5
FD57
330
FD56
100
AcDbEntity
  8
0
100
AcDbBlockBegin
  2
*D1250
 70
     1
 10
0.0
 20
0.0
 30
0.0
  3
*D1250
  1

  0
LINE
  5
FD59
330
FD56
100
AcDbEntity
  8
08非表示
 62
     0
370
    -2
100
AcDbLine
 10
1600.0
 20
640.6449726165329
 30
0.0
 11
1600.0
 21
641.542760954112
 31
0.0
  0
LINE
  5
FD5A
330
FD56
100
AcDbEntity
  8
08非表示
 62
     0
370
    -2
100
AcDbLine
 10
2400.0
 20
635.0464470581469
 30
0.0
 11
2400.0
 21
641.542760954112
 31
0.0
  0
LINE
  5
FD5B
330
FD56
100
AcDbEntity
  8
08非表示
 62
     0
370
    -2
100
AcDbLine
 10
1645.0
 20
626.542760954112
 30
0.0
 11
2355.0
 21
626.542760954112
 31
0.0
  0
INSERT
  5
FD5C
330
FD56
100
AcDbEntity
  8
08非表示
 62
     0
370
    -2
100
AcDbBlockReference
  2
_Open
 10
1600.0
 20
626.542760954112
 30
0.0
 41
45.0
 42
45.0
 43
45.0
 50
180.0
  0
INSERT
  5
FD5D
330
FD56
100
AcDbEntity
  8
08非表示
 62
     0
370
    -2
100
AcDbBlockReference
  2
_Open
 10
2400.0
 20
626.542760954112
 30
0.0
 41
45.0
 42
45.0
 43
45.0
  0
MTEXT
  5
FD5E
330
FD56
100
AcDbEntity
  8
08非表示
 62
     0
100
AcDbMText
 10
2000.0
 20
664.042760954112
 30
0.0
 40
45.0
 41
0.0
 71
     5
 72
     1
  1
1600
 73
     1
 44
1.0
  0
POINT
  5
FD5F
330
FD56
100
AcDbEntity
  8
Defpoints
 62
     0
100
AcDbPoint
 10
1600.0
 20
618.1449726165329
 30
0.0
  0
POINT
  5
FD60
330
FD56
100
AcDbEntity
  8
Defpoints
 62
     0
100
AcDbPoint
 10
2400.0
 20
612.5464470581469
 30
0.0
  0
POINT
  5
FD61
330
FD56
100
AcDbEntity
  8
Defpoints
 62
     0
100
AcDbPoint
 10
2400.0
 20
626.542760954112
 30
0.0
  0
ENDBLK
  5
FD58
330
FD56
100
AcDbEntity
  8
0
100
AcDbBlockEnd
  0
BLOCK
  5
FD63
330
FD62
100
AcDbEntity
  8
0
100
AcDbBlockBegin
  2
*D1251
 70
     1
 10
0.0
 20
0.0
 30
0.0
  3
*D1251
  1

  0
LINE
  5
FD65
330
FD62
100
AcDbEntity
  8
01注記寸法
 62
     0
370
    -2
100
AcDbLine
 10
1978.5
 20
899.3999999999996
 30
0.0
 11
1874.089263908142
 21
899.3999999999996
 31
0.0
  0
LINE
  5
FD66
330
FD62
100
AcDbEntity
  8
01注記寸法
 62
     0
370
    -2
100
AcDbLine
 10
1978.5
 20
550.5999999999995
 30
0.0
 11
1874.089263908142
 21
550.5999999999995
 31
0.0
  0
LINE
  5
FD67
330
FD62
100
AcDbEntity
  8
01注記寸法
 62
     0
370
    -2
100
AcDbLine
 10
1889.089263908142
 20
854.3999999999996
 30
0.0
 11
1889.089263908142
 21
595.5999999999995
 31
0.0
  0
INSERT
  5
FD68
330
FD62
100
AcDbEntity
  8
01注記寸法
 62
     0
370
    -2
100
AcDbBlockReference
  2
_Open
 10
1889.089263908142
 20
899.3999999999996
 30
0.0
 41
45.0
 42
45.0
 43
45.0
 50
90.0
  0
INSERT
  5
FD69
330
FD62
100
AcDbEntity
  8
01注記寸法
 62
     0
370
    -2
100
AcDbBlockReference
  2
_Open
 10
1889.089263908142
 20
550.5999999999995
 30
0.0
 41
45.0
 42
45.0
 43
45.0
 50
270.0
  0
MTEXT
  5
FD6A
330
FD62
100
AcDbEntity
  8
01注記寸法
 62
     0
100
AcDbMText
 10
1851.589263908142
 20
724.9999999999995
 30
0.0
 40
45.0
 41
0.0
 71
     5
 72
     1
  1
698
 11
0.0
 21
1.0
 31
0.0
 73
     1
 44
1.0
  0
POINT
  5
FD6B
330
FD62
100
AcDbEntity
  8
Defpoints
 62
     0
100
AcDbPoint
 10
2001.0
 20
899.3999999999996
 30
0.0
  0
POINT
  5
FD6C
330
FD62
100
AcDbEntity
  8
Defpoints
 62
     0
100
AcDbPoint
 10
2001.0
 20
550.5999999999995
 30
0.0
  0
POINT
  5
FD6D
330
FD62
100
AcDbEntity
  8
Defpoints
 62
     0
100
AcDbPoint
 10
1889.089263908142
 20
550.5999999999995
 30
0.0
  0
ENDBLK
  5
FD64
330
FD62
100
AcDbEntity
  8
0
100
AcDbBlockEnd
  0
BLOCK
  5
FD94
330
FD93
100
AcDbEntity
  8
0
100
AcDbBlockBegin
  2
*D1252
 70
     1
 10
0.0
 20
0.0
 30
0.0
  3
*D1252
  1

  0
LINE
  5
FD96
330
FD93
100
AcDbEntity
  8
01注記寸法
 62
     0
370
    -2
100
AcDbLine
 10
2791.9
 20
939.5999999999995
 30
0.0
 11
2635.0
 21
939.5999999999995
 31
0.0
  0
LINE
  5
FD97
330
FD93
100
AcDbEntity
  8
01注記寸法
 62
     0
370
    -2
100
AcDbLine
 10
2791.9
 20
510.3999999999996
 30
0.0
 11
2635.0
 21
510.3999999999996
 31
0.0
  0
LINE
  5
FD98
330
FD93
100
AcDbEntity
  8
01注記寸法
 62
     0
370
    -2
100
AcDbLine
 10
2650.0
 20
894.5999999999995
 30
0.0
 11
2650.0
 21
555.3999999999996
 31
0.0
  0
INSERT
  5
FD99
330
FD93
100
AcDbEntity
  8
01注記寸法
 62
     0
370
    -2
100
AcDbBlockReference
  2
_Open
 10
2650.0
 20
939.5999999999995
 30
0.0
 41
45.0
 42
45.0
 43
45.0
 50
90.0
  0
INSERT
  5
FD9A
330
FD93
100
AcDbEntity
  8
01注記寸法
 62
     0
370
    -2
100
AcDbBlockReference
  2
_Open
 10
2650.0
 20
510.3999999999996
 30
0.0
 41
45.0
 42
45.0
 43
45.0
 50
270.0
  0
MTEXT
  5
FD9B
330
FD93
100
AcDbEntity
  8
01注記寸法
 62
     0
100
AcDbMText
 10
2612.5
 20
724.9999999999995
 30
0.0
 40
45.0
 41
0.0
 71
     5
 72
     1
  1
858
 11
0.0
 21
1.0
 31
0.0
 73
     1
 44
1.0
  0
POINT
  5
FD9C
330
FD93
100
AcDbEntity
  8
Defpoints
 62
     0
100
AcDbPoint
 10
2814.4
 20
939.5999999999995
 30
0.0
  0
POINT
  5
FD9D
330
FD93
100
AcDbEntity
  8
Defpoints
 62
     0
100
AcDbPoint
 10
2814.4
 20
510.3999999999996
 30
0.0
  0
POINT
  5
FD9E
330
FD93
100
AcDbEntity
  8
Defpoints
 62
     0
100
AcDbPoint
 10
2650.0
 20
510.3999999999996
 30
0.0
  0
ENDBLK
  5
FD95
330
FD93
100
AcDbEntity
  8
0
100
AcDbBlockEnd
  0
BLOCK
  5
FDA0
330
FD9F
100
AcDbEntity
  8
0
100
AcDbBlockBegin
  2
*D1253
 70
     1
 10
0.0
 20
0.0
 30
0.0
  3
*D1253
  1

  0
LINE
  5
FDA2
330
FD9F
100
AcDbEntity
  8
01注記寸法
 62
     0
370
    -2
100
AcDbLine
 10
2814.4
 20
962.0999999999995
 30
0.0
 11
2814.4
 21
1083.75
 31
0.0
  0
LINE
  5
FDA3
330
FD9F
100
AcDbEntity
  8
01注記寸法
 62
     0
370
    -2
100
AcDbLine
 10
3201.0
 20
960.5
 30
0.0
 11
3201.0
 21
1083.75
 31
0.0
  0
LINE
  5
FDA4
330
FD9F
100
AcDbEntity
  8
01注記寸法
 62
     0
370
    -2
100
AcDbLine
 10
2859.4
 20
1068.75
 30
0.0
 11
3156.0
 21
1068.75
 31
0.0
  0
INSERT
  5
FDA5
330
FD9F
100
AcDbEntity
  8
01注記寸法
 62
     0
370
    -2
100
AcDbBlockReference
  2
_Open
 10
2814.4
 20
1068.75
 30
0.0
 41
45.0
 42
45.0
 43
45.0
 50
180.0
  0
INSERT
  5
FDA6
330
FD9F
100
AcDbEntity
  8
01注記寸法
 62
     0
370
    -2
100
AcDbBlockReference
  2
_Open
 10
3201.0
 20
1068.75
 30
0.0
 41
45.0
 42
45.0
 43
45.0
  0
MTEXT
  5
FDA7
330
FD9F
100
AcDbEntity
  8
01注記寸法
 62
     0
100
AcDbMText
 10
3007.7
 20
1106.25
 30
0.0
 40
45.0
 41
0.0
 71
     5
 72
     1
  1
773
 73
     1
 44
1.0
  0
POINT
  5
FDA8
330
FD9F
100
AcDbEntity
  8
Defpoints
 62
     0
100
AcDbPoint
 10
2814.4
 20
939.5999999999995
 30
0.0
  0
POINT
  5
FDA9
330
FD9F
100
AcDbEntity
  8
Defpoints
 62
     0
100
AcDbPoint
 10
3201.0
 20
938.0
 30
0.0
  0
POINT
  5
FDAA
330
FD9F
100
AcDbEntity
  8
Defpoints
 62
     0
100
AcDbPoint
 10
3201.0
 20
1068.75
 30
0.0
  0
ENDBLK
  5
FDA1
330
FD9F
100
AcDbEntity
  8
0
100
AcDbBlockEnd
  0
BLOCK
  5
FDAC
330
FDAB
100
AcDbEntity
  8
0
100
AcDbBlockBegin
  2
*D1254
 70
     1
 10
0.0
 20
0.0
 30
0.0
  3
*D1254
  1

  0
LINE
  5
FDAE
330
FDAB
100
AcDbEntity
  8
01注記寸法
 62
     0
370
    -2
100
AcDbLine
 10
3201.0
 20
960.5
 30
0.0
 11
3201.0
 21
1083.75
 31
0.0
  0
LINE
  5
FDAF
330
FDAB
100
AcDbEntity
  8
01注記寸法
 62
     0
370
    -2
100
AcDbLine
 10
3585.6
 20
962.0999999999995
 30
0.0
 11
3585.6
 21
1083.75
 31
0.0
  0
LINE
  5
FDB0
330
FDAB
100
AcDbEntity
  8
01注記寸法
 62
     0
370
    -2
100
AcDbLine
 10
3246.0
 20
1068.75
 30
0.0
 11
3540.6
 21
1068.75
 31
0.0
  0
INSERT
  5
FDB1
330
FDAB
100
AcDbEntity
  8
01注記寸法
 62
     0
370
    -2
100
AcDbBlockReference
  2
_Open
 10
3201.0
 20
1068.75
 30
0.0
 41
45.0
 42
45.0
 43
45.0
 50
180.0
  0
INSERT
  5
FDB2
330
FDAB
100
AcDbEntity
  8
01注記寸法
 62
     0
370
    -2
100
AcDbBlockReference
  2
_Open
 10
3585.6
 20
1068.75
 30
0.0
 41
45.0
 42
45.0
 43
45.0
  0
MTEXT
  5
FDB3
330
FDAB
100
AcDbEntity
  8
01注記寸法
 62
     0
100
AcDbMText
 10
3393.3
 20
1106.25
 30
0.0
 40
45.0
 41
0.0
 71
     5
 72
     1
  1
769
 73
     1
 44
1.0
  0
POINT
  5
FDB4
330
FDAB
100
AcDbEntity
  8
Defpoints
 62
     0
100
AcDbPoint
 10
3201.0
 20
938.0
 30
0.0
  0
POINT
  5
FDB5
330
FDAB
100
AcDbEntity
  8
Defpoints
 62
     0
100
AcDbPoint
 10
3585.6
 20
939.5999999999995
 30
0.0
  0
POINT
  5
FDB6
330
FDAB
100
AcDbEntity
  8
Defpoints
 62
     0
100
AcDbPoint
 10
3585.6
 20
1068.75
 30
0.0
  0
ENDBLK
  5
FDAD
330
FDAB
100
AcDbEntity
  8
0
100
AcDbBlockEnd
  0
BLOCK
  5
FDB8
330
FDB7
100
AcDbEntity
  8
0
100
AcDbBlockBegin
  2
*D1255
 70
     1
 10
0.0
 20
0.0
 30
0.0
  3
*D1255
  1

  0
LINE
  5
FDBA
330
FDB7
100
AcDbEntity
  8
08非表示
 62
     0
370
    -2
100
AcDbLine
 10
3488.375845678362
 20
918.75
 30
0.0
 11
3452.020728804338
 21
918.75
 31
0.0
  0
LINE
  5
FDBB
330
FDB7
100
AcDbEntity
  8
08非表示
 62
     0
370
    -2
100
AcDbLine
 10
3488.375845678362
 20
531.25
 30
0.0
 11
3452.020728804338
 21
531.25
 31
0.0
  0
LINE
  5
FDBC
330
FDB7
100
AcDbEntity
  8
08非表示
 62
     0
370
    -2
100
AcDbLine
 10
3467.020728804338
 20
873.75
 30
0.0
 11
3467.020728804338
 21
576.25
 31
0.0
  0
INSERT
  5
FDBD
330
FDB7
100
AcDbEntity
  8
08非表示
 62
     0
370
    -2
100
AcDbBlockReference
  2
_Open
 10
3467.020728804338
 20
918.75
 30
0.0
 41
45.0
 42
45.0
 43
45.0
 50
90.0
  0
INSERT
  5
FDBE
330
FDB7
100
AcDbEntity
  8
08非表示
 62
     0
370
    -2
100
AcDbBlockReference
  2
_Open
 10
3467.020728804338
 20
531.25
 30
0.0
 41
45.0
 42
45.0
 43
45.0
 50
270.0
  0
MTEXT
  5
FDBF
330
FDB7
100
AcDbEntity
  8
08非表示
 62
     0
100
AcDbMText
 10
3429.520728804338
 20
725.0
 30
0.0
 40
45.0
 41
0.0
 71
     5
 72
     1
  1
775
 11
0.0
 21
1.0
 31
0.0
 73
     1
 44
1.0
  0
POINT
  5
FDC0
330
FDB7
100
AcDbEntity
  8
Defpoints
 62
     0
100
AcDbPoint
 10
3510.875845678362
 20
918.75
 30
0.0
  0
POINT
  5
FDC1
330
FDB7
100
AcDbEntity
  8
Defpoints
 62
     0
100
AcDbPoint
 10
3510.875845678362
 20
531.25
 30
0.0
  0
POINT
  5
FDC2
330
FDB7
100
AcDbEntity
  8
Defpoints
 62
     0
100
AcDbPoint
 10
3467.020728804338
 20
531.25
 30
0.0
  0
ENDBLK
  5
FDB9
330
FDB7
100
AcDbEntity
  8
0
100
AcDbBlockEnd
  0
BLOCK
  5
FDC4
330
FDC3
100
AcDbEntity
  8
0
100
AcDbBlockBegin
  2
*D1256
 70
     1
 10
0.0
 20
0.0
 30
0.0
  3
*D1256
  1

  0
LINE
  5
FDC6
330
FDC3
100
AcDbEntity
  8
08非表示
 62
     0
370
    -2
100
AcDbLine
 10
2800.0
 20
640.6449726165329
 30
0.0
 11
2800.0
 21
641.542760954112
 31
0.0
  0
LINE
  5
FDC7
330
FDC3
100
AcDbEntity
  8
08非表示
 62
     0
370
    -2
100
AcDbLine
 10
3600.0
 20
635.0464470581469
 30
0.0
 11
3600.0
 21
641.542760954112
 31
0.0
  0
LINE
  5
FDC8
330
FDC3
100
AcDbEntity
  8
08非表示
 62
     0
370
    -2
100
AcDbLine
 10
2845.0
 20
626.542760954112
 30
0.0
 11
3555.0
 21
626.542760954112
 31
0.0
  0
INSERT
  5
FDC9
330
FDC3
100
AcDbEntity
  8
08非表示
 62
     0
370
    -2
100
AcDbBlockReference
  2
_Open
 10
2800.0
 20
626.542760954112
 30
0.0
 41
45.0
 42
45.0
 43
45.0
 50
180.0
  0
INSERT
  5
FDCA
330
FDC3
100
AcDbEntity
  8
08非表示
 62
     0
370
    -2
100
AcDbBlockReference
  2
_Open
 10
3600.0
 20
626.542760954112
 30
0.0
 41
45.0
 42
45.0
 43
45.0
  0
MTEXT
  5
FDCB
330
FDC3
100
AcDbEntity
  8
08非表示
 62
     0
100
AcDbMText
 10
3200.0
 20
664.042760954112
 30
0.0
 40
45.0
 41
0.0
 71
     5
 72
     1
  1
1600
 73
     1
 44
1.0
  0
POINT
  5
FDCC
330
FDC3
100
AcDbEntity
  8
Defpoints
 62
     0
100
AcDbPoint
 10
2800.0
 20
618.1449726165329
 30
0.0
  0
POINT
  5
FDCD
330
FDC3
100
AcDbEntity
  8
Defpoints
 62
     0
100
AcDbPoint
 10
3600.0
 20
612.5464470581469
 30
0.0
  0
POINT
  5
FDCE
330
FDC3
100
AcDbEntity
  8
Defpoints
 62
     0
100
AcDbPoint
 10
3600.0
 20
626.542760954112
 30
0.0
  0
ENDBLK
  5
FDC5
330
FDC3
100
AcDbEntity
  8
0
100
AcDbBlockEnd
  0
BLOCK
  5
FDD0
330
FDCF
100
AcDbEntity
  8
0
100
AcDbBlockBegin
  2
*D1257
 70
     1
 10
0.0
 20
0.0
 30
0.0
  3
*D1257
  1

  0
LINE
  5
FDD2
330
FDCF
100
AcDbEntity
  8
01注記寸法
 62
     0
370
    -2
100
AcDbLine
 10
3178.5
 20
938.0
 30
0.0
 11
3074.089263908142
 21
938.0
 31
0.0
  0
LINE
  5
FDD3
330
FDCF
100
AcDbEntity
  8
01注記寸法
 62
     0
370
    -2
100
AcDbLine
 10
3178.5
 20
512.0
 30
0.0
 11
3074.089263908142
 21
512.0
 31
0.0
  0
LINE
  5
FDD4
330
FDCF
100
AcDbEntity
  8
01注記寸法
 62
     0
370
    -2
100
AcDbLine
 10
3089.089263908142
 20
893.0
 30
0.0
 11
3089.089263908142
 21
557.0
 31
0.0
  0
INSERT
  5
FDD5
330
FDCF
100
AcDbEntity
  8
01注記寸法
 62
     0
370
    -2
100
AcDbBlockReference
  2
_Open
 10
3089.089263908142
 20
938.0
 30
0.0
 41
45.0
 42
45.0
 43
45.0
 50
90.0
  0
INSERT
  5
FDD6
330
FDCF
100
AcDbEntity
  8
01注記寸法
 62
     0
370
    -2
100
AcDbBlockReference
  2
_Open
 10
3089.089263908142
 20
512.0
 30
0.0
 41
45.0
 42
45.0
 43
45.0
 50
270.0
  0
MTEXT
  5
FDD7
330
FDCF
100
AcDbEntity
  8
01注記寸法
 62
     0
100
AcDbMText
 10
3051.589263908142
 20
725.0
 30
0.0
 40
45.0
 41
0.0
 71
     5
 72
     1
  1
852
 11
0.0
 21
1.0
 31
0.0
 73
     1
 44
1.0
  0
POINT
  5
FDD8
330
FDCF
100
AcDbEntity
  8
Defpoints
 62
     0
100
AcDbPoint
 10
3201.0
 20
938.0
 30
0.0
  0
POINT
  5
FDD9
330
FDCF
100
AcDbEntity
  8
Defpoints
 62
     0
100
AcDbPoint
 10
3201.0
 20
512.0
 30
0.0
  0
POINT
  5
FDDA
330
FDCF
100
AcDbEntity
  8
Defpoints
 62
     0
100
AcDbPoint
 10
3089.089263908142
 20
512.0
 30
0.0
  0
ENDBLK
  5
FDD1
330
FDCF
100
AcDbEntity
  8
0
100
AcDbBlockEnd
  0
ENDSEC
  0
SECTION
  2
ENTITIES
  0
LWPOLYLINE
  5
7E6F
330
1F
100
AcDbEntity
  8
08非表示
  6
PHANTOM
100
AcDbPolyline
 90
        4
 70
     1
 43
0.0
 10
0.0
 20
0.0
 10
0.0
 20
4455.0
 10
6300.0
 20
4455.0
 10
6300.0
 20
0.0
  0
LWPOLYLINE
  5
7E74
330
1F
100
AcDbEntity
  8
09図枠
100
AcDbPolyline
 90
        4
 70
     1
 43
0.0
 10
150.0
 20
150.0
 10
150.0
 20
4305.0
 10
6150.0
 20
4305.0
 10
6150.0
 20
150.0
  0
LWPOLYLINE
  5
7E7B
330
1F
100
AcDbEntity
  8
09図枠
100
AcDbPolyline
 90
        4
 70
     1
 43
0.0
 10
4950.0
 20
4065.0
 10
4950.0
 20
4305.0
 10
6150.0
 20
4305.0
 10
6150.0
 20
4065.0
  0
LWPOLYLINE
  5
7E88
330
1F
100
AcDbEntity
  8
09図枠
100
AcDbPolyline
 90
        4
 70
     1
 43
0.0
 10
5190.0
 20
3945.0
 10
5190.0
 20
4065.0
 10
6150.0
 20
4065.0
 10
6150.0
 20
3945.0
  0
LWPOLYLINE
  5
7E89
330
1F
100
AcDbEntity
  8
09図枠
100
AcDbPolyline
 90
        4
 70
     1
 43
0.0
 10
4950.0
 20
3945.0
 10
4950.0
 20
4065.0
 10
5190.0
 20
4065.0
 10
5190.0
 20
3945.0
  0
TEXT
  5
7E8A
330
1F
100
AcDbEntity
  8
01注記寸法
100
AcDbText
 10
4992.0
 20
3975.0
 30
0.0
 40
60.0
  1
型式
 72
     1
 11
5070.0
 21
4005.0
 31
0.0
100
AcDbText
 73
     2
  0
TEXT
  5
7E8B
330
1F
100
AcDbEntity
  8
01注記寸法
100
AcDbText
 10
5248.8
 20
3975.0
 30
0.0
 40
60.0
  1
Ｎ－ＢＨＨ１６００Ｄ－３
 41
0.9
 72
     1
 11
5670.0
 21
4005.0
 31
0.0
100
AcDbText
 73
     2
  0
LWPOLYLINE
  5
7E8C
330
1F
100
AcDbEntity
  8
09図枠
100
AcDbPolyline
 90
        4
 70
     1
 43
0.0
 10
4950.0
 20
3645.0
 10
4950.0
 20
3945.0
 10
6150.0
 20
3945.0
 10
6150.0
 20
3645.0
  0
LINE
  5
7E8D
330
1F
100
AcDbEntity
  8
01注記寸法
  6
HIDDEN
100
AcDbLine
 10
4950.0
 20
3765.0
 30
0.0
 11
6150.0
 21
3765.0
 31
0.0
  0
TEXT
  5
7E8F
330
1F
100
AcDbEntity
  8
01注記寸法
100
AcDbText
 10
4995.0
 20
3832.5
 30
0.0
 40
45.0
  1
機器
 11
4995.0
 21
3855.0
 31
0.0
100
AcDbText
 73
     2
  0
TEXT
  5
7E90
330
1F
100
AcDbEntity
  8
01注記寸法
100
AcDbText
 10
4995.0
 20
3682.5
 30
0.0
 40
45.0
  1
機器質量
 11
4995.0
 21
3705.0
 31
0.0
100
AcDbText
 73
     2
  0
LWPOLYLINE
  5
7E94
330
1F
100
AcDbEntity
  8
09図枠
100
AcDbPolyline
 90
        4
 70
     1
 43
0.0
 10
4950.0
 20
3375.0
 10
4950.0
 20
3645.0
 10
6150.0
 20
3645.0
 10
6150.0
 20
3375.0
  0
TEXT
  5
7E95
330
1F
100
AcDbEntity
  8
01注記寸法
100
AcDbText
 10
4995.0
 20
3532.5
 30
0.0
 40
45.0
  1
現場名
 11
4995.0
 21
3555.0
 31
0.0
100
AcDbText
 73
     2
  0
LINE
  5
7E97
330
1F
100
AcDbEntity
  8
01注記寸法
  6
HIDDEN
100
AcDbLine
 10
4950.0
 20
3465.0
 30
0.0
 11
6150.0
 21
3465.0
 31
0.0
  0
TEXT
  5
7E98
330
1F
100
AcDbEntity
  8
01注記寸法
100
AcDbText
 10
4995.0
 20
3397.5
 30
0.0
 40
45.0
  1
系統名
 11
4995.0
 21
3420.0
 31
0.0
100
AcDbText
 73
     2
  0
LWPOLYLINE
  5
7EA4
330
1F
100
AcDbEntity
  8
09図枠
100
AcDbPolyline
 90
        4
 70
     1
 43
0.0
 10
5190.0
 20
150.0
 10
5190.0
 20
270.0
 10
6150.0
 20
270.0
 10
6150.0
 20
150.0
  0
LWPOLYLINE
  5
7EA5
330
1F
100
AcDbEntity
  8
09図枠
100
AcDbPolyline
 90
        4
 70
     1
 43
0.0
 10
4950.0
 20
150.0
 10
4950.0
 20
270.0
 10
5190.0
 20
270.0
 10
5190.0
 20
150.0
  0
TEXT
  5
7EA6
330
1F
100
AcDbEntity
  8
01注記寸法
100
AcDbText
 10
4992.0
 20
180.0
 30
0.0
 40
60.0
  1
図番
 72
     1
 11
5070.0
 21
210.0
 31
0.0
100
AcDbText
 73
     2
  0
TEXT
  5
7EA7
330
1F
100
AcDbEntity
  8
01注記寸法
100
AcDbText
 10
5202.0
 20
180.0
 30
0.0
 40
60.0
  1
３－ＨＴＲ１２０＃Ｅ２Ｂ１－３
 41
0.8
 72
     1
 11
5670.0
 21
210.0
 31
0.0
100
AcDbText
 73
     2
  0
LWPOLYLINE
  5
7EB6
330
1F
100
AcDbEntity
  8
09図枠
100
AcDbPolyline
 90
        4
 70
     1
 43
0.0
 10
4950.0
 20
270.0
 10
4950.0
 20
420.0
 10
6150.0
 20
420.0
 10
6150.0
 20
270.0
  0
LWPOLYLINE
  5
7EB9
330
1F
100
AcDbEntity
  8
09図枠
100
AcDbPolyline
 90
        4
 70
     1
 43
0.0
 10
4950.0
 20
420.0
 10
4950.0
 20
630.0
 10
6150.0
 20
630.0
 10
6150.0
 20
420.0
  0
TEXT
  5
7EBF
330
1F
100
AcDbEntity
  8
01注記寸法
100
AcDbText
 10
5416.5
 20
562.5
 30
0.0
 40
45.0
  1
承認
 72
     1
 11
5475.0
 21
585.0
 31
0.0
100
AcDbText
 73
     2
  0
TEXT
  5
7EC0
330
1F
100
AcDbEntity
  8
01注記寸法
100
AcDbText
 10
5686.5
 20
562.5
 30
0.0
 40
45.0
  1
設計
 72
     1
 11
5745.0
 21
585.0
 31
0.0
100
AcDbText
 73
     2
  0
TEXT
  5
7EC1
330
1F
100
AcDbEntity
  8
01注記寸法
100
AcDbText
 10
5956.5
 20
562.5
 30
0.0
 40
45.0
  1
作図
 72
     1
 11
6015.0
 21
585.0
 31
0.0
100
AcDbText
 73
     2
  0
TEXT
  5
7EC2
330
1F
100
AcDbEntity
  8
01注記寸法
100
AcDbText
 10
5013.375
 20
457.5
 30
0.0
 40
45.0
  1
'16.04.25
 72
     1
 11
5145.0
 21
480.0
 31
0.0
100
AcDbText
 73
     2
  0
TEXT
  5
7EC3
330
1F
100
AcDbEntity
  8
01注記寸法
100
AcDbText
 10
5416.5
 20
457.5
 30
0.0
 40
45.0
  1
加納
 72
     1
 11
5475.0
 21
480.0
 31
0.0
100
AcDbText
 73
     2
  0
TEXT
  5
7EC4
330
1F
100
AcDbEntity
  8
01注記寸法
100
AcDbText
 10
5686.5
 20
457.5
 30
0.0
 40
45.0
  1
内野
 72
     1
 11
5745.0
 21
480.0
 31
0.0
100
AcDbText
 73
     2
  0
TEXT
  5
7EC5
330
1F
100
AcDbEntity
  8
01注記寸法
100
AcDbText
 10
5956.5
 20
457.5
 30
0.0
 40
45.0
  1
内野
 72
     1
 11
6015.0
 21
480.0
 31
0.0
100
AcDbText
 73
     2
  0
LWPOLYLINE
  5
7EC6
330
1F
100
AcDbEntity
  8
01注記寸法
100
AcDbPolyline
 90
        4
 70
     1
 43
0.0
 10
4950.0
 20
1080.0
 10
4950.0
 20
1170.0
 10
5100.0
 20
1170.0
 10
5100.0
 20
1080.0
  0
LWPOLYLINE
  5
7EC7
330
1F
100
AcDbEntity
  8
01注記寸法
100
AcDbPolyline
 90
        4
 70
     1
 43
0.0
 10
6375.0
 20
1080.0
 10
6375.0
 20
1170.0
 10
6525.0
 20
1170.0
 10
6525.0
 20
1080.0
  0
LWPOLYLINE
  5
7EC8
330
1F
100
AcDbEntity
  8
01注記寸法
100
AcDbPolyline
 90
        4
 70
     1
 43
0.0
 10
5100.0
 20
1080.0
 10
5100.0
 20
1170.0
 10
5400.0
 20
1170.0
 10
5400.0
 20
1080.0
  0
LWPOLYLINE
  5
7EC9
330
1F
100
AcDbEntity
  8
01注記寸法
100
AcDbPolyline
 90
        4
 70
     1
 43
0.0
 10
5400.0
 20
1080.0
 10
5400.0
 20
1170.0
 10
6150.0
 20
1170.0
 10
6150.0
 20
1080.0
  0
TEXT
  5
7ECA
330
1F
100
AcDbEntity
  8
01注記寸法
100
AcDbText
 10
4966.5
 20
1102.5
 30
0.0
 40
45.0
  1
番号
 72
     1
 11
5025.0
 21
1125.0
 31
0.0
100
AcDbText
 73
     2
  0
TEXT
  5
7ECB
330
1F
100
AcDbEntity
  8
01注記寸法
100
AcDbText
 10
6391.5
 20
1102.5
 30
0.0
 40
45.0
  1
担当
 72
     1
 11
6450.0
 21
1125.0
 31
0.0
100
AcDbText
 73
     2
  0
TEXT
  5
7ECC
330
1F
100
AcDbEntity
  8
01注記寸法
100
AcDbText
 10
5191.5
 20
1102.5
 30
0.0
 40
45.0
  1
日付
 72
     1
 11
5250.0
 21
1125.0
 31
0.0
100
AcDbText
 73
     2
  0
TEXT
  5
7ECD
330
1F
100
AcDbEntity
  8
01注記寸法
100
AcDbText
 10
5658.0
 20
1102.5
 30
0.0
 40
45.0
  1
改訂記事
 72
     1
 11
5775.0
 21
1125.0
 31
0.0
100
AcDbText
 73
     2
  0
LWPOLYLINE
  5
7ECE
330
1F
100
AcDbEntity
  8
01注記寸法
100
AcDbPolyline
 90
        4
 70
     1
 43
0.0
 10
4950.0
 20
990.0
 10
4950.0
 20
1080.0
 10
5100.0
 20
1080.0
 10
5100.0
 20
990.0
  0
LWPOLYLINE
  5
7ECF
330
1F
100
AcDbEntity
  8
01注記寸法
100
AcDbPolyline
 90
        4
 70
     1
 43
0.0
 10
6375.0
 20
990.0
 10
6375.0
 20
1080.0
 10
6525.0
 20
1080.0
 10
6525.0
 20
990.0
  0
LWPOLYLINE
  5
7ED0
330
1F
100
AcDbEntity
  8
01注記寸法
100
AcDbPolyline
 90
        4
 70
     1
 43
0.0
 10
5100.0
 20
990.0
 10
5100.0
 20
1080.0
 10
5400.0
 20
1080.0
 10
5400.0
 20
990.0
  0
LWPOLYLINE
  5
7ED1
330
1F
100
AcDbEntity
  8
01注記寸法
100
AcDbPolyline
 90
        4
 70
     1
 43
0.0
 10
5400.0
 20
990.0
 10
5400.0
 20
1080.0
 10
6150.0
 20
1080.0
 10
6150.0
 20
990.0
  0
TEXT
  5
7ED2
330
1F
100
AcDbEntity
  8
01注記寸法
100
AcDbText
 10
6391.5
 20
1012.5
 30
0.0
 40
45.0
  1
内野
 72
     1
 11
6450.0
 21
1035.0
 31
0.0
100
AcDbText
 73
     2
  0
TEXT
  5
7ED4
330
1F
100
AcDbEntity
  8
01注記寸法
100
AcDbText
 10
5118.375
 20
1012.50015
 30
0.0
 40
45.0
  1
'16.06.28
 72
     1
 11
5250.0
 21
1035.00015
 31
0.0
100
AcDbText
 73
     2
  0
TEXT
  5
7ED5
330
1F
100
AcDbEntity
  8
01注記寸法
100
AcDbText
 10
5658.0
 20
1012.500113123142
 30
0.0
 40
45.0
  1
型式追記
 72
     1
 11
5775.0
 21
1035.000113123142
 31
0.0
100
AcDbText
 73
     2
  0
TEXT
  5
7ED6
330
1F
100
AcDbEntity
  8
01注記寸法
100
AcDbText
 10
5010.375000000004
 20
1002.204851391144
 30
0.0
 40
45.0
  1
1
 72
     4
 11
5025.000000000004
 21
1024.929851391144
 31
0.0
100
AcDbText
  0
LWPOLYLINE
  5
7EDA
330
1F
100
AcDbEntity
  8
09図枠
100
AcDbPolyline
 90
        4
 70
     1
 43
0.0
 10
4950.0
 20
1170.0
 10
4950.0
 20
3375.0
 10
6150.0
 20
3375.0
 10
6150.0
 20
1170.0
  0
LWPOLYLINE
  5
7EDB
330
1F
100
AcDbEntity
  8
09図枠
100
AcDbPolyline
 90
        4
 70
     1
 43
0.0
 10
4950.0
 20
630.0
 10
4950.0
 20
1170.0
 10
6150.0
 20
1170.0
 10
6150.0
 20
630.0
  0
LWPOLYLINE
  5
7EDC
330
1F
100
AcDbEntity
  8
01注記寸法
100
AcDbPolyline
 90
        4
 70
     1
 43
0.0
 10
4950.0
 20
900.0
 10
4950.0
 20
990.0
 10
5100.0
 20
990.0
 10
5100.0
 20
900.0
  0
LWPOLYLINE
  5
7EDD
330
1F
100
AcDbEntity
  8
01注記寸法
100
AcDbPolyline
 90
        4
 70
     1
 43
0.0
 10
6375.0
 20
900.0
 10
6375.0
 20
990.0
 10
6525.0
 20
990.0
 10
6525.0
 20
900.0
  0
LWPOLYLINE
  5
7EDE
330
1F
100
AcDbEntity
  8
01注記寸法
100
AcDbPolyline
 90
        4
 70
     1
 43
0.0
 10
5100.0
 20
900.0
 10
5100.0
 20
990.0
 10
5400.0
 20
990.0
 10
5400.0
 20
900.0
  0
LWPOLYLINE
  5
7EDF
330
1F
100
AcDbEntity
  8
01注記寸法
100
AcDbPolyline
 90
        4
 70
     1
 43
0.0
 10
5400.0
 20
900.0
 10
5400.0
 20
990.0
 10
6150.0
 20
990.0
 10
6150.0
 20
900.0
  0
TEXT
  5
7EE0
330
1F
100
AcDbEntity
  8
01注記寸法
100
AcDbText
 10
6391.5
 20
922.5
 30
0.0
 40
45.0
  1
内野
 72
     1
 11
6450.0
 21
945.0
 31
0.0
100
AcDbText
 73
     2
  0
TEXT
  5
7EE2
330
1F
100
AcDbEntity
  8
01注記寸法
100
AcDbText
 10
5570.25
 20
922.500113123142
 30
0.0
 40
45.0
  1
付属品数量訂正
 72
     1
 11
5775.0
 21
945.000113123142
 31
0.0
100
AcDbText
 73
     2
  0
TEXT
  5
7EE3
330
1F
100
AcDbEntity
  8
01注記寸法
100
AcDbText
 10
5010.375
 20
912.2055000000004
 30
0.0
 40
45.0
  1
2
 72
     4
 11
5025.0
 21
934.9305000000004
 31
0.0
100
AcDbText
  0
LWPOLYLINE
  5
7EE7
330
1F
100
AcDbEntity
  8
01注記寸法
100
AcDbPolyline
 90
        4
 70
     1
 43
0.0
 10
4950.0
 20
810.0
 10
4950.0
 20
900.0
 10
5100.0
 20
900.0
 10
5100.0
 20
810.0
  0
LWPOLYLINE
  5
7EE8
330
1F
100
AcDbEntity
  8
01注記寸法
100
AcDbPolyline
 90
        4
 70
     1
 43
0.0
 10
6375.0
 20
810.0
 10
6375.0
 20
900.0
 10
6525.0
 20
900.0
 10
6525.0
 20
810.0
  0
LWPOLYLINE
  5
7EE9
330
1F
100
AcDbEntity
  8
01注記寸法
100
AcDbPolyline
 90
        4
 70
     1
 43
0.0
 10
5100.0
 20
810.0
 10
5100.0
 20
900.0
 10
5400.0
 20
900.0
 10
5400.0
 20
810.0
  0
LWPOLYLINE
  5
7EEA
330
1F
100
AcDbEntity
  8
01注記寸法
100
AcDbPolyline
 90
        4
 70
     1
 43
0.0
 10
5400.0
 20
810.0
 10
5400.0
 20
900.0
 10
6150.0
 20
900.0
 10
6150.0
 20
810.0
  0
TEXT
  5
7EEE
330
1F
100
AcDbEntity
  8
01注記寸法
100
AcDbText
 10
5010.375
 20
822.2055000000004
 30
0.0
 40
45.0
  1
3
 72
     4
 11
5025.0
 21
844.9305000000004
 31
0.0
100
AcDbText
  0
LWPOLYLINE
  5
7EF2
330
1F
100
AcDbEntity
  8
01注記寸法
100
AcDbPolyline
 90
        4
 70
     1
 43
0.0
 10
4950.0
 20
720.0
 10
4950.0
 20
810.0
 10
5100.0
 20
810.0
 10
5100.0
 20
720.0
  0
LWPOLYLINE
  5
7EF3
330
1F
100
AcDbEntity
  8
01注記寸法
100
AcDbPolyline
 90
        4
 70
     1
 43
0.0
 10
6375.0
 20
720.0
 10
6375.0
 20
810.0
 10
6525.0
 20
810.0
 10
6525.0
 20
720.0
  0
LWPOLYLINE
  5
7EF4
330
1F
100
AcDbEntity
  8
01注記寸法
100
AcDbPolyline
 90
        4
 70
     1
 43
0.0
 10
5100.0
 20
720.0
 10
5100.0
 20
810.0
 10
5400.0
 20
810.0
 10
5400.0
 20
720.0
  0
LWPOLYLINE
  5
7EF5
330
1F
100
AcDbEntity
  8
01注記寸法
100
AcDbPolyline
 90
        4
 70
     1
 43
0.0
 10
5400.0
 20
720.0
 10
5400.0
 20
810.0
 10
6150.0
 20
810.0
 10
6150.0
 20
720.0
  0
TEXT
  5
7EF6
330
1F
100
AcDbEntity
  8
01注記寸法
100
AcDbText
 10
6391.5
 20
742.5
 30
0.0
 40
45.0
  1
担当
 72
     1
 11
6450.0
 21
765.0
 31
0.0
100
AcDbText
 73
     2
  0
TEXT
  5
7EF8
330
1F
100
AcDbEntity
  8
08非表示
100
AcDbText
 10
5701.875
 20
742.500113123142
 30
0.0
 40
45.0
  1
*****
 72
     1
 11
5775.0
 21
765.000113123142
 31
0.0
100
AcDbText
 73
     2
  0
TEXT
  5
7EF9
330
1F
100
AcDbEntity
  8
08非表示
100
AcDbText
 10
5010.375
 20
732.2055000000004
 30
0.0
 40
45.0
  1
4
 72
     4
 11
5025.0
 21
754.9305000000004
 31
0.0
100
AcDbText
  0
LWPOLYLINE
  5
7EFD
330
1F
100
AcDbEntity
  8
01注記寸法
100
AcDbPolyline
 90
        4
 70
     1
 43
0.0
 10
4950.0
 20
630.0
 10
4950.0
 20
720.0
 10
5100.0
 20
720.0
 10
5100.0
 20
630.0
  0
LWPOLYLINE
  5
7EFE
330
1F
100
AcDbEntity
  8
01注記寸法
100
AcDbPolyline
 90
        4
 70
     1
 43
0.0
 10
6375.0
 20
630.0
 10
6375.0
 20
720.0
 10
6525.0
 20
720.0
 10
6525.0
 20
630.0
  0
LWPOLYLINE
  5
7EFF
330
1F
100
AcDbEntity
  8
01注記寸法
100
AcDbPolyline
 90
        4
 70
     1
 43
0.0
 10
5100.0
 20
630.0
 10
5100.0
 20
720.0
 10
5400.0
 20
720.0
 10
5400.0
 20
630.0
  0
LWPOLYLINE
  5
7F00
330
1F
100
AcDbEntity
  8
01注記寸法
100
AcDbPolyline
 90
        4
 70
     1
 43
0.0
 10
5400.0
 20
630.0
 10
5400.0
 20
720.0
 10
6150.0
 20
720.0
 10
6150.0
 20
630.0
  0
TEXT
  5
7F01
330
1F
100
AcDbEntity
  8
01注記寸法
100
AcDbText
 10
6391.5
 20
652.5
 30
0.0
 40
45.0
  1
担当
 72
     1
 11
6450.0
 21
675.0
 31
0.0
100
AcDbText
 73
     2
  0
TEXT
  5
7F03
330
1F
100
AcDbEntity
  8
08非表示
100
AcDbText
 10
5701.875
 20
652.500113123142
 30
0.0
 40
45.0
  1
*****
 72
     1
 11
5775.0
 21
675.000113123142
 31
0.0
100
AcDbText
 73
     2
  0
TEXT
  5
7F04
330
1F
100
AcDbEntity
  8
08非表示
100
AcDbText
 10
5010.375
 20
642.2055000000004
 30
0.0
 40
45.0
  1
5
 72
     4
 11
5025.0
 21
664.9305000000004
 31
0.0
100
AcDbText
  0
ARC
  5
7F08
330
1F
100
AcDbEntity
  8
09図枠
100
AcDbCircle
 10
5010.0
 20
3315.0
 30
0.0
 40
45.0
100
AcDbArc
 50
90.0
 51
270.0
  0
ARC
  5
7F09
330
1F
100
AcDbEntity
  8
09図枠
100
AcDbCircle
 10
5220.0
 20
3315.0
 30
0.0
 40
45.0
100
AcDbArc
 50
270.0
 51
90.0
  0
LINE
  5
7F0A
330
1F
100
AcDbEntity
  8
09図枠
100
AcDbLine
 10
5010.0
 20
3360.0
 30
0.0
 11
5220.0
 21
3360.0
 31
0.0
  0
LINE
  5
7F0B
330
1F
100
AcDbEntity
  8
09図枠
100
AcDbLine
 10
5010.0
 20
3270.0
 30
0.0
 11
5220.0
 21
3270.0
 31
0.0
  0
TEXT
  5
7F0C
330
1F
100
AcDbEntity
  8
01注記寸法
100
AcDbText
 10
5056.5
 20
3292.5
 30
0.0
 40
45.0
  1
仕様
 72
     1
 11
5115.0
 21
3315.0
 31
0.0
100
AcDbText
 73
     2
  0
TEXT
  5
7F0D
330
1F
100
AcDbEntity
  8
01注記寸法
100
AcDbText
 10
4995.0
 20
3202.5
 30
0.0
 40
45.0
  1
架台質量
 11
4995.0
 21
3225.0
 31
0.0
100
AcDbText
 73
     2
  0
TEXT
  5
7F12
330
1F
100
AcDbEntity
  8
01注記寸法
100
AcDbText
 10
6061.5
 20
3202.5
 30
0.0
 40
45.0
  1
kg
 72
     2
 11
6120.0
 21
3225.0
 31
0.0
100
AcDbText
 73
     2
  0
TEXT
  5
7F13
330
1F
100
AcDbEntity
  8
01注記寸法
100
AcDbText
 10
5971.5
 20
3202.5
 30
0.0
 40
45.0
  1
31
 72
     2
 11
6030.0
 21
3225.0
 31
0.0
100
AcDbText
 73
     2
  0
LINE
  5
7F19
330
1F
100
AcDbEntity
  8
01注記寸法
100
AcDbLine
 10
6150.0
 20
3180.0
 30
0.0
 11
4950.0
 21
3180.0
 31
0.0
  0
TEXT
  5
7F1B
330
1F
100
AcDbEntity
  8
01注記寸法
100
AcDbText
 10
4995.0
 20
3112.5
 30
0.0
 40
45.0
  1
材質
 11
4995.0
 21
3135.0
 31
0.0
100
AcDbText
 73
     2
  0
TEXT
  5
7F1C
330
1F
100
AcDbEntity
  8
01注記寸法
100
AcDbText
 10
5973.75
 20
3112.5
 30
0.0
 40
45.0
  1
SS400
 72
     2
 11
6120.0
 21
3135.0
 31
0.0
100
AcDbText
 73
     2
  0
LINE
  5
7F47
330
1F
100
AcDbEntity
  8
09図枠
100
AcDbLine
 10
6150.0
 20
2175.0
 30
0.0
 11
4950.0
 21
2175.0
 31
0.0
  0
LINE
  5
7F48
330
1F
100
AcDbEntity
  8
09図枠
100
AcDbLine
 10
5010.0
 20
2160.0
 30
0.0
 11
5220.0
 21
2160.0
 31
0.0
  0
ARC
  5
7F49
330
1F
100
AcDbEntity
  8
09図枠
100
AcDbCircle
 10
5220.0
 20
2115.0
 30
0.0
 40
45.0
100
AcDbArc
 50
270.0
 51
90.0
  0
TEXT
  5
7F4A
330
1F
100
AcDbEntity
  8
01注記寸法
100
AcDbText
 10
5027.250298397516
 20
2092.5
 30
0.0
 40
45.0
  1
その他
 72
     1
 11
5115.000298397516
 21
2115.0
 31
0.0
100
AcDbText
 73
     2
  0
LINE
  5
7F4B
330
1F
100
AcDbEntity
  8
09図枠
100
AcDbLine
 10
5010.0
 20
2070.0
 30
0.0
 11
5220.0
 21
2070.0
 31
0.0
  0
ARC
  5
7F4C
330
1F
100
AcDbEntity
  8
09図枠
100
AcDbCircle
 10
5010.0
 20
2115.0
 30
0.0
 40
45.0
100
AcDbArc
 50
90.0
 51
270.0
  0
LWPOLYLINE
  5
7F4E
330
1F
100
AcDbEntity
  8
01注記寸法
100
AcDbPolyline
 90
        4
 70
     1
 43
0.0
 10
5850.0
 20
-165.0
 10
5850.0
 20
-75.0
 10
6000.0
 20
-75.0
 10
6000.0
 20
-165.0
  0
LWPOLYLINE
  5
7F4F
330
1F
100
AcDbEntity
  8
01注記寸法
100
AcDbPolyline
 90
        4
 70
     1
 43
0.0
 10
4800.0
 20
-165.0
 10
4800.0
 20
-75.0
 10
5100.0
 20
-75.0
 10
5100.0
 20
-165.0
  0
LWPOLYLINE
  5
7F50
330
1F
100
AcDbEntity
  8
01注記寸法
100
AcDbPolyline
 90
        4
 70
     1
 43
0.0
 10
5100.0
 20
-165.0
 10
5100.0
 20
-75.0
 10
5850.0
 20
-75.0
 10
5850.0
 20
-165.0
  0
TEXT
  5
7F51
330
1F
100
AcDbEntity
  8
01注記寸法
100
AcDbText
 10
5866.5
 20
-142.5
 30
0.0
 40
45.0
  1
担当
 72
     1
 11
5925.0
 21
-120.0
 31
0.0
100
AcDbText
 73
     2
  0
TEXT
  5
7F52
330
1F
100
AcDbEntity
  8
01注記寸法
100
AcDbText
 10
4891.5
 20
-142.5
 30
0.0
 40
45.0
  1
日付
 72
     1
 11
4950.0
 21
-120.0
 31
0.0
100
AcDbText
 73
     2
  0
TEXT
  5
7F53
330
1F
100
AcDbEntity
  8
01注記寸法
100
AcDbText
 10
5211.75
 20
-142.5
 30
0.0
 40
45.0
  1
社内都合による改訂
 72
     1
 11
5475.0
 21
-120.0
 31
0.0
100
AcDbText
 73
     2
  0
LWPOLYLINE
  5
7F54
330
1F
100
AcDbEntity
  8
01注記寸法
100
AcDbPolyline
 90
        4
 70
     1
 43
0.0
 10
5850.0
 20
-255.0
 10
5850.0
 20
-165.0
 10
6000.0
 20
-165.0
 10
6000.0
 20
-255.0
  0
LWPOLYLINE
  5
7F55
330
1F
100
AcDbEntity
  8
01注記寸法
100
AcDbPolyline
 90
        4
 70
     1
 43
0.0
 10
4800.0
 20
-255.0
 10
4800.0
 20
-165.0
 10
5100.0
 20
-165.0
 10
5100.0
 20
-255.0
  0
LWPOLYLINE
  5
7F56
330
1F
100
AcDbEntity
  8
01注記寸法
100
AcDbPolyline
 90
        4
 70
     1
 43
0.0
 10
5100.0
 20
-255.0
 10
5100.0
 20
-165.0
 10
5850.0
 20
-165.0
 10
5850.0
 20
-255.0
  0
TEXT
  5
7F57
330
1F
100
AcDbEntity
  8
01注記寸法
100
AcDbText
 10
5866.5
 20
-232.5
 30
0.0
 40
45.0
  1
担当
 72
     1
 11
5925.0
 21
-210.0
 31
0.0
100
AcDbText
 73
     2
  0
TEXT
  5
7F59
330
1F
100
AcDbEntity
  8
01注記寸法
100
AcDbText
 10
5401.875
 20
-232.499886876858
 30
0.0
 40
45.0
  1
*****
 72
     1
 11
5475.0
 21
-209.999886876858
 31
0.0
100
AcDbText
 73
     2
  0
LWPOLYLINE
  5
7F8D
330
1F
100
AcDbEntity
  8
01注記寸法
100
AcDbPolyline
 90
        4
 70
     1
 43
0.0
 10
6525.0
 20
1080.0
 10
6525.0
 20
1170.0
 10
6825.0
 20
1170.0
 10
6825.0
 20
1080.0
  0
TEXT
  5
7F8E
330
1F
100
AcDbEntity
  8
01注記寸法
100
AcDbText
 10
6587.25
 20
1102.500492815348
 30
0.0
 40
45.0
  1
依頼書
 72
     1
 11
6675.0
 21
1125.000492815348
 31
0.0
100
AcDbText
 73
     2
  0
LWPOLYLINE
  5
7F8F
330
1F
100
AcDbEntity
  8
01注記寸法
100
AcDbPolyline
 90
        4
 70
     1
 43
0.0
 10
6525.0
 20
990.0
 10
6525.0
 20
1080.0
 10
6825.0
 20
1080.0
 10
6825.0
 20
990.0
  0
TEXT
  5
7F90
330
1F
100
AcDbEntity
  8
01注記寸法
100
AcDbText
 10
6558.0
 20
1012.500492815348
 30
0.0
 40
45.0
  1
T1606288
 72
     1
 11
6675.0
 21
1035.000492815348
 31
0.0
100
AcDbText
 73
     2
  0
TEXT
  5
7F91
330
1F
100
AcDbEntity
  8
01注記寸法
100
AcDbText
 10
6616.5
 20
922.500113123142
 30
0.0
 40
45.0
  1
無し
 72
     1
 11
6675.0
 21
945.000113123142
 31
0.0
100
AcDbText
 73
     2
  0
LWPOLYLINE
  5
7F92
330
1F
100
AcDbEntity
  8
01注記寸法
100
AcDbPolyline
 90
        4
 70
     1
 43
0.0
 10
6525.0
 20
900.0
 10
6525.0
 20
990.0
 10
6825.0
 20
990.0
 10
6825.0
 20
900.0
  0
LWPOLYLINE
  5
7F94
330
1F
100
AcDbEntity
  8
01注記寸法
100
AcDbPolyline
 90
        4
 70
     1
 43
0.0
 10
6525.0
 20
810.0
 10
6525.0
 20
900.0
 10
6825.0
 20
900.0
 10
6825.0
 20
810.0
  0
TEXT
  5
7F95
330
1F
100
AcDbEntity
  8
01注記寸法
100
AcDbText
 10
6587.25
 20
742.500113123142
 30
0.0
 40
45.0
  1
******
 72
     1
 11
6675.0
 21
765.000113123142
 31
0.0
100
AcDbText
 73
     2
  0
LWPOLYLINE
  5
7F96
330
1F
100
AcDbEntity
  8
01注記寸法
100
AcDbPolyline
 90
        4
 70
     1
 43
0.0
 10
6525.0
 20
720.0
 10
6525.0
 20
810.0
 10
6825.0
 20
810.0
 10
6825.0
 20
720.0
  0
TEXT
  5
7F97
330
1F
100
AcDbEntity
  8
01注記寸法
100
AcDbText
 10
6587.25
 20
652.500113123142
 30
0.0
 40
45.0
  1
******
 72
     1
 11
6675.0
 21
675.000113123142
 31
0.0
100
AcDbText
 73
     2
  0
LWPOLYLINE
  5
7F98
330
1F
100
AcDbEntity
  8
01注記寸法
100
AcDbPolyline
 90
        4
 70
     1
 43
0.0
 10
6525.0
 20
630.0
 10
6525.0
 20
720.0
 10
6825.0
 20
720.0
 10
6825.0
 20
630.0
  0
TEXT
  5
7FC3
330
1F
100
AcDbEntity
  8
01注記寸法
100
AcDbText
 10
4995.0
 20
1912.5
 30
0.0
 40
45.0
  1
　底面全体で水平面に設置してください。
 11
4995.0
 21
1935.0
 31
0.0
100
AcDbText
 73
     2
  0
TEXT
  5
7FC9
330
1F
100
AcDbEntity
  8
01注記寸法
100
AcDbText
 10
195.0
 20
82.5
 30
0.0
 40
45.0
  1
A3
 11
195.0
 21
105.0
 31
0.0
100
AcDbText
 73
     2
  0
TEXT
  5
7FCA
330
1F
100
AcDbEntity
  8
01注記寸法
100
AcDbText
 10
345.0
 20
82.5
 30
0.0
 40
45.0
  1
SCALE=
 11
345.0
 21
105.0
 31
0.0
100
AcDbText
 73
     2
  0
TEXT
  5
7FCB
330
1F
100
AcDbEntity
  8
01注記寸法
100
AcDbText
 10
540.0
 20
82.5
 30
0.0
 40
45.0
  1
1:15
 11
540.0
 21
105.0
 31
0.0
100
AcDbText
 73
     2
  0
LWPOLYLINE
  5
807F
330
1F
100
AcDbEntity
  8
01注記寸法
100
AcDbPolyline
 90
        4
 70
     1
 43
0.0
 10
6000.0
 20
-165.0
 10
6000.0
 20
-75.0
 10
6300.0
 20
-75.0
 10
6300.0
 20
-165.0
  0
TEXT
  5
8080
330
1F
100
AcDbEntity
  8
01注記寸法
100
AcDbText
 10
6062.25
 20
-142.4995071846524
 30
0.0
 40
45.0
  1
依頼書
 72
     1
 11
6150.0
 21
-119.9995071846524
 31
0.0
100
AcDbText
 73
     2
  0
LWPOLYLINE
  5
8081
330
1F
100
AcDbEntity
  8
01注記寸法
100
AcDbPolyline
 90
        4
 70
     1
 43
0.0
 10
6000.0
 20
-255.0
 10
6000.0
 20
-165.0
 10
6300.0
 20
-165.0
 10
6300.0
 20
-255.0
  0
TEXT
  5
8082
330
1F
100
AcDbEntity
  8
01注記寸法
100
AcDbText
 10
6062.25
 20
-232.4995071846524
 30
0.0
 40
45.0
  1
******
 72
     1
 11
6150.0
 21
-209.9995071846524
 31
0.0
100
AcDbText
 73
     2
  0
TEXT
  5
818F
330
1F
100
AcDbEntity
  8
01注記寸法
100
AcDbText
 10
4995.000298397516
 20
3022.5
 30
0.0
 40
45.0
  1
表面処理
 11
4995.000298397516
 21
3045.0
 31
0.0
100
AcDbText
 73
     2
  0
LINE
  5
8191
330
1F
100
AcDbEntity
  8
09図枠
100
AcDbLine
 10
6150.0
 20
2820.0
 30
0.0
 11
4950.0
 21
2820.0
 31
0.0
  0
TEXT
  5
8192
330
1F
100
AcDbEntity
  8
01注記寸法
100
AcDbText
 10
5710.500298397516
 20
3022.5
 30
0.0
 40
45.0
  1
溶融亜鉛めっき
 72
     2
 11
6120.000298397516
 21
3045.0
 31
0.0
100
AcDbText
 73
     2
  0
TEXT
  5
8193
330
1F
100
AcDbEntity
  8
01注記寸法
100
AcDbText
 10
5827.500298397516
 20
2932.5
 30
0.0
 40
45.0
  1
2種・HDZ45
 72
     2
 11
6120.000298397516
 21
2955.0
 31
0.0
100
AcDbText
 73
     2
  0
LINE
  5
8194
330
1F
100
AcDbEntity
  8
09図枠
100
AcDbLine
 10
5010.0
 20
2715.0
 30
0.0
 11
5220.0
 21
2715.0
 31
0.0
  0
ARC
  5
8195
330
1F
100
AcDbEntity
  8
09図枠
100
AcDbCircle
 10
5220.0
 20
2760.0
 30
0.0
 40
45.0
100
AcDbArc
 50
270.0
 51
90.0
  0
LINE
  5
8196
330
1F
100
AcDbEntity
  8
09図枠
100
AcDbLine
 10
5010.0
 20
2805.0
 30
0.0
 11
5220.0
 21
2805.0
 31
0.0
  0
TEXT
  5
8197
330
1F
100
AcDbEntity
  8
01注記寸法
100
AcDbText
 10
5027.250298397516
 20
2737.5
 30
0.0
 40
45.0
  1
付属品
 72
     1
 11
5115.000298397516
 21
2760.0
 31
0.0
100
AcDbText
 73
     2
  0
ARC
  5
8199
330
1F
100
AcDbEntity
  8
09図枠
100
AcDbCircle
 10
5010.0
 20
2760.0
 30
0.0
 40
45.0
100
AcDbArc
 50
90.0
 51
270.0
  0
TEXT
  5
819A
330
1F
100
AcDbEntity
  8
01注記寸法
100
AcDbText
 10
4995.000298397516
 20
2647.5
 30
0.0
 40
45.0
  1
機器固定ボルト
 11
4995.000298397516
 21
2670.0
 31
0.0
100
AcDbText
 73
     2
  0
TEXT
  5
819C
330
1F
100
AcDbEntity
  8
01注記寸法
100
AcDbText
 10
5710.500298397516
 20
2647.5
 30
0.0
 40
45.0
  1
溶融亜鉛めっき
 72
     2
 11
6120.000298397516
 21
2670.0
 31
0.0
100
AcDbText
 73
     2
  0
TEXT
  5
819D
330
1F
100
AcDbEntity
  8
01注記寸法
100
AcDbText
 10
5944.500298397516
 20
2557.5
 30
0.0
 40
45.0
  1
セット
 72
     2
 11
6120.000298397516
 21
2580.0
 31
0.0
100
AcDbText
 73
     2
  0
TEXT
  5
819F
330
1F
100
AcDbEntity
  8
01注記寸法
100
AcDbText
 10
5040.0
 20
2557.5
 30
0.0
 40
45.0
  1
M12×40L
 11
5040.0
 21
2580.0
 31
0.0
100
AcDbText
 73
     2
  0
TEXT
  5
81A1
330
1F
100
AcDbEntity
  8
01注記寸法
100
AcDbText
 10
5903.2503
 20
2557.5
 30
0.0
 40
45.0
  1
6
 72
     2
 11
5932.5003
 21
2580.0
 31
0.0
100
AcDbText
 73
     2
  0
TEXT
  5
81A4
330
1F
100
AcDbEntity
  8
01注記寸法
100
AcDbText
 10
5310.0
 20
2557.5
 30
0.0
 40
45.0
  1
(平W×2,NT×2付)
 11
5310.0
 21
2580.0
 31
0.0
100
AcDbText
 73
     2
  0
TEXT
  5
81A5
330
1F
100
AcDbEntity
  8
01注記寸法
100
AcDbText
 10
5903.250298397516
 20
2377.5
 30
0.0
 40
45.0
  1
4
 72
     2
 11
5932.500298397516
 21
2400.0
 31
0.0
100
AcDbText
 73
     2
  0
TEXT
  5
81A6
330
1F
100
AcDbEntity
  8
01注記寸法
100
AcDbText
 10
5944.500298397516
 20
2377.5
 30
0.0
 40
45.0
  1
セット
 72
     2
 11
6120.000298397516
 21
2400.0
 31
0.0
100
AcDbText
 73
     2
  0
TEXT
  5
81A7
330
1F
100
AcDbEntity
  8
01注記寸法
100
AcDbText
 10
5710.500298397516
 20
2467.5
 30
0.0
 40
45.0
  1
溶融亜鉛めっき
 72
     2
 11
6120.000298397516
 21
2490.0
 31
0.0
100
AcDbText
 73
     2
  0
TEXT
  5
81AA
330
1F
100
AcDbEntity
  8
01注記寸法
100
AcDbText
 10
5310.0
 20
2377.5
 30
0.0
 40
45.0
  1
(平W,角W,NT×2付)
 11
5310.0
 21
2400.0
 31
0.0
100
AcDbText
 73
     2
  0
TEXT
  5
81AB
330
1F
100
AcDbEntity
  8
01注記寸法
100
AcDbText
 10
5040.0
 20
2377.5
 30
0.0
 40
45.0
  1
M12×70L
 11
5040.0
 21
2400.0
 31
0.0
100
AcDbText
 73
     2
  0
TEXT
  5
81AC
330
1F
100
AcDbEntity
  8
01注記寸法
100
AcDbText
 10
4995.000298397516
 20
2467.5
 30
0.0
 40
45.0
  1
防振架台固定ボルト
 11
4995.000298397516
 21
2490.0
 31
0.0
100
AcDbText
 73
     2
  0
TEXT
  5
81AD
330
1F
100
AcDbEntity
  8
08非表示
100
AcDbText
 10
4995.000298397516
 20
2287.5
 30
0.0
 40
45.0
  1
架台連結ボルト
 11
4995.000298397516
 21
2310.0
 31
0.0
100
AcDbText
 73
     2
  0
TEXT
  5
81AE
330
1F
100
AcDbEntity
  8
08非表示
100
AcDbText
 10
5040.0
 20
2197.5
 30
0.0
 40
45.0
  1
M16×40L
 11
5040.0
 21
2220.0
 31
0.0
100
AcDbText
 73
     2
  0
TEXT
  5
81AF
330
1F
100
AcDbEntity
  8
08非表示
100
AcDbText
 10
5310.0
 20
2197.5
 30
0.0
 40
45.0
  1
(平W×2,NT×2付)
 11
5310.0
 21
2220.0
 31
0.0
100
AcDbText
 73
     2
  0
TEXT
  5
81B0
330
1F
100
AcDbEntity
  8
08非表示
100
AcDbText
 10
5710.500298397516
 20
2287.5
 30
0.0
 40
45.0
  1
溶融亜鉛めっき
 72
     2
 11
6120.000298397516
 21
2310.0
 31
0.0
100
AcDbText
 73
     2
  0
TEXT
  5
81B1
330
1F
100
AcDbEntity
  8
08非表示
100
AcDbText
 10
5903.250298397516
 20
2197.5
 30
0.0
 40
45.0
  1
4
 72
     2
 11
5932.500298397516
 21
2220.0
 31
0.0
100
AcDbText
 73
     2
  0
TEXT
  5
81B2
330
1F
100
AcDbEntity
  8
08非表示
100
AcDbText
 10
5944.500298397516
 20
2197.5
 30
0.0
 40
45.0
  1
セット
 72
     2
 11
6120.000298397516
 21
2220.0
 31
0.0
100
AcDbText
 73
     2
  0
TEXT
  5
81BB
330
1F
100
AcDbEntity
  8
01注記寸法
100
AcDbText
 10
4995.0
 20
2842.5
 30
0.0
 40
45.0
  1
耐震基準
 11
4995.0
 21
2865.0
 31
0.0
100
AcDbText
 73
     2
  0
TEXT
  5
81BC
330
1F
100
AcDbEntity
  8
01注記寸法
100
AcDbText
 10
6003.0
 20
2842.5
 30
0.0
 40
45.0
  1
2.0G
 72
     2
 11
6120.0
 21
2865.0
 31
0.0
100
AcDbText
 73
     2
  0
CIRCLE
  5
81BD
330
1F
100
AcDbEntity
  8
08非表示
100
AcDbCircle
 10
5347.5
 20
2760.0
 30
0.0
 40
37.5
  0
TEXT
  5
81BE
330
1F
100
AcDbEntity
  8
08非表示
100
AcDbText
 10
5332.875
 20
2737.5
 30
0.0
 40
45.0
  1
A
 72
     1
 11
5347.5
 21
2760.0
 31
0.0
100
AcDbText
 73
     2
  0
CIRCLE
  5
81BF
330
1F
100
AcDbEntity
  8
08非表示
100
AcDbCircle
 10
5422.5
 20
2760.0
 30
0.0
 40
37.5
  0
TEXT
  5
81C0
330
1F
100
AcDbEntity
  8
08非表示
100
AcDbText
 10
5407.875
 20
2737.5
 30
0.0
 40
45.0
  1
B
 72
     1
 11
5422.5
 21
2760.0
 31
0.0
100
AcDbText
 73
     2
  0
CIRCLE
  5
81C1
330
1F
100
AcDbEntity
  8
08非表示
100
AcDbCircle
 10
5497.5
 20
2760.0
 30
0.0
 40
37.5
  0
TEXT
  5
81C2
330
1F
100
AcDbEntity
  8
08非表示
100
AcDbText
 10
5482.875
 20
2737.5
 30
0.0
 40
45.0
  1
C
 72
     1
 11
5497.5
 21
2760.0
 31
0.0
100
AcDbText
 73
     2
  0
CIRCLE
  5
81C3
330
1F
100
AcDbEntity
  8
08非表示
100
AcDbCircle
 10
5572.5
 20
2760.0
 30
0.0
 40
37.5
  0
TEXT
  5
81C4
330
1F
100
AcDbEntity
  8
08非表示
100
AcDbText
 10
5557.875
 20
2737.5
 30
0.0
 40
45.0
  1
1
 72
     1
 11
5572.5
 21
2760.0
 31
0.0
100
AcDbText
 73
     2
  0
TEXT
  5
81C5
330
1F
100
AcDbEntity
  8
08非表示
100
AcDbText
 10
5632.875
 20
2737.5
 30
0.0
 40
45.0
  1
2
 72
     1
 11
5647.5
 21
2760.0
 31
0.0
100
AcDbText
 73
     2
  0
CIRCLE
  5
81C6
330
1F
100
AcDbEntity
  8
08非表示
100
AcDbCircle
 10
5647.5
 20
2760.0
 30
0.0
 40
37.5
  0
TEXT
  5
81C7
330
1F
100
AcDbEntity
  8
08非表示
100
AcDbText
 10
5707.875
 20
2737.5
 30
0.0
 40
45.0
  1
3
 72
     1
 11
5722.5
 21
2760.0
 31
0.0
100
AcDbText
 73
     2
  0
CIRCLE
  5
81C8
330
1F
100
AcDbEntity
  8
08非表示
100
AcDbCircle
 10
5722.5
 20
2760.0
 30
0.0
 40
37.5
  0
LINE
  5
81CD
330
1F
100
AcDbEntity
  8
01注記寸法
100
AcDbLine
 10
6150.0
 20
2910.0
 30
0.0
 11
4950.0
 21
2910.0
 31
0.0
  0
TEXT
  5
81E7
330
1F
100
AcDbEntity
  8
01注記寸法
100
AcDbText
 10
4995.0
 20
1822.5
 30
0.0
 40
45.0
  1
2.アンカーボルトは含まれておりません。
 11
4995.0
 21
1845.0
 31
0.0
100
AcDbText
 73
     2
  0
TEXT
  5
81E8
330
1F
100
AcDbEntity
  8
01注記寸法
100
AcDbText
 10
4995.0
 20
1732.5
 30
0.0
 40
45.0
  1
　先様にてご用意ください。
 11
4995.0
 21
1755.0
 31
0.0
100
AcDbText
 73
     2
  0
TEXT
  5
81F8
330
1F
100
AcDbEntity
  8
01注記寸法
100
AcDbText
 10
4995.0
 20
2002.5
 30
0.0
 40
45.0
  1
1.架台の据付
 11
4995.0
 21
2025.0
 31
0.0
100
AcDbText
 73
     2
  0
LINE
  5
86AE
330
1F
100
AcDbEntity
  8
08非表示
100
AcDbLine
 10
6150.0
 20
3090.0
 30
0.0
 11
4950.0
 21
3090.0
 31
0.0
  0
LINE
  5
86AF
330
1F
100
AcDbEntity
  8
08非表示
100
AcDbLine
 10
6375.0
 20
1035.0
 30
0.0
 11
6150.0
 21
1035.0
 31
0.0
  0
LINE
  5
86B0
330
1F
100
AcDbEntity
  8
08非表示
100
AcDbLine
 10
6375.0
 20
945.0
 30
0.0
 11
6150.0
 21
945.0
 31
0.0
  0
LINE
  5
86B1
330
1F
100
AcDbEntity
  8
08非表示
100
AcDbLine
 10
6375.0
 20
855.0
 30
0.0
 11
6150.0
 21
855.0
 31
0.0
  0
LINE
  5
86B2
330
1F
100
AcDbEntity
  8
08非表示
100
AcDbLine
 10
6375.0
 20
765.0
 30
0.0
 11
6150.0
 21
765.0
 31
0.0
  0
LINE
  5
86B3
330
1F
100
AcDbEntity
  8
08非表示
100
AcDbLine
 10
6375.0
 20
675.0
 30
0.0
 11
6150.0
 21
675.0
 31
0.0
  0
TEXT
  5
86B4
330
1F
100
AcDbEntity
  8
01注記寸法
100
AcDbText
 10
5118.375
 20
922.50015
 30
0.0
 40
45.0
  1
'16.11.14
 72
     1
 11
5250.0
 21
945.00015
 31
0.0
100
AcDbText
 73
     2
  0
LWPOLYLINE
  5
86F1
330
1F
100
AcDbEntity
  8
01注記寸法
100
AcDbPolyline
 90
        4
 70
     1
 43
0.0
 10
0.0
 20
-165.0
 10
0.0
 20
-75.0
 10
750.0
 20
-75.0
 10
750.0
 20
-165.0
  0
TEXT
  5
86F2
330
1F
100
AcDbEntity
  8
01注記寸法
100
AcDbText
 10
258.0
 20
-142.5
 30
0.0
 40
45.0
  1
適用機種
 72
     1
 11
375.0
 21
-120.0
 31
0.0
100
AcDbText
 73
     2
  0
LWPOLYLINE
  5
86F3
330
1F
100
AcDbEntity
  8
01注記寸法
100
AcDbPolyline
 90
        4
 70
     1
 43
0.0
 10
0.0
 20
-255.0
 10
0.0
 20
-165.0
 10
750.0
 20
-165.0
 10
750.0
 20
-255.0
  0
TEXT
  5
86FD
330
1F
100
AcDbEntity
  8
01注記寸法
100
AcDbText
 10
15.0
 20
-232.5
 30
0.0
 40
45.0
  1
適用防振架台参照
 11
15.0
 21
-210.0
 31
0.0
100
AcDbText
 73
     2
  0
TEXT
  5
885B
330
1F
100
AcDbEntity
  8
01注記寸法
100
AcDbText
 10
5111.25
 20
4147.5
 30
0.0
 40
75.0
  1
高置ＢＨ架台仕様書
 72
     1
 11
5550.0
 21
4185.0
 31
0.0
100
AcDbText
 73
     2
  0
TEXT
  5
8864
330
1F
100
AcDbEntity
  8
08非表示
100
AcDbText
 10
5514.0
 20
3870.0
 30
0.0
 40
60.0
  1
メーカー
 72
     1
 11
5670.0
 21
3900.0
 31
0.0
100
AcDbText
 73
     2
  0
TEXT
  5
8865
330
1F
100
AcDbEntity
  8
08非表示
100
AcDbText
 10
5553.0
 20
3780.0
 30
0.0
 40
60.0
  1
機種名
 72
     1
 11
5670.0
 21
3810.0
 31
0.0
100
AcDbText
 73
     2
  0
TEXT
  5
8867
330
1F
100
AcDbEntity
  8
08非表示
100
AcDbText
 10
5582.25
 20
3682.5
 30
0.0
 40
45.0
  1
*** kg
 72
     1
 11
5670.0
 21
3705.0
 31
0.0
100
AcDbText
 73
     2
  0
TEXT
  5
8869
330
1F
100
AcDbEntity
  8
08非表示
100
AcDbText
 10
5596.875
 20
3397.5
 30
0.0
 40
45.0
  1
*****
 72
     1
 11
5670.0
 21
3420.0
 31
0.0
100
AcDbText
 73
     2
  0
TEXT
  5
886D
330
1F
100
AcDbEntity
  8
08非表示
100
AcDbText
 10
5509.125
 20
3532.5
 30
0.0
 40
45.0
  1
現場名(1行)
 72
     1
 11
5670.0
 21
3555.0
 31
0.0
100
AcDbText
 73
     2
  0
TEXT
  5
886E
330
1F
100
AcDbEntity
  8
08非表示
100
AcDbText
 10
5479.875
 20
3577.5
 30
0.0
 40
45.0
  1
現場名(1/2行)
 72
     1
 11
5670.0
 21
3600.0
 31
0.0
100
AcDbText
 73
     2
  0
TEXT
  5
886F
330
1F
100
AcDbEntity
  8
08非表示
100
AcDbText
 10
5479.875
 20
3487.5
 30
0.0
 40
45.0
  1
現場名(2/2行)
 72
     1
 11
5670.0
 21
3510.0
 31
0.0
100
AcDbText
 73
     2
  0
LWPOLYLINE
  5
8C2C
330
1F
100
AcDbEntity
  8
01注記寸法
100
AcDbPolyline
 90
        4
 70
     1
 43
0.0
 10
6375.0
 20
435.0
 10
6375.0
 20
525.0
 10
6525.0
 20
525.0
 10
6525.0
 20
435.0
  0
TEXT
  5
8C2E
330
1F
100
AcDbEntity
  8
01注記寸法
100
AcDbText
 10
6543.375
 20
457.500113123142
 30
0.0
 40
45.0
  1
PJK000258
 72
     1
 11
6675.0
 21
480.000113123142
 31
0.0
100
AcDbText
 73
     2
  0
LWPOLYLINE
  5
8C2F
330
1F
100
AcDbEntity
  8
01注記寸法
100
AcDbPolyline
 90
        4
 70
     1
 43
0.0
 10
6525.0
 20
435.0
 10
6525.0
 20
525.0
 10
6825.0
 20
525.0
 10
6825.0
 20
435.0
  0
LINE
  5
8C30
330
1F
100
AcDbEntity
  8
08非表示
100
AcDbLine
 10
6375.0
 20
480.0
 30
0.0
 11
6150.0
 21
480.0
 31
0.0
  0
LINE
  5
8C31
330
1F
100
AcDbEntity
  8
01注記寸法
100
AcDbLine
 10
6375.0
 20
435.0
 30
0.0
 11
6525.0
 21
525.0
 31
0.0
  0
LWPOLYLINE
  5
969D
330
1F
100
AcDbEntity
  8
01注記寸法
100
AcDbPolyline
 90
        4
 70
     0
 43
0.0
 10
5025.000000000004
 20
1066.150186134337
 10
4985.364796555424
 20
997.5
 10
5064.635203444576
 20
997.5
 10
5025.000000000004
 20
1066.150186134337
  0
LWPOLYLINE
  5
96A0
330
1F
100
AcDbEntity
  8
01注記寸法
100
AcDbPolyline
 90
        4
 70
     0
 43
0.0
 10
5025.000000000004
 20
976.1501861343368
 10
4985.364796555424
 20
907.5
 10
5064.635203444576
 20
907.5
 10
5025.000000000004
 20
976.1501861343368
  0
LWPOLYLINE
  5
96A1
330
1F
100
AcDbEntity
  8
01注記寸法
100
AcDbPolyline
 90
        4
 70
     0
 43
0.0
 10
5025.000000000004
 20
886.1501861343368
 10
4985.364796555424
 20
817.5
 10
5064.635203444576
 20
817.5
 10
5025.000000000004
 20
886.1501861343368
  0
LWPOLYLINE
  5
96A2
330
1F
100
AcDbEntity
  8
08非表示
100
AcDbPolyline
 90
        4
 70
     0
 43
0.0
 10
5025.000000000004
 20
796.1501861343368
 10
4985.364796555424
 20
727.5
 10
5064.635203444576
 20
727.5
 10
5025.000000000004
 20
796.1501861343368
  0
LWPOLYLINE
  5
96A3
330
1F
100
AcDbEntity
  8
08非表示
100
AcDbPolyline
 90
        4
 70
     0
 43
0.0
 10
5025.000000000004
 20
706.1501861343368
 10
4985.364796555424
 20
637.5
 10
5064.635203444576
 20
637.5
 10
5025.000000000004
 20
706.1501861343368
  0
LINE
  5
9A59
330
1F
100
AcDbEntity
  8
08非表示
100
AcDbLine
 10
6120.0
 20
3180.0
 30
0.0
 11
6120.0
 21
3270.0
 31
0.0
  0
LINE
  5
9A5A
330
1F
100
AcDbEntity
  8
08非表示
100
AcDbLine
 10
4950.0
 20
3225.0
 30
0.0
 11
6150.0
 21
3225.0
 31
0.0
  0
LINE
  5
9A5B
330
1F
100
AcDbEntity
  8
08非表示
100
AcDbLine
 10
4995.0
 20
3270.0
 30
0.0
 11
4995.0
 21
3180.0
 31
0.0
  0
LINE
  5
9A5C
330
1F
100
AcDbEntity
  8
08非表示
100
AcDbLine
 10
6030.0
 20
3180.0
 30
0.0
 11
6030.0
 21
3270.0
 31
0.0
  0
LINE
  5
9A60
330
1F
100
AcDbEntity
  8
08非表示
100
AcDbLine
 10
6120.0
 20
3090.0
 30
0.0
 11
6120.0
 21
3180.0
 31
0.0
  0
LINE
  5
9A61
330
1F
100
AcDbEntity
  8
08非表示
100
AcDbLine
 10
4950.0
 20
3135.0
 30
0.0
 11
6150.0
 21
3135.0
 31
0.0
  0
LINE
  5
9A62
330
1F
100
AcDbEntity
  8
08非表示
100
AcDbLine
 10
4995.0
 20
3180.0
 30
0.0
 11
4995.0
 21
3090.0
 31
0.0
  0
LINE
  5
9A63
330
1F
100
AcDbEntity
  8
08非表示
100
AcDbLine
 10
4995.0
 20
3000.0
 30
0.0
 11
4995.0
 21
2910.0
 31
0.0
  0
LINE
  5
9A64
330
1F
100
AcDbEntity
  8
08非表示
100
AcDbLine
 10
4950.0
 20
2955.0
 30
0.0
 11
6150.0
 21
2955.0
 31
0.0
  0
LINE
  5
9A65
330
1F
100
AcDbEntity
  8
08非表示
100
AcDbLine
 10
6120.0
 20
2910.0
 30
0.0
 11
6120.0
 21
3000.0
 31
0.0
  0
LINE
  5
9A69
330
1F
100
AcDbEntity
  8
08非表示
100
AcDbLine
 10
4995.0
 20
2910.0
 30
0.0
 11
4995.0
 21
2820.0
 31
0.0
  0
LINE
  5
9A6A
330
1F
100
AcDbEntity
  8
08非表示
100
AcDbLine
 10
4950.0
 20
2865.0
 30
0.0
 11
6150.0
 21
2865.0
 31
0.0
  0
LINE
  5
9A6B
330
1F
100
AcDbEntity
  8
08非表示
100
AcDbLine
 10
6120.0
 20
2820.0
 30
0.0
 11
6120.0
 21
2910.0
 31
0.0
  0
LINE
  5
9A6C
330
1F
100
AcDbEntity
  8
08非表示
100
AcDbLine
 10
6120.0
 20
3000.0
 30
0.0
 11
6120.0
 21
3090.0
 31
0.0
  0
LINE
  5
9A6D
330
1F
100
AcDbEntity
  8
08非表示
100
AcDbLine
 10
4950.0
 20
3045.0
 30
0.0
 11
6150.0
 21
3045.0
 31
0.0
  0
LINE
  5
9A6E
330
1F
100
AcDbEntity
  8
08非表示
100
AcDbLine
 10
4995.0
 20
3090.0
 30
0.0
 11
4995.0
 21
3000.0
 31
0.0
  0
LINE
  5
9A6F
330
1F
100
AcDbEntity
  8
08非表示
100
AcDbLine
 10
6150.0
 20
3270.0
 30
0.0
 11
4950.0
 21
3270.0
 31
0.0
  0
LINE
  5
9A71
330
1F
100
AcDbEntity
  8
08非表示
100
AcDbLine
 10
4950.0
 20
2220.0
 30
0.0
 11
6150.0
 21
2220.0
 31
0.0
  0
LINE
  5
9A72
330
1F
100
AcDbEntity
  8
08非表示
100
AcDbLine
 10
5310.0
 20
2175.0
 30
0.0
 11
5310.0
 21
2265.0
 31
0.0
  0
LINE
  5
9A73
330
1F
100
AcDbEntity
  8
08非表示
100
AcDbLine
 10
6120.0
 20
2175.0
 30
0.0
 11
6120.0
 21
2265.0
 31
0.0
  0
LINE
  5
9A75
330
1F
100
AcDbEntity
  8
08非表示
100
AcDbLine
 10
5932.5
 20
2175.0
 30
0.0
 11
5932.5
 21
2265.0
 31
0.0
  0
LINE
  5
9A76
330
1F
100
AcDbEntity
  8
08非表示
100
AcDbLine
 10
5040.0
 20
2265.0
 30
0.0
 11
5040.0
 21
2175.0
 31
0.0
  0
LINE
  5
9A77
330
1F
100
AcDbEntity
  8
08非表示
100
AcDbLine
 10
4995.0
 20
2355.0
 30
0.0
 11
4995.0
 21
2265.0
 31
0.0
  0
LINE
  5
9A78
330
1F
100
AcDbEntity
  8
08非表示
100
AcDbLine
 10
4950.0
 20
2310.0
 30
0.0
 11
6150.0
 21
2310.0
 31
0.0
  0
LINE
  5
9A7A
330
1F
100
AcDbEntity
  8
08非表示
100
AcDbLine
 10
6120.0
 20
2265.0
 30
0.0
 11
6120.0
 21
2355.0
 31
0.0
  0
LINE
  5
9A7C
330
1F
100
AcDbEntity
  8
08非表示
100
AcDbLine
 10
4950.0
 20
3000.0
 30
0.0
 11
6150.0
 21
3000.0
 31
0.0
  0
LINE
  5
9A7D
330
1F
100
AcDbEntity
  8
08非表示
100
AcDbLine
 10
4950.0
 20
2265.0
 30
0.0
 11
6150.0
 21
2265.0
 31
0.0
  0
LINE
  5
9A7E
330
1F
100
AcDbEntity
  8
08非表示
100
AcDbLine
 10
4950.0
 20
2355.0
 30
0.0
 11
6150.0
 21
2355.0
 31
0.0
  0
LINE
  5
9A7F
330
1F
100
AcDbEntity
  8
08非表示
100
AcDbLine
 10
4995.0
 20
2535.0
 30
0.0
 11
4995.0
 21
2445.0
 31
0.0
  0
LINE
  5
9A80
330
1F
100
AcDbEntity
  8
08非表示
100
AcDbLine
 10
4950.0
 20
2535.0
 30
0.0
 11
6150.0
 21
2535.0
 31
0.0
  0
LINE
  5
9A81
330
1F
100
AcDbEntity
  8
08非表示
100
AcDbLine
 10
4950.0
 20
2490.0
 30
0.0
 11
6150.0
 21
2490.0
 31
0.0
  0
LINE
  5
9A82
330
1F
100
AcDbEntity
  8
08非表示
100
AcDbLine
 10
4950.0
 20
2400.0
 30
0.0
 11
6150.0
 21
2400.0
 31
0.0
  0
LINE
  5
9A83
330
1F
100
AcDbEntity
  8
08非表示
100
AcDbLine
 10
4950.0
 20
2445.0
 30
0.0
 11
6150.0
 21
2445.0
 31
0.0
  0
LINE
  5
9A84
330
1F
100
AcDbEntity
  8
08非表示
100
AcDbLine
 10
5040.0
 20
2445.0
 30
0.0
 11
5040.0
 21
2355.0
 31
0.0
  0
LINE
  5
9A85
330
1F
100
AcDbEntity
  8
08非表示
100
AcDbLine
 10
5310.0
 20
2355.0
 30
0.0
 11
5310.0
 21
2445.0
 31
0.0
  0
LINE
  5
9A86
330
1F
100
AcDbEntity
  8
08非表示
100
AcDbLine
 10
5932.5
 20
2355.0
 30
0.0
 11
5932.5
 21
2445.0
 31
0.0
  0
LINE
  5
9A87
330
1F
100
AcDbEntity
  8
08非表示
100
AcDbLine
 10
6120.0
 20
2355.0
 30
0.0
 11
6120.0
 21
2445.0
 31
0.0
  0
LINE
  5
9A88
330
1F
100
AcDbEntity
  8
08非表示
100
AcDbLine
 10
6120.0
 20
2445.0
 30
0.0
 11
6120.0
 21
2535.0
 31
0.0
  0
LINE
  5
9A89
330
1F
100
AcDbEntity
  8
08非表示
100
AcDbLine
 10
4995.0
 20
2715.0
 30
0.0
 11
4995.0
 21
2625.0
 31
0.0
  0
LINE
  5
9A8A
330
1F
100
AcDbEntity
  8
08非表示
100
AcDbLine
 10
4950.0
 20
2715.0
 30
0.0
 11
6150.0
 21
2715.0
 31
0.0
  0
LINE
  5
9A8B
330
1F
100
AcDbEntity
  8
08非表示
100
AcDbLine
 10
4950.0
 20
2670.0
 30
0.0
 11
6150.0
 21
2670.0
 31
0.0
  0
LINE
  5
9A8C
330
1F
100
AcDbEntity
  8
08非表示
100
AcDbLine
 10
4950.0
 20
2580.0
 30
0.0
 11
6150.0
 21
2580.0
 31
0.0
  0
LINE
  5
9A8D
330
1F
100
AcDbEntity
  8
08非表示
100
AcDbLine
 10
4950.0
 20
2625.0
 30
0.0
 11
6150.0
 21
2625.0
 31
0.0
  0
LINE
  5
9A8E
330
1F
100
AcDbEntity
  8
08非表示
100
AcDbLine
 10
5040.0
 20
2625.0
 30
0.0
 11
5040.0
 21
2535.0
 31
0.0
  0
LINE
  5
9A8F
330
1F
100
AcDbEntity
  8
08非表示
100
AcDbLine
 10
5310.0
 20
2535.0
 30
0.0
 11
5310.0
 21
2625.0
 31
0.0
  0
LINE
  5
9A90
330
1F
100
AcDbEntity
  8
08非表示
100
AcDbLine
 10
5932.5
 20
2535.0
 30
0.0
 11
5932.5
 21
2625.0
 31
0.0
  0
LINE
  5
9A91
330
1F
100
AcDbEntity
  8
08非表示
100
AcDbLine
 10
6120.0
 20
2535.0
 30
0.0
 11
6120.0
 21
2625.0
 31
0.0
  0
LINE
  5
9A92
330
1F
100
AcDbEntity
  8
08非表示
100
AcDbLine
 10
6120.0
 20
2625.0
 30
0.0
 11
6120.0
 21
2715.0
 31
0.0
  0
LINE
  5
9A93
330
1F
100
AcDbEntity
  8
08非表示
100
AcDbLine
 10
4950.0
 20
2760.0
 30
0.0
 11
6150.0
 21
2760.0
 31
0.0
  0
LINE
  5
9A94
330
1F
100
AcDbEntity
  8
08非表示
100
AcDbLine
 10
6150.0
 20
3315.0
 30
0.0
 11
4950.0
 21
3315.0
 31
0.0
  0
LINE
  5
9A9C
330
1F
100
AcDbEntity
  8
08非表示
100
AcDbLine
 10
4950.0
 20
2070.0
 30
0.0
 11
6150.0
 21
2070.0
 31
0.0
  0
LINE
  5
9A9D
330
1F
100
AcDbEntity
  8
08非表示
100
AcDbLine
 10
4950.0
 20
2025.0
 30
0.0
 11
6150.0
 21
2025.0
 31
0.0
  0
LINE
  5
9A9E
330
1F
100
AcDbEntity
  8
08非表示
100
AcDbLine
 10
4950.0
 20
1980.0
 30
0.0
 11
6150.0
 21
1980.0
 31
0.0
  0
LINE
  5
9A9F
330
1F
100
AcDbEntity
  8
08非表示
100
AcDbLine
 10
4950.0
 20
1935.0
 30
0.0
 11
6150.0
 21
1935.0
 31
0.0
  0
LINE
  5
9AA0
330
1F
100
AcDbEntity
  8
08非表示
100
AcDbLine
 10
4950.0
 20
1890.0
 30
0.0
 11
6150.0
 21
1890.0
 31
0.0
  0
LINE
  5
9AA1
330
1F
100
AcDbEntity
  8
08非表示
100
AcDbLine
 10
4950.0
 20
1845.0
 30
0.0
 11
6150.0
 21
1845.0
 31
0.0
  0
LINE
  5
9AA2
330
1F
100
AcDbEntity
  8
08非表示
100
AcDbLine
 10
4950.0
 20
1800.0
 30
0.0
 11
6150.0
 21
1800.0
 31
0.0
  0
LINE
  5
9AA3
330
1F
100
AcDbEntity
  8
08非表示
100
AcDbLine
 10
4950.0
 20
1755.0
 30
0.0
 11
6150.0
 21
1755.0
 31
0.0
  0
LINE
  5
9AA4
330
1F
100
AcDbEntity
  8
08非表示
100
AcDbLine
 10
4950.0
 20
1710.0
 30
0.0
 11
6150.0
 21
1710.0
 31
0.0
  0
LINE
  5
9AA5
330
1F
100
AcDbEntity
  8
08非表示
100
AcDbLine
 10
4995.0
 20
2070.0
 30
0.0
 11
4995.0
 21
1980.0
 31
0.0
  0
LINE
  5
9AA6
330
1F
100
AcDbEntity
  8
08非表示
100
AcDbLine
 10
4995.0
 20
1980.0
 30
0.0
 11
4995.0
 21
1890.0
 31
0.0
  0
LINE
  5
9AA7
330
1F
100
AcDbEntity
  8
08非表示
100
AcDbLine
 10
4995.0
 20
1890.0
 30
0.0
 11
4995.0
 21
1800.0
 31
0.0
  0
LINE
  5
9AA8
330
1F
100
AcDbEntity
  8
08非表示
100
AcDbLine
 10
4995.0
 20
1800.0
 30
0.0
 11
4995.0
 21
1710.0
 31
0.0
  0
LINE
  5
9AAB
330
1F
100
AcDbEntity
  8
08非表示
100
AcDbLine
 10
4995.0
 20
3465.0
 30
0.0
 11
4995.0
 21
3375.0
 31
0.0
  0
LINE
  5
9AAC
330
1F
100
AcDbEntity
  8
08非表示
100
AcDbLine
 10
4950.0
 20
3420.0
 30
0.0
 11
6150.0
 21
3420.0
 31
0.0
  0
LINE
  5
9AAD
330
1F
100
AcDbEntity
  8
08非表示
100
AcDbLine
 10
4995.0
 20
3765.0
 30
0.0
 11
4995.0
 21
3645.0
 31
0.0
  0
LINE
  5
9AAE
330
1F
100
AcDbEntity
  8
08非表示
100
AcDbLine
 10
4950.0
 20
3705.0
 30
0.0
 11
6150.0
 21
3705.0
 31
0.0
  0
LINE
  5
9AAF
330
1F
100
AcDbEntity
  8
08非表示
100
AcDbLine
 10
4995.0
 20
3855.0
 30
0.0
 11
4995.0
 21
3765.0
 31
0.0
  0
LINE
  5
9AB0
330
1F
100
AcDbEntity
  8
08非表示
100
AcDbLine
 10
4950.0
 20
3810.0
 30
0.0
 11
6150.0
 21
3810.0
 31
0.0
  0
LINE
  5
9AB1
330
1F
100
AcDbEntity
  8
08非表示
100
AcDbLine
 10
4950.0
 20
3855.0
 30
0.0
 11
6150.0
 21
3855.0
 31
0.0
  0
LINE
  5
9AB2
330
1F
100
AcDbEntity
  8
08非表示
100
AcDbLine
 10
4995.0
 20
3900.0
 30
0.0
 11
4995.0
 21
3810.0
 31
0.0
  0
LINE
  5
9AB3
330
1F
100
AcDbEntity
  8
08非表示
100
AcDbLine
 10
4950.0
 20
3900.0
 30
0.0
 11
6150.0
 21
3900.0
 31
0.0
  0
LINE
  5
9AB4
330
1F
100
AcDbEntity
  8
08非表示
100
AcDbLine
 10
4995.0
 20
3945.0
 30
0.0
 11
4995.0
 21
3855.0
 31
0.0
  0
LINE
  5
9AB5
330
1F
100
AcDbEntity
  8
08非表示
100
AcDbLine
 10
4950.0
 20
3555.0
 30
0.0
 11
6150.0
 21
3555.0
 31
0.0
  0
LINE
  5
9AB6
330
1F
100
AcDbEntity
  8
08非表示
100
AcDbLine
 10
4995.0
 20
3600.0
 30
0.0
 11
4995.0
 21
3510.0
 31
0.0
  0
LINE
  5
9AB7
330
1F
100
AcDbEntity
  8
08非表示
100
AcDbLine
 10
4950.0
 20
3600.0
 30
0.0
 11
6150.0
 21
3600.0
 31
0.0
  0
LINE
  5
9AB8
330
1F
100
AcDbEntity
  8
08非表示
100
AcDbLine
 10
4950.0
 20
3510.0
 30
0.0
 11
6150.0
 21
3510.0
 31
0.0
  0
LINE
  5
9AB9
330
1F
100
AcDbEntity
  8
08非表示
100
AcDbLine
 10
5190.0
 20
4005.0
 30
0.0
 11
6150.0
 21
4005.0
 31
0.0
  0
LINE
  5
9ABA
330
1F
100
AcDbEntity
  8
08非表示
100
AcDbLine
 10
5670.0
 20
4065.0
 30
0.0
 11
5670.0
 21
3945.0
 31
0.0
  0
LINE
  5
9ABB
330
1F
100
AcDbEntity
  8
08非表示
100
AcDbLine
 10
5670.0
 20
3945.0
 30
0.0
 11
5670.0
 21
3645.0
 31
0.0
  0
LINE
  5
9ABC
330
1F
100
AcDbEntity
  8
08非表示
100
AcDbLine
 10
5670.0
 20
3645.0
 30
0.0
 11
5670.0
 21
3375.0
 31
0.0
  0
LINE
  5
A00E
330
1F
100
AcDbEntity
  8
08非表示
100
AcDbLine
 10
750.0
 20
-75.0
 30
0.0
 11
825.0
 21
-75.0
 31
0.0
  0
TEXT
  5
A162
330
1F
100
AcDbEntity
  8
13製作用注記
100
AcDbText
 10
232.4995331564592
 20
4342.499560703486
 30
0.0
 40
75.0
  1
製作用詳細図
 72
     1
 11
524.9995331564592
 21
4379.999560703486
 31
0.0
100
AcDbText
 73
     2
  0
LWPOLYLINE
  5
A163
330
1F
100
AcDbEntity
  8
13製作用注記
370
    30
100
AcDbPolyline
 90
        4
 70
     1
 43
0.0
 10
150.0
 20
4305.0
 10
150.0
 20
4455.0
 10
900.0000000000003
 20
4455.0
 10
900.0000000000003
 20
4305.0
  0
TEXT
  5
A3F3
330
1F
100
AcDbEntity
  8
08非表示
100
AcDbText
 10
5422.5
 20
8.220234375
 30
0.0
 40
45.0
  1
仕様書フォーム：2016年03月30日
 72
     2
 11
6300.0
 21
0.0
 31
0.0
100
AcDbText
 73
     1
  0
INSERT
  5
A54C
330
1F
100
AcDbEntity
  8
02実線
100
AcDbBlockReference
  2
BH-筋交(柱L60)-300H
 10
1376.800000000003
 20
1755.000000000001
 30
0.0
 50
7.867378756806965
  0
INSERT
  5
A54E
330
1F
100
AcDbEntity
  8
02実線
100
AcDbBlockReference
  2
BH-端柱(L60)-300H-側面
 10
3345.299999999999
 20
1650.000000000003
 30
0.0
  0
INSERT
  5
A54F
330
1F
100
AcDbEntity
  8
02実線
100
AcDbBlockReference
  2
BH-端柱(L60)-300H-正面
 10
1346.799999999999
 20
1650.000000000001
 30
0.0
  0
INSERT
  5
A558
330
1F
100
AcDbEntity
  8
02実線
100
AcDbBlockReference
  2
BH-端柱(L60)-300H-側面
 10
4129.700000000001
 20
1650.000000000003
 30
0.0
 41
-1.0
  0
INSERT
  5
A559
330
1F
100
AcDbEntity
  8
02実線
100
AcDbBlockReference
  2
BH-端柱(L60)-300H-正面
 10
2953.200000000001
 20
1650.000000000001
 30
0.0
 41
-1.0
  0
LINE
  5
A586
102
{ACAD_REACTORS
330
A8C6
102
}
330
1F
100
AcDbEntity
  8
02実線
100
AcDbLine
 10
4069.700000000004
 20
1740.000000000001
 30
0.0
 11
3405.300000000003
 21
1740.000000000001
 31
0.0
  0
LINE
  5
A587
102
{ACAD_REACTORS
330
A8C6
102
}
330
1F
100
AcDbEntity
  8
03破線
100
AcDbLine
 10
4119.000000000004
 20
1776.800000000002
 30
0.0
 11
3356.000000000004
 21
1776.800000000002
 31
0.0
  0
LINE
  5
A588
102
{ACAD_REACTORS
330
A8C6
102
}
330
1F
100
AcDbEntity
  8
02実線
100
AcDbLine
 10
4069.700000000004
 20
1780.000000000001
 30
0.0
 11
3405.300000000003
 21
1780.000000000001
 31
0.0
  0
LINE
  5
A589
102
{ACAD_REACTORS
330
A8C6
102
}
330
1F
100
AcDbEntity
  8
03破線
100
AcDbLine
 10
4119.000000000004
 20
1740.000000000001
 30
0.0
 11
4119.000000000004
 21
1780.000000000001
 31
0.0
  0
LINE
  5
A58A
102
{ACAD_REACTORS
330
A8C6
102
}
330
1F
100
AcDbEntity
  8
03破線
100
AcDbLine
 10
4119.000000000004
 20
1780.000000000001
 30
0.0
 11
4069.700000000004
 21
1780.000000000001
 31
0.0
  0
LINE
  5
A58B
102
{ACAD_REACTORS
330
A8C6
102
}
330
1F
100
AcDbEntity
  8
03破線
100
AcDbLine
 10
4119.000000000004
 20
1740.000000000001
 30
0.0
 11
4069.700000000004
 21
1740.000000000001
 31
0.0
  0
LINE
  5
A58C
102
{ACAD_REACTORS
330
A8C6
102
}
330
1F
100
AcDbEntity
  8
03破線
100
AcDbLine
 10
3356.000000000004
 20
1740.000000000001
 30
0.0
 11
3356.000000000004
 21
1780.000000000001
 31
0.0
  0
LINE
  5
A58D
102
{ACAD_REACTORS
330
A8C6
102
}
330
1F
100
AcDbEntity
  8
03破線
100
AcDbLine
 10
3356.000000000004
 20
1780.000000000001
 30
0.0
 11
3405.300000000003
 21
1780.000000000001
 31
0.0
  0
LINE
  5
A58E
102
{ACAD_REACTORS
330
A8C6
102
}
330
1F
100
AcDbEntity
  8
03破線
100
AcDbLine
 10
3356.000000000004
 20
1740.000000000001
 30
0.0
 11
3405.300000000003
 21
1740.000000000001
 31
0.0
  0
LWPOLYLINE
  5
A58F
102
{ACAD_REACTORS
330
A8C6
102
}
330
1F
100
AcDbEntity
  8
08非表示
100
AcDbPolyline
 90
        4
 70
     1
 43
0.0
 10
3356.000000000004
 20
1740.000000000001
 10
3356.000000000004
 20
1780.000000000001
 10
3345.299999999999
 20
1780.000000000001
 10
3345.299999999999
 20
1740.000000000001
  0
LWPOLYLINE
  5
A590
102
{ACAD_REACTORS
330
A8C6
102
}
330
1F
100
AcDbEntity
  8
08非表示
100
AcDbPolyline
 90
        4
 70
     1
 43
0.0
 10
4119.000000000004
 20
1740.000000000001
 10
4119.000000000004
 20
1780.000000000001
 10
4129.700000000004
 20
1780.000000000001
 10
4129.700000000004
 20
1740.000000000001
  0
INSERT
  5
A591
330
1F
100
AcDbEntity
  8
03破線
100
AcDbBlockReference
  2
BH-anchor-L60-背面
 10
1378.799999999999
 20
1650.000000000001
 30
0.0
  0
INSERT
  5
A592
330
1F
100
AcDbEntity
  8
03破線
100
AcDbBlockReference
  2
BH-anchor-L60-背面
 10
2921.200000000001
 20
1650.000000000001
 30
0.0
  0
INSERT
  5
A599
330
1F
100
AcDbEntity
  8
03破線
100
AcDbBlockReference
  2
BH-anchor-L60-立面
 10
3385.5
 20
1650.000000000003
 30
0.0
  0
INSERT
  5
A59A
330
1F
100
AcDbEntity
  8
03破線
100
AcDbBlockReference
  2
BH-anchor-L60-立面
 10
4089.5
 20
1650.000000000003
 30
0.0
 41
-1.0
  0
INSERT
  5
A5D2
330
1F
100
AcDbEntity
  8
02実線
100
AcDbBlockReference
  2
BH-中柱(L60)-300H
 10
2150.0
 20
1947.000000000001
 30
0.0
  0
INSERT
  5
A5D4
330
1F
100
AcDbEntity
  8
03破線
100
AcDbBlockReference
  2
BH-anchor-L60-背面
 10
2152.0
 20
1650.000000000001
 30
0.0
  0
INSERT
  5
A670
330
1F
100
AcDbEntity
  8
02実線
100
AcDbBlockReference
  2
BH-筋交(柱L60)-300H
 10
2923.200000000001
 20
1755.000000000001
 30
0.0
 41
-1.0
 50
352.132621243193
  0
LWPOLYLINE
  5
A77F
102
{ACAD_REACTORS
330
A792
102
}
330
1F
100
AcDbEntity
  8
03破線
  6
HIDDEN
100
AcDbPolyline
 90
        4
 70
     0
 43
0.0
 10
3353.200000000001
 20
1900.000000000001
 10
3353.200000000001
 20
1946.800000000002
 10
4121.799999999999
 20
1946.800000000002
 10
4121.799999999999
 20
1900.000000000001
  0
LWPOLYLINE
  5
A780
102
{ACAD_REACTORS
330
A792
102
}
330
1F
100
AcDbEntity
  8
02実線
100
AcDbPolyline
 90
        2
 70
     0
 43
0.0
 10
4065.0
 20
1890.000000000001
 10
3410.0
 20
1890.000000000001
  0
LINE
  5
A781
102
{ACAD_REACTORS
330
A792
102
}
330
1F
100
AcDbEntity
  8
02実線
100
AcDbLine
 10
3410.0
 20
1890.000000000001
 30
0.0
 11
3410.0
 21
1900.000000000001
 31
0.0
  0
LINE
  5
A782
102
{ACAD_REACTORS
330
A792
102
}
330
1F
100
AcDbEntity
  8
02実線
100
AcDbLine
 10
4065.0
 20
1890.000000000001
 30
0.0
 11
4065.0
 21
1900.000000000001
 31
0.0
  0
CIRCLE
  5
A783
102
{ACAD_REACTORS
330
A792
102
}
330
1F
100
AcDbEntity
  8
02実線
100
AcDbCircle
 10
3450.0
 20
1920.000000000001
 30
0.0
 40
6.5
  0
CIRCLE
  5
A784
102
{ACAD_REACTORS
330
A792
102
}
330
1F
100
AcDbEntity
  8
02実線
100
AcDbCircle
 10
3380.0
 20
1920.000000000001
 30
0.0
 40
6.5
  0
CIRCLE
  5
A785
102
{ACAD_REACTORS
330
A792
102
}
330
1F
100
AcDbEntity
  8
02実線
100
AcDbCircle
 10
4095.0
 20
1920.000000000001
 30
0.0
 40
6.5
  0
CIRCLE
  5
A786
102
{ACAD_REACTORS
330
A792
102
}
330
1F
100
AcDbEntity
  8
02実線
100
AcDbCircle
 10
4025.0
 20
1920.000000000001
 30
0.0
 40
6.5
  0
LINE
  5
A787
102
{ACAD_REACTORS
330
A792
102
}
330
1F
100
AcDbEntity
  8
02実線
100
AcDbLine
 10
3410.0
 20
1900.000000000001
 30
0.0
 11
3405.299999999999
 21
1900.000000000001
 31
0.0
  0
LWPOLYLINE
  5
A788
102
{ACAD_REACTORS
330
A792
102
}
330
1F
100
AcDbEntity
  8
03破線
  6
HIDDEN
100
AcDbPolyline
 90
        2
 70
     0
 43
0.0
 10
3350.0
 20
1900.000000000001
 10
3350.0
 20
1947.000000000003
  0
LINE
  5
A789
102
{ACAD_REACTORS
330
A792
102
}
330
1F
100
AcDbEntity
  8
03破線
  6
HIDDEN
100
AcDbLine
 10
3405.299999999999
 20
1900.000000000001
 30
0.0
 11
3350.0
 21
1900.000000000001
 31
0.0
  0
LWPOLYLINE
  5
A78A
102
{ACAD_REACTORS
330
A792
102
}
330
1F
100
AcDbEntity
  8
02実線
100
AcDbPolyline
 90
        4
 70
     0
 43
0.0
 10
3350.0
 20
1947.000000000003
 10
3350.0
 20
1950.000000000001
 10
4125.0
 20
1950.000000000001
 10
4125.0
 20
1947.000000000003
  0
LINE
  5
A78B
102
{ACAD_REACTORS
330
A792
102
}
330
1F
100
AcDbEntity
  8
02実線
100
AcDbLine
 10
4065.0
 20
1900.000000000001
 30
0.0
 11
4069.700000000001
 21
1900.000000000001
 31
0.0
  0
LWPOLYLINE
  5
A78C
102
{ACAD_REACTORS
330
A792
102
}
330
1F
100
AcDbEntity
  8
03破線
  6
HIDDEN
100
AcDbPolyline
 90
        2
 70
     0
 43
0.0
 10
4125.0
 20
1947.000000000003
 10
4125.0
 20
1900.000000000001
  0
LINE
  5
A78D
102
{ACAD_REACTORS
330
A792
102
}
330
1F
100
AcDbEntity
  8
03破線
  6
HIDDEN
100
AcDbLine
 10
4069.700000000001
 20
1900.000000000001
 30
0.0
 11
4125.0
 21
1900.000000000001
 31
0.0
  0
LINE
  5
A78E
102
{ACAD_REACTORS
330
A792
102
}
330
1F
100
AcDbEntity
  8
04一点鎖線
 48
0.2
100
AcDbLine
 10
4041.5
 20
1920.000000000001
 30
0.0
 11
4008.5
 21
1920.000000000001
 31
0.0
  0
LINE
  5
A78F
102
{ACAD_REACTORS
330
A792
102
}
330
1F
100
AcDbEntity
  8
04一点鎖線
 48
0.2
100
AcDbLine
 10
4025.0
 20
1903.500000000001
 30
0.0
 11
4025.0
 21
1936.500000000001
 31
0.0
  0
LINE
  5
A790
102
{ACAD_REACTORS
330
A792
102
}
330
1F
100
AcDbEntity
  8
04一点鎖線
 48
0.2
100
AcDbLine
 10
3466.5
 20
1920.000000000001
 30
0.0
 11
3433.5
 21
1920.000000000001
 31
0.0
  0
LINE
  5
A791
102
{ACAD_REACTORS
330
A792
102
}
330
1F
100
AcDbEntity
  8
04一点鎖線
 48
0.2
100
AcDbLine
 10
3450.0
 20
1903.500000000001
 30
0.0
 11
3450.0
 21
1936.500000000001
 31
0.0
  0
LWPOLYLINE
  5
A793
102
{ACAD_REACTORS
330
A7AC
102
}
330
1F
100
AcDbEntity
  8
03破線
100
AcDbPolyline
 90
        4
 70
     0
 43
0.0
 10
1353.200000000001
 20
1900.000000000001
 10
1353.200000000001
 20
1946.800000000002
 10
2946.800000000003
 20
1946.800000000002
 10
2946.800000000003
 20
1900.000000000001
  0
LINE
  5
A794
102
{ACAD_REACTORS
330
A7AC
102
}
330
1F
100
AcDbEntity
  8
03破線
100
AcDbLine
 10
1353.200000000001
 20
1900.000000000001
 30
0.0
 11
1370.0
 21
1890.000000000001
 31
0.0
  0
LINE
  5
A795
102
{ACAD_REACTORS
330
A7AC
102
}
330
1F
100
AcDbEntity
  8
03破線
100
AcDbLine
 10
2946.800000000003
 20
1900.000000000001
 30
0.0
 11
2930.0
 21
1890.000000000001
 31
0.0
  0
LINE
  5
A796
102
{ACAD_REACTORS
330
A7AC
102
}
330
1F
100
AcDbEntity
  8
03破線
100
AcDbLine
 10
1350.0
 20
1947.000000000001
 30
0.0
 11
1350.0
 21
1900.000000000001
 31
0.0
  0
LINE
  5
A797
102
{ACAD_REACTORS
330
A7AC
102
}
330
1F
100
AcDbEntity
  8
03破線
100
AcDbLine
 10
2946.800000000003
 20
1900.000000000001
 30
0.0
 11
2950.0
 21
1900.000000000001
 31
0.0
  0
LINE
  5
A798
102
{ACAD_REACTORS
330
A7AC
102
}
330
1F
100
AcDbEntity
  8
03破線
100
AcDbLine
 10
1353.200000000001
 20
1900.000000000001
 30
0.0
 11
1350.0
 21
1900.000000000001
 31
0.0
  0
LINE
  5
A799
102
{ACAD_REACTORS
330
A7AC
102
}
330
1F
100
AcDbEntity
  8
03破線
100
AcDbLine
 10
1388.5
 20
1909.500000000001
 30
0.0
 11
1371.5
 21
1909.500000000001
 31
0.0
  0
LINE
  5
A79A
102
{ACAD_REACTORS
330
A7AC
102
}
330
1F
100
AcDbEntity
  8
03破線
100
AcDbLine
 10
1388.5
 20
1922.500000000001
 30
0.0
 11
1371.5
 21
1922.500000000001
 31
0.0
  0
ARC
  5
A79B
102
{ACAD_REACTORS
330
A7AC
102
}
330
1F
100
AcDbEntity
  8
03破線
100
AcDbCircle
 10
1388.5
 20
1916.000000000001
 30
0.0
 40
6.5
100
AcDbArc
 50
270.0
 51
90.0
  0
ARC
  5
A79C
102
{ACAD_REACTORS
330
A7AC
102
}
330
1F
100
AcDbEntity
  8
03破線
100
AcDbCircle
 10
1371.5
 20
1916.000000000001
 30
0.0
 40
6.5
100
AcDbArc
 50
90.0
 51
270.0
  0
CIRCLE
  5
A79D
102
{ACAD_REACTORS
330
A7AC
102
}
330
1F
100
AcDbEntity
  8
02実線
100
AcDbCircle
 10
1606.0
 20
1915.000000000001
 30
0.0
 40
6.5
  0
CIRCLE
  5
A79E
102
{ACAD_REACTORS
330
A7AC
102
}
330
1F
100
AcDbEntity
  8
02実線
100
AcDbCircle
 10
2694.0
 20
1915.000000000001
 30
0.0
 40
6.5
  0
ARC
  5
A79F
102
{ACAD_REACTORS
330
A7AC
102
}
330
1F
100
AcDbEntity
  8
03破線
100
AcDbCircle
 10
2928.5
 20
1916.000000000001
 30
0.0
 40
6.5
100
AcDbArc
 50
270.0
 51
90.0
  0
ARC
  5
A7A0
102
{ACAD_REACTORS
330
A7AC
102
}
330
1F
100
AcDbEntity
  8
03破線
100
AcDbCircle
 10
2911.5
 20
1916.000000000001
 30
0.0
 40
6.5
100
AcDbArc
 50
90.0
 51
270.0
  0
LINE
  5
A7A1
102
{ACAD_REACTORS
330
A7AC
102
}
330
1F
100
AcDbEntity
  8
03破線
100
AcDbLine
 10
2911.5
 20
1922.500000000001
 30
0.0
 11
2928.5
 21
1922.500000000001
 31
0.0
  0
LINE
  5
A7A2
102
{ACAD_REACTORS
330
A7AC
102
}
330
1F
100
AcDbEntity
  8
03破線
100
AcDbLine
 10
2911.5
 20
1909.500000000001
 30
0.0
 11
2928.5
 21
1909.500000000001
 31
0.0
  0
LWPOLYLINE
  5
A7A3
102
{ACAD_REACTORS
330
A7AC
102
}
330
1F
100
AcDbEntity
  8
03破線
100
AcDbPolyline
 90
        2
 70
   128
 43
0.0
 10
1406.799999999999
 20
1890.000000000001
 10
1370.0
 20
1890.000000000001
  0
LWPOLYLINE
  5
A7A4
102
{ACAD_REACTORS
330
A7AC
102
}
330
1F
100
AcDbEntity
  8
03破線
100
AcDbPolyline
 90
        2
 70
     0
 43
0.0
 10
2930.0
 20
1890.000000000001
 10
2893.200000000001
 20
1890.000000000001
  0
LWPOLYLINE
  5
A7A5
102
{ACAD_REACTORS
330
A7AC
102
}
330
1F
100
AcDbEntity
  8
02実線
100
AcDbPolyline
 90
        2
 70
     0
 43
0.0
 10
2893.200000000001
 20
1890.000000000001
 10
1406.799999999999
 20
1890.000000000001
  0
LWPOLYLINE
  5
A7A6
102
{ACAD_REACTORS
330
A7AC
102
}
330
1F
100
AcDbEntity
  8
03破線
100
AcDbPolyline
 90
        2
 70
     0
 43
0.0
 10
2950.0
 20
1947.000000000001
 10
2950.0
 20
1900.000000000001
  0
LWPOLYLINE
  5
A7A7
102
{ACAD_REACTORS
330
A7AC
102
}
330
1F
100
AcDbEntity
  8
02実線
100
AcDbPolyline
 90
        4
 70
     0
 43
0.0
 10
1350.0
 20
1947.000000000001
 10
1350.0
 20
1950.000000000001
 10
2950.0
 20
1950.000000000001
 10
2950.0
 20
1947.000000000001
  0
LINE
  5
A7A8
102
{ACAD_REACTORS
330
A7AC
102
}
330
1F
100
AcDbEntity
  8
04一点鎖線
 48
0.2
100
AcDbLine
 10
1606.0
 20
1931.500000000001
 30
0.0
 11
1606.0
 21
1898.500000000001
 31
0.0
  0
LINE
  5
A7A9
102
{ACAD_REACTORS
330
A7AC
102
}
330
1F
100
AcDbEntity
  8
04一点鎖線
 48
0.2
100
AcDbLine
 10
1622.5
 20
1915.000000000001
 30
0.0
 11
1589.5
 21
1915.000000000001
 31
0.0
  0
LINE
  5
A7AA
102
{ACAD_REACTORS
330
A7AC
102
}
330
1F
100
AcDbEntity
  8
04一点鎖線
 48
0.2
100
AcDbLine
 10
2694.0
 20
1931.500000000001
 30
0.0
 11
2694.0
 21
1898.500000000001
 31
0.0
  0
LINE
  5
A7AB
102
{ACAD_REACTORS
330
A7AC
102
}
330
1F
100
AcDbEntity
  8
04一点鎖線
 48
0.2
100
AcDbLine
 10
2710.5
 20
1915.000000000001
 30
0.0
 11
2677.5
 21
1915.000000000001
 31
0.0
  0
LWPOLYLINE
  5
A843
330
1F
100
AcDbEntity
  8
02実線
100
AcDbPolyline
 90
        4
 70
     1
 43
0.0
 10
1350.0
 20
2930.0
 10
1350.0
 20
3705.0
 10
2950.0
 20
3705.0
 10
2950.0
 20
2930.0
  0
LWPOLYLINE
  5
A845
330
1F
100
AcDbEntity
  8
03破線
100
AcDbPolyline
 90
        4
 70
     1
 43
0.0
 10
1353.200000000001
 20
2933.199999999999
 10
1353.200000000001
 20
3701.799999999999
 10
2946.799999999999
 20
3701.799999999999
 10
2946.799999999999
 20
2933.199999999999
  0
INSERT
  5
A846
330
1F
100
AcDbEntity
  8
02実線
100
AcDbBlockReference
  2
BH-端柱(L60)-平面
 10
1346.799999999999
 20
2925.299999999999
 30
0.0
  0
INSERT
  5
A847
330
1F
100
AcDbEntity
  8
02実線
100
AcDbBlockReference
  2
BH-端柱(L60)-平面
 10
1346.799999999999
 20
3709.699999999999
 30
0.0
 41
-1.0
 50
180.0
  0
INSERT
  5
A848
330
1F
100
AcDbEntity
  8
02実線
100
AcDbBlockReference
  2
BH-端柱(L60)-平面
 10
2953.200000000001
 20
3709.699999999999
 30
0.0
 50
180.0
  0
INSERT
  5
A849
330
1F
100
AcDbEntity
  8
02実線
100
AcDbBlockReference
  2
BH-端柱(L60)-平面
 10
2953.200000000001
 20
2925.299999999999
 30
0.0
 41
-1.0
  0
INSERT
  5
A85D
330
1F
100
AcDbEntity
  8
02実線
100
AcDbBlockReference
  2
BH-中柱(L60)-平面
 10
2150.0
 20
2928.5
 30
0.0
  0
INSERT
  5
A85E
330
1F
100
AcDbEntity
  8
02実線
100
AcDbBlockReference
  2
BH-中柱(L60)-平面
 10
2150.0
 20
3706.5
 30
0.0
 41
-1.0
 50
180.0
  0
LINE
  5
A8B3
330
1F
100
AcDbEntity
  8
02実線
100
AcDbLine
 10
1410.0
 20
3010.0
 30
0.0
 11
1410.0
 21
3625.0
 31
0.0
  0
LINE
  5
A8B4
330
1F
100
AcDbEntity
  8
02実線
100
AcDbLine
 10
1350.0
 20
3625.0
 30
0.0
 11
2950.0
 21
3625.0
 31
0.0
  0
LINE
  5
A8B5
330
1F
100
AcDbEntity
  8
02実線
100
AcDbLine
 10
2890.0
 20
3625.0
 30
0.0
 11
2890.0
 21
3010.0
 31
0.0
  0
LINE
  5
A8B6
330
1F
100
AcDbEntity
  8
02実線
100
AcDbLine
 10
2950.0
 20
3010.0
 30
0.0
 11
1350.0
 21
3010.0
 31
0.0
  0
LINE
  5
A8B7
330
1F
100
AcDbEntity
  8
03破線
100
AcDbLine
 10
2946.799999999999
 20
3006.799999999999
 30
0.0
 11
1353.200000000001
 21
3006.799999999999
 31
0.0
  0
LINE
  5
A8B8
330
1F
100
AcDbEntity
  8
03破線
100
AcDbLine
 10
2946.799999999999
 20
3628.199999999999
 30
0.0
 11
1353.200000000001
 21
3628.199999999999
 31
0.0
  0
LWPOLYLINE
  5
A948
330
1F
100
AcDbEntity
  8
01注記寸法
100
AcDbPolyline
 90
        4
 70
     1
 43
0.0
 10
6375.0
 20
4365.0
 10
6375.0
 20
4455.0
 10
6900.0
 20
4455.0
 10
6900.0
 20
4365.0
  0
TEXT
  5
A94D
330
1F
100
AcDbEntity
  8
01注記寸法
100
AcDbText
 10
6405.0
 20
4387.5
 30
0.0
 40
45.0
  1
機器脚   t=
 11
6405.0
 21
4410.0
 31
0.0
100
AcDbText
 73
     2
  0
LINE
  5
A94E
330
1F
100
AcDbEntity
  8
08非表示
100
AcDbLine
 10
6750.0
 20
4365.0
 30
0.0
 11
6750.0
 21
4455.0
 31
0.0
  0
LWPOLYLINE
  5
A972
330
1F
100
AcDbEntity
  8
01注記寸法
100
AcDbPolyline
 90
        4
 70
     1
 43
0.0
 10
6375.0
 20
4275.0
 10
6375.0
 20
4365.0
 10
6900.0
 20
4365.0
 10
6900.0
 20
4275.0
  0
TEXT
  5
A974
330
1F
100
AcDbEntity
  8
01注記寸法
100
AcDbText
 10
6405.0
 20
4297.5
 30
0.0
 40
45.0
  1
アンカー M=
 11
6405.0
 21
4320.0
 31
0.0
100
AcDbText
 73
     2
  0
LINE
  5
A975
330
1F
100
AcDbEntity
  8
08非表示
100
AcDbLine
 10
6750.0
 20
4275.0
 30
0.0
 11
6750.0
 21
4365.0
 31
0.0
  0
TEXT
  5
A9E7
330
1F
100
AcDbEntity
  8
01注記寸法
100
AcDbText
 10
6781.125
 20
4387.5
 30
0.0
 40
45.0
  1
3.2
 72
     1
 11
6825.0
 21
4410.0
 31
0.0
100
AcDbText
 73
     2
  0
TEXT
  5
A9E8
330
1F
100
AcDbEntity
  8
01注記寸法
100
AcDbText
 10
6795.75
 20
4297.5
 30
0.0
 40
45.0
  1
12
 72
     1
 11
6825.0
 21
4320.0
 31
0.0
100
AcDbText
 73
     2
  0
LWPOLYLINE
  5
B716
330
1F
100
AcDbEntity
  8
01注記寸法
100
AcDbPolyline
 90
        4
 70
     1
 43
0.0
 10
4650.0
 20
-255.0
 10
4650.0
 20
-165.0
 10
4800.0
 20
-165.0
 10
4800.0
 20
-255.0
  0
TEXT
  5
B719
330
1F
100
AcDbEntity
  8
01注記寸法
100
AcDbText
 10
4666.5
 20
-142.5
 30
0.0
 40
45.0
  1
番号
 72
     1
 11
4725.0
 21
-120.0
 31
0.0
100
AcDbText
 73
     2
  0
LWPOLYLINE
  5
B71A
330
1F
100
AcDbEntity
  8
01注記寸法
100
AcDbPolyline
 90
        4
 70
     1
 43
0.0
 10
4650.0
 20
-165.0
 10
4650.0
 20
-75.0
 10
4800.0
 20
-75.0
 10
4800.0
 20
-165.0
  0
LWPOLYLINE
  5
B71B
330
1F
100
AcDbEntity
  8
01注記寸法
100
AcDbPolyline
 90
        4
 70
     1
 43
0.0
 10
4695.0
 20
-240.0
 10
4695.0
 20
-180.0
 10
4755.0
 20
-180.0
 10
4755.0
 20
-240.0
  0
TEXT
  5
B71D
330
1F
100
AcDbEntity
  8
01注記寸法
100
AcDbText
 10
4710.375
 20
-232.5
 30
0.0
 40
45.0
  1
1
 72
     1
 11
4725.0
 21
-210.0
 31
0.0
100
AcDbText
 73
     2
  0
DIMENSION
  5
BD0F
330
1F
100
AcDbEntity
  8
08非表示
100
AcDbDimension
  2
*D524
 10
4125.0
 20
2050.000000000001
 30
0.0
 11
3737.5
 21
2075.000000000001
 31
0.0
 70
    32
 71
     5
 42
775.0
  3
NEMY-10
100
AcDbAlignedDimension
 13
3350.0
 23
1950.000000000001
 33
0.0
 14
4125.0
 24
1950.000000000001
 34
0.0
100
AcDbRotatedDimension
  0
DIMENSION
  5
BD27
330
1F
100
AcDbEntity
  8
13製作用注記
100
AcDbDimension
  2
*D525
 10
1346.799999999999
 20
1829.037128224684
 30
0.0
 11
1214.957499999999
 21
1866.537128224684
 31
0.0
 70
    32
 71
     5
 42
30.0
  3
NEMY-15
100
AcDbAlignedDimension
 13
1376.799999999999
 23
1771.500000000001
 33
0.0
 14
1346.799999999999
 24
1771.500000000001
 34
0.0
100
AcDbRotatedDimension
  0
DIMENSION
  5
BD36
330
1F
100
AcDbEntity
  8
13製作用注記
100
AcDbDimension
  2
*D526
 10
1196.799999999999
 20
1755.000000000001
 30
0.0
 11
1196.799999999999
 21
1702.500000000001
 31
0.0
 70
   160
 71
     5
 42
105.0
  3
NEMY-15
100
AcDbAlignedDimension
 13
1346.799999999999
 23
1650.000000000001
 33
0.0
 14
1360.299999999999
 24
1755.000000000001
 34
0.0
 50
90.0
100
AcDbRotatedDimension
  0
DIMENSION
  5
BD44
330
1F
100
AcDbEntity
  8
01注記寸法
100
AcDbDimension
  2
*D527
 10
1100.0
 20
1950.000000000001
 30
0.0
 11
1062.5
 21
1800.000000000001
 31
0.0
 70
    32
 71
     5
 42
300.0
  3
NEMY-15
100
AcDbAlignedDimension
 13
1346.799999999999
 23
1650.000000000001
 33
0.0
 14
1350.0
 24
1950.000000000001
 34
0.0
 50
90.0
100
AcDbRotatedDimension
  0
DIMENSION
  5
BD64
330
1F
100
AcDbEntity
  8
13製作用注記
100
AcDbDimension
  2
*D529
 10
1726.843323007461
 20
1950.000000000001
 30
0.0
 11
1726.843323007461
 21
1783.742500000001
 31
0.0
 70
   160
 71
     5
 42
35.0
  3
NEMY-15
100
AcDbAlignedDimension
 13
1622.5
 23
1915.000000000001
 33
0.0
 14
1622.5
 24
1950.000000000001
 34
0.0
 50
90.0
100
AcDbRotatedDimension
  0
DIMENSION
  5
BD74
330
1F
100
AcDbEntity
  8
13製作用注記
100
AcDbDimension
  2
*D530
 10
1922.208537805307
 20
1950.000000000001
 30
0.0
 11
1922.208537805307
 21
1788.157500000001
 31
0.0
 70
   160
 71
     5
 42
30.0
  3
NEMY-15
100
AcDbAlignedDimension
 13
2073.5
 23
1920.000000000001
 33
0.0
 14
2073.5
 24
1950.000000000001
 34
0.0
 50
90.0
100
AcDbRotatedDimension
  0
DIMENSION
  5
BD84
330
1F
100
AcDbEntity
  8
13製作用注記
100
AcDbDimension
  2
*D531
 10
1606.0
 20
2020.000000000001
 30
0.0
 11
1478.0
 21
2057.500000000001
 31
0.0
 70
    32
 71
     5
 42
256.0
  3
NEMY-15
100
AcDbAlignedDimension
 13
1350.0
 23
1950.000000000001
 33
0.0
 14
1606.0
 24
1931.500000000001
 34
0.0
100
AcDbRotatedDimension
  0
DIMENSION
  5
BD91
330
1F
100
AcDbEntity
  8
13製作用注記
100
AcDbDimension
  2
*D532
 10
2090.0
 20
2020.000000000001
 30
0.0
 11
1848.0
 21
2057.500000000001
 31
0.0
 70
    32
 71
     5
 42
484.0
  3
NEMY-15
100
AcDbAlignedDimension
 13
1606.0
 23
1931.500000000001
 33
0.0
 14
2090.0
 24
1936.500000000001
 34
0.0
100
AcDbRotatedDimension
  0
DIMENSION
  5
BD9E
330
1F
100
AcDbEntity
  8
13製作用注記
100
AcDbDimension
  2
*D533
 10
2210.0
 20
2020.000000000001
 30
0.0
 11
2150.0
 21
2057.500000000001
 31
0.0
 70
    32
 71
     5
 42
120.0
  3
NEMY-15
100
AcDbAlignedDimension
 13
2090.0
 23
1936.500000000001
 33
0.0
 14
2210.0
 24
1936.500000000001
 34
0.0
100
AcDbRotatedDimension
  0
DIMENSION
  5
BDAB
330
1F
100
AcDbEntity
  8
13製作用注記
100
AcDbDimension
  2
*D534
 10
2694.0
 20
2020.000000000001
 30
0.0
 11
2452.0
 21
2057.500000000001
 31
0.0
 70
    32
 71
     5
 42
484.0
  3
NEMY-15
100
AcDbAlignedDimension
 13
2210.0
 23
1936.500000000001
 33
0.0
 14
2694.0
 24
1931.500000000001
 34
0.0
100
AcDbRotatedDimension
  0
DIMENSION
  5
BDB8
330
1F
100
AcDbEntity
  8
13製作用注記
100
AcDbDimension
  2
*D535
 10
2950.0
 20
2020.000000000001
 30
0.0
 11
2822.0
 21
2057.500000000001
 31
0.0
 70
    32
 71
     5
 42
256.0
  3
NEMY-15
100
AcDbAlignedDimension
 13
2694.0
 23
1931.500000000001
 33
0.0
 14
2950.0
 24
1950.000000000001
 34
0.0
100
AcDbRotatedDimension
  0
DIMENSION
  5
BDCF
330
1F
100
AcDbEntity
  8
01注記寸法
100
AcDbDimension
  2
*D536
 10
3198.5
 20
1780.000000000001
 30
0.0
 11
3161.0
 21
1715.000000000002
 31
0.0
 70
    32
 71
     5
 42
129.9999999999982
  3
NEMY-15
100
AcDbAlignedDimension
 13
3345.299999999999
 23
1650.000000000003
 33
0.0
 14
3356.000000000004
 24
1780.000000000001
 34
0.0
 50
90.0
100
AcDbRotatedDimension
  0
LWPOLYLINE
  5
BF3F
102
{ACAD_REACTORS
330
BF41
102
}
330
1F
100
AcDbEntity
  8
03破線
100
AcDbPolyline
 90
        9
 70
     0
 43
0.0
 10
2120.0
 20
1890.000000000001
 10
2120.0
 20
1943.600000000002
 42
-0.4142135623730948
 10
2126.399999999998
 20
1950.000000000001
 10
2180.0
 20
1950.000000000001
 10
2180.0
 20
1946.800000000002
 10
2126.399999999998
 20
1946.800000000002
 42
0.4142135623730948
 10
2123.199999999999
 20
1943.600000000002
 10
2123.199999999999
 20
1890.000000000001
 10
2120.0
 20
1890.000000000001
  0
LWPOLYLINE
  5
BF40
102
{ACAD_REACTORS
330
BF41
102
}
330
1F
100
AcDbEntity
  8
08非表示
100
AcDbPolyline
 90
        3
 70
     0
 43
0.0
 10
2120.0
 20
1943.600000000002
 10
2120.0
 20
1950.000000000001
 10
2126.399999999998
 20
1950.000000000001
  0
TEXT
  5
BF9B
330
1F
100
AcDbEntity
  8
01注記寸法
100
AcDbText
 10
1573.961447708934
 20
3873.75
 30
0.0
 40
45.0
  1
機器固定ボルト孔
100
AcDbText
  0
LEADER
  5
BF9C
330
1F
100
AcDbEntity
  8
01注記寸法
100
AcDbLeader
  3
NEMY-15
 76
     3
 10
1481.0
 20
3681.974094
 30
0.0
 10
1573.961447708934
 20
3855.0
 30
0.0
 10
2053.961447708934
 20
3855.0
 30
0.0
  0
TEXT
  5
BF9D
330
1F
100
AcDbEntity
  8
01注記寸法
100
AcDbText
 10
1573.961447708934
 20
3798.75
 30
0.0
 40
45.0
  1
(6-φ16)
100
AcDbText
  0
TEXT
  5
BFA7
330
1F
100
AcDbEntity
  8
01注記寸法
100
AcDbText
 10
2083.092258286448
 20
2723.75
 30
0.0
 40
45.0
  1
(4-φ16)
100
AcDbText
  0
TEXT
  5
BFA8
330
1F
100
AcDbEntity
  8
01注記寸法
100
AcDbText
 10
2083.092258286448
 20
2798.75
 30
0.0
 40
45.0
  1
※防振架台固定ボルト孔
100
AcDbText
  0
DIMENSION
  5
C04C
330
1F
100
AcDbEntity
  8
01注記寸法
100
AcDbDimension
  2
*D560
 10
2950.0
 20
4154.999999999998
 30
0.0
 11
2150.0
 21
4192.499999999998
 31
0.0
 70
    32
 71
     5
 42
1600.0
  3
NEMY-15
100
AcDbAlignedDimension
 13
1350.0
 23
3706.5
 33
0.0
 14
2950.0
 24
3706.499999999999
 34
0.0
100
AcDbRotatedDimension
  0
DIMENSION
  5
C04D
330
1F
100
AcDbEntity
  8
01注記寸法
100
AcDbDimension
  2
*D561
 10
1050.0
 20
2929.999999999998
 30
0.0
 11
1012.5
 21
3317.499999999998
 31
0.0
 70
    32
 71
     5
 42
775.0
  3
NEMY-15
100
AcDbAlignedDimension
 13
1350.0
 23
3704.999999999998
 33
0.0
 14
1350.0
 24
2929.999999999998
 34
0.0
 50
90.0
100
AcDbRotatedDimension
  0
TEXT
  5
C4B5
330
1F
100
AcDbEntity
  8
01注記寸法
100
AcDbText
 10
517.5825753415311
 20
400.0
 30
0.0
 40
45.0
  1
アンカーボルト孔
100
AcDbText
  0
TEXT
  5
C4B7
330
1F
100
AcDbEntity
  8
01注記寸法
100
AcDbText
 10
517.5825753415311
 20
325.0
 30
0.0
 40
45.0
  1
(6-φ16)
100
AcDbText
  0
TEXT
  5
D023
330
1F
100
AcDbEntity
  8
01注記寸法
100
AcDbText
 10
4995.0
 20
1642.5
 30
0.0
 40
45.0
  1
3.品質改善のため製品の仕様は予告無く
 11
4995.0
 21
1665.0
 31
0.0
100
AcDbText
 73
     2
  0
TEXT
  5
D024
330
1F
100
AcDbEntity
  8
01注記寸法
100
AcDbText
 10
4995.0
 20
1552.5
 30
0.0
 40
45.0
  1
　変更する場合があります。
 11
4995.0
 21
1575.0
 31
0.0
100
AcDbText
 73
     2
  0
LINE
  5
D025
330
1F
100
AcDbEntity
  8
08非表示
100
AcDbLine
 10
4950.0
 20
1665.0
 30
0.0
 11
6150.0
 21
1665.0
 31
0.0
  0
LINE
  5
D026
330
1F
100
AcDbEntity
  8
08非表示
100
AcDbLine
 10
4950.0
 20
1620.0
 30
0.0
 11
6150.0
 21
1620.0
 31
0.0
  0
LINE
  5
D027
330
1F
100
AcDbEntity
  8
08非表示
100
AcDbLine
 10
4950.0
 20
1575.0
 30
0.0
 11
6150.0
 21
1575.0
 31
0.0
  0
LINE
  5
D028
330
1F
100
AcDbEntity
  8
08非表示
100
AcDbLine
 10
4950.0
 20
1530.0
 30
0.0
 11
6150.0
 21
1530.0
 31
0.0
  0
LINE
  5
D029
330
1F
100
AcDbEntity
  8
08非表示
100
AcDbLine
 10
4995.0
 20
1710.0
 30
0.0
 11
4995.0
 21
1620.0
 31
0.0
  0
LINE
  5
D02A
330
1F
100
AcDbEntity
  8
08非表示
100
AcDbLine
 10
4995.0
 20
1620.0
 30
0.0
 11
4995.0
 21
1530.0
 31
0.0
  0
LWPOLYLINE
  5
D0BA
330
1F
100
AcDbEntity
  8
08非表示
100
AcDbPolyline
 90
        4
 70
     1
 43
0.0
 10
1200.0
 20
2780.0
 10
1200.0
 20
3855.0
 10
3100.0
 20
3855.0
 10
3100.0
 20
2780.0
  0
LWPOLYLINE
  5
D0BB
330
1F
100
AcDbEntity
  8
08非表示
100
AcDbPolyline
 90
        4
 70
     1
 43
0.0
 10
1050.0
 20
2630.0
 10
1050.0
 20
4005.0
 10
3250.0
 20
4005.0
 10
3250.0
 20
2630.0
  0
LWPOLYLINE
  5
D5F5
330
1F
100
AcDbEntity
  8
09図枠
100
AcDbPolyline
 90
        4
 70
     1
 43
0.0
 10
150.0
 20
150.0
 10
150.0
 20
1500.000000000001
 10
4950.0
 20
1500.000000000001
 10
4950.0
 20
150.0
  0
LWPOLYLINE
  5
D62C
330
1F
100
AcDbEntity
  8
09図枠
100
AcDbPolyline
 90
        4
 70
     1
 43
0.0
 10
150.0
 20
1500.000000000001
 10
150.0
 20
4304.999999999998
 10
4950.0
 20
4304.999999999998
 10
4950.0
 20
1500.000000000001
  0
LWPOLYLINE
  5
D62E
330
1F
100
AcDbEntity
  8
01注記寸法
100
AcDbPolyline
 90
        4
 70
     1
 43
0.0
 10
4950.0
 20
420.0
 10
4950.0
 20
539.9999999999999
 10
5340.0
 20
539.9999999999999
 10
5340.0
 20
420.0
  0
LWPOLYLINE
  5
D62F
330
1F
100
AcDbEntity
  8
01注記寸法
100
AcDbPolyline
 90
        4
 70
     1
 43
0.0
 10
5340.0
 20
420.0
 10
5340.0
 20
540.0
 10
5610.0
 20
540.0
 10
5610.0
 20
420.0
  0
LWPOLYLINE
  5
D630
330
1F
100
AcDbEntity
  8
01注記寸法
100
AcDbPolyline
 90
        4
 70
     1
 43
0.0
 10
5610.0
 20
420.0
 10
5610.0
 20
540.0
 10
5880.0
 20
540.0
 10
5880.0
 20
420.0
  0
LWPOLYLINE
  5
D631
330
1F
100
AcDbEntity
  8
01注記寸法
100
AcDbPolyline
 90
        4
 70
     1
 43
0.0
 10
5880.0
 20
420.0
 10
5880.0
 20
540.0
 10
6150.0
 20
540.0
 10
6150.0
 20
420.0
  0
LWPOLYLINE
  5
D632
330
1F
100
AcDbEntity
  8
01注記寸法
100
AcDbPolyline
 90
        4
 70
     1
 43
0.0
 10
4950.0
 20
540.0
 10
4950.0
 20
629.9999999999998
 10
5340.0
 20
629.9999999999998
 10
5340.0
 20
540.0
  0
LWPOLYLINE
  5
D633
330
1F
100
AcDbEntity
  8
01注記寸法
100
AcDbPolyline
 90
        4
 70
     1
 43
0.0
 10
5340.0
 20
539.9999999999999
 10
5340.0
 20
629.9999999999998
 10
5610.0
 20
629.9999999999998
 10
5610.0
 20
539.9999999999999
  0
LWPOLYLINE
  5
D634
330
1F
100
AcDbEntity
  8
01注記寸法
100
AcDbPolyline
 90
        4
 70
     1
 43
0.0
 10
5610.0
 20
539.9999999999999
 10
5610.0
 20
629.9999999999998
 10
5880.0
 20
629.9999999999998
 10
5880.0
 20
539.9999999999999
  0
LWPOLYLINE
  5
D635
330
1F
100
AcDbEntity
  8
01注記寸法
100
AcDbPolyline
 90
        4
 70
     1
 43
0.0
 10
5880.0
 20
540.0
 10
5880.0
 20
629.9999999999999
 10
6150.0
 20
629.9999999999999
 10
6150.0
 20
540.0
  0
LWPOLYLINE
  5
D6C7
330
1F
100
AcDbEntity
  8
09図枠
100
AcDbPolyline
 90
        4
 70
     1
 43
0.0
 10
150.0
 20
150.0
 10
150.0
 20
1500.000000000001
 10
4950.0
 20
1500.000000000001
 10
4950.0
 20
150.0
  0
LINE
  5
D6D6
330
1F
100
AcDbEntity
  8
04一点鎖線
  6
CENTER
 48
0.2
100
AcDbLine
 10
4624.418814455152
 20
330.2004795614698
 30
0.0
 11
4624.418814455152
 21
287.4504795614698
 31
0.0
  0
DIMENSION
  5
D6DC
330
1F
100
AcDbEntity
  8
01注記寸法
100
AcDbDimension
  2
*D825
 10
4392.529669687498
 20
298.7004795614698
 30
0.0
 11
4392.529669687498
 21
608.7429795614748
 31
0.0
 70
   160
  1
MAX 30mm
 71
     5
 42
135.0000000000041
  3
NEMY-15
100
AcDbAlignedDimension
 13
4520.918814455152
 23
433.7004795614739
 33
0.0
 14
4520.918814455152
 24
298.7004795614698
 34
0.0
 50
90.0
100
AcDbRotatedDimension
  0
LINE
  5
D6DD
330
1F
100
AcDbEntity
  8
04一点鎖線
  6
CENTER
 48
0.2
100
AcDbLine
 10
4065.93234845287
 20
330.2004795614698
 30
0.0
 11
4065.93234845287
 21
287.4504795614698
 31
0.0
  0
TEXT
  5
D6DE
330
1F
100
AcDbEntity
  8
01注記寸法
100
AcDbText
 10
3795.0
 20
1357.5
 30
0.0
 40
45.0
  1
<レベル調整>
 11
3795.0
 21
1380.0
 31
0.0
100
AcDbText
 73
     2
  0
TEXT
  5
D6DF
330
1F
100
AcDbEntity
  8
01注記寸法
100
AcDbText
 10
3795.0
 20
1267.5
 30
0.0
 40
45.0
  1
アンカー金具を上下にスライドさせて
 11
3795.0
 21
1290.0
 31
0.0
100
AcDbText
 73
     2
  0
LWPOLYLINE
  5
D6E0
330
1F
100
AcDbEntity
  8
09図枠
100
AcDbPolyline
 90
        4
 70
     1
 43
0.0
 10
3750.0
 20
150.0
 10
3750.0
 20
1500.0
 10
4950.0
 20
1500.0
 10
4950.0
 20
150.0
  0
TEXT
  5
D6E1
330
1F
100
AcDbEntity
  8
01注記寸法
100
AcDbText
 10
3795.0
 20
1177.5
 30
0.0
 40
45.0
  1
レベルを調整します。
 11
3795.0
 21
1200.0
 31
0.0
100
AcDbText
 73
     2
  0
TEXT
  5
D6E2
330
1F
100
AcDbEntity
  8
01注記寸法
100
AcDbText
 10
3795.0
 20
1087.5
 30
0.0
 40
45.0
  1
架台全体の嵩上げには使用しないで
 11
3795.0
 21
1110.0
 31
0.0
100
AcDbText
 73
     2
  0
TEXT
  5
D6E3
330
1F
100
AcDbEntity
  8
01注記寸法
100
AcDbText
 10
1395.0
 20
1357.5
 30
0.0
 40
45.0
  1
アンカー金具取付（Ｂ）
 11
1395.0
 21
1380.0
 31
0.0
100
AcDbText
 73
     2
  0
TEXT
  5
D6E4
330
1F
100
AcDbEntity
  8
01注記寸法
100
AcDbText
 10
2595.0
 20
1357.5
 30
0.0
 40
45.0
  1
アンカー金具取付（Ｃ）
 11
2595.0
 21
1380.0
 31
0.0
100
AcDbText
 73
     2
  0
LINE
  5
D6E5
330
1F
100
AcDbEntity
  8
01注記寸法
100
AcDbLine
 10
1350.0
 20
150.0
 30
0.0
 11
1350.0
 21
1500.0
 31
0.0
  0
LINE
  5
D6E6
330
1F
100
AcDbEntity
  8
01注記寸法
100
AcDbLine
 10
2550.0
 20
150.0
 30
0.0
 11
2550.0
 21
1500.0
 31
0.0
  0
TEXT
  5
D6E7
330
1F
100
AcDbEntity
  8
01注記寸法
100
AcDbText
 10
195.0
 20
1357.5
 30
0.0
 40
45.0
  1
アンカー金具取付（Ａ）
 11
195.0
 21
1380.0
 31
0.0
100
AcDbText
 73
     2
  0
TEXT
  5
D6E8
330
1F
100
AcDbEntity
  8
01注記寸法
100
AcDbText
 10
195.0
 20
1432.5
 30
0.0
 40
45.0
  1
<アンカー寸法図>
 11
195.0
 21
1455.0
 31
0.0
100
AcDbText
 73
     2
  0
TEXT
  5
D6E9
330
1F
100
AcDbEntity
  8
01注記寸法
100
AcDbText
 10
720.0
 20
1432.5
 30
0.0
 40
45.0
  1
SCALE=
 11
720.0
 21
1455.0
 31
0.0
100
AcDbText
 73
     2
  0
TEXT
  5
D6EA
330
1F
100
AcDbEntity
  8
01注記寸法
100
AcDbText
 10
915.0
 20
1432.5
 30
0.0
 40
45.0
  1
1:30
 11
915.0
 21
1455.0
 31
0.0
100
AcDbText
 73
     2
  0
TEXT
  5
D6EB
330
1F
100
AcDbEntity
  8
01注記寸法
100
AcDbText
 10
3795.0
 20
997.5
 30
0.0
 40
45.0
  1
ください。
 11
3795.0
 21
1020.0
 31
0.0
100
AcDbText
 73
     2
  0
LINE
  5
D814
102
{ACAD_REACTORS
330
D818
102
}
330
1F
100
AcDbEntity
  8
03破線
100
AcDbLine
 10
2123.199999999999
 20
3701.8
 30
0.0
 11
2123.199999999999
 21
2930.0
 31
0.0
  0
LINE
  5
D815
102
{ACAD_REACTORS
330
D818
102
}
330
1F
100
AcDbEntity
  8
03破線
100
AcDbLine
 10
2120.0
 20
3625.0
 30
0.0
 11
2120.0
 21
3701.800000000001
 31
0.0
  0
LINE
  5
D816
102
{ACAD_REACTORS
330
D818
102
}
330
1F
100
AcDbEntity
  8
03破線
100
AcDbLine
 10
2120.0
 20
3010.0
 30
0.0
 11
2120.0
 21
2933.200000000001
 31
0.0
  0
LWPOLYLINE
  5
D817
102
{ACAD_REACTORS
330
D818
102
}
330
1F
100
AcDbEntity
  8
02実線
100
AcDbPolyline
 90
        4
 70
     1
 43
0.0
 10
2120.0
 20
3010.0
 10
2120.0
 20
3625.0
 10
2180.0
 20
3625.0
 10
2180.0
 20
3010.0
  0
CIRCLE
  5
D847
330
1F
100
AcDbEntity
  8
13製作用注記
100
AcDbCircle
 10
1526.934371439185
 20
1638.483653451727
 30
0.0
 40
37.5
  0
TEXT
  5
D848
330
1F
100
AcDbEntity
  8
13製作用注記
100
AcDbText
 10
1512.309371439185
 20
1615.983653451727
 30
0.0
 40
45.0
  1
4
 72
     1
 11
1526.934371439185
 21
1638.483653451727
 31
0.0
100
AcDbText
 73
     2
  0
LEADER
  5
D849
330
1F
100
AcDbEntity
  8
13製作用注記
100
AcDbLeader
  3
NEMY-15
 76
     2
 10
1406.799999999999
 20
1750.000000000001
 30
0.0
 10
1499.45039528804
 20
1663.996024077041
 30
0.0
  0
CIRCLE
  5
D84A
330
1F
100
AcDbEntity
  8
13製作用注記
100
AcDbCircle
 10
2300.134371439184
 20
1638.483653451727
 30
0.0
 40
37.5
  0
TEXT
  5
D84B
330
1F
100
AcDbEntity
  8
13製作用注記
100
AcDbText
 10
2285.509371439184
 20
1615.983653451727
 30
0.0
 40
45.0
  1
5
 72
     1
 11
2300.134371439184
 21
1638.483653451727
 31
0.0
100
AcDbText
 73
     2
  0
LEADER
  5
D84C
330
1F
100
AcDbEntity
  8
13製作用注記
100
AcDbLeader
  3
NEMY-15
 76
     2
 10
2180.0
 20
1750.000000000001
 30
0.0
 10
2272.650395288039
 20
1663.996024077041
 30
0.0
  0
CIRCLE
  5
D84D
330
1F
100
AcDbEntity
  8
13製作用注記
100
AcDbCircle
 10
2773.065628560817
 20
1638.483653451727
 30
0.0
 40
37.5
  0
TEXT
  5
D84E
330
1F
100
AcDbEntity
  8
13製作用注記
100
AcDbText
 10
2758.440628560817
 20
1615.983653451727
 30
0.0
 40
45.0
  1
4
 72
     1
 11
2773.065628560817
 21
1638.483653451727
 31
0.0
100
AcDbText
 73
     2
  0
LEADER
  5
D84F
330
1F
100
AcDbEntity
  8
13製作用注記
100
AcDbLeader
  3
NEMY-15
 76
     2
 10
2893.200000000001
 20
1750.000000000001
 30
0.0
 10
2800.549604711961
 20
1663.996024077041
 30
0.0
211
-1.0
221
0.0
231
0.0
  0
CIRCLE
  5
D850
330
1F
100
AcDbEntity
  8
13製作用注記
100
AcDbCircle
 10
1621.8932973561
 20
1712.268443887347
 30
0.0
 40
37.5
  0
TEXT
  5
D851
330
1F
100
AcDbEntity
  8
13製作用注記
100
AcDbText
 10
1607.2682973561
 20
1689.768443887347
 30
0.0
 40
45.0
  1
6
 72
     1
 11
1621.8932973561
 21
1712.268443887347
 31
0.0
100
AcDbText
 73
     2
  0
LEADER
  5
D852
330
1F
100
AcDbEntity
  8
13製作用注記
100
AcDbLeader
  3
NEMY-15
 76
     2
 10
1501.758925916914
 20
1823.784790435621
 30
0.0
 10
1594.409321204956
 20
1737.780814512661
 30
0.0
  0
CIRCLE
  5
D853
330
1F
100
AcDbEntity
  8
13製作用注記
100
AcDbCircle
 10
2678.106702643901
 20
1712.268443887347
 30
0.0
 40
37.5
  0
TEXT
  5
D854
330
1F
100
AcDbEntity
  8
13製作用注記
100
AcDbText
 10
2663.481702643901
 20
1689.768443887347
 30
0.0
 40
45.0
  1
6
 72
     1
 11
2678.106702643901
 21
1712.268443887347
 31
0.0
100
AcDbText
 73
     2
  0
LEADER
  5
D855
330
1F
100
AcDbEntity
  8
13製作用注記
100
AcDbLeader
  3
NEMY-15
 76
     2
 10
2798.241074083086
 20
1823.784790435621
 30
0.0
 10
2705.590678795046
 20
1737.780814512661
 30
0.0
211
-1.0
221
0.0
231
0.0
  0
CIRCLE
  5
D865
330
1F
100
AcDbEntity
  8
13製作用注記
100
AcDbCircle
 10
2769.865628560815
 20
3366.516346548274
 30
0.0
 40
37.5
  0
TEXT
  5
D866
330
1F
100
AcDbEntity
  8
13製作用注記
100
AcDbText
 10
2755.240628560815
 20
3344.016346548274
 30
0.0
 40
45.0
  1
2
 72
     1
 11
2769.865628560815
 21
3366.516346548274
 31
0.0
100
AcDbText
 73
     2
  0
LEADER
  5
D867
330
1F
100
AcDbEntity
  8
13製作用注記
100
AcDbLeader
  3
NEMY-15
 76
     2
 10
2890.0
 20
3255.0
 30
0.0
 10
2797.34960471196
 20
3341.00397592296
 30
0.0
211
-1.0
221
0.0
231
0.0
  0
CIRCLE
  5
D868
330
1F
100
AcDbEntity
  8
13製作用注記
100
AcDbCircle
 10
2300.134371439185
 20
3366.516346548274
 30
0.0
 40
37.5
  0
TEXT
  5
D869
330
1F
100
AcDbEntity
  8
13製作用注記
100
AcDbText
 10
2285.509371439185
 20
3344.016346548274
 30
0.0
 40
45.0
  1
3
 72
     1
 11
2300.134371439185
 21
3366.516346548274
 31
0.0
100
AcDbText
 73
     2
  0
LEADER
  5
D86A
330
1F
100
AcDbEntity
  8
13製作用注記
100
AcDbLeader
  3
NEMY-15
 76
     2
 10
2180.0
 20
3255.0
 30
0.0
 10
2272.65039528804
 20
3341.00397592296
 30
0.0
  0
CIRCLE
  5
D86B
330
1F
100
AcDbEntity
  8
13製作用注記
100
AcDbCircle
 10
1856.178238783426
 20
3513.483653451726
 30
0.0
 40
37.5
  0
TEXT
  5
D86C
330
1F
100
AcDbEntity
  8
13製作用注記
100
AcDbText
 10
1841.553238783426
 20
3490.983653451726
 30
0.0
 40
45.0
  1
1
 72
     1
 11
1856.178238783426
 21
3513.483653451726
 31
0.0
100
AcDbText
 73
     2
  0
LEADER
  5
D86D
330
1F
100
AcDbEntity
  8
13製作用注記
100
AcDbLeader
  3
NEMY-15
 76
     2
 10
1736.04386734424
 20
3625.0
 30
0.0
 10
1828.694262632281
 20
3538.99602407704
 30
0.0
  0
CIRCLE
  5
D86E
330
1F
100
AcDbEntity
  8
13製作用注記
100
AcDbCircle
 10
1856.178238783426
 20
3121.516346548274
 30
0.0
 40
37.5
  0
TEXT
  5
D86F
330
1F
100
AcDbEntity
  8
13製作用注記
100
AcDbText
 10
1841.553238783426
 20
3099.016346548274
 30
0.0
 40
45.0
  1
1
 72
     1
 11
1856.178238783426
 21
3121.516346548274
 31
0.0
100
AcDbText
 73
     2
  0
LEADER
  5
D870
330
1F
100
AcDbEntity
  8
13製作用注記
100
AcDbLeader
  3
NEMY-15
 76
     2
 10
1736.04386734424
 20
3010.0
 30
0.0
 10
1828.694262632281
 20
3096.00397592296
 30
0.0
  0
CIRCLE
  5
D871
330
1F
100
AcDbEntity
  8
13製作用注記
100
AcDbCircle
 10
1530.134371439185
 20
3366.516346548274
 30
0.0
 40
37.5
  0
TEXT
  5
D872
330
1F
100
AcDbEntity
  8
13製作用注記
100
AcDbText
 10
1515.509371439185
 20
3344.016346548274
 30
0.0
 40
45.0
  1
2
 72
     1
 11
1530.134371439185
 21
3366.516346548274
 31
0.0
100
AcDbText
 73
     2
  0
LEADER
  5
D873
330
1F
100
AcDbEntity
  8
13製作用注記
100
AcDbLeader
  3
NEMY-15
 76
     2
 10
1410.0
 20
3255.0
 30
0.0
 10
1502.65039528804
 20
3341.00397592296
 30
0.0
  0
LEADER
  5
D9A1
330
1F
100
AcDbEntity
  8
01注記寸法
100
AcDbLeader
  3
NEMY-15
 76
     2
 10
3846.93234845287
 20
433.7004795614671
 30
0.0
 10
3846.93234845287
 20
298.7004795614698
 30
0.0
  0
LEADER
  5
D9A2
330
1F
100
AcDbEntity
  8
01注記寸法
100
AcDbLeader
  3
NEMY-15
 76
     2
 10
3846.93234845287
 20
298.7004795614698
 30
0.0
 10
3846.93234845287
 20
433.7004795614671
 30
0.0
  0
TEXT
  5
EC96
330
1F
100
AcDbEntity
  8
01注記寸法
100
AcDbText
 10
5277.0
 20
315.0
 30
0.0
 40
60.0
  1
ネミー株式会社
 72
     1
 11
5550.0
 21
345.0
 31
0.0
100
AcDbText
 73
     2
  0
LEADER
  5
F267
330
1F
100
AcDbEntity
  8
01注記寸法
100
AcDbLeader
  3
NEMY-15
 76
     3
 10
2850.0
 20
2964.974094
 30
0.0
 10
2743.092258286448
 20
2780.0
 30
0.0
 10
2083.092258286448
 20
2780.0
 30
0.0
211
-1.0
221
0.0
231
0.0
  0
LEADER
  5
F274
330
1F
100
AcDbEntity
  8
01注記寸法
100
AcDbLeader
  3
NEMY-15
 76
     3
 10
414.3999999999996
 20
549.0
 30
0.0
 10
517.5825753415311
 20
381.25
 30
0.0
 10
997.5825753415311
 20
381.25
 30
0.0
  0
TEXT
  5
F9A7
330
1F
100
AcDbEntity
  8
01注記寸法
100
AcDbText
 10
3614.999626525168
 20
4214.999648562787
 30
0.0
 40
60.0
  1
機器本体・防振架台取付共用仕様
 72
     1
 11
4199.999626525168
 21
4244.999648562787
 31
0.0
100
AcDbText
 73
     2
  0
LWPOLYLINE
  5
F9A8
330
1F
100
AcDbEntity
  8
09図枠
100
AcDbPolyline
 90
        4
 70
     1
 43
0.0
 10
3450.0
 20
4064.999999999998
 10
3450.0
 20
4184.999999999998
 10
4950.0
 20
4184.999999999998
 10
4950.0
 20
4064.999999999998
  0
TEXT
  5
F9A9
330
1F
100
AcDbEntity
  8
01注記寸法
100
AcDbText
 10
3731.999626525168
 20
4094.999648562787
 30
0.0
 40
60.0
  1
標準/耐塩/耐重塩共用仕様
 72
     1
 11
4199.999626525168
 21
4124.999648562787
 31
0.0
100
AcDbText
 73
     2
  0
LWPOLYLINE
  5
F9AA
330
1F
100
AcDbEntity
  8
09図枠
100
AcDbPolyline
 90
        4
 70
     1
 43
0.0
 10
3450.0
 20
4184.999999999998
 10
3450.0
 20
4304.999999999998
 10
4950.0
 20
4304.999999999998
 10
4950.0
 20
4184.999999999998
  0
LWPOLYLINE
  5
F9C5
330
1F
100
AcDbEntity
  8
09図枠
100
AcDbPolyline
 90
        4
 70
     1
 43
0.0
 10
4200.0
 20
3825.0
 10
4200.0
 20
3915.0
 10
4950.0
 20
3915.0
 10
4950.0
 20
3825.0
  0
TEXT
  5
F9C6
330
1F
100
AcDbEntity
  8
01注記寸法
100
AcDbText
 10
4370.25
 20
3847.5
 30
0.0
 40
45.0
  1
防振架台仕様書
 72
     1
 11
4575.0
 21
3870.0
 31
0.0
100
AcDbText
 73
     2
  0
INSERT
  5
FB24
330
1F
100
AcDbEntity
  8
11機器
100
AcDbBlockReference
  2
RAS-AP450SG他
 10
1481.0
 20
2952.974094
 30
0.0
  0
INSERT
  5
FB25
330
1F
100
AcDbEntity
  8
02実線
100
AcDbBlockReference
  2
hole-φ16
 10
1481.0
 20
2952.974094
 30
0.0
  0
INSERT
  5
FB26
330
1F
100
AcDbEntity
  8
10副資材
100
AcDbBlockReference
  2
平W-M12
 10
1481.0
 20
2952.974094
 30
0.0
  0
INSERT
  5
FB27
330
1F
100
AcDbEntity
  8
10副資材
100
AcDbBlockReference
  2
角ワッシャーM12
 10
1481.0
 20
2952.974094
 30
0.0
  0
INSERT
  5
FB29
330
1F
100
AcDbEntity
  8
02実線
100
AcDbBlockReference
  2
hole-φ16
 10
2150.0
 20
2952.974094
 30
0.0
  0
INSERT
  5
FB2A
330
1F
100
AcDbEntity
  8
10副資材
100
AcDbBlockReference
  2
平W-M12
 10
2150.0
 20
2952.974094
 30
0.0
  0
INSERT
  5
FB2B
330
1F
100
AcDbEntity
  8
10副資材
100
AcDbBlockReference
  2
角ワッシャーM12
 10
2150.0
 20
2952.974094
 30
0.0
  0
INSERT
  5
FB2D
330
1F
100
AcDbEntity
  8
02実線
100
AcDbBlockReference
  2
hole-φ16
 10
2819.0
 20
2952.974094
 30
0.0
  0
INSERT
  5
FB2E
330
1F
100
AcDbEntity
  8
10副資材
100
AcDbBlockReference
  2
平W-M12
 10
2819.0
 20
2952.974094
 30
0.0
  0
INSERT
  5
FB2F
330
1F
100
AcDbEntity
  8
10副資材
100
AcDbBlockReference
  2
角ワッシャーM12
 10
2819.0
 20
2952.974094
 30
0.0
  0
INSERT
  5
FB31
330
1F
100
AcDbEntity
  8
02実線
100
AcDbBlockReference
  2
hole-φ16
 10
2819.0
 20
3681.974094
 30
0.0
  0
INSERT
  5
FB32
330
1F
100
AcDbEntity
  8
10副資材
100
AcDbBlockReference
  2
平W-M12
 10
2819.0
 20
3681.974094
 30
0.0
  0
INSERT
  5
FB33
330
1F
100
AcDbEntity
  8
10副資材
100
AcDbBlockReference
  2
角ワッシャーM12
 10
2819.0
 20
3681.974094
 30
0.0
  0
INSERT
  5
FB35
330
1F
100
AcDbEntity
  8
02実線
100
AcDbBlockReference
  2
hole-φ16
 10
2150.000013
 20
3681.974093999999
 30
0.0
  0
INSERT
  5
FB36
330
1F
100
AcDbEntity
  8
10副資材
100
AcDbBlockReference
  2
平W-M12
 10
2150.000013
 20
3681.974093999999
 30
0.0
  0
INSERT
  5
FB37
330
1F
100
AcDbEntity
  8
10副資材
100
AcDbBlockReference
  2
角ワッシャーM12
 10
2150.000013
 20
3681.974093999999
 30
0.0
  0
INSERT
  5
FB39
330
1F
100
AcDbEntity
  8
02実線
100
AcDbBlockReference
  2
hole-φ16
 10
1481.0
 20
3681.974094
 30
0.0
  0
INSERT
  5
FB3A
330
1F
100
AcDbEntity
  8
10副資材
100
AcDbBlockReference
  2
平W-M12
 10
1481.0
 20
3681.974094
 30
0.0
  0
INSERT
  5
FB3B
330
1F
100
AcDbEntity
  8
10副資材
100
AcDbBlockReference
  2
角ワッシャーM12
 10
1481.0
 20
3681.974094
 30
0.0
  0
LWPOLYLINE
  5
FB42
330
1F
100
AcDbEntity
  8
13製作用注記
100
AcDbPolyline
 90
        4
 70
     1
 43
0.0
 10
4050.0
 20
3465.0
 10
4050.0
 20
3555.0
 10
4350.0
 20
3555.0
 10
4350.0
 20
3465.0
  0
LWPOLYLINE
  5
FB43
330
1F
100
AcDbEntity
  8
13製作用注記
100
AcDbPolyline
 90
        4
 70
     1
 43
0.0
 10
3960.0
 20
3465.0
 10
3960.0
 20
3555.0
 10
4050.0
 20
3555.0
 10
4050.0
 20
3465.0
  0
TEXT
  5
FB44
330
1F
100
AcDbEntity
  8
13製作用注記
100
AcDbText
 10
3990.375
 20
3487.5
 30
0.0
 40
45.0
  1
1
 72
     1
 11
4005.0
 21
3510.0
 31
0.0
100
AcDbText
 73
     2
  0
TEXT
  5
FB45
330
1F
100
AcDbEntity
  8
13製作用注記
100
AcDbText
 10
4112.25
 20
3487.5
 30
0.0
 40
45.0
  1
梁長手
 72
     1
 11
4200.0
 21
3510.0
 31
0.0
100
AcDbText
 73
     2
  0
LWPOLYLINE
  5
FB46
330
1F
100
AcDbEntity
  8
13製作用注記
100
AcDbPolyline
 90
        4
 70
     1
 43
0.0
 10
4050.0
 20
3375.0
 10
4050.0
 20
3465.0
 10
4350.0
 20
3465.0
 10
4350.0
 20
3375.0
  0
LWPOLYLINE
  5
FB47
330
1F
100
AcDbEntity
  8
13製作用注記
100
AcDbPolyline
 90
        4
 70
     1
 43
0.0
 10
3960.0
 20
3375.0
 10
3960.0
 20
3465.0
 10
4050.0
 20
3465.0
 10
4050.0
 20
3375.0
  0
TEXT
  5
FB48
330
1F
100
AcDbEntity
  8
13製作用注記
100
AcDbText
 10
3990.375
 20
3397.5
 30
0.0
 40
45.0
  1
2
 72
     1
 11
4005.0
 21
3420.0
 31
0.0
100
AcDbText
 73
     2
  0
TEXT
  5
FB49
330
1F
100
AcDbEntity
  8
13製作用注記
100
AcDbText
 10
4112.25
 20
3397.5
 30
0.0
 40
45.0
  1
梁短手
 72
     1
 11
4200.0
 21
3420.0
 31
0.0
100
AcDbText
 73
     2
  0
LWPOLYLINE
  5
FB4A
330
1F
100
AcDbEntity
  8
13製作用注記
100
AcDbPolyline
 90
        4
 70
     1
 43
0.0
 10
4050.0
 20
3285.0
 10
4050.0
 20
3375.0
 10
4350.0
 20
3375.0
 10
4350.0
 20
3285.0
  0
LWPOLYLINE
  5
FB4B
330
1F
100
AcDbEntity
  8
13製作用注記
100
AcDbPolyline
 90
        4
 70
     1
 43
0.0
 10
3960.0
 20
3285.0
 10
3960.0
 20
3375.0
 10
4050.0
 20
3375.0
 10
4050.0
 20
3285.0
  0
TEXT
  5
FB4C
330
1F
100
AcDbEntity
  8
13製作用注記
100
AcDbText
 10
3990.375
 20
3307.5
 30
0.0
 40
45.0
  1
3
 72
     1
 11
4005.0
 21
3330.0
 31
0.0
100
AcDbText
 73
     2
  0
TEXT
  5
FB4D
330
1F
100
AcDbEntity
  8
13製作用注記
100
AcDbText
 10
4141.5
 20
3307.5
 30
0.0
 40
45.0
  1
中桟
 72
     1
 11
4200.0
 21
3330.0
 31
0.0
100
AcDbText
 73
     2
  0
LWPOLYLINE
  5
FB4E
330
1F
100
AcDbEntity
  8
13製作用注記
100
AcDbPolyline
 90
        4
 70
     1
 43
0.0
 10
4050.0
 20
3195.0
 10
4050.0
 20
3285.0
 10
4350.0
 20
3285.0
 10
4350.0
 20
3195.0
  0
LWPOLYLINE
  5
FB4F
330
1F
100
AcDbEntity
  8
13製作用注記
100
AcDbPolyline
 90
        4
 70
     1
 43
0.0
 10
3960.0
 20
3195.0
 10
3960.0
 20
3285.0
 10
4050.0
 20
3285.0
 10
4050.0
 20
3195.0
  0
TEXT
  5
FB50
330
1F
100
AcDbEntity
  8
13製作用注記
100
AcDbText
 10
3990.375
 20
3217.5
 30
0.0
 40
45.0
  1
4
 72
     1
 11
4005.0
 21
3240.0
 31
0.0
100
AcDbText
 73
     2
  0
TEXT
  5
FB51
330
1F
100
AcDbEntity
  8
13製作用注記
100
AcDbText
 10
4141.5
 20
3217.5
 30
0.0
 40
45.0
  1
端柱
 72
     1
 11
4200.0
 21
3240.0
 31
0.0
100
AcDbText
 73
     2
  0
LWPOLYLINE
  5
FB52
330
1F
100
AcDbEntity
  8
13製作用注記
100
AcDbPolyline
 90
        4
 70
     1
 43
0.0
 10
4050.0
 20
3105.0
 10
4050.0
 20
3195.0
 10
4350.0
 20
3195.0
 10
4350.0
 20
3105.0
  0
LWPOLYLINE
  5
FB53
330
1F
100
AcDbEntity
  8
13製作用注記
100
AcDbPolyline
 90
        4
 70
     1
 43
0.0
 10
3960.0
 20
3105.0
 10
3960.0
 20
3195.0
 10
4050.0
 20
3195.0
 10
4050.0
 20
3105.0
  0
TEXT
  5
FB54
330
1F
100
AcDbEntity
  8
13製作用注記
100
AcDbText
 10
3990.375
 20
3127.5
 30
0.0
 40
45.0
  1
5
 72
     1
 11
4005.0
 21
3150.0
 31
0.0
100
AcDbText
 73
     2
  0
TEXT
  5
FB55
330
1F
100
AcDbEntity
  8
13製作用注記
100
AcDbText
 10
4141.5
 20
3127.5
 30
0.0
 40
45.0
  1
中柱
 72
     1
 11
4200.0
 21
3150.0
 31
0.0
100
AcDbText
 73
     2
  0
LWPOLYLINE
  5
FB56
330
1F
100
AcDbEntity
  8
13製作用注記
100
AcDbPolyline
 90
        4
 70
     1
 43
0.0
 10
4050.0
 20
3015.0
 10
4050.0
 20
3105.0
 10
4350.0
 20
3105.0
 10
4350.0
 20
3015.0
  0
LWPOLYLINE
  5
FB57
330
1F
100
AcDbEntity
  8
13製作用注記
100
AcDbPolyline
 90
        4
 70
     1
 43
0.0
 10
3960.0
 20
3015.0
 10
3960.0
 20
3105.0
 10
4050.0
 20
3105.0
 10
4050.0
 20
3015.0
  0
TEXT
  5
FB58
330
1F
100
AcDbEntity
  8
13製作用注記
100
AcDbText
 10
3990.375
 20
3037.5
 30
0.0
 40
45.0
  1
6
 72
     1
 11
4005.0
 21
3060.0
 31
0.0
100
AcDbText
 73
     2
  0
TEXT
  5
FB59
330
1F
100
AcDbEntity
  8
13製作用注記
100
AcDbText
 10
4141.5
 20
3037.5
 30
0.0
 40
45.0
  1
筋交
 72
     1
 11
4200.0
 21
3060.0
 31
0.0
100
AcDbText
 73
     2
  0
LWPOLYLINE
  5
FB5A
330
1F
100
AcDbEntity
  8
13製作用注記
100
AcDbPolyline
 90
        4
 70
     1
 43
0.0
 10
4350.0
 20
3465.0
 10
4350.0
 20
3555.0
 10
4950.0
 20
3555.0
 10
4950.0
 20
3465.0
  0
TEXT
  5
FB5B
330
1F
100
AcDbEntity
  8
13製作用注記
100
AcDbText
 10
4401.375
 20
3487.5
 30
0.0
 40
45.0
  1
[80×60×20×t3.2
 72
     1
 11
4650.0
 21
3510.0
 31
0.0
100
AcDbText
 73
     2
  0
LWPOLYLINE
  5
FB5C
330
1F
100
AcDbEntity
  8
13製作用注記
100
AcDbPolyline
 90
        4
 70
     1
 43
0.0
 10
4350.0
 20
3375.0
 10
4350.0
 20
3465.0
 10
4950.0
 20
3465.0
 10
4950.0
 20
3375.0
  0
TEXT
  5
FB5D
330
1F
100
AcDbEntity
  8
13製作用注記
100
AcDbText
 10
4459.875
 20
3397.5
 30
0.0
 40
45.0
  1
L60×60×t3.2
 72
     1
 11
4650.0
 21
3420.0
 31
0.0
100
AcDbText
 73
     2
  0
LWPOLYLINE
  5
FB5E
330
1F
100
AcDbEntity
  8
13製作用注記
100
AcDbPolyline
 90
        4
 70
     1
 43
0.0
 10
4350.0
 20
3285.0
 10
4350.0
 20
3375.0
 10
4950.0
 20
3375.0
 10
4950.0
 20
3285.0
  0
TEXT
  5
FB5F
330
1F
100
AcDbEntity
  8
13製作用注記
100
AcDbText
 10
4459.875
 20
3307.5
 30
0.0
 40
45.0
  1
L60×60×t3.2
 72
     1
 11
4650.0
 21
3330.0
 31
0.0
100
AcDbText
 73
     2
  0
LWPOLYLINE
  5
FB60
330
1F
100
AcDbEntity
  8
13製作用注記
100
AcDbPolyline
 90
        4
 70
     1
 43
0.0
 10
4350.0
 20
3195.0
 10
4350.0
 20
3285.0
 10
4950.0
 20
3285.0
 10
4950.0
 20
3195.0
  0
TEXT
  5
FB61
330
1F
100
AcDbEntity
  8
13製作用注記
100
AcDbText
 10
4459.875
 20
3217.5
 30
0.0
 40
45.0
  1
L60×60×t3.2
 72
     1
 11
4650.0
 21
3240.0
 31
0.0
100
AcDbText
 73
     2
  0
LWPOLYLINE
  5
FB62
330
1F
100
AcDbEntity
  8
13製作用注記
100
AcDbPolyline
 90
        4
 70
     1
 43
0.0
 10
4350.0
 20
3105.0
 10
4350.0
 20
3195.0
 10
4950.0
 20
3195.0
 10
4950.0
 20
3105.0
  0
TEXT
  5
FB63
330
1F
100
AcDbEntity
  8
13製作用注記
100
AcDbText
 10
4459.875
 20
3127.5
 30
0.0
 40
45.0
  1
L60×60×t3.2
 72
     1
 11
4650.0
 21
3150.0
 31
0.0
100
AcDbText
 73
     2
  0
LWPOLYLINE
  5
FB64
330
1F
100
AcDbEntity
  8
13製作用注記
100
AcDbPolyline
 90
        4
 70
     1
 43
0.0
 10
4350.0
 20
3015.0
 10
4350.0
 20
3105.0
 10
4950.0
 20
3105.0
 10
4950.0
 20
3015.0
  0
TEXT
  5
FB65
330
1F
100
AcDbEntity
  8
13製作用注記
100
AcDbText
 10
4562.25
 20
3037.5
 30
0.0
 40
45.0
  1
300H用
 72
     1
 11
4650.0
 21
3060.0
 31
0.0
100
AcDbText
 73
     2
  0
LWPOLYLINE
  5
FB66
330
1F
100
AcDbEntity
  8
13製作用注記
100
AcDbPolyline
 90
        4
 70
     1
 43
0.0
 10
3960.0
 20
3555.0
 10
3960.0
 20
3645.0
 10
4950.0
 20
3645.0
 10
4950.0
 20
3555.0
  0
TEXT
  5
FB67
330
1F
100
AcDbEntity
  8
13製作用注記
100
AcDbText
 10
4250.25
 20
3577.5
 30
0.0
 40
45.0
  1
部　材　一　覧
 72
     1
 11
4455.0
 21
3600.0
 31
0.0
100
AcDbText
 73
     2
  0
INSERT
  5
FB85
330
1F
100
AcDbEntity
  8
12防振架台
100
AcDbBlockReference
  2
N-SPH1600
 10
1350.0
 20
2934.974094
 30
0.0
  0
INSERT
  5
FB86
330
1F
100
AcDbEntity
  8
10副資材
100
AcDbBlockReference
  2
平W-M12
 10
1450.0
 20
3669.974094
 30
0.0
  0
INSERT
  5
FB87
330
1F
100
AcDbEntity
  8
02実線
100
AcDbBlockReference
  2
hole-φ16
 10
1450.0
 20
3669.974094
 30
0.0
  0
INSERT
  5
FB88
330
1F
100
AcDbEntity
  8
02実線
100
AcDbBlockReference
  2
hole-φ16
 10
2850.0
 20
3669.974094
 30
0.0
  0
INSERT
  5
FB89
330
1F
100
AcDbEntity
  8
10副資材
100
AcDbBlockReference
  2
平W-M12
 10
2850.0
 20
3669.974094
 30
0.0
  0
INSERT
  5
FB8A
330
1F
100
AcDbEntity
  8
02実線
100
AcDbBlockReference
  2
hole-φ16
 10
2850.0
 20
2964.974094
 30
0.0
  0
INSERT
  5
FB8B
330
1F
100
AcDbEntity
  8
10副資材
100
AcDbBlockReference
  2
平W-M12
 10
2850.0
 20
2964.974094
 30
0.0
  0
INSERT
  5
FB8C
330
1F
100
AcDbEntity
  8
02実線
100
AcDbBlockReference
  2
hole-φ16
 10
1450.0
 20
2964.974094
 30
0.0
  0
INSERT
  5
FB8D
330
1F
100
AcDbEntity
  8
10副資材
100
AcDbBlockReference
  2
平W-M12
 10
1450.0
 20
2964.974094
 30
0.0
  0
DIMENSION
  5
FBE5
330
1F
100
AcDbEntity
  8
01注記寸法
100
AcDbDimension
  2
*D1226
 10
1200.0
 20
3681.974094
 30
0.0
 11
1200.0
 21
3836.145
 31
0.0
 70
   160
 71
     5
 42
23.02590599999893
  3
NEMY-15
100
AcDbAlignedDimension
 13
1350.0
 23
3704.999999999999
 33
0.0
 14
1461.0
 24
3681.974094
 34
0.0
 50
90.0
100
AcDbRotatedDimension
  0
DIMENSION
  5
FBF5
330
1F
100
AcDbEntity
  8
01注記寸法
100
AcDbDimension
  2
*D1227
 10
1200.0
 20
2952.974094
 30
0.0
 11
1162.5
 21
3317.474094
 31
0.0
 70
    32
 71
     5
 42
729.0
  3
NEMY-15
100
AcDbAlignedDimension
 13
1461.0
 23
3681.974094
 33
0.0
 14
1461.0
 24
2952.974094
 34
0.0
 50
90.0
100
AcDbRotatedDimension
  0
DIMENSION
  5
FC02
330
1F
100
AcDbEntity
  8
01注記寸法
100
AcDbDimension
  2
*D1228
 10
1200.0
 20
2929.999999999999
 30
0.0
 11
1162.5
 21
2798.854999999999
 31
0.0
 70
    32
 71
     5
 42
22.97409400000107
  3
NEMY-15
100
AcDbAlignedDimension
 13
1461.0
 23
2952.974094
 33
0.0
 14
1350.0
 24
2929.999999999999
 34
0.0
 50
90.0
100
AcDbRotatedDimension
  0
DIMENSION
  5
FC11
330
1F
100
AcDbEntity
  8
01注記寸法
100
AcDbDimension
  2
*D1229
 10
1481.0
 20
4005.0
 30
0.0
 11
1415.5
 21
4042.5
 31
0.0
 70
    32
 71
     5
 42
131.0
  3
NEMY-15
100
AcDbAlignedDimension
 13
1350.0
 23
3706.499999999999
 33
0.0
 14
1481.0
 24
3701.974094
 34
0.0
100
AcDbRotatedDimension
  0
DIMENSION
  5
FC1E
330
1F
100
AcDbEntity
  8
01注記寸法
100
AcDbDimension
  2
*D1230
 10
2150.000013
 20
4005.0
 30
0.0
 11
1815.5000065
 21
4042.5
 31
0.0
 70
    32
 71
     5
 42
669.0000129999999
  3
NEMY-15
100
AcDbAlignedDimension
 13
1481.0
 23
3701.974094
 33
0.0
 14
2150.000013
 24
3701.974093999999
 34
0.0
100
AcDbRotatedDimension
  0
DIMENSION
  5
FC2B
330
1F
100
AcDbEntity
  8
01注記寸法
100
AcDbDimension
  2
*D1231
 10
2819.0
 20
4005.0
 30
0.0
 11
2484.5000065
 21
4042.5
 31
0.0
 70
    32
 71
     5
 42
668.9999870000001
  3
NEMY-15
100
AcDbAlignedDimension
 13
2150.000013
 23
3701.974093999999
 33
0.0
 14
2819.0
 24
3701.974094
 34
0.0
100
AcDbRotatedDimension
  0
DIMENSION
  5
FC38
330
1F
100
AcDbEntity
  8
01注記寸法
100
AcDbDimension
  2
*D1232
 10
2950.0
 20
4005.0
 30
0.0
 11
2884.5
 21
4042.5
 31
0.0
 70
    32
 71
     5
 42
131.0
  3
NEMY-15
100
AcDbAlignedDimension
 13
2819.0
 23
3701.974094
 33
0.0
 14
2950.0
 24
3706.499999999999
 34
0.0
100
AcDbRotatedDimension
  0
DIMENSION
  5
FC45
330
1F
100
AcDbEntity
  8
01注記寸法
100
AcDbDimension
  2
*D1233
 10
1450.0
 20
2630.0
 30
0.0
 11
1400.0
 21
2630.0
 31
0.0
 70
   160
 71
     5
 42
100.0
  3
NEMY-15
100
AcDbAlignedDimension
 13
1350.0
 23
2928.499999999999
 33
0.0
 14
1450.0
 24
2944.974094
 34
0.0
100
AcDbRotatedDimension
  0
DIMENSION
  5
FC54
330
1F
100
AcDbEntity
  8
01注記寸法
100
AcDbDimension
  2
*D1234
 10
2850.0
 20
2630.0
 30
0.0
 11
2150.0
 21
2668.985
 31
0.0
 70
    32
  1
※ <>
 71
     5
 42
1400.0
  3
NEMY-15
100
AcDbAlignedDimension
 13
1450.0
 23
2944.974094
 33
0.0
 14
2850.0
 24
2944.974094
 34
0.0
100
AcDbRotatedDimension
  0
DIMENSION
  5
FC61
330
1F
100
AcDbEntity
  8
01注記寸法
100
AcDbDimension
  2
*D1235
 10
2950.0
 20
2630.0
 30
0.0
 11
2900.0
 21
2630.0
 31
0.0
 70
   160
 71
     5
 42
100.0
  3
NEMY-15
100
AcDbAlignedDimension
 13
2850.0
 23
2944.974094
 33
0.0
 14
2950.0
 24
2928.499999999999
 34
0.0
100
AcDbRotatedDimension
  0
DIMENSION
  5
FC70
330
1F
100
AcDbEntity
  8
01注記寸法
100
AcDbDimension
  2
*D1236
 10
3100.0
 20
2964.974094
 30
0.0
 11
3100.0
 21
2798.7425
 31
0.0
 70
   160
 71
     5
 42
34.97409400000014
  3
NEMY-15
100
AcDbAlignedDimension
 13
2950.0
 23
2930.0
 33
0.0
 14
2870.0
 24
2964.974094
 34
0.0
 50
90.0
100
AcDbRotatedDimension
  0
DIMENSION
  5
FC80
330
1F
100
AcDbEntity
  8
01注記寸法
100
AcDbDimension
  2
*D1237
 10
3100.0
 20
3669.974094
 30
0.0
 11
3061.015
 21
3317.474094
 31
0.0
 70
    32
  1
※ <>
 71
     5
 42
705.0
  3
NEMY-15
100
AcDbAlignedDimension
 13
2870.0
 23
2964.974094
 33
0.0
 14
2870.0
 24
3669.974094
 34
0.0
 50
90.0
100
AcDbRotatedDimension
  0
DIMENSION
  5
FC8D
330
1F
100
AcDbEntity
  8
01注記寸法
100
AcDbDimension
  2
*D1238
 10
3100.0
 20
3704.999999999999
 30
0.0
 11
3062.5
 21
3836.257499999999
 31
0.0
 70
    32
 71
     5
 42
35.02590599999895
  3
NEMY-15
100
AcDbAlignedDimension
 13
2870.0
 23
3669.974094
 33
0.0
 14
2950.0
 24
3704.999999999999
 34
0.0
 50
90.0
100
AcDbRotatedDimension
  0
LWPOLYLINE
  5
FCAB
330
1F
100
AcDbEntity
  8
08非表示
100
AcDbPolyline
 90
        4
 70
     1
 43
0.0
 10
300.0
 20
1650.000000000001
 10
300.0
 20
4154.999999999998
 10
4800.0
 20
4154.999999999998
 10
4800.0
 20
1650.000000000002
  0
LWPOLYLINE
  5
FCB2
330
1F
100
AcDbEntity
  8
08非表示
100
AcDbPolyline
 90
        4
 70
     1
 43
0.0
 10
250.0
 20
381.25
 10
250.0
 20
1068.75
 10
1350.0
 20
1068.75
 10
1350.0
 20
381.25
  0
DIMENSION
  5
FCB3
330
1F
100
AcDbEntity
  8
01注記寸法
100
AcDbDimension
  2
*D1240
 10
250.0
 20
549.0
 30
0.0
 11
212.5
 21
725.0
 31
0.0
 70
    32
 71
     5
 42
704.0
  3
NEMY-15
100
AcDbAlignedDimension
 13
414.3999999999996
 23
901.0
 33
0.0
 14
414.3999999999996
 24
549.0
 34
0.0
 50
90.0
100
AcDbRotatedDimension
1001
ACAD
1000
DSTYLE
1002
{
1070
   271
1070
     0
1070
   144
1040
2.0
1002
}
  0
DIMENSION
  5
FCC0
330
1F
100
AcDbEntity
  8
01注記寸法
100
AcDbDimension
  2
*D1241
 10
801.0
 20
1068.75
 30
0.0
 11
607.6999999999998
 21
1106.25
 31
0.0
 70
    32
 71
     5
 42
773.2000000000007
  3
NEMY-15
100
AcDbAlignedDimension
 13
414.3999999999996
 23
901.0
 33
0.0
 14
801.0
 24
899.3999999999996
 34
0.0
100
AcDbRotatedDimension
1001
ACAD
1000
DSTYLE
1002
{
1070
   271
1070
     0
1070
   144
1040
2.0
1002
}
  0
DIMENSION
  5
FCCD
330
1F
100
AcDbEntity
  8
01注記寸法
100
AcDbDimension
  2
*D1242
 10
1185.6
 20
1068.75
 30
0.0
 11
993.3000000000002
 21
1106.25
 31
0.0
 70
    32
 71
     5
 42
769.2000000000007
  3
NEMY-15
100
AcDbAlignedDimension
 13
801.0
 23
899.3999999999996
 33
0.0
 14
1185.6
 24
901.0
 34
0.0
100
AcDbRotatedDimension
1001
ACAD
1000
DSTYLE
1002
{
1070
   271
1070
     0
1070
   144
1040
2.0
1002
}
  0
DIMENSION
  5
FCDA
330
1F
100
AcDbEntity
  8
08非表示
100
AcDbDimension
  2
*D1243
 10
1067.020728804338
 20
531.25
 30
0.0
 11
1029.520728804338
 21
725.0
 31
0.0
 70
    32
 71
     5
 42
775.0
  3
NEMY-15
100
AcDbAlignedDimension
 13
1110.875845678362
 23
918.75
 33
0.0
 14
1110.875845678362
 24
531.25
 34
0.0
 50
90.0
100
AcDbRotatedDimension
1001
ACAD
1000
DSTYLE
1002
{
1070
   144
1040
2.0
1002
}
  0
DIMENSION
  5
FCE7
330
1F
100
AcDbEntity
  8
08非表示
100
AcDbDimension
  2
*D1244
 10
1200.0
 20
626.542760954112
 30
0.0
 11
800.0
 21
664.042760954112
 31
0.0
 70
    32
 71
     5
 42
1600.0
  3
NEMY-15
100
AcDbAlignedDimension
 13
400.0
 23
618.1449726165329
 33
0.0
 14
1200.0
 24
612.5464470581469
 34
0.0
100
AcDbRotatedDimension
1001
ACAD
1000
DSTYLE
1002
{
1070
   144
1040
2.0
1002
}
  0
DIMENSION
  5
FCF4
330
1F
100
AcDbEntity
  8
01注記寸法
100
AcDbDimension
  2
*D1245
 10
689.0892639081421
 20
550.5999999999995
 30
0.0
 11
651.5892639081421
 21
724.9999999999995
 31
0.0
 70
    32
 71
     5
 42
697.6000000000004
  3
NEMY-15
100
AcDbAlignedDimension
 13
801.0
 23
899.3999999999996
 33
0.0
 14
801.0
 24
550.5999999999995
 34
0.0
 50
90.0
100
AcDbRotatedDimension
1001
ACAD
1000
DSTYLE
1002
{
1070
   271
1070
     0
1070
   144
1040
2.0
1002
}
  0
TEXT
  5
FD01
330
1F
100
AcDbEntity
  8
01注記寸法
100
AcDbText
 10
1717.582575341531
 20
400.0
 30
0.0
 40
45.0
  1
アンカーボルト孔
100
AcDbText
  0
TEXT
  5
FD02
330
1F
100
AcDbEntity
  8
01注記寸法
100
AcDbText
 10
1717.582575341531
 20
325.0
 30
0.0
 40
45.0
  1
(6-φ16)
100
AcDbText
  0
LEADER
  5
FD03
330
1F
100
AcDbEntity
  8
01注記寸法
100
AcDbLeader
  3
NEMY-15
 76
     3
 10
1579.9
 20
544.8999999999996
 30
0.0
 10
1717.582575341531
 20
381.25
 30
0.0
 10
2197.582575341531
 20
381.25
 30
0.0
  0
LWPOLYLINE
  5
FD1F
330
1F
100
AcDbEntity
  8
08非表示
100
AcDbPolyline
 90
        4
 70
     1
 43
0.0
 10
1450.0
 20
381.25
 10
1450.0
 20
1068.75
 10
2550.0
 20
1068.75
 10
2550.0
 20
381.25
  0
DIMENSION
  5
FD20
330
1F
100
AcDbEntity
  8
01注記寸法
100
AcDbDimension
  2
*D1246
 10
1450.0
 20
544.8999999999996
 30
0.0
 11
1412.5
 21
724.9999999999995
 31
0.0
 70
    32
 71
     5
 42
720.3999999999996
  3
NEMY-15
100
AcDbAlignedDimension
 13
1579.9
 23
905.0999999999995
 33
0.0
 14
1579.9
 24
544.8999999999996
 34
0.0
 50
90.0
100
AcDbRotatedDimension
1001
ACAD
1000
DSTYLE
1002
{
1070
   271
1070
     0
1070
   144
1040
2.0
1002
}
  0
DIMENSION
  5
FD21
330
1F
100
AcDbEntity
  8
01注記寸法
100
AcDbDimension
  2
*D1247
 10
2001.0
 20
1068.75
 30
0.0
 11
1790.45
 21
1106.25
 31
0.0
 70
    32
 71
     5
 42
842.2000000000007
  3
NEMY-15
100
AcDbAlignedDimension
 13
1579.9
 23
905.0999999999995
 33
0.0
 14
2001.0
 24
899.3999999999996
 34
0.0
100
AcDbRotatedDimension
1001
ACAD
1000
DSTYLE
1002
{
1070
   271
1070
     0
1070
   144
1040
2.0
1002
}
  0
DIMENSION
  5
FD22
330
1F
100
AcDbEntity
  8
01注記寸法
100
AcDbDimension
  2
*D1248
 10
2420.1
 20
1068.75
 30
0.0
 11
2210.55
 21
1106.25
 31
0.0
 70
    32
 71
     5
 42
838.2000000000007
  3
NEMY-15
100
AcDbAlignedDimension
 13
2001.0
 23
899.3999999999996
 33
0.0
 14
2420.1
 24
905.0999999999995
 34
0.0
100
AcDbRotatedDimension
1001
ACAD
1000
DSTYLE
1002
{
1070
   271
1070
     0
1070
   144
1040
2.0
1002
}
  0
DIMENSION
  5
FD23
330
1F
100
AcDbEntity
  8
08非表示
100
AcDbDimension
  2
*D1249
 10
2267.020728804338
 20
531.25
 30
0.0
 11
2229.520728804338
 21
725.0
 31
0.0
 70
    32
 71
     5
 42
775.0
  3
NEMY-15
100
AcDbAlignedDimension
 13
2310.875845678362
 23
918.75
 33
0.0
 14
2310.875845678362
 24
531.25
 34
0.0
 50
90.0
100
AcDbRotatedDimension
1001
ACAD
1000
DSTYLE
1002
{
1070
   144
1040
2.0
1002
}
  0
DIMENSION
  5
FD24
330
1F
100
AcDbEntity
  8
08非表示
100
AcDbDimension
  2
*D1250
 10
2400.0
 20
626.542760954112
 30
0.0
 11
2000.0
 21
664.042760954112
 31
0.0
 70
    32
 71
     5
 42
1600.0
  3
NEMY-15
100
AcDbAlignedDimension
 13
1600.0
 23
618.1449726165329
 33
0.0
 14
2400.0
 24
612.5464470581469
 34
0.0
100
AcDbRotatedDimension
1001
ACAD
1000
DSTYLE
1002
{
1070
   144
1040
2.0
1002
}
  0
DIMENSION
  5
FD25
330
1F
100
AcDbEntity
  8
01注記寸法
100
AcDbDimension
  2
*D1251
 10
1889.089263908142
 20
550.5999999999995
 30
0.0
 11
1851.589263908142
 21
724.9999999999995
 31
0.0
 70
    32
 71
     5
 42
697.6000000000004
  3
NEMY-15
100
AcDbAlignedDimension
 13
2001.0
 23
899.3999999999996
 33
0.0
 14
2001.0
 24
550.5999999999995
 34
0.0
 50
90.0
100
AcDbRotatedDimension
1001
ACAD
1000
DSTYLE
1002
{
1070
   271
1070
     0
1070
   144
1040
2.0
1002
}
  0
TEXT
  5
FD6E
330
1F
100
AcDbEntity
  8
01注記寸法
100
AcDbText
 10
2917.582575341531
 20
400.0
 30
0.0
 40
45.0
  1
アンカーボルト孔
100
AcDbText
  0
TEXT
  5
FD6F
330
1F
100
AcDbEntity
  8
01注記寸法
100
AcDbText
 10
2917.582575341531
 20
325.0
 30
0.0
 40
45.0
  1
(6-φ16)
100
AcDbText
  0
LEADER
  5
FD70
330
1F
100
AcDbEntity
  8
01注記寸法
100
AcDbLeader
  3
NEMY-15
 76
     3
 10
2814.4
 20
510.3999999999996
 30
0.0
 10
2917.582575341531
 20
381.25
 30
0.0
 10
3397.582575341531
 20
381.25
 30
0.0
  0
LWPOLYLINE
  5
FD8C
330
1F
100
AcDbEntity
  8
08非表示
100
AcDbPolyline
 90
        4
 70
     1
 43
0.0
 10
2650.0
 20
381.25
 10
2650.0
 20
1068.75
 10
3750.0
 20
1068.75
 10
3750.0
 20
381.25
  0
DIMENSION
  5
FD8D
330
1F
100
AcDbEntity
  8
01注記寸法
100
AcDbDimension
  2
*D1252
 10
2650.0
 20
510.3999999999996
 30
0.0
 11
2612.5
 21
724.9999999999995
 31
0.0
 70
    32
 71
     5
 42
858.3999999999996
  3
NEMY-15
100
AcDbAlignedDimension
 13
2814.4
 23
939.5999999999995
 33
0.0
 14
2814.4
 24
510.3999999999996
 34
0.0
 50
90.0
100
AcDbRotatedDimension
1001
ACAD
1000
DSTYLE
1002
{
1070
   271
1070
     0
1070
   144
1040
2.0
1002
}
  0
DIMENSION
  5
FD8E
330
1F
100
AcDbEntity
  8
01注記寸法
100
AcDbDimension
  2
*D1253
 10
3201.0
 20
1068.75
 30
0.0
 11
3007.7
 21
1106.25
 31
0.0
 70
    32
 71
     5
 42
773.2000000000007
  3
NEMY-15
100
AcDbAlignedDimension
 13
2814.4
 23
939.5999999999995
 33
0.0
 14
3201.0
 24
938.0
 34
0.0
100
AcDbRotatedDimension
1001
ACAD
1000
DSTYLE
1002
{
1070
   271
1070
     0
1070
   144
1040
2.0
1002
}
  0
DIMENSION
  5
FD8F
330
1F
100
AcDbEntity
  8
01注記寸法
100
AcDbDimension
  2
*D1254
 10
3585.6
 20
1068.75
 30
0.0
 11
3393.3
 21
1106.25
 31
0.0
 70
    32
 71
     5
 42
769.2000000000007
  3
NEMY-15
100
AcDbAlignedDimension
 13
3201.0
 23
938.0
 33
0.0
 14
3585.6
 24
939.5999999999995
 34
0.0
100
AcDbRotatedDimension
1001
ACAD
1000
DSTYLE
1002
{
1070
   271
1070
     0
1070
   144
1040
2.0
1002
}
  0
DIMENSION
  5
FD90
330
1F
100
AcDbEntity
  8
08非表示
100
AcDbDimension
  2
*D1255
 10
3467.020728804338
 20
531.25
 30
0.0
 11
3429.520728804338
 21
725.0
 31
0.0
 70
    32
 71
     5
 42
775.0
  3
NEMY-15
100
AcDbAlignedDimension
 13
3510.875845678362
 23
918.75
 33
0.0
 14
3510.875845678362
 24
531.25
 34
0.0
 50
90.0
100
AcDbRotatedDimension
1001
ACAD
1000
DSTYLE
1002
{
1070
   144
1040
2.0
1002
}
  0
DIMENSION
  5
FD91
330
1F
100
AcDbEntity
  8
08非表示
100
AcDbDimension
  2
*D1256
 10
3600.0
 20
626.542760954112
 30
0.0
 11
3200.0
 21
664.042760954112
 31
0.0
 70
    32
 71
     5
 42
1600.0
  3
NEMY-15
100
AcDbAlignedDimension
 13
2800.0
 23
618.1449726165329
 33
0.0
 14
3600.0
 24
612.5464470581469
 34
0.0
100
AcDbRotatedDimension
1001
ACAD
1000
DSTYLE
1002
{
1070
   144
1040
2.0
1002
}
  0
DIMENSION
  5
FD92
330
1F
100
AcDbEntity
  8
01注記寸法
100
AcDbDimension
  2
*D1257
 10
3089.089263908142
 20
512.0
 30
0.0
 11
3051.589263908142
 21
725.0
 31
0.0
 70
    32
 71
     5
 42
852.0
  3
NEMY-15
100
AcDbAlignedDimension
 13
3201.0
 23
938.0
 33
0.0
 14
3201.0
 24
512.0
 34
0.0
 50
90.0
100
AcDbRotatedDimension
1001
ACAD
1000
DSTYLE
1002
{
1070
   271
1070
     0
1070
   144
1040
2.0
1002
}
  0
TEXT
  5
FDDB
330
1F
100
AcDbEntity
  8
01注記寸法
100
AcDbText
 10
4860.375000000004
 20
3972.204851391144
 30
0.0
 40
45.0
  1
1
 72
     4
 11
4875.000000000004
 21
3994.929851391144
 31
0.0
100
AcDbText
  0
LWPOLYLINE
  5
FDDC
330
1F
100
AcDbEntity
  8
01注記寸法
100
AcDbPolyline
 90
        4
 70
     0
 43
0.0
 10
4875.000000000004
 20
4036.150186134337
 10
4835.364796555424
 20
3967.5
 10
4914.635203444576
 20
3967.5
 10
4875.000000000004
 20
4036.150186134337
  0
TEXT
  5
FE29
330
1F
100
AcDbEntity
  8
01注記寸法
100
AcDbText
 10
5842.875
 20
2547.2055
 30
0.0
 40
45.0
  1
2
 72
     4
 11
5857.5
 21
2569.9305
 31
0.0
100
AcDbText
  0
LWPOLYLINE
  5
FE2A
330
1F
100
AcDbEntity
  8
01注記寸法
100
AcDbPolyline
 90
        4
 70
     0
 43
0.0
 10
5857.500000000004
 20
2611.150186134337
 10
5817.864796555424
 20
2542.5
 10
5897.135203444576
 20
2542.5
 10
5857.500000000004
 20
2611.150186134337
  0
TEXT
  5
FE84
330
1F
100
AcDbEntity
  8
01注記寸法
100
AcDbText
 10
4818.375
 20
-232.4998430661597
 30
0.0
 40
45.0
  1
'yy.mm.dd
 72
     1
 11
4950.0
 21
-209.9998430661597
 31
0.0
100
AcDbText
 73
     2
  0
TEXT
  5
FE85
330
1F
100
AcDbEntity
  8
01注記寸法
100
AcDbText
 10
5057.25
 20
562.5
 30
0.0
 40
45.0
  1
発行日
 72
     1
 11
5145.0
 21
585.0
 31
0.0
100
AcDbText
 73
     2
  0
TEXT
  5
FE86
330
1F
100
AcDbEntity
  8
08非表示
100
AcDbText
 10
5118.375
 20
652.50015
 30
0.0
 40
45.0
  1
'yy.mm.dd
 72
     1
 11
5250.0
 21
675.00015
 31
0.0
100
AcDbText
 73
     2
  0
TEXT
  5
FE87
330
1F
100
AcDbEntity
  8
08非表示
100
AcDbText
 10
5118.375
 20
742.50015
 30
0.0
 40
45.0
  1
'yy.mm.dd
 72
     1
 11
5250.0
 21
765.00015
 31
0.0
100
AcDbText
 73
     2
  0
TEXT
  5
FE88
330
1F
100
AcDbEntity
  8
01注記寸法
100
AcDbText
 10
5118.375
 20
832.50015
 30
0.0
 40
45.0
  1
'17.05.26
 72
     1
 11
5250.0
 21
855.00015
 31
0.0
100
AcDbText
 73
     2
  0
TEXT
  5
FE89
330
1F
100
AcDbEntity
  8
01注記寸法
100
AcDbText
 10
5541.0
 20
832.500113123142
 30
0.0
 40
45.0
  1
適用防振架台追加
 72
     1
 11
5775.0
 21
855.000113123142
 31
0.0
100
AcDbText
 73
     2
  0
TEXT
  5
FE8A
330
1F
100
AcDbEntity
  8
01注記寸法
100
AcDbText
 10
6391.5
 20
832.5
 30
0.0
 40
45.0
  1
内野
 72
     1
 11
6450.0
 21
855.0
 31
0.0
100
AcDbText
 73
     2
  0
TEXT
  5
FE8B
330
1F
100
AcDbEntity
  8
01注記寸法
100
AcDbText
 10
6558.0
 20
832.500113123142
 30
0.0
 40
45.0
  1
T1705014
 72
     1
 11
6675.0
 21
855.000113123142
 31
0.0
100
AcDbText
 73
     2
  0
LWPOLYLINE
  5
FEC0
330
1F
100
AcDbEntity
  8
09図枠
100
AcDbPolyline
 90
        4
 70
     1
 43
0.0
 10
4200.0
 20
3735.0
 10
4200.0
 20
3825.0
 10
4950.0
 20
3825.0
 10
4950.0
 20
3735.0
  0
TEXT
  5
FEC1
330
1F
100
AcDbEntity
  8
01注記寸法
100
AcDbText
 10
4232.775
 20
3757.5
 30
0.0
 40
45.0
  1
１－ＨＴＢ５１８（＃Ｅ２）
 41
0.9
 72
     1
 11
4575.0
 21
3780.0
 31
0.0
100
AcDbText
 73
     2
  0
LWPOLYLINE
  5
FEC2
330
1F
100
AcDbEntity
  8
09図枠
100
AcDbPolyline
 90
        4
 70
     1
 43
0.0
 10
4200.0
 20
3645.0
 10
4200.0
 20
3735.0
 10
4950.0
 20
3735.0
 10
4950.0
 20
3645.0
  0
TEXT
  5
FEC3
330
1F
100
AcDbEntity
  8
01注記寸法
100
AcDbText
 10
4232.775
 20
3667.5
 30
0.0
 40
45.0
  1
１－ＨＴＰ３４６（＃Ｅ２）
 41
0.9
 72
     1
 11
4575.0
 21
3690.0
 31
0.0
100
AcDbText
 73
     2
  0
TEXT
  5
FEC4
330
1F
100
AcDbEntity
  8
01注記寸法
100
AcDbText
 10
4110.375
 20
3657.2055
 30
0.0
 40
45.0
  1
3
 72
     4
 11
4125.0
 21
3679.9305
 31
0.0
100
AcDbText
  0
LWPOLYLINE
  5
FEC5
330
1F
100
AcDbEntity
  8
01注記寸法
100
AcDbPolyline
 90
        4
 70
     0
 43
0.0
 10
4125.000000000004
 20
3721.150186134337
 10
4085.364796555424
 20
3652.5
 10
4164.635203444576
 20
3652.5
 10
4125.000000000004
 20
3721.150186134337
  0
VIEWPORT
  5
9F0D
330
1B
100
AcDbEntity
 67
     1
  8
0
100
AcDbViewport
 10
202.5
 20
128.5
 30
0.0
 40
486.0
 41
308.4
 68
     1
 69
     1
 12
202.5
 22
128.5
 13
0.0
 23
0.0
 14
0.5
 24
0.5
 15
0.0
 25
0.0
 16
0.0
 26
0.0
 36
1.0
 17
0.0
 27
0.0
 37
0.0
 42
50.0
 43
0.0
 44
0.0
 45
308.4
 50
0.0
 51
0.0
 72
   100
 90
   557152
  1

281
     0
 71
     1
 74
     0
110
0.0
120
0.0
130
0.0
111
1.0
121
0.0
131
0.0
112
0.0
122
1.0
132
0.0
 79
     0
146
0.0
  0
VIEWPORT
  5
9F0E
330
1B
100
AcDbEntity
 67
     1
  8
0
100
AcDbViewport
 10
202.5
 20
128.5
 30
0.0
 40
324.0
 41
205.6
 68
     2
 69
     2
 12
-3224.9849078482
 22
3553.815758143106
 13
0.0
 23
0.0
 14
0.5
 24
0.5
 15
0.0
 25
0.0
 16
0.0
 26
0.0
 36
1.0
 17
0.0
 27
0.0
 37
0.0
 42
50.0
 43
0.0
 44
0.0
 45
10712.16027781073
 50
0.0
 51
0.0
 72
   100
 90
   557152
  1

281
     0
 71
     1
 74
     0
110
0.0
120
0.0
130
0.0
111
1.0
121
0.0
131
0.0
112
0.0
122
1.0
132
0.0
 79
     0
146
0.0
  0
ENDSEC
  0
SECTION
  2
OBJECTS
  0
DICTIONARY
  5
C
330
0
100
AcDbDictionary
281
     1
  3
ACAD_DETAILVIEWSTYLE
350
FB3F
  3
ACAD_GROUP
350
D
  3
ACAD_IMAGE_VARS
350
6A88
  3
ACAD_LAYOUT
350
1A
  3
ACAD_MLINESTYLE
350
17
  3
ACAD_PLOTSETTINGS
350
19
  3
ACAD_PLOTSTYLENAME
350
E
  3
ACAD_SCALELIST
350
6A4E
  3
ACAD_SECTIONVIEWSTYLE
350
FB40
  3
AcadDim
350
C4B1
  3
AcDbVariableDictionary
350
79E
  3
APPDATA
350
6A87
  3
DWGPROPS
350
FEFA
  0
DICTIONARY
  5
7A6F
330
2
100
AcDbDictionary
280
     1
281
     1
  3
ACAD_LAYERSTATES
360
7A70
  3
ACLYDICTIONARY
360
FE07
  0
DICTIONARY
  5
969E
330
1F
100
AcDbDictionary
280
     1
281
     1
  3
ACAD_SORTENTS
360
969F
  0
DICTIONARY
  5
FB3F
102
{ACAD_REACTORS
330
C
102
}
330
C
100
AcDbDictionary
281
     1
  0
DICTIONARY
  5
D
102
{ACAD_REACTORS
330
C
102
}
330
C
100
AcDbDictionary
281
     1
  3
*A1
350
A792
  3
*A10
350
D818
  3
*A2
350
A7AC
  3
*A3
350
A8C6
  3
*A4
350
BF41
  3
*A5
350
D6EC
  3
*A6
350
D6ED
  3
*A7
350
D6EE
  3
*A8
350
D6EF
  3
*A9
350
D6F0
  0
RASTERVARIABLES
  5
6A88
102
{ACAD_REACTORS
330
C
102
}
330
C
100
AcDbRasterVariables
 90
        0
 70
     1
 71
     1
 72
     1
  0
DICTIONARY
  5
1A
102
{ACAD_REACTORS
330
C
102
}
330
C
100
AcDbDictionary
281
     1
  3
Layout1
350
1E
  3
Model
350
22
  0
DICTIONARY
  5
17
102
{ACAD_REACTORS
330
C
102
}
330
C
100
AcDbDictionary
281
     1
  3
Standard
350
18
  0
DICTIONARY
  5
19
102
{ACAD_REACTORS
330
C
102
}
330
C
100
AcDbDictionary
281
     1
  0
ACDBDICTIONARYWDFLT
  5
E
102
{ACAD_REACTORS
330
C
102
}
330
C
100
AcDbDictionary
281
     1
  3
Normal
350
F
100
AcDbDictionaryWithDefault
340
F
  0
DICTIONARY
  5
6A4E
102
{ACAD_REACTORS
330
C
102
}
330
C
100
AcDbDictionary
281
     1
  3
A0
350
6A4F
  3
A1
350
6A50
  3
A2
350
6A51
  3
A3
350
6A52
  3
A4
350
6A53
  3
A5
350
6A54
  3
A6
350
6A55
  3
A7
350
6A56
  3
A8
350
6A57
  3
A9
350
6A58
  3
B0
350
6A59
  3
B1
350
6A5A
  3
B2
350
6A5B
  3
B3
350
6A5C
  3
B4
350
6A5D
  3
B5
350
6A5E
  3
B6
350
6A5F
  3
B7
350
6A60
  3
B8
350
6A61
  3
B9
350
6A62
  3
C0
350
6A63
  3
C1
350
6A64
  3
C2
350
6A65
  3
C3
350
6A66
  3
C4
350
6A67
  3
C5
350
6A68
  3
C6
350
6A69
  3
C7
350
6A6A
  3
C8
350
6A6B
  3
C9
350
6A6C
  3
D0
350
6A6D
  3
D1
350
6A6E
  3
D2
350
6A6F
  0
DICTIONARY
  5
FB40
102
{ACAD_REACTORS
330
C
102
}
330
C
100
AcDbDictionary
281
     1
  0
XRECORD
  5
C4B1
102
{ACAD_REACTORS
330
C
102
}
330
C
100
AcDbXrecord
280
     1
340
0
 72
     0
 71
     0
 70
     0
 69
     0
 68
     1
 67
     3
 66
     0
 65
     0
 64
     0
 63
     3
 62
     1
 61
     0
 60
     0
 40
0.0
  0
DICTIONARY
  5
79E
102
{ACAD_REACTORS
330
C
102
}
330
C
100
AcDbDictionary
281
     1
  3
DIMASSOC
350
79F
  3
SORTENTS
350
264F
  0
DICTIONARY
  5
6A87
102
{ACAD_REACTORS
330
C
102
}
330
C
100
AcDbDictionary
281
     1
  0
XRECORD
  5
FEFA
102
{ACAD_REACTORS
330
C
102
}
330
C
100
AcDbXrecord
280
     1
  1
DWGPROPS COOKIE
  2

  3

  4

  6

  7

  8
Sales
  9

300
=
301
=
302
=
303
=
304
=
305
=
306
=
307
=
308
=
309
=
 40
0.0
 41
2455859.030048461
 42
2459010.02885419
  1

 90
        0
  0
DICTIONARY
  5
7A70
102
{ACAD_REACTORS
330
7A6F
102
}
330
7A6F
100
AcDbDictionary
281
     1
  0
DICTIONARY
  5
FE07
102
{ACAD_REACTORS
330
7A6F
102
}
330
7A6F
100
AcDbDictionary
281
     1
1001
ACAD
1000
<All
  0
SORTENTSTABLE
  5
969F
102
{ACAD_REACTORS
330
969E
102
}
330
969E
100
AcDbSortentsTable
330
1F
331
0
  5
7ECC
331
7E6F
  5
7E90
331
7E74
  5
7E94
331
7E7B
  5
7EA4
331
7E88
  5
7EAB
331
7E89
  5
7EAC
331
7E8A
  5
7EAD
331
7E8B
  5
7EAE
331
7E8C
  5
7EAF
331
7E8D
  5
7EB0
331
7E8F
  5
7EB1
331
7E90
  5
7EB2
331
7E94
  5
7EB3
331
7E95
  5
7EB4
331
7E97
  5
7EB5
331
7E98
  5
7EB6
331
7EA4
  5
7EB9
331
7EA5
  5
7EBA
331
7EA6
  5
7EBB
331
7EA7
  5
7EBC
331
7EB6
  5
7ECB
331
7EB9
  5
7E6F
331
7EBF
  5
7E76
331
7EC0
  5
7E78
331
7EC1
  5
7E79
331
7EC2
  5
7E7B
331
7EC3
  5
7E7C
331
7EC4
  5
7E7D
331
7EC5
  5
7E7E
331
7EC6
  5
7ED0
331
7EC7
  5
7ED1
331
7EC8
  5
7ED2
331
7EC9
  5
7ED4
331
7ECA
  5
7ED5
331
7ECB
  5
7ED6
331
7ECC
  5
7ED7
331
7ECD
  5
7EDB
331
7ECE
  5
7EDC
331
7ECF
  5
7EDD
331
7ED0
  5
7EDE
331
7ED1
  5
7EDF
331
7ED2
  5
7EE0
331
7ED4
  5
7EE2
331
7ED5
  5
7EE3
331
7ED6
  5
7EE4
331
7EDA
  5
7EE8
331
7EDB
  5
7EE9
331
7EDC
  5
7EEA
331
7EDD
  5
7EEB
331
7EDE
  5
7EED
331
7EDF
  5
7EEE
331
7EE0
  5
7EEF
331
7EE2
  5
7EF3
331
7EE3
  5
7EF4
331
7EE7
  5
7EF5
331
7EE8
  5
7EF6
331
7EE9
  5
7EF8
331
7EEA
  5
7EF9
331
7EEE
  5
7EFF
331
7EF2
  5
7F00
331
7EF3
  5
7F01
331
7EF4
  5
7F03
331
7EF5
  5
7F04
331
7EF6
  5
7F05
331
7EF8
  5
7F09
331
7EF9
  5
7F0A
331
7EFD
  5
7F0B
331
7EFE
  5
7F0C
331
7EFF
  5
7F0D
331
7F00
  5
7F12
331
7F01
  5
7F13
331
7F03
  5
7F16
331
7F04
  5
7F17
331
7F08
  5
7F1C
331
7F09
  5
7F1E
331
7F0A
  5
7F47
331
7F0B
  5
7F49
331
7F0C
  5
7F4A
331
7F0D
  5
7F4B
331
7F12
  5
7F4C
331
7F13
  5
7F4D
331
7F19
  5
7F4E
331
7F1B
  5
7F50
331
7F1C
  5
7F51
331
7F47
  5
7F52
331
7F48
  5
7F53
331
7F49
  5
7F54
331
7F4A
  5
7F55
331
7F4B
  5
7F56
331
7F4C
  5
7F57
331
7F4E
  5
7F58
331
7F4F
  5
7F59
331
7F50
  5
7F5A
331
7F51
  5
7F5C
331
7F52
  5
7F8F
331
7F53
  5
7F90
331
7F54
  5
7F91
331
7F55
  5
7F92
331
7F56
  5
7F93
331
7F57
  5
7F94
331
7F59
  5
7F96
331
7F8D
  5
7F97
331
7F8E
  5
7F98
331
7F8F
  5
7FC2
331
7F90
  5
7FC3
331
7F91
  5
7FCA
331
7F92
  5
7FCB
331
7F94
  5
7FDF
331
7F95
  5
8081
331
7F96
  5
8082
331
7F97
  5
8083
331
7F98
  5
8084
331
7FC3
  5
8192
331
7FC9
  5
8193
331
7FCA
  5
8194
331
7FCB
  5
8195
331
807F
  5
8196
331
8080
  5
8197
331
8081
  5
8198
331
8082
  5
819A
331
818F
  5
819C
331
8191
  5
819D
331
8192
  5
819F
331
8193
  5
81A1
331
8194
  5
81A4
331
8195
  5
81A5
331
8196
  5
81A6
331
8197
  5
81A7
331
8199
  5
81AA
331
819A
  5
81AB
331
819C
  5
81AC
331
819D
  5
81AD
331
819F
  5
81AE
331
81A1
  5
81AF
331
81A4
  5
81B0
331
81A5
  5
81B1
331
81A6
  5
81B2
331
81A7
  5
81BA
331
81AA
  5
81BB
331
81AB
  5
81BD
331
81AC
  5
81BE
331
81AD
  5
81BF
331
81AE
  5
81C0
331
81AF
  5
81C1
331
81B0
  5
81C2
331
81B1
  5
81C3
331
81B2
  5
81C4
331
81BB
  5
81C5
331
81BC
  5
81C6
331
81BD
  5
81C7
331
81BE
  5
81C8
331
81BF
  5
81CA
331
81C0
  5
81CB
331
81C1
  5
81E8
331
81C2
  5
81F8
331
81C3
  5
821A
331
81C4
  5
821C
331
81C5
  5
86AE
331
81C6
  5
86AF
331
81C7
  5
86B0
331
81C8
  5
86B1
331
81CD
  5
86B2
331
81E7
  5
86B3
331
81E8
  5
86B4
331
81F8
  5
86B5
331
86AE
  5
86B8
331
86AF
  5
86B9
331
86B0
  5
86C4
331
86B1
  5
86C5
331
86B2
  5
86F1
331
86B3
  5
86F2
331
86B4
  5
86F3
331
86F1
  5
8864
331
86F2
  5
8865
331
86F3
  5
8867
331
86FD
  5
8869
331
885B
  5
886E
331
8864
  5
8879
331
8865
  5
887A
331
8867
  5
887B
331
8869
  5
887C
331
886D
  5
896C
331
886E
  5
896D
331
886F
  5
896E
331
8C2C
  5
8C5E
331
8C2E
  5
8C5F
331
8C2F
  5
8C61
331
8C30
  5
8C63
331
8C31
  5
8E22
331
969D
  5
7E8F
331
96A0
  5
9719
331
96A1
  5
971A
331
96A2
  5
971B
331
96A3
  5
971C
331
9A59
  5
9A64
331
9A5A
  5
9A65
331
9A5B
  5
9A69
331
9A5C
  5
9A6A
331
9A60
  5
9A6B
331
9A61
  5
9A6C
331
9A62
  5
9A6D
331
9A63
  5
9A6E
331
9A64
  5
9A6F
331
9A65
  5
9A71
331
9A69
  5
9A72
331
9A6A
  5
9A73
331
9A6B
  5
9A75
331
9A6C
  5
9A76
331
9A6D
  5
9A77
331
9A6E
  5
9A78
331
9A6F
  5
9A7A
331
9A71
  5
9A7C
331
9A72
  5
9A7D
331
9A73
  5
9A7E
331
9A75
  5
9A7F
331
9A76
  5
9A80
331
9A77
  5
9A81
331
9A78
  5
9A82
331
9A7A
  5
9A83
331
9A7C
  5
9A84
331
9A7D
  5
9A85
331
9A7E
  5
9A86
331
9A7F
  5
9A87
331
9A80
  5
9A88
331
9A81
  5
9A89
331
9A82
  5
9A8A
331
9A83
  5
9A8B
331
9A84
  5
9A8C
331
9A85
  5
9A8D
331
9A86
  5
9A8E
331
9A87
  5
9A8F
331
9A88
  5
9A90
331
9A89
  5
9A91
331
9A8A
  5
9A92
331
9A8B
  5
9A93
331
9A8C
  5
9A94
331
9A8D
  5
9A95
331
9A8E
  5
9A96
331
9A8F
  5
9A97
331
9A90
  5
9A98
331
9A91
  5
9A99
331
9A92
  5
9A9A
331
9A93
  5
9A9B
331
9A94
  5
9A9C
331
9A9C
  5
9AA4
331
9A9D
  5
9AA5
331
9A9E
  5
9AA6
331
9A9F
  5
9AA7
331
9AA0
  5
9AA8
331
9AA1
  5
9AAB
331
9AA2
  5
9AAC
331
9AA3
  5
9AAD
331
9AA4
  5
9AAE
331
9AA5
  5
9AAF
331
9AA6
  5
9AB0
331
9AA7
  5
9AB1
331
9AA8
  5
9AB2
331
9AAB
  5
9AB3
331
9AAC
  5
9AB4
331
9AAD
  5
9AB5
331
9AAE
  5
9AB6
331
9AAF
  5
9AB7
331
9AB0
  5
9AB8
331
9AB1
  5
9AB9
331
9AB2
  5
9ABA
331
9AB3
  5
9ABB
331
9AB4
  5
9ABC
331
9AB5
  5
9AD7
331
9AB6
  5
9AD8
331
9AB7
  5
9AD9
331
9AB8
  5
9ADA
331
9AB9
  5
9ADB
331
9ABA
  5
9ADC
331
9ABB
  5
9ADD
331
9ABC
  5
9ADE
331
A00E
  5
A028
331
A162
  5
A40B
331
A163
  5
A40C
331
A3F3
  5
A40F
331
A54C
  5
A559
331
A54E
  5
A55A
331
A54F
  5
A55B
331
A558
  5
A570
331
A559
  5
A571
331
A586
  5
A58E
331
A587
  5
A58F
331
A588
  5
A590
331
A589
  5
A591
331
A58A
  5
A592
331
A58B
  5
A595
331
A58C
  5
A596
331
A58D
  5
A597
331
A58E
  5
A598
331
A58F
  5
A599
331
A590
  5
A59A
331
A591
  5
A59D
331
A592
  5
A59E
331
A599
  5
A5AA
331
A59A
  5
A5AB
331
A5D2
  5
A65A
331
A5D4
  5
A663
331
A670
  5
A75C
331
A77F
  5
A787
331
A780
  5
A788
331
A781
  5
A789
331
A782
  5
A78A
331
A783
  5
A78B
331
A784
  5
A78C
331
A785
  5
A78D
331
A786
  5
A78E
331
A787
  5
A78F
331
A788
  5
A790
331
A789
  5
A791
331
A78A
  5
A793
331
A78B
  5
A794
331
A78C
  5
A795
331
A78D
  5
A796
331
A78E
  5
A797
331
A78F
  5
A798
331
A790
  5
A799
331
A791
  5
A79A
331
A793
  5
A79B
331
A794
  5
A79C
331
A795
  5
A79D
331
A796
  5
A79E
331
A797
  5
A79F
331
A798
  5
A7A0
331
A799
  5
A7A1
331
A79A
  5
A7A2
331
A79B
  5
A7A3
331
A79C
  5
A7A4
331
A79D
  5
A7A5
331
A79E
  5
A7A6
331
A79F
  5
A7A7
331
A7A0
  5
A7A8
331
A7A1
  5
A7A9
331
A7A2
  5
A7AA
331
A7A3
  5
A7AB
331
A7A4
  5
A7B1
331
A7A5
  5
A7B2
331
A7A6
  5
A7B3
331
A7A7
  5
A7B4
331
A7A8
  5
A7B5
331
A7A9
  5
A7B6
331
A7AA
  5
A7B7
331
A7AB
  5
A7B8
331
A843
  5
A84C
331
A845
  5
A84D
331
A846
  5
A84E
331
A847
  5
A84F
331
A848
  5
A850
331
A849
  5
A851
331
A85D
  5
A865
331
A85E
  5
A867
331
A8B3
  5
A8BD
331
A8B4
  5
A8BE
331
A8B5
  5
A8BF
331
A8B6
  5
A8C0
331
A8B7
  5
A8C1
331
A8B8
  5
A8C2
331
A948
  5
A9BF
331
A94D
  5
A9C1
331
A94E
  5
A9C2
331
A972
  5
A9C3
331
A974
  5
A9E5
331
A975
  5
A9E7
331
A9E7
  5
AA27
331
A9E8
  5
AA28
331
B716
  5
B87A
331
B719
  5
B87B
331
B71A
  5
B87C
331
B71B
  5
B87D
331
B71D
  5
B87E
331
BD0F
  5
BD9E
331
BD27
  5
BDAB
331
BD36
  5
BDB8
331
BD44
  5
BDC5
331
BD64
  5
BDC6
331
BD74
  5
BDCF
331
BD84
  5
BDF9
331
BD91
  5
BDFA
331
BD9E
  5
BDFB
331
BDAB
  5
BDFC
331
BDB8
  5
BDFD
331
BDCF
  5
BE00
331
BF3F
  5
BF94
331
BF40
  5
BF95
331
BF9B
  5
BFA7
331
BF9C
  5
BFA8
331
BF9D
  5
BFA9
331
BFA7
  5
BFB0
331
BFA8
  5
BFB1
331
C04C
  5
C06F
331
C04D
  5
C070
331
C4B5
  5
C4BD
331
C4B7
  5
C4C1
331
D023
  5
D033
331
D024
  5
D035
331
D025
  5
D039
331
D026
  5
D061
331
D027
  5
D062
331
D028
  5
D063
331
D029
  5
D064
331
D02A
  5
D065
331
D0BA
  5
D0C2
331
D0BB
  5
D0C3
331
D5F5
  5
D5FD
331
D62C
  5
D635
331
D62E
  5
7E7F
331
D62F
  5
7E84
331
D630
  5
7E85
331
D631
  5
7E86
331
D632
  5
7E87
331
D633
  5
7E8A
331
D634
  5
7E8B
331
D635
  5
7E8C
  0
GROUP
  5
A792
102
{ACAD_REACTORS
330
D
102
}
330
D
100
AcDbGroup
300

 70
     1
 71
     1
340
A77F
340
A780
340
A781
340
A782
340
A783
340
A784
340
A785
340
A786
340
A787
340
A788
340
A789
340
A78A
340
A78B
340
A78C
340
A78D
340
A78E
340
A78F
340
A790
340
A791
  0
GROUP
  5
D818
102
{ACAD_REACTORS
330
D
102
}
330
D
100
AcDbGroup
300

 70
     1
 71
     1
340
D814
340
D815
340
D816
340
D817
  0
GROUP
  5
A7AC
102
{ACAD_REACTORS
330
D
102
}
330
D
100
AcDbGroup
300

 70
     1
 71
     1
340
A793
340
A794
340
A795
340
A796
340
A797
340
A798
340
A799
340
A79A
340
A79B
340
A79C
340
A79D
340
A79E
340
A79F
340
A7A0
340
A7A1
340
A7A2
340
A7A3
340
A7A4
340
A7A5
340
A7A6
340
A7A7
340
A7A8
340
A7A9
340
A7AA
340
A7AB
  0
GROUP
  5
A8C6
102
{ACAD_REACTORS
330
D
102
}
330
D
100
AcDbGroup
300

 70
     1
 71
     1
340
A586
340
A587
340
A588
340
A589
340
A58A
340
A58B
340
A58C
340
A58D
340
A58E
340
A58F
340
A590
  0
GROUP
  5
BF41
102
{ACAD_REACTORS
330
D
102
}
330
D
100
AcDbGroup
300

 70
     1
 71
     1
340
BF3F
340
BF40
  0
GROUP
  5
D6EC
102
{ACAD_REACTORS
330
D
102
}
330
D
100
AcDbGroup
300

 70
     1
 71
     1
  0
GROUP
  5
D6ED
102
{ACAD_REACTORS
330
D
102
}
330
D
100
AcDbGroup
300

 70
     1
 71
     1
  0
GROUP
  5
D6EE
102
{ACAD_REACTORS
330
D
102
}
330
D
100
AcDbGroup
300

 70
     1
 71
     1
  0
GROUP
  5
D6EF
102
{ACAD_REACTORS
330
D
102
}
330
D
100
AcDbGroup
300

 70
     1
 71
     1
  0
GROUP
  5
D6F0
102
{ACAD_REACTORS
330
D
102
}
330
D
100
AcDbGroup
300

 70
     1
 71
     1
  0
LAYOUT
  5
1E
102
{ACAD_REACTORS
330
1A
102
}
330
1A
100
AcDbPlotSettings
  1

  2
none_device
  4
ISO_A3_(420.00_x_297.00_MM)
  6

 40
7.5
 41
20.0
 42
7.5
 43
20.0
 44
420.0
 45
297.0
 46
0.0
 47
0.0
 48
0.0
 49
0.0
140
0.0
141
0.0
142
1.0
143
1.0
 70
   688
 72
     1
 73
     0
 74
     5
  7

 75
    16
147
1.0
148
0.0
149
0.0
100
AcDbLayout
  1
Layout1
 70
     1
 71
     1
 10
0.0
 20
0.0
 11
412.5
 21
277.0
 12
0.0
 22
0.0
 32
0.0
 14
1.000000000000000E+20
 24
1.000000000000000E+20
 34
1.000000000000000E+20
 15
-1.000000000000000E+20
 25
-1.000000000000000E+20
 35
-1.000000000000000E+20
146
0.0
 13
0.0
 23
0.0
 33
0.0
 16
1.0
 26
0.0
 36
0.0
 17
0.0
 27
1.0
 37
0.0
 76
     0
330
1B
331
9F0D
  0
LAYOUT
  5
22
102
{ACAD_REACTORS
330
1A
102
}
330
1A
100
AcDbPlotSettings
  1

  2
none_device
  4
A3
  6

 40
3.174999952316284
 41
3.174999952316284
 42
3.17498779296875
 43
3.17498779296875
 44
297.0318298339844
 45
420.1583251953125
 46
-3.16
 47
-3.1
 48
-90.0
 49
-90.0
140
329.9999999999998
141
207.0
142
1.0
143
1.0
 70
 11940
 72
     1
 73
     1
 74
     4
  7
monochrome.ctb
 75
     0
147
1.0
148
90.0
149
90.0
100
AcDbLayout
  1
Model
 70
     1
 71
     0
 10
0.0
 20
0.0
 11
6300.0
 21
4455.0
 12
0.0
 22
0.0
 32
0.0
 14
0.0
 24
-255.0
 34
0.0
 15
6900.0
 25
4455.0
 35
0.0
146
0.0
 13
0.0
 23
0.0
 33
0.0
 16
1.0
 26
0.0
 36
0.0
 17
0.0
 27
1.0
 37
0.0
 76
     0
330
1F
331
7A57
  0
MLINESTYLE
  5
18
102
{ACAD_REACTORS
330
17
102
}
330
17
100
AcDbMlineStyle
  2
STANDARD
 70
     0
  3

 62
   256
 51
90.0
 52
90.0
 71
     2
 49
0.5
 62
   256
  6
BYLAYER
 49
-0.5
 62
   256
  6
BYLAYER
  0
ACDBPLACEHOLDER
  5
F
102
{ACAD_REACTORS
330
E
102
}
330
E
  0
SCALE
  5
6A4F
102
{ACAD_REACTORS
330
6A4E
102
}
330
6A4E
100
AcDbScale
 70
     0
300
1:1
140
1.0
141
1.0
290
     1
  0
SCALE
  5
6A50
102
{ACAD_REACTORS
330
6A4E
102
}
330
6A4E
100
AcDbScale
 70
     0
300
1:2
140
1.0
141
2.0
290
     0
  0
SCALE
  5
6A51
102
{ACAD_REACTORS
330
6A4E
102
}
330
6A4E
100
AcDbScale
 70
     0
300
1:4
140
1.0
141
4.0
290
     0
  0
SCALE
  5
6A52
102
{ACAD_REACTORS
330
6A4E
102
}
330
6A4E
100
AcDbScale
 70
     0
300
1:5
140
1.0
141
5.0
290
     0
  0
SCALE
  5
6A53
102
{ACAD_REACTORS
330
6A4E
102
}
330
6A4E
100
AcDbScale
 70
     0
300
1:8
140
1.0
141
8.0
290
     0
  0
SCALE
  5
6A54
102
{ACAD_REACTORS
330
6A4E
102
}
330
6A4E
100
AcDbScale
 70
     0
300
1:10
140
1.0
141
10.0
290
     0
  0
SCALE
  5
6A55
102
{ACAD_REACTORS
330
6A4E
102
}
330
6A4E
100
AcDbScale
 70
     0
300
1:16
140
1.0
141
16.0
290
     0
  0
SCALE
  5
6A56
102
{ACAD_REACTORS
330
6A4E
102
}
330
6A4E
100
AcDbScale
 70
     0
300
1:20
140
1.0
141
20.0
290
     0
  0
SCALE
  5
6A57
102
{ACAD_REACTORS
330
6A4E
102
}
330
6A4E
100
AcDbScale
 70
     0
300
1:30
140
1.0
141
30.0
290
     0
  0
SCALE
  5
6A58
102
{ACAD_REACTORS
330
6A4E
102
}
330
6A4E
100
AcDbScale
 70
     0
300
1:40
140
1.0
141
40.0
290
     0
  0
SCALE
  5
6A59
102
{ACAD_REACTORS
330
6A4E
102
}
330
6A4E
100
AcDbScale
 70
     0
300
1:50
140
1.0
141
50.0
290
     0
  0
SCALE
  5
6A5A
102
{ACAD_REACTORS
330
6A4E
102
}
330
6A4E
100
AcDbScale
 70
     0
300
1:100
140
1.0
141
100.0
290
     0
  0
SCALE
  5
6A5B
102
{ACAD_REACTORS
330
6A4E
102
}
330
6A4E
100
AcDbScale
 70
     0
300
2:1
140
2.0
141
1.0
290
     0
  0
SCALE
  5
6A5C
102
{ACAD_REACTORS
330
6A4E
102
}
330
6A4E
100
AcDbScale
 70
     0
300
4:1
140
4.0
141
1.0
290
     0
  0
SCALE
  5
6A5D
102
{ACAD_REACTORS
330
6A4E
102
}
330
6A4E
100
AcDbScale
 70
     0
300
8:1
140
8.0
141
1.0
290
     0
  0
SCALE
  5
6A5E
102
{ACAD_REACTORS
330
6A4E
102
}
330
6A4E
100
AcDbScale
 70
     0
300
10:1
140
10.0
141
1.0
290
     0
  0
SCALE
  5
6A5F
102
{ACAD_REACTORS
330
6A4E
102
}
330
6A4E
100
AcDbScale
 70
     0
300
100:1
140
100.0
141
1.0
290
     0
  0
SCALE
  5
6A60
102
{ACAD_REACTORS
330
6A4E
102
}
330
6A4E
100
AcDbScale
 70
     0
300
1/128" = 1'-0"
140
0.0078125
141
12.0
290
     0
  0
SCALE
  5
6A61
102
{ACAD_REACTORS
330
6A4E
102
}
330
6A4E
100
AcDbScale
 70
     0
300
1/64" = 1'-0"
140
0.015625
141
12.0
290
     0
  0
SCALE
  5
6A62
102
{ACAD_REACTORS
330
6A4E
102
}
330
6A4E
100
AcDbScale
 70
     0
300
1/32" = 1'-0"
140
0.03125
141
12.0
290
     0
  0
SCALE
  5
6A63
102
{ACAD_REACTORS
330
6A4E
102
}
330
6A4E
100
AcDbScale
 70
     0
300
1/16" = 1'-0"
140
0.0625
141
12.0
290
     0
  0
SCALE
  5
6A64
102
{ACAD_REACTORS
330
6A4E
102
}
330
6A4E
100
AcDbScale
 70
     0
300
3/32" = 1'-0"
140
0.09375
141
12.0
290
     0
  0
SCALE
  5
6A65
102
{ACAD_REACTORS
330
6A4E
102
}
330
6A4E
100
AcDbScale
 70
     0
300
1/8" = 1'-0"
140
0.125
141
12.0
290
     0
  0
SCALE
  5
6A66
102
{ACAD_REACTORS
330
6A4E
102
}
330
6A4E
100
AcDbScale
 70
     0
300
3/16" = 1'-0"
140
0.1875
141
12.0
290
     0
  0
SCALE
  5
6A67
102
{ACAD_REACTORS
330
6A4E
102
}
330
6A4E
100
AcDbScale
 70
     0
300
1/4" = 1'-0"
140
0.25
141
12.0
290
     0
  0
SCALE
  5
6A68
102
{ACAD_REACTORS
330
6A4E
102
}
330
6A4E
100
AcDbScale
 70
     0
300
3/8" = 1'-0"
140
0.375
141
12.0
290
     0
  0
SCALE
  5
6A69
102
{ACAD_REACTORS
330
6A4E
102
}
330
6A4E
100
AcDbScale
 70
     0
300
1/2" = 1'-0"
140
0.5
141
12.0
290
     0
  0
SCALE
  5
6A6A
102
{ACAD_REACTORS
330
6A4E
102
}
330
6A4E
100
AcDbScale
 70
     0
300
3/4" = 1'-0"
140
0.75
141
12.0
290
     0
  0
SCALE
  5
6A6B
102
{ACAD_REACTORS
330
6A4E
102
}
330
6A4E
100
AcDbScale
 70
     0
300
1" = 1'-0"
140
1.0
141
12.0
290
     0
  0
SCALE
  5
6A6C
102
{ACAD_REACTORS
330
6A4E
102
}
330
6A4E
100
AcDbScale
 70
     0
300
1-1/2" = 1'-0"
140
1.5
141
12.0
290
     0
  0
SCALE
  5
6A6D
102
{ACAD_REACTORS
330
6A4E
102
}
330
6A4E
100
AcDbScale
 70
     0
300
3" = 1'-0"
140
3.0
141
12.0
290
     0
  0
SCALE
  5
6A6E
102
{ACAD_REACTORS
330
6A4E
102
}
330
6A4E
100
AcDbScale
 70
     0
300
6" = 1'-0"
140
6.0
141
12.0
290
     0
  0
SCALE
  5
6A6F
102
{ACAD_REACTORS
330
6A4E
102
}
330
6A4E
100
AcDbScale
 70
     0
300
1'-0" = 1'-0"
140
12.0
141
12.0
290
     0
  0
DICTIONARYVAR
  5
79F
102
{ACAD_REACTORS
330
79E
102
}
330
79E
100
DictionaryVariables
280
     0
  1
1
  0
DICTIONARYVAR
  5
264F
102
{ACAD_REACTORS
330
79E
102
}
330
79E
100
DictionaryVariables
280
     0
  1
96
  0
ENDSEC
  0
EOF
