  0
SECTION
  2
HEADER
  9
$ACADVER
  1
AC1009
  9
$DWGCODEPAGE
  3
ansi_932
  9
$INSBASE
 10
0.0
 20
0.0
 30
0.0
  9
$EXTMIN
 10
0.0
 20
-255.0
 30
0.0
  9
$EXTMAX
 10
6900.0
 20
4455.0
 30
0.0
  9
$LIMMIN
 10
0.0
 20
0.0
  9
$LIMMAX
 10
6300.0
 20
4455.0
  9
$ORTHOMODE
 70
     1
  9
$REGENMODE
 70
     1
  9
$FILLMODE
 70
     1
  9
$QTEXTMODE
 70
     0
  9
$MIRRTEXT
 70
     1
  9
$DRAGMODE
 70
     2
  9
$LTSCALE
 40
4.5
  9
$OSMODE
 70
   511
  9
$ATTMODE
 70
     1
  9
$TEXTSIZE
 40
45.0
  9
$TRACEWID
 40
1.0
  9
$TEXTSTYLE
  7
STANDARD
  9
$CLAYER
  8
01注記寸法
  9
$CELTYPE
  6
BYLAYER
  9
$CECOLOR
 62
   256
  9
$DIMSCALE
 40
15.0
  9
$DIMASZ
 40
3.0
  9
$DIMEXO
 40
1.5
  9
$DIMDLI
 40
10.0
  9
$DIMRND
 40
0.0
  9
$DIMDLE
 40
0.0
  9
$DIMEXE
 40
1.0
  9
$DIMTP
 40
0.0
  9
$DIMTM
 40
0.0
  9
$DIMTXT
 40
3.0
  9
$DIMCEN
 40
1.5
  9
$DIMTSZ
 40
0.0
  9
$DIMTOL
 70
     0
  9
$DIMLIM
 70
     0
  9
$DIMTIH
 70
     0
  9
$DIMTOH
 70
     0
  9
$DIMSE1
 70
     0
  9
$DIMSE2
 70
     0
  9
$DIMTAD
 70
     1
  9
$DIMZIN
 70
     8
  9
$DIMBLK
  1
OPEN
  9
$DIMASO
 70
     1
  9
$DIMSHO
 70
     1
  9
$DIMPOST
  1

  9
$DIMAPOST
  1

  9
$DIMALT
 70
     0
  9
$DIMALTD
 70
     3
  9
$DIMALTF
 40
0.03937007874016
  9
$DIMLFAC
 40
1.0
  9
$DIMTOFL
 70
     1
  9
$DIMTVP
 40
0.0
  9
$DIMTIX
 70
     0
  9
$DIMSOXD
 70
     0
  9
$DIMSAH
 70
     0
  9
$DIMBLK1
  1

  9
$DIMBLK2
  1

  9
$DIMSTYLE
  2
NEMY-15
  9
$DIMCLRD
 70
     0
  9
$DIMCLRE
 70
     0
  9
$DIMCLRT
 70
     0
  9
$DIMTFAC
 40
1.0
  9
$DIMGAP
 40
1.0
  9
$LUNITS
 70
     2
  9
$LUPREC
 70
     4
  9
$SKETCHINC
 40
1.0
  9
$FILLETRAD
 40
8.0
  9
$AUNITS
 70
     0
  9
$AUPREC
 70
     0
  9
$MENU
  1
.
  9
$ELEVATION
 40
0.0
  9
$PELEVATION
 40
0.0
  9
$THICKNESS
 40
0.0
  9
$LIMCHECK
 70
     0
  9
$CHAMFERA
 40
1.0
  9
$CHAMFERB
 40
1.0
  9
$SKPOLY
 70
     0
  9
$TDCREATE
 40
2455859.405048461
  9
$TDUPDATE
 40
2459010.404836667
  9
$TDINDWG
 40
1.1760725926
  9
$TDUSRTIMER
 40
0.0006956019
  9
$USRTIMER
 70
     1
  9
$ANGBASE
 50
0.0
  9
$ANGDIR
 70
     0
  9
$PDMODE
 70
     0
  9
$PDSIZE
 40
0.0
  9
$PLINEWID
 40
0.0
  9
$COORDS
 70
     1
  9
$SPLFRAME
 70
     0
  9
$SPLINETYPE
 70
     6
  9
$SPLINESEGS
 70
     8
  9
$ATTDIA
 70
     0
  9
$ATTREQ
 70
     1
  9
$HANDLING
 70
     1
  9
$HANDSEED
  5
10533
  9
$SURFTAB1
 70
     6
  9
$SURFTAB2
 70
     6
  9
$SURFTYPE
 70
     6
  9
$SURFU
 70
     6
  9
$SURFV
 70
     6
  9
$UCSNAME
  2

  9
$UCSORG
 10
0.0
 20
0.0
 30
0.0
  9
$UCSXDIR
 10
1.0
 20
0.0
 30
0.0
  9
$UCSYDIR
 10
0.0
 20
1.0
 30
0.0
  9
$PUCSNAME
  2

  9
$PUCSORG
 10
0.0
 20
0.0
 30
0.0
  9
$PUCSXDIR
 10
1.0
 20
0.0
 30
0.0
  9
$PUCSYDIR
 10
0.0
 20
1.0
 30
0.0
  9
$USERI1
 70
     0
  9
$USERI2
 70
     0
  9
$USERI3
 70
     0
  9
$USERI4
 70
     0
  9
$USERI5
 70
     0
  9
$USERR1
 40
0.0
  9
$USERR2
 40
0.0
  9
$USERR3
 40
0.0
  9
$USERR4
 40
0.0
  9
$USERR5
 40
0.0
  9
$WORLDVIEW
 70
     1
  9
$SHADEDGE
 70
     3
  9
$SHADEDIF
 70
    70
  9
$TILEMODE
 70
     1
  9
$MAXACTVP
 70
    64
  9
$PLIMCHECK
 70
     0
  9
$PEXTMIN
 10
1.000000000000000E+20
 20
1.000000000000000E+20
 30
1.000000000000000E+20
  9
$PEXTMAX
 10
-1.000000000000000E+20
 20
-1.000000000000000E+20
 30
-1.000000000000000E+20
  9
$PLIMMIN
 10
-7.5
 20
-20.0
  9
$PLIMMAX
 10
412.5
 20
277.0
  9
$UNITMODE
 70
     0
  9
$VISRETAIN
 70
     1
  9
$PLINEGEN
 70
     0
  9
$PSLTSCALE
 70
     1
  0
ENDSEC
  0
SECTION
  2
TABLES
  0
TABLE
  2
VPORT
 70
     1
  0
VPORT
  2
*ACTIVE
 70
     0
 10
0.0
 20
0.0
 11
1.0
 21
1.0
 12
2792.819230769231
 22
2657.806615384615
 13
0.0
 23
0.0
 14
10.0
 24
10.0
 15
10.0
 25
10.0
 16
0.0
 26
0.0
 36
1.0
 17
0.0
 27
0.0
 37
0.0
 40
2487.000615384615
 41
1.448916408668731
 42
50.0
 43
0.0
 44
0.0
 50
0.0
 51
0.0
 71
    16
 72
   100
 73
     1
 74
     2
 75
     0
 76
     0
 77
     0
 78
     0
  0
ENDTAB
  0
TABLE
  2
LTYPE
 70
     5
  0
LTYPE
  2
CONTINUOUS
 70
     0
  3
Solid line
 72
    65
 73
     0
 40
0.0
  0
LTYPE
  2
HIDDEN
 70
     0
  3
Hidden __ __ __ __ __ __ __ __ __ __ __ __ __ _
 72
    65
 73
     2
 40
9.524999999999999
 49
6.35
 49
-3.175
  0
LTYPE
  2
PHANTOM
 70
     0
  3
Phantom ______  __  __  ______  __  __  ______
 72
    65
 73
     6
 40
63.5
 49
31.75
 49
-6.35
 49
6.35
 49
-6.35
 49
6.35
 49
-6.35
  0
LTYPE
  2
CENTER
 70
     0
  3
Center ____ _ ____ _ ____ _ ____ _ ____ _ ____
 72
    65
 73
     4
 40
50.8
 49
31.75
 49
-6.35
 49
6.35
 49
-6.35
  0
LTYPE
  2
DOT
 70
     0
  3
Dot . . . . . . . . . . . . . . . . . . . . . .
 72
    65
 73
     2
 40
6.35
 49
0.0
 49
-6.35
  0
ENDTAB
  0
TABLE
  2
LAYER
 70
    15
  0
LAYER
  2
0
 70
     0
 62
    -7
  6
CONTINUOUS
  0
LAYER
  2
01注記寸法
 70
     0
 62
    -7
  6
CONTINUOUS
  0
LAYER
  2
02実線
 70
     0
 62
     2
  6
CONTINUOUS
  0
LAYER
  2
DEFPOINTS
 70
     0
 62
    -7
  6
CONTINUOUS
  0
LAYER
  2
03破線
 70
     0
 62
    -3
  6
HIDDEN
  0
LAYER
  2
04一点鎖線
 70
     0
 62
   -70
  6
CENTER
  0
LAYER
  2
05二点鎖線
 70
     0
 62
  -110
  6
PHANTOM
  0
LAYER
  2
06点線
 70
     0
 62
   -96
  6
DOT
  0
LAYER
  2
07その他
 70
     0
 62
    -6
  6
CONTINUOUS
  0
LAYER
  2
08非表示
 70
     1
 62
    -4
  6
CONTINUOUS
  0
LAYER
  2
09図枠
 70
     0
 62
    -1
  6
CONTINUOUS
  0
LAYER
  2
10副資材
 70
     0
 62
   -51
  6
CONTINUOUS
  0
LAYER
  2
11機器
 70
     0
 62
   -11
  6
CONTINUOUS
  0
LAYER
  2
12防振架台
 70
     0
 62
  -190
  6
CONTINUOUS
  0
LAYER
  2
13製作用注記
 70
     0
 62
    -5
  6
CONTINUOUS
  0
ENDTAB
  0
TABLE
  2
STYLE
 70
     2
  0
STYLE
  2
STANDARD
 70
     0
 40
0.0
 41
1.0
 50
0.0
 71
     0
 42
45.0
  3
MSGOTHIC.TTC
  4

  0
STYLE
  2

 70
     1
 40
0.0
 41
1.0
 50
0.0
 71
     0
 42
3.0
  3
ltypeshp.shx
  4

  0
ENDTAB
  0
TABLE
  2
VIEW
 70
     0
  0
ENDTAB
  0
TABLE
  2
UCS
 70
     0
  0
ENDTAB
  0
TABLE
  2
APPID
 70
     6
  0
APPID
  2
ACAD
 70
     0
  0
APPID
  2
ACAD_DSTYLE_DIMRADIAL_EXTE
 70
     0
  0
APPID
  2
ACAD_PSEXT
 70
     0
  0
APPID
  2
ACAD_DSTYLE_DIMJAG
 70
     0
  0
APPID
  2
ACAD_DSTYLE_DIMTALN
 70
     0
  0
APPID
  2
ACAECLAYERSTANDARD
 70
     0
  0
ENDTAB
  0
TABLE
  2
DIMSTYLE
 70
    24
  0
DIMSTYLE
  2
NEMY-1
 70
     0
  3

  4

  5
OPEN
  6

  7

 40
1.0
 41
3.0
 42
1.5
 43
10.0
 44
1.0
 45
0.0
 46
0.0
 47
0.0
 48
0.0
140
3.0
141
1.5
142
0.0
143
0.03937007874016
144
1.0
145
0.0
146
1.0
147
1.0
 71
     0
 72
     0
 73
     0
 74
     0
 75
     0
 76
     0
 77
     1
 78
     8
170
     0
171
     3
172
     1
173
     0
174
     0
175
     0
176
     0
177
     0
178
     0
  0
DIMSTYLE
  2
NEMY-2
 70
     0
  3

  4

  5
OPEN
  6

  7

 40
2.0
 41
3.0
 42
1.5
 43
10.0
 44
1.0
 45
0.0
 46
0.0
 47
0.0
 48
0.0
140
3.0
141
1.5
142
0.0
143
0.03937007874016
144
1.0
145
0.0
146
1.0
147
1.0
 71
     0
 72
     0
 73
     0
 74
     0
 75
     0
 76
     0
 77
     1
 78
     8
170
     0
171
     3
172
     1
173
     0
174
     0
175
     0
176
     0
177
     0
178
     0
  0
DIMSTYLE
  2
NEMY-3
 70
     0
  3

  4

  5
OPEN
  6

  7

 40
3.0
 41
3.0
 42
1.5
 43
10.0
 44
1.0
 45
0.0
 46
0.0
 47
0.0
 48
0.0
140
3.0
141
1.5
142
0.0
143
0.03937007874016
144
1.0
145
0.0
146
1.0
147
1.0
 71
     0
 72
     0
 73
     0
 74
     0
 75
     0
 76
     0
 77
     1
 78
     8
170
     0
171
     3
172
     1
173
     0
174
     0
175
     0
176
     0
177
     0
178
     0
  0
DIMSTYLE
  2
NEMY-5
 70
     0
  3

  4

  5
OPEN
  6

  7

 40
5.0
 41
3.0
 42
1.5
 43
10.0
 44
1.0
 45
0.0
 46
0.0
 47
0.0
 48
0.0
140
3.0
141
1.5
142
0.0
143
0.03937007874016
144
1.0
145
0.0
146
1.0
147
1.0
 71
     0
 72
     0
 73
     0
 74
     0
 75
     0
 76
     0
 77
     1
 78
     8
170
     0
171
     3
172
     1
173
     0
174
     0
175
     0
176
     0
177
     0
178
     0
  0
DIMSTYLE
  2
NEMY-8
 70
     0
  3

  4

  5
OPEN
  6

  7

 40
8.0
 41
3.0
 42
1.5
 43
10.0
 44
1.0
 45
0.0
 46
0.0
 47
0.0
 48
0.0
140
3.0
141
1.5
142
0.0
143
0.03937007874016
144
1.0
145
0.0
146
1.0
147
1.0
 71
     0
 72
     0
 73
     0
 74
     0
 75
     0
 76
     0
 77
     1
 78
     8
170
     0
171
     3
172
     1
173
     0
174
     0
175
     0
176
     0
177
     0
178
     0
  0
DIMSTYLE
  2
NEMY-15
 70
     0
  3

  4

  5
OPEN
  6

  7

 40
15.0
 41
3.0
 42
1.5
 43
10.0
 44
1.0
 45
0.0
 46
0.0
 47
0.0
 48
0.0
140
3.0
141
1.5
142
0.0
143
0.03937007874016
144
1.0
145
0.0
146
1.0
147
1.0
 71
     0
 72
     0
 73
     0
 74
     0
 75
     0
 76
     0
 77
     1
 78
     8
170
     0
171
     3
172
     1
173
     0
174
     0
175
     0
176
     0
177
     0
178
     0
  0
DIMSTYLE
  2
NEMY-10
 70
     0
  3

  4

  5
OPEN
  6

  7

 40
10.0
 41
3.0
 42
1.5
 43
10.0
 44
1.0
 45
0.0
 46
0.0
 47
0.0
 48
0.0
140
3.0
141
1.5
142
0.0
143
0.03937007874016
144
1.0
145
0.0
146
1.0
147
1.0
 71
     0
 72
     0
 73
     0
 74
     0
 75
     0
 76
     0
 77
     1
 78
     8
170
     0
171
     3
172
     1
173
     0
174
     0
175
     0
176
     0
177
     0
178
     0
  0
DIMSTYLE
  2
NEMY-25
 70
     0
  3

  4

  5
OPEN
  6

  7

 40
25.0
 41
3.0
 42
1.5
 43
10.0
 44
1.0
 45
0.0
 46
0.0
 47
0.0
 48
0.0
140
3.0
141
1.5
142
0.0
143
0.03937007874016
144
1.0
145
0.0
146
1.0
147
1.0
 71
     0
 72
     0
 73
     0
 74
     0
 75
     0
 76
     0
 77
     1
 78
     8
170
     0
171
     3
172
     1
173
     0
174
     0
175
     0
176
     0
177
     0
178
     0
  0
DIMSTYLE
  2
NEMY-30
 70
     0
  3

  4

  5
OPEN
  6

  7

 40
30.0
 41
3.0
 42
1.5
 43
10.0
 44
1.0
 45
0.0
 46
0.0
 47
0.0
 48
0.0
140
3.0
141
1.5
142
0.0
143
0.03937007874016
144
1.0
145
0.0
146
1.0
147
1.0
 71
     0
 72
     0
 73
     0
 74
     0
 75
     0
 76
     0
 77
     1
 78
     8
170
     0
171
     3
172
     1
173
     0
174
     0
175
     0
176
     0
177
     0
178
     0
  0
DIMSTYLE
  2
NEMY-50
 70
     0
  3

  4

  5
OPEN
  6

  7

 40
50.0
 41
3.0
 42
1.5
 43
10.0
 44
1.0
 45
0.0
 46
0.0
 47
0.0
 48
0.0
140
3.0
141
1.5
142
0.0
143
0.03937007874016
144
1.0
145
0.0
146
1.0
147
1.0
 71
     0
 72
     0
 73
     0
 74
     0
 75
     0
 76
     0
 77
     1
 78
     8
170
     0
171
     3
172
     1
173
     0
174
     0
175
     0
176
     0
177
     0
178
     0
  0
DIMSTYLE
  2
NEMY-20
 70
     0
  3

  4

  5
OPEN
  6

  7

 40
20.0
 41
3.0
 42
1.5
 43
10.0
 44
1.0
 45
0.0
 46
0.0
 47
0.0
 48
0.0
140
3.0
141
1.5
142
0.0
143
0.03937007874016
144
1.0
145
0.0
146
1.0
147
1.0
 71
     0
 72
     0
 73
     0
 74
     0
 75
     0
 76
     0
 77
     1
 78
     8
170
     0
171
     3
172
     1
173
     0
174
     0
175
     0
176
     0
177
     0
178
     0
  0
DIMSTYLE
  2
NEMY-10$3
 70
     0
  3

  4

  5
OPEN
  6

  7

 40
10.0
 41
3.0
 42
1.5
 43
10.0
 44
1.0
 45
0.0
 46
0.0
 47
0.0
 48
0.0
140
3.0
141
1.5
142
0.0
143
0.03937007874016
144
1.0
145
0.0
146
1.0
147
1.0
 71
     0
 72
     0
 73
     1
 74
     1
 75
     0
 76
     0
 77
     1
 78
     8
170
     0
171
     3
172
     1
173
     0
174
     0
175
     0
176
     0
177
     0
178
     0
  0
DIMSTYLE
  2
NEMY-1$3
 70
     0
  3

  4

  5
OPEN
  6

  7

 40
1.0
 41
3.0
 42
1.5
 43
10.0
 44
1.0
 45
0.0
 46
0.0
 47
0.0
 48
0.0
140
3.0
141
1.5
142
0.0
143
0.03937007874016
144
1.0
145
0.0
146
1.0
147
1.0
 71
     0
 72
     0
 73
     1
 74
     1
 75
     0
 76
     0
 77
     1
 78
     8
170
     0
171
     3
172
     1
173
     0
174
     0
175
     0
176
     0
177
     0
178
     0
  0
DIMSTYLE
  2
NEMY-12
 70
     0
  3

  4

  5
OPEN
  6

  7

 40
12.0
 41
3.0
 42
1.5
 43
10.0
 44
1.0
 45
0.0
 46
0.0
 47
0.0
 48
0.0
140
3.0
141
1.5
142
0.0
143
0.03937007874016
144
1.0
145
0.0
146
1.0
147
1.0
 71
     0
 72
     0
 73
     0
 74
     0
 75
     0
 76
     0
 77
     1
 78
     8
170
     0
171
     3
172
     1
173
     0
174
     0
175
     0
176
     0
177
     0
178
     0
  0
DIMSTYLE
  2
NEMY-12$3
 70
     0
  3

  4

  5
OPEN
  6

  7

 40
12.0
 41
3.0
 42
1.5
 43
10.0
 44
1.0
 45
0.0
 46
0.0
 47
0.0
 48
0.0
140
3.0
141
1.5
142
0.0
143
0.03937007874016
144
1.0
145
0.0
146
1.0
147
1.0
 71
     0
 72
     0
 73
     1
 74
     1
 75
     0
 76
     0
 77
     1
 78
     8
170
     0
171
     3
172
     1
173
     0
174
     0
175
     0
176
     0
177
     0
178
     0
  0
DIMSTYLE
  2
NEMY-8$3
 70
     0
  3

  4

  5
OPEN
  6

  7

 40
8.0
 41
3.0
 42
1.5
 43
10.0
 44
1.0
 45
0.0
 46
0.0
 47
0.0
 48
0.0
140
3.0
141
1.5
142
0.0
143
0.03937007874016
144
1.0
145
0.0
146
1.0
147
1.0
 71
     0
 72
     0
 73
     1
 74
     1
 75
     0
 76
     0
 77
     1
 78
     8
170
     0
171
     3
172
     1
173
     0
174
     0
175
     0
176
     0
177
     0
178
     0
  0
DIMSTYLE
  2
NEMY-50$3
 70
     0
  3

  4

  5
OPEN
  6

  7

 40
50.0
 41
3.0
 42
1.5
 43
10.0
 44
1.0
 45
0.0
 46
0.0
 47
0.0
 48
0.0
140
3.0
141
1.5
142
0.0
143
0.03937007874016
144
1.0
145
0.0
146
1.0
147
1.0
 71
     0
 72
     0
 73
     1
 74
     1
 75
     0
 76
     0
 77
     1
 78
     8
170
     0
171
     3
172
     1
173
     0
174
     0
175
     0
176
     0
177
     0
178
     0
  0
DIMSTYLE
  2
NEMY-5$3
 70
     0
  3

  4

  5
OPEN
  6

  7

 40
5.0
 41
3.0
 42
1.5
 43
10.0
 44
1.0
 45
0.0
 46
0.0
 47
0.0
 48
0.0
140
3.0
141
1.5
142
0.0
143
0.03937007874016
144
1.0
145
0.0
146
1.0
147
1.0
 71
     0
 72
     0
 73
     1
 74
     1
 75
     0
 76
     0
 77
     1
 78
     8
170
     0
171
     3
172
     1
173
     0
174
     0
175
     0
176
     0
177
     0
178
     0
  0
DIMSTYLE
  2
NEMY-30$3
 70
     0
  3

  4

  5
OPEN
  6

  7

 40
30.0
 41
3.0
 42
1.5
 43
10.0
 44
1.0
 45
0.0
 46
0.0
 47
0.0
 48
0.0
140
3.0
141
1.5
142
0.0
143
0.03937007874016
144
1.0
145
0.0
146
1.0
147
1.0
 71
     0
 72
     0
 73
     1
 74
     1
 75
     0
 76
     0
 77
     1
 78
     8
170
     0
171
     3
172
     1
173
     0
174
     0
175
     0
176
     0
177
     0
178
     0
  0
DIMSTYLE
  2
NEMY-3$3
 70
     0
  3

  4

  5
OPEN
  6

  7

 40
3.0
 41
3.0
 42
1.5
 43
10.0
 44
1.0
 45
0.0
 46
0.0
 47
0.0
 48
0.0
140
3.0
141
1.5
142
0.0
143
0.03937007874016
144
1.0
145
0.0
146
1.0
147
1.0
 71
     0
 72
     0
 73
     1
 74
     1
 75
     0
 76
     0
 77
     1
 78
     8
170
     0
171
     3
172
     1
173
     0
174
     0
175
     0
176
     0
177
     0
178
     0
  0
DIMSTYLE
  2
NEMY-25$3
 70
     0
  3

  4

  5
OPEN
  6

  7

 40
25.0
 41
3.0
 42
1.5
 43
10.0
 44
1.0
 45
0.0
 46
0.0
 47
0.0
 48
0.0
140
3.0
141
1.5
142
0.0
143
0.03937007874016
144
1.0
145
0.0
146
1.0
147
1.0
 71
     0
 72
     0
 73
     1
 74
     1
 75
     0
 76
     0
 77
     1
 78
     8
170
     0
171
     3
172
     1
173
     0
174
     0
175
     0
176
     0
177
     0
178
     0
  0
DIMSTYLE
  2
NEMY-20$3
 70
     0
  3

  4

  5
OPEN
  6

  7

 40
20.0
 41
3.0
 42
1.5
 43
10.0
 44
1.0
 45
0.0
 46
0.0
 47
0.0
 48
0.0
140
3.0
141
1.5
142
0.0
143
0.03937007874016
144
1.0
145
0.0
146
1.0
147
1.0
 71
     0
 72
     0
 73
     1
 74
     1
 75
     0
 76
     0
 77
     1
 78
     8
170
     0
171
     3
172
     1
173
     0
174
     0
175
     0
176
     0
177
     0
178
     0
  0
DIMSTYLE
  2
NEMY-2$3
 70
     0
  3

  4

  5
OPEN
  6

  7

 40
2.0
 41
3.0
 42
1.5
 43
10.0
 44
1.0
 45
0.0
 46
0.0
 47
0.0
 48
0.0
140
3.0
141
1.5
142
0.0
143
0.03937007874016
144
1.0
145
0.0
146
1.0
147
1.0
 71
     0
 72
     0
 73
     1
 74
     1
 75
     0
 76
     0
 77
     1
 78
     8
170
     0
171
     3
172
     1
173
     0
174
     0
175
     0
176
     0
177
     0
178
     0
  0
DIMSTYLE
  2
NEMY-15$3
 70
     0
  3

  4

  5
OPEN
  6

  7

 40
15.0
 41
3.0
 42
1.5
 43
10.0
 44
1.0
 45
0.0
 46
0.0
 47
0.0
 48
0.0
140
3.0
141
1.5
142
0.0
143
0.03937007874016
144
1.0
145
0.0
146
1.0
147
1.0
 71
     0
 72
     0
 73
     1
 74
     1
 75
     0
 76
     0
 77
     1
 78
     8
170
     0
171
     3
172
     1
173
     0
174
     0
175
     0
176
     0
177
     0
178
     0
  0
ENDTAB
  0
ENDSEC
  0
SECTION
  2
BLOCKS
  0
BLOCK
  8
0
  2
$MODEL_SPACE
 70
     0
 10
0.0
 20
0.0
 30
0.0
  3
$MODEL_SPACE
  1

  0
ENDBLK
  5
21
  8
0
  0
BLOCK
 67
     1
  8
0
  2
$PAPER_SPACE
 70
     0
 10
0.0
 20
0.0
 30
0.0
  3
$PAPER_SPACE
  1

  0
ENDBLK
  5
1D
 67
     1
  8
0
  0
BLOCK
  8
0
  2
_OPEN
 70
     0
 10
0.0
 20
0.0
 30
0.0
  3
_OPEN
  1

  0
LINE
  5
90
  8
01注記寸法
 62
     0
 10
-1.0
 20
0.1666666666666667
 30
0.0
 11
0.0
 21
0.0
 31
0.0
  0
LINE
  5
91
  8
01注記寸法
 62
     0
 10
-1.0
 20
-0.1666666666666667
 30
0.0
 11
0.0
 21
0.0
 31
0.0
  0
LINE
  5
92
  8
01注記寸法
 62
     0
 10
0.0
 20
0.0
 30
0.0
 11
-1.0
 21
0.0
 31
0.0
  0
ENDBLK
  5
94
  8
0
  0
BLOCK
  8
0
  2
HOLE-Φ16
 70
     0
 10
0.0
 20
0.0
 30
0.0
  3
HOLE-Φ16
  1

  0
CIRCLE
  5
82F4
  8
02実線
 10
0.0
 20
0.0
 30
0.0
 40
8.0
  0
LINE
  5
82F5
  8
04一点鎖線
  6
CENTER
 10
0.0
 20
-20.0
 30
0.0
 11
0.0
 21
20.0
 31
0.0
  0
LINE
  5
82F6
  8
04一点鎖線
  6
CENTER
 10
-20.0
 20
0.0
 30
0.0
 11
20.0
 21
0.0
 31
0.0
  0
ENDBLK
  5
82F7
  8
0
  0
BLOCK
  8
0
  2
平W-M12
 70
     0
 10
0.0
 20
0.0
 30
0.0
  3
平W-M12
  1

  0
CIRCLE
  5
836F
  8
10副資材
 10
0.0
 20
0.0
 30
0.0
 40
6.0
  0
CIRCLE
  5
8370
  8
10副資材
 10
0.0
 20
0.0
 30
0.0
 40
13.0
  0
TEXT
  5
8371
  8
10副資材
 10
-3.901384926773649
 20
-11.29716620919794
 30
0.0
 40
4.0
  1
M12
 72
     1
 11
0.000078121869592
 21
-9.29716620919794
 31
0.0
 73
     2
  0
ENDBLK
  5
8372
  8
0
  0
BLOCK
  8
0
  2
BH-端柱補強桟_L40X15XT3_2_
 70
     0
 10
0.0
 20
0.0
 30
0.0
  3
BH-端柱補強桟_L40X15XT3_2_
  1

  0
LINE
  5
841F
  8
03破線
  6
HIDDEN
 10
3.199999999999818
 20
-3.199999999999818
 30
0.0
 11
3.199999999999818
 21
-40.0
 31
0.0
  0
LINE
  5
8420
  8
03破線
  6
HIDDEN
 10
15.0
 20
0.0
 30
0.0
 11
15.0
 21
-3.199999999999818
 31
0.0
  0
LINE
  5
8421
  8
03破線
  6
HIDDEN
 10
15.0
 20
-3.199999999999818
 30
0.0
 11
3.199999999999818
 21
-3.199999999999818
 31
0.0
  0
LINE
  5
8422
  8
03破線
  6
HIDDEN
 10
0.0
 20
0.0
 30
0.0
 11
0.0
 21
-40.0
 31
0.0
  0
LINE
  5
8423
  8
03破線
  6
HIDDEN
 10
15.0
 20
0.0
 30
0.0
 11
0.0
 21
0.0
 31
0.0
  0
LINE
  5
8424
  8
03破線
  6
HIDDEN
 10
3.199999999999818
 20
-40.0
 30
0.0
 11
0.0
 21
-40.0
 31
0.0
  0
ENDBLK
  5
8425
  8
0
  0
BLOCK
  8
0
  2
BH-端柱_L60_-500H-正面
 70
     0
 10
0.0
 20
0.0
 30
0.0
  3
BH-端柱_L60_-500H-正面
  1

  0
POLYLINE
  5
842C
  8
02実線
 66
     1
 10
0.0
 20
0.0
 30
0.0
 70
     1
  0
VERTEX
  5
10463
  8
02実線
 10
0.0
 20
0.0
 30
0.0
  0
VERTEX
  5
10464
  8
02実線
 10
0.0
 20
497.0000000000005
 30
0.0
  0
VERTEX
  5
10465
  8
02実線
 10
60.0
 20
497.0000000000005
 30
0.0
  0
VERTEX
  5
10466
  8
02実線
 10
60.0
 20
0.0
 30
0.0
  0
SEQEND
  5
1052B
  8
02実線
  0
LINE
  5
842D
  8
03破線
 10
3.200000000000728
 20
0.0
 30
0.0
 11
3.200000000000728
 21
497.0000000000005
 31
0.0
  0
ARC
  5
842E
  8
02実線
 10
22.00000000000091
 20
30.0
 30
0.0
 40
7.0
 50
90.0
 51
270.0
  0
LINE
  5
842F
  8
02実線
 10
22.00000000000091
 20
23.0
 30
0.0
 11
42.00000000000091
 21
23.0
 31
0.0
  0
LINE
  5
8430
  8
02実線
 10
22.00000000000091
 20
37.0
 30
0.0
 11
42.00000000000091
 21
37.0
 31
0.0
  0
ARC
  5
8431
  8
02実線
 10
42.00000000000091
 20
30.0
 30
0.0
 40
7.0
 50
270.0
 51
90.0
  0
CIRCLE
  5
8432
  8
02実線
 10
30.00000000000091
 20
215.0000000000002
 30
0.0
 40
6.5
  0
CIRCLE
  5
8433
  8
02実線
 10
30.00000000000091
 20
466.0000000000005
 30
0.0
 40
6.5
  0
LINE
  5
8434
  8
04一点鎖線
 10
59.0
 20
30.0
 30
0.0
 11
-10.0
 21
30.0
 31
0.0
  0
LINE
  5
8435
  8
04一点鎖線
 10
46.5
 20
466.0000000000005
 30
0.0
 11
13.50000000000091
 21
466.0000000000005
 31
0.0
  0
LINE
  5
8436
  8
04一点鎖線
 10
32.00000000000091
 20
13.0
 30
0.0
 11
32.00000000000091
 21
47.0
 31
0.0
  0
LINE
  5
8437
  8
04一点鎖線
 10
30.00000000000182
 20
198.5000000000002
 30
0.0
 11
30.0
 21
231.5000000000002
 31
0.0
  0
LINE
  5
8438
  8
04一点鎖線
 10
30.00000000000182
 20
449.5000000000005
 30
0.0
 11
30.0
 21
482.5000000000005
 31
0.0
  0
LINE
  5
8439
  8
04一点鎖線
 10
46.5
 20
215.0000000000002
 30
0.0
 11
13.50000000000091
 21
215.0000000000002
 31
0.0
  0
INSERT
  5
843A
  8
03破線
  2
BH-端柱補強桟_L40X15XT3_2_
 10
3.200000000000728
 20
250.0
 30
0.0
  0
ENDBLK
  5
843B
  8
0
  0
BLOCK
  8
0
  2
BH-端柱_L60_-500H-側面
 70
     0
 10
0.0
 20
0.0
 30
0.0
  3
BH-端柱_L60_-500H-側面
  1

  0
ARC
  5
843F
  8
02実線
 10
42.00000000000091
 20
29.99999999999886
 30
0.0
 40
7.0
 50
270.0
 51
90.0
  0
LINE
  5
8440
  8
02実線
 10
22.00000000000091
 20
36.99999999999886
 30
0.0
 11
42.00000000000091
 21
36.99999999999886
 31
0.0
  0
LINE
  5
8441
  8
02実線
 10
22.00000000000091
 20
22.99999999999886
 30
0.0
 11
42.00000000000091
 21
22.99999999999886
 31
0.0
  0
ARC
  5
8442
  8
02実線
 10
22.00000000000091
 20
29.99999999999886
 30
0.0
 40
7.0
 50
90.0
 51
270.0
  0
LINE
  5
8443
  8
03破線
 10
3.200000000000728
 20
-0.0000000000011369
 30
0.0
 11
3.200000000000728
 21
496.9999999999993
 31
0.0
  0
POLYLINE
  5
8444
  8
02実線
 66
     1
 10
0.0
 20
0.0
 30
0.0
 70
     1
  0
VERTEX
  5
10467
  8
02実線
 10
0.0
 20
0.0
 30
0.0
  0
VERTEX
  5
10468
  8
02実線
 10
0.0
 20
497.0000000000002
 30
0.0
  0
VERTEX
  5
10469
  8
02実線
 10
60.0
 20
497.0000000000002
 30
0.0
  0
VERTEX
  5
1046A
  8
02実線
 10
60.0
 20
0.0
 30
0.0
  0
SEQEND
  5
1052C
  8
02実線
  0
CIRCLE
  5
8445
  8
02実線
 10
34.69999999999982
 20
469.9999999999993
 30
0.0
 40
6.5
  0
CIRCLE
  5
8446
  8
02実線
 10
34.69999999999982
 20
399.9999999999991
 30
0.0
 40
6.5
  0
LINE
  5
8447
  8
04一点鎖線
 10
59.00000000000091
 20
29.99999999999886
 30
0.0
 11
-10.0
 21
29.99999999999886
 31
0.0
  0
LINE
  5
8448
  8
04一点鎖線
 10
32.00000000000091
 20
12.99999999999886
 30
0.0
 11
32.00000000000091
 21
46.99999999999886
 31
0.0
  0
LINE
  5
8449
  8
04一点鎖線
 10
51.20000000000073
 20
469.9999999999989
 30
0.0
 11
18.20000000000073
 21
469.9999999999989
 31
0.0
  0
LINE
  5
844A
  8
04一点鎖線
 10
51.19999999999982
 20
399.9999999999991
 30
0.0
 11
18.19999999999982
 21
399.9999999999991
 31
0.0
  0
LINE
  5
844B
  8
04一点鎖線
 10
34.69999999999982
 20
383.4999999999991
 30
0.0
 11
34.69999999999982
 21
416.4999999999991
 31
0.0
  0
LINE
  5
844C
  8
04一点鎖線
 10
34.70000000000073
 20
453.4999999999989
 30
0.0
 11
34.70000000000073
 21
486.4999999999989
 31
0.0
  0
ENDBLK
  5
844D
  8
0
  0
BLOCK
  8
0
  2
BH-ANCHOR-L60-背面
 70
     0
 10
0.0
 20
0.0
 30
0.0
  3
BH-ANCHOR-L60-背面
  1

  0
LINE
  5
8524
  8
04一点鎖線
 10
0.0
 20
-15.0
 30
0.0
 11
0.0
 21
19.5
 31
0.0
  0
LINE
  5
8525
  8
03破線
 10
-28.5
 20
4.5
 30
0.0
 11
28.5
 21
4.5
 31
0.0
  0
LINE
  5
8526
  8
03破線
 10
-28.5
 20
0.0
 30
0.0
 11
28.5
 21
0.0
 31
0.0
  0
LINE
  5
8527
  8
03破線
 10
-15.82435206036507
 20
56.11709862642329
 30
0.0
 11
4.175647939634928
 21
26.11709862642329
 31
0.0
  0
LINE
  5
8528
  8
03破線
 10
-4.175647939634928
 20
63.88290137357671
 30
0.0
 11
15.82435206036507
 21
33.88290137357671
 31
0.0
  0
ARC
  5
8529
  8
03破線
 10
10.0
 20
30.0
 30
0.0
 40
7.0
 50
213.6900675259766
 51
33.69006752597669
  0
ARC
  5
852A
  8
03破線
 10
-10.0
 20
60.0
 30
0.0
 40
7.0
 50
33.69006752597669
 51
213.6900675259766
  0
LINE
  5
852B
  8
03破線
 10
-23.5
 20
80.0
 30
0.0
 11
-28.5
 21
75.0
 31
0.0
  0
LINE
  5
852C
  8
03破線
 10
-28.5
 20
0.0
 30
0.0
 11
-28.5
 21
75.0
 31
0.0
  0
LINE
  5
852D
  8
03破線
 10
28.5
 20
75.0
 30
0.0
 11
23.5
 21
80.0
 31
0.0
  0
LINE
  5
852E
  8
03破線
 10
-23.5
 20
80.0
 30
0.0
 11
23.5
 21
80.0
 31
0.0
  0
LINE
  5
852F
  8
03破線
 10
28.5
 20
0.0
 30
0.0
 11
28.5
 21
75.0
 31
0.0
  0
ENDBLK
  5
8530
  8
0
  0
BLOCK
  8
0
  2
BH-ANCHOR-L60-立面
 70
     0
 10
0.0
 20
0.0
 30
0.0
  3
BH-ANCHOR-L60-立面
  1

  0
LINE
  5
854A
  8
04一点鎖線
 10
-22.5
 20
45.0
 30
0.0
 11
-47.0
 21
45.0
 31
0.0
  0
ARC
  5
854B
  8
03破線
 10
-29.19999999999982
 20
7.799999999999727
 30
0.0
 40
3.300000000000002
 50
180.0
 51
270.0
  0
ARC
  5
854C
  8
03破線
 10
-29.19999999999982
 20
7.799999999999727
 30
0.0
 40
7.800000000000002
 50
179.9999999999967
 51
270.0
  0
LINE
  5
854D
  8
03破線
 10
-37.0
 20
80.0
 30
0.0
 11
-32.5
 21
80.0
 31
0.0
  0
LINE
  5
854E
  8
03破線
 10
23.0
 20
4.5
 30
0.0
 11
23.0
 21
0.0
 31
0.0
  0
LINE
  5
854F
  8
03破線
 10
-32.5
 20
80.0
 30
0.0
 11
-32.5
 21
7.799999999999727
 31
0.0
  0
LINE
  5
8550
  8
03破線
 10
-29.19999999999982
 20
4.5
 30
0.0
 11
23.0
 21
4.5
 31
0.0
  0
LINE
  5
8551
  8
03破線
 10
-37.0
 20
80.0
 30
0.0
 11
-37.0
 21
7.799999999999727
 31
0.0
  0
LINE
  5
8552
  8
03破線
 10
-29.19999999999982
 20
0.0
 30
0.0
 11
23.0
 21
0.0
 31
0.0
  0
LINE
  5
8553
  8
04一点鎖線
 10
0.0
 20
19.5
 30
0.0
 11
0.0
 21
-15.0
 31
0.0
  0
ENDBLK
  5
8554
  8
0
  0
BLOCK
  8
0
  2
BH-端柱_L60_-平面
 70
     0
 10
0.0
 20
0.0
 30
0.0
  3
BH-端柱_L60_-平面
  1

  0
LINE
  5
856F
  8
02実線
 10
60.0
 20
3.199999999999818
 30
0.0
 11
60.0
 21
0.0
 31
0.0
  0
LINE
  5
8570
  8
02実線
 10
3.200000000000728
 20
3.199999999999818
 30
0.0
 11
60.0
 21
3.199999999999818
 31
0.0
  0
LINE
  5
8571
  8
02実線
 10
0.0
 20
60.0
 30
0.0
 11
3.200000000000728
 21
60.0
 31
0.0
  0
LINE
  5
8572
  8
02実線
 10
0.0
 20
0.0
 30
0.0
 11
60.0
 21
0.0
 31
0.0
  0
LINE
  5
8573
  8
02実線
 10
0.0
 20
60.0
 30
0.0
 11
0.0
 21
0.0
 31
0.0
  0
LINE
  5
8574
  8
02実線
 10
3.200000000000728
 20
60.0
 30
0.0
 11
3.200000000000728
 21
3.199999999999818
 31
0.0
  0
LINE
  5
8575
  8
08非表示
 10
3.200000000000728
 20
4.699999999999818
 30
0.0
 11
60.0
 21
4.699999999999818
 31
0.0
  0
ENDBLK
  5
8576
  8
0
  0
BLOCK
  8
0
  2
BH-ANCHOR-L60-平面_実線_
 70
     0
 10
0.0
 20
0.0
 30
0.0
  3
BH-ANCHOR-L60-平面_実線_
  1

  0
LINE
  5
858E
  8
02実線
 10
-32.5
 20
-28.5
 30
0.0
 11
-32.5
 21
28.5
 31
0.0
  0
LINE
  5
858F
  8
02実線
 10
-37.0
 20
-28.5
 30
0.0
 11
-37.0
 21
28.5
 31
0.0
  0
CIRCLE
  5
8590
  8
02実線
 10
0.0
 20
0.0
 30
0.0
 40
8.0
  0
LINE
  5
8591
  8
02実線
 10
23.0
 20
18.5
 30
0.0
 11
13.0
 21
28.5
 31
0.0
  0
LINE
  5
8592
  8
02実線
 10
23.0
 20
-18.5
 30
0.0
 11
13.0
 21
-28.5
 31
0.0
  0
LINE
  5
8593
  8
02実線
 10
-37.0
 20
28.5
 30
0.0
 11
13.0
 21
28.5
 31
0.0
  0
LINE
  5
8594
  8
02実線
 10
-37.0
 20
-28.5
 30
0.0
 11
13.0
 21
-28.5
 31
0.0
  0
LINE
  5
8595
  8
02実線
 10
23.0
 20
-18.5
 30
0.0
 11
23.0
 21
18.5
 31
0.0
  0
ARC
  5
A0C7
  8
08非表示
 10
-5.0
 20
0.0
 30
0.0
 40
8.0
 50
90.0
 51
270.0
  0
ARC
  5
A0C8
  8
08非表示
 10
5.0
 20
0.0
 30
0.0
 40
8.0
 50
270.0
 51
90.0
  0
LINE
  5
A0C9
  8
08非表示
 10
5.0
 20
-8.0
 30
0.0
 11
-5.0
 21
-8.0
 31
0.0
  0
LINE
  5
A0CA
  8
08非表示
 10
5.0
 20
8.0
 30
0.0
 11
-5.0
 21
8.0
 31
0.0
  0
ENDBLK
  5
8596
  8
0
  0
BLOCK
  8
0
  2
BH-レベル調整ボルト
 70
     0
 10
0.0
 20
0.0
 30
0.0
  3
BH-レベル調整ボルト
  1

  0
LINE
  5
85C7
  8
04一点鎖線
  6
CENTER
 10
-28.39999999999964
 20
0.0
 30
0.0
 11
13.00000001115222
 21
0.0
 31
0.0
  0
LINE
  5
85C8
  8
02実線
 10
-23.39999999999964
 20
-4.0
 30
0.0
 11
-17.3000000111515
 21
-4.0
 31
0.0
  0
LINE
  5
85C9
  8
02実線
 10
-23.39999999999964
 20
4.0
 30
0.0
 11
-17.3000000111515
 21
4.0
 31
0.0
  0
LINE
  5
85CA
  8
02実線
 10
-23.39999999999964
 20
-4.0
 30
0.0
 11
-23.39999999999964
 21
4.0
 31
0.0
  0
LINE
  5
85CB
  8
02実線
 10
-22.39999999999964
 20
5.0
 30
0.0
 11
-17.3000000111515
 21
5.0
 31
0.0
  0
LINE
  5
85CC
  8
02実線
 10
-22.39999999999964
 20
-5.0
 30
0.0
 11
-22.39999999999964
 21
5.0
 31
0.0
  0
LINE
  5
85CD
  8
02実線
 10
-22.39999999999964
 20
-5.0
 30
0.0
 11
-17.3000000111515
 21
-5.0
 31
0.0
  0
LINE
  5
85CE
  8
02実線
 10
-23.39999999999964
 20
-4.0
 30
0.0
 11
-22.39999999999964
 21
-5.0
 31
0.0
  0
LINE
  5
85CF
  8
02実線
 10
-22.39999999999964
 20
5.0
 30
0.0
 11
-23.39999999999964
 21
4.0
 31
0.0
  0
LINE
  5
85D0
  8
02実線
 10
-7.700000000000728
 20
11.0
 30
0.0
 11
-7.700000000000728
 21
-11.0
 31
0.0
  0
LINE
  5
85D1
  8
02実線
 10
-9.299999999999272
 20
11.0
 30
0.0
 11
-7.700000000000728
 21
11.0
 31
0.0
  0
LINE
  5
85D2
  8
02実線
 10
-9.299999999999272
 20
-11.0
 30
0.0
 11
-7.700000000000728
 21
-11.0
 31
0.0
  0
LINE
  5
85D3
  8
02実線
 10
-9.299999999999272
 20
11.0
 30
0.0
 11
-9.299999999999272
 21
-11.0
 31
0.0
  0
LINE
  5
85D4
  8
02実線
 10
-9.299999999999272
 20
9.237604307033962
 30
0.0
 11
-9.299999999999272
 21
-9.237604307033962
 31
0.0
  0
ARC
  5
85D5
  8
02実線
 10
-12.68119784648297
 20
6.927925269031675
 30
0.0
 40
4.618802164669552
 50
149.9960184984644
 51
209.9960184984832
  0
ARC
  5
85D6
  8
02実線
 10
-12.68119784648297
 20
-6.927925269031675
 30
0.0
 40
4.618802164669552
 50
150.0039815015167
 51
210.0039815015356
  0
ARC
  5
85D7
  8
02実線
 10
0.2513967268932902
 20
0.0
 30
0.0
 40
17.55139672689282
 50
164.7424308899368
 51
195.2575691100632
  0
LINE
  5
85D8
  8
02実線
 10
-9.299999999999272
 20
4.618802153516754
 30
0.0
 11
-16.68135832748158
 21
4.618802153516754
 31
0.0
  0
LINE
  5
85D9
  8
02実線
 10
-17.3000000111515
 20
6.927925269031675
 30
0.0
 11
-17.3000000111515
 21
-6.927925269031675
 31
0.0
  0
LINE
  5
85DA
  8
02実線
 10
-9.299999999999272
 20
-4.618802153516754
 30
0.0
 11
-16.68135832748158
 21
-4.618802153516754
 31
0.0
  0
LINE
  5
85DB
  8
02実線
 10
-9.299999999999272
 20
-9.237604307033962
 30
0.0
 11
-16.68103736548437
 21
-9.237604307033962
 31
0.0
  0
LINE
  5
85DC
  8
02実線
 10
-9.299999999999272
 20
9.237604307033962
 30
0.0
 11
-16.68103736548437
 21
9.237604307033962
 31
0.0
  0
LINE
  5
85DD
  8
02実線
 10
0.0
 20
-11.0
 30
0.0
 11
1.600000000000364
 21
-11.0
 31
0.0
  0
LINE
  5
85DE
  8
02実線
 10
0.0
 20
11.0
 30
0.0
 11
1.600000000000364
 21
11.0
 31
0.0
  0
LINE
  5
85DF
  8
02実線
 10
1.600000000000364
 20
11.0
 30
0.0
 11
1.600000000000364
 21
-11.0
 31
0.0
  0
LINE
  5
85E0
  8
02実線
 10
0.0
 20
11.0
 30
0.0
 11
0.0
 21
-11.0
 31
0.0
  0
LINE
  5
85E1
  8
02実線
 10
1.600000000000364
 20
-4.618802153516754
 30
0.0
 11
7.381358327482303
 21
-4.618802153516754
 31
0.0
  0
LINE
  5
85E2
  8
02実線
 10
1.600000000000364
 20
-9.237604307033962
 30
0.0
 11
7.38103736548328
 21
-9.237604307033962
 31
0.0
  0
LINE
  5
85E3
  8
02実線
 10
8.000000011152224
 20
6.927925269031675
 30
0.0
 11
8.000000011152224
 21
-6.927925269031675
 31
0.0
  0
LINE
  5
85E4
  8
02実線
 10
1.600000000000364
 20
4.618802153516754
 30
0.0
 11
7.381358327482303
 21
4.618802153516754
 31
0.0
  0
LINE
  5
85E5
  8
02実線
 10
1.600000000000364
 20
9.237604307033962
 30
0.0
 11
7.38103736548328
 21
9.237604307033962
 31
0.0
  0
ARC
  5
85E6
  8
02実線
 10
-9.551396726892563
 20
0.0
 30
0.0
 40
17.55139672689282
 50
344.7424308899368
 51
15.25756911006317
  0
ARC
  5
85E7
  8
02実線
 10
3.381197846481882
 20
-6.927925269031675
 30
0.0
 40
4.618802164669552
 50
329.9960184984644
 51
29.99601849845809
  0
ARC
  5
85E8
  8
02実線
 10
3.381197846481882
 20
6.927925269031675
 30
0.0
 40
4.618802164669552
 50
330.0039815015419
 51
30.00398150153562
  0
LINE
  5
85E9
  8
02実線
 10
1.600000000000364
 20
9.237604307033962
 30
0.0
 11
1.600000000000364
 21
-9.237604307033962
 31
0.0
  0
ENDBLK
  5
85EA
  8
0
  0
BLOCK
  8
0
  2
BH-中柱_L60_-500H
 70
     0
 10
0.0
 20
0.0
 30
0.0
  3
BH-中柱_L60_-500H
  1

  0
LINE
  5
8611
  8
02実線
 10
12.0
 20
-474.0
 30
0.0
 11
-8.0
 21
-474.0
 31
0.0
  0
LINE
  5
8612
  8
02実線
 10
12.0
 20
-460.0
 30
0.0
 11
-8.0
 21
-460.0
 31
0.0
  0
ARC
  5
8613
  8
02実線
 10
-8.0
 20
-467.0
 30
0.0
 40
7.0
 50
90.0
 51
270.0
  0
ARC
  5
8614
  8
02実線
 10
12.0
 20
-467.0
 30
0.0
 40
7.0
 50
270.0
 51
90.0
  0
INSERT
  5
8615
  8
03破線
  2
BH-端柱補強桟_L40X15XT3_2_
 10
-26.80000000000018
 20
-247.0
 30
0.0
  0
LINE
  5
8616
  8
02実線
 10
30.0
 20
-120.0
 30
0.0
 11
30.0
 21
-497.0
 31
0.0
  0
LINE
  5
8617
  8
02実線
 10
-30.0
 20
-120.0
 30
0.0
 11
-30.0
 21
-497.0
 31
0.0
  0
LINE
  5
8618
  8
03破線
 10
30.0
 20
-57.0
 30
0.0
 11
30.0
 21
-120.0
 31
0.0
  0
LINE
  5
8619
  8
03破線
 10
-30.0
 20
-57.0
 30
0.0
 11
-30.0
 21
-120.0
 31
0.0
  0
LINE
  5
861A
  8
02実線
 10
30.0
 20
-497.0
 30
0.0
 11
-30.0
 21
-497.0
 31
0.0
  0
LINE
  5
861B
  8
03破線
 10
-26.80000000000018
 20
-57.0
 30
0.0
 11
-26.80000000000018
 21
-497.0
 31
0.0
  0
LINE
  5
861C
  8
03破線
 10
-30.0
 20
-57.0
 30
0.0
 11
30.0
 21
-57.0
 31
0.0
  0
CIRCLE
  5
861D
  8
02実線
 10
60.0
 20
-27.0
 30
0.0
 40
6.5
  0
CIRCLE
  5
861E
  8
02実線
 10
-60.0
 20
-27.0
 30
0.0
 40
6.5
  0
POLYLINE
  5
861F
  8
02実線
 66
     1
 10
0.0
 20
0.0
 30
0.0
 70
     1
  0
VERTEX
  5
1046B
  8
02実線
 10
-90.0
 20
-57.0
 30
0.0
  0
VERTEX
  5
1046C
  8
02実線
 10
-90.0
 20
0.0
 30
0.0
  0
VERTEX
  5
1046D
  8
02実線
 10
90.0
 20
0.0
 30
0.0
  0
VERTEX
  5
1046E
  8
02実線
 10
90.0
 20
-57.0
 30
0.0
  0
VERTEX
  5
1046F
  8
02実線
 10
30.0
 20
-120.0
 30
0.0
  0
VERTEX
  5
10470
  8
02実線
 10
-30.0
 20
-120.0
 30
0.0
  0
SEQEND
  5
1052D
  8
02実線
  0
LINE
  5
8621
  8
04一点鎖線
 10
2.0
 20
-484.0
 30
0.0
 11
2.0
 21
-450.0
 31
0.0
  0
LINE
  5
8622
  8
04一点鎖線
 10
29.0
 20
-467.0
 30
0.0
 11
-25.0
 21
-467.0
 31
0.0
  0
LINE
  5
8623
  8
04一点鎖線
 10
-60.0
 20
-43.5
 30
0.0
 11
-60.0
 21
-10.5
 31
0.0
  0
LINE
  5
8624
  8
04一点鎖線
 10
-43.5
 20
-27.0
 30
0.0
 11
-76.5
 21
-27.0
 31
0.0
  0
LINE
  5
8625
  8
04一点鎖線
 10
76.5
 20
-27.0
 30
0.0
 11
43.5
 21
-27.0
 31
0.0
  0
LINE
  5
8626
  8
04一点鎖線
 10
60.0
 20
-43.5
 30
0.0
 11
60.0
 21
-10.5
 31
0.0
  0
LINE
  5
B736
  8
08非表示
 10
0.0
 20
3.0
 30
0.0
 11
0.0
 21
0.0
 31
0.0
  0
LINE
  5
B737
  8
08非表示
 10
-90.0
 20
3.0
 30
0.0
 11
90.0
 21
3.0
 31
0.0
  0
ENDBLK
  5
8627
  8
0
  0
BLOCK
  8
0
  2
BH-筋交_柱L60_-500H
 70
     0
 10
0.0
 20
0.0
 30
0.0
  3
BH-筋交_柱L60_-500H
  1

  0
CIRCLE
  5
992B
  8
03破線
 10
312.2304049160912
 20
250.0243473062876
 30
0.0
 40
6.499999999999988
  0
LINE
  5
992C
  8
03破線
 10
316.5633268549091
 20
268.6110572752962
 30
0.0
 11
-19.0843584298882
 21
-0.1651160789606365
 31
0.0
  0
CIRCLE
  5
992D
  8
03破線
 10
0.0
 20
0.0
 30
0.0
 40
6.499999999999988
  0
LINE
  5
992E
  8
03破線
 10
-5.458031501695586
 20
-17.18167314688799
 30
0.0
 11
-21.08455320833764
 21
2.332727160368449
 31
0.0
  0
LINE
  5
992F
  8
03破線
 10
314.5631320764578
 20
271.1089005146271
 30
0.0
 11
330.1896537831008
 21
251.5945002073715
 31
0.0
  0
LINE
  5
9930
  8
03破線
 10
330.1896537831008
 20
251.5945002073715
 30
0.0
 11
329.4120780629773
 21
244.5663158045902
 31
0.0
  0
LINE
  5
9931
  8
03破線
 10
1.570152901083929
 20
-17.9592488670105
 30
0.0
 11
-5.458031501695586
 21
-17.18167314688799
 31
0.0
  0
LINE
  5
9932
  8
03破線
 10
329.4120780629773
 20
244.5663158045902
 30
0.0
 11
304.9776628862055
 21
225.0000000000005
 31
0.0
  0
LINE
  5
9933
  8
03破線
 10
-21.08455320833764
 20
2.332727160368449
 30
0.0
 11
30.0
 21
43.23964036371416
 31
0.0
  0
LINE
  5
9934
  8
03破線
 10
256.9823371137927
 20
225.0000000000005
 30
0.0
 11
314.5631320764578
 21
271.1089005146271
 31
0.0
  0
LINE
  5
9935
  8
02実線
 10
304.9776628862055
 20
225.0000000000005
 30
0.0
 11
30.0
 21
4.806483915593844
 31
0.0
  0
LINE
  5
9936
  8
02実線
 10
30.0
 20
43.23964036371416
 30
0.0
 11
256.9823371137927
 21
225.0000000000005
 31
0.0
  0
LINE
  5
9937
  8
03破線
 10
30.0
 20
4.806483915593844
 30
0.0
 11
1.570152901083929
 21
-17.9592488670105
 31
0.0
  0
ENDBLK
  5
992A
  8
0
  0
BLOCK
  8
0
  2
BH-中柱_L60_-平面
 70
     0
 10
0.0
 20
0.0
 30
0.0
  3
BH-中柱_L60_-平面
  1

  0
LINE
  5
99B3
  8
04一点鎖線
 10
-60.00000000000045
 20
9.999999999999996
 30
0.0
 11
-60.00000000000045
 21
-13.2
 31
0.0
  0
LINE
  5
99B4
  8
04一点鎖線
 10
59.99999999999955
 20
9.999999999999996
 30
0.0
 11
59.99999999999955
 21
-13.2
 31
0.0
  0
POLYLINE
  5
99B5
  8
02実線
 66
     1
 10
0.0
 20
0.0
 30
0.0
 70
     1
  0
VERTEX
  5
10471
  8
02実線
 10
-90.0
 20
-3.200000000000003
 30
0.0
  0
VERTEX
  5
10472
  8
02実線
 10
-90.0
 20
0.0
 30
0.0
  0
VERTEX
  5
10473
  8
02実線
 10
89.99999999999955
 20
0.0
 30
0.0
  0
VERTEX
  5
10474
  8
02実線
 10
89.99999999999955
 20
-3.200000000000003
 30
0.0
  0
SEQEND
  5
1052E
  8
02実線
  0
POLYLINE
  5
99B6
  8
03破線
 66
     1
 10
0.0
 20
0.0
 30
0.0
  0
VERTEX
  5
10475
  8
03破線
 10
30.0
 20
0.0
 30
0.0
  0
VERTEX
  5
10476
  8
03破線
 10
-30.0
 20
0.0
 30
0.0
  0
VERTEX
  5
10477
  8
03破線
 10
-30.0
 20
60.0
 30
0.0
  0
VERTEX
  5
10478
  8
03破線
 10
-26.80000000000018
 20
60.0
 30
0.0
  0
VERTEX
  5
10479
  8
03破線
 10
-26.80000000000018
 20
3.200000000000003
 30
0.0
  0
VERTEX
  5
1047A
  8
03破線
 10
30.0
 20
3.200000000000003
 30
0.0
  0
VERTEX
  5
1047B
  8
03破線
 10
30.0
 20
0.0
 30
0.0
  0
SEQEND
  5
1052F
  8
03破線
  0
ENDBLK
  5
99B2
  8
0
  0
BLOCK
  8
0
  2
角ワッシャーM12
 70
     0
 10
0.0
 20
0.0
 30
0.0
  3
角ワッシャーM12
  1

  0
POLYLINE
  5
B85A
  8
10副資材
 66
     1
 10
0.0
 20
0.0
 30
0.0
 70
     1
  0
VERTEX
  5
1047C
  8
10副資材
 10
-17.5
 20
-17.5
 30
0.0
  0
VERTEX
  5
1047D
  8
10副資材
 10
-17.5
 20
17.5
 30
0.0
  0
VERTEX
  5
1047E
  8
10副資材
 10
17.5
 20
17.5
 30
0.0
  0
VERTEX
  5
1047F
  8
10副資材
 10
17.5
 20
-17.5
 30
0.0
  0
SEQEND
  5
10530
  8
10副資材
  0
CIRCLE
  5
B85B
  8
10副資材
 10
0.0
 20
0.0
 30
0.0
 40
7.0
  0
TEXT
  5
B85C
  8
10副資材
 10
-2.926097286482431
 20
-16.5
 30
0.0
 40
3.0
  1
M12
 72
     1
 11
0.0
 21
-15.0
 31
0.0
 73
     2
  0
ENDBLK
  5
B85D
  8
0
  0
BLOCK
  8
0
  2
*D541
 70
     1
 10
0.0
 20
0.0
 30
0.0
  3
*D541
  1

  0
LINE
  5
BE92
  8
08非表示
 62
     0
 10
3350.0
 20
2165.000000000001
 30
0.0
 11
3350.0
 21
2260.000000000001
 31
0.0
  0
LINE
  5
BE93
  8
08非表示
 62
     0
 10
4125.0
 20
2165.000000000001
 30
0.0
 11
4125.0
 21
2260.000000000001
 31
0.0
  0
LINE
  5
BE94
  8
08非表示
 62
     0
 10
3380.0
 20
2250.000000000001
 30
0.0
 11
4095.0
 21
2250.000000000001
 31
0.0
  0
INSERT
  5
BE95
  8
08非表示
 62
     0
  2
_OPEN
 10
3350.0
 20
2250.000000000001
 30
0.0
 41
30.0
 42
30.0
 43
30.0
 50
180.0
  0
INSERT
  5
BE96
  8
08非表示
 62
     0
  2
_OPEN
 10
4125.0
 20
2250.000000000001
 30
0.0
 41
30.0
 42
30.0
 43
30.0
  0
TEXT
  5
BE97
  8
08非表示
  6
CONTINUOUS
 62
     0
 10
3708.179004626735
 20
2259.994372889834
 30
0.0
 40
30.0
  1
775
  0
POINT
  5
BE98
  8
DEFPOINTS
 62
     0
 10
3350.0
 20
2150.000000000001
 30
0.0
  0
POINT
  5
BE99
  8
DEFPOINTS
 62
     0
 10
4125.0
 20
2150.000000000001
 30
0.0
  0
POINT
  5
BE9A
  8
DEFPOINTS
 62
     0
 10
4125.0
 20
2250.000000000001
 30
0.0
  0
ENDBLK
  5
BE91
  8
0
  0
BLOCK
  8
0
  2
*D542
 70
     1
 10
0.0
 20
0.0
 30
0.0
  3
*D542
  1

  0
LINE
  5
BE9E
  8
13製作用注記
 62
     0
 10
1376.799999999999
 20
1904.000000000001
 30
0.0
 11
1376.799999999999
 21
1954.037128224684
 31
0.0
  0
LINE
  5
BE9F
  8
13製作用注記
 62
     0
 10
1346.799999999999
 20
1904.000000000001
 30
0.0
 11
1346.799999999999
 21
1954.037128224684
 31
0.0
  0
LINE
  5
BEA0
  8
13製作用注記
 62
     0
 10
1301.799999999999
 20
1939.037128224684
 30
0.0
 11
1173.114999999999
 21
1939.037128224684
 31
0.0
  0
LINE
  5
BEA1
  8
13製作用注記
 62
     0
 10
1376.799999999999
 20
1939.037128224684
 30
0.0
 11
1346.799999999999
 21
1939.037128224684
 31
0.0
  0
LINE
  5
BEA2
  8
13製作用注記
 62
     0
 10
1421.799999999999
 20
1939.037128224684
 30
0.0
 11
1466.799999999999
 21
1939.037128224684
 31
0.0
  0
INSERT
  5
BEA3
  8
13製作用注記
 62
     0
  2
_OPEN
 10
1376.799999999999
 20
1939.037128224684
 30
0.0
 41
45.0
 42
45.0
 43
45.0
 50
180.0
  0
INSERT
  5
BEA4
  8
13製作用注記
 62
     0
  2
_OPEN
 10
1346.799999999999
 20
1939.037128224684
 30
0.0
 41
45.0
 42
45.0
 43
45.0
  0
TEXT
  5
BEA5
  8
13製作用注記
  6
CONTINUOUS
 62
     0
 10
1185.58926034763
 20
1954.028687559434
 30
0.0
 40
45.0
  1
30
  0
POINT
  5
BEA6
  8
DEFPOINTS
 62
     0
 10
1376.799999999999
 20
1881.500000000001
 30
0.0
  0
POINT
  5
BEA7
  8
DEFPOINTS
 62
     0
 10
1346.799999999999
 20
1881.500000000001
 30
0.0
  0
POINT
  5
BEA8
  8
DEFPOINTS
 62
     0
 10
1346.799999999999
 20
1939.037128224684
 30
0.0
  0
ENDBLK
  5
BE9D
  8
0
  0
BLOCK
  8
0
  2
*D543
 70
     1
 10
0.0
 20
0.0
 30
0.0
  3
*D543
  1

  0
LINE
  5
BEAC
  8
13製作用注記
 62
     0
 10
1324.299999999999
 20
1650.000000000001
 30
0.0
 11
1181.799999999999
 21
1650.000000000001
 31
0.0
  0
LINE
  5
BEAD
  8
13製作用注記
 62
     0
 10
1337.799999999999
 20
1865.000000000001
 30
0.0
 11
1181.799999999999
 21
1865.000000000001
 31
0.0
  0
LINE
  5
BEAE
  8
13製作用注記
 62
     0
 10
1196.799999999999
 20
1695.000000000001
 30
0.0
 11
1196.799999999999
 21
1820.000000000001
 31
0.0
  0
INSERT
  5
BEAF
  8
13製作用注記
 62
     0
  2
_OPEN
 10
1196.799999999999
 20
1650.000000000001
 30
0.0
 41
45.0
 42
45.0
 43
45.0
 50
270.0
  0
INSERT
  5
BEB0
  8
13製作用注記
 62
     0
  2
_OPEN
 10
1196.799999999999
 20
1865.000000000001
 30
0.0
 41
45.0
 42
45.0
 43
45.0
 50
90.0
  0
TEXT
  5
BEB1
  8
13製作用注記
  6
CONTINUOUS
 62
     0
 10
1181.808440665249
 20
1713.968675753409
 30
0.0
 40
45.0
  1
215
 50
90.0
  0
POINT
  5
BEB2
  8
DEFPOINTS
 62
     0
 10
1346.799999999999
 20
1650.000000000001
 30
0.0
  0
POINT
  5
BEB3
  8
DEFPOINTS
 62
     0
 10
1360.299999999999
 20
1865.000000000001
 30
0.0
  0
POINT
  5
BEB4
  8
DEFPOINTS
 62
     0
 10
1196.799999999999
 20
1865.000000000001
 30
0.0
  0
ENDBLK
  5
BEAB
  8
0
  0
BLOCK
  8
0
  2
*D544
 70
     1
 10
0.0
 20
0.0
 30
0.0
  3
*D544
  1

  0
LINE
  5
BEB8
  8
01注記寸法
 62
     0
 10
1324.299999999999
 20
1650.000000000001
 30
0.0
 11
1085.0
 21
1650.000000000001
 31
0.0
  0
LINE
  5
BEB9
  8
01注記寸法
 62
     0
 10
1327.5
 20
2150.000000000001
 30
0.0
 11
1085.0
 21
2150.000000000001
 31
0.0
  0
LINE
  5
BEBA
  8
01注記寸法
 62
     0
 10
1100.0
 20
1695.000000000001
 30
0.0
 11
1100.0
 21
2105.000000000001
 31
0.0
  0
INSERT
  5
BEBB
  8
01注記寸法
 62
     0
  2
_OPEN
 10
1100.0
 20
1650.000000000001
 30
0.0
 41
45.0
 42
45.0
 43
45.0
 50
270.0
  0
INSERT
  5
BEBC
  8
01注記寸法
 62
     0
  2
_OPEN
 10
1100.0
 20
2150.000000000001
 30
0.0
 41
45.0
 42
45.0
 43
45.0
 50
90.0
  0
TEXT
  5
BEBD
  8
01注記寸法
  6
CONTINUOUS
 62
     0
 10
1085.008440665249
 20
1856.001273915219
 30
0.0
 40
45.0
  1
500
 50
90.0
  0
POINT
  5
BEBE
  8
DEFPOINTS
 62
     0
 10
1346.799999999999
 20
1650.000000000001
 30
0.0
  0
POINT
  5
BEBF
  8
DEFPOINTS
 62
     0
 10
1350.0
 20
2150.000000000001
 30
0.0
  0
POINT
  5
BEC0
  8
DEFPOINTS
 62
     0
 10
1100.0
 20
2150.000000000001
 30
0.0
  0
ENDBLK
  5
BEB7
  8
0
  0
BLOCK
  8
0
  2
*D545
 70
     1
 10
0.0
 20
0.0
 30
0.0
  3
*D545
  1

  0
LINE
  5
BEC4
  8
13製作用注記
 62
     0
 10
1728.0
 20
2115.000000000001
 30
0.0
 11
1820.457882818133
 21
2115.000000000001
 31
0.0
  0
LINE
  5
BEC5
  8
13製作用注記
 62
     0
 10
1728.0
 20
2150.000000000001
 30
0.0
 11
1820.457882818133
 21
2150.000000000001
 31
0.0
  0
LINE
  5
BEC6
  8
13製作用注記
 62
     0
 10
1805.457882818133
 20
2115.000000000001
 30
0.0
 11
1805.457882818133
 21
1942.485000000001
 31
0.0
  0
LINE
  5
BEC7
  8
13製作用注記
 62
     0
 10
1805.457882818133
 20
2115.000000000001
 30
0.0
 11
1805.457882818133
 21
2150.000000000001
 31
0.0
  0
LINE
  5
BEC8
  8
13製作用注記
 62
     0
 10
1805.457882818133
 20
2070.000000000001
 30
0.0
 11
1805.457882818133
 21
2025.000000000001
 31
0.0
  0
LINE
  5
BEC9
  8
13製作用注記
 62
     0
 10
1805.457882818133
 20
2195.000000000001
 30
0.0
 11
1805.457882818133
 21
2240.000000000001
 31
0.0
  0
INSERT
  5
BECA
  8
13製作用注記
 62
     0
  2
_OPEN
 10
1805.457882818133
 20
2115.000000000001
 30
0.0
 41
45.0
 42
45.0
 43
45.0
 50
90.0
  0
INSERT
  5
BECB
  8
13製作用注記
 62
     0
  2
_OPEN
 10
1805.457882818133
 20
2150.000000000001
 30
0.0
 41
45.0
 42
45.0
 43
45.0
 50
270.0
  0
TEXT
  5
BECC
  8
13製作用注記
  6
CONTINUOUS
 62
     0
 10
1790.466323483383
 20
1954.954204389147
 30
0.0
 40
45.0
  1
35
 50
90.0
  0
POINT
  5
BECD
  8
DEFPOINTS
 62
     0
 10
1705.5
 20
2115.000000000001
 30
0.0
  0
POINT
  5
BECE
  8
DEFPOINTS
 62
     0
 10
1705.5
 20
2150.000000000001
 30
0.0
  0
POINT
  5
BECF
  8
DEFPOINTS
 62
     0
 10
1805.457882818133
 20
2150.000000000001
 30
0.0
  0
ENDBLK
  5
BEC3
  8
0
  0
BLOCK
  8
0
  2
*D546
 70
     1
 10
0.0
 20
0.0
 30
0.0
  3
*D546
  1

  0
LINE
  5
BED3
  8
13製作用注記
 62
     0
 10
2051.0
 20
2120.000000000001
 30
0.0
 11
1931.587381269115
 21
2120.000000000001
 31
0.0
  0
LINE
  5
BED4
  8
13製作用注記
 62
     0
 10
2051.0
 20
2150.000000000001
 30
0.0
 11
1931.587381269115
 21
2150.000000000001
 31
0.0
  0
LINE
  5
BED5
  8
13製作用注記
 62
     0
 10
1946.587381269115
 20
2120.000000000001
 30
0.0
 11
1946.587381269115
 21
1946.315000000001
 31
0.0
  0
LINE
  5
BED6
  8
13製作用注記
 62
     0
 10
1946.587381269115
 20
2120.000000000001
 30
0.0
 11
1946.587381269115
 21
2150.000000000001
 31
0.0
  0
LINE
  5
BED7
  8
13製作用注記
 62
     0
 10
1946.587381269115
 20
2075.000000000001
 30
0.0
 11
1946.587381269115
 21
2030.000000000001
 31
0.0
  0
LINE
  5
BED8
  8
13製作用注記
 62
     0
 10
1946.587381269115
 20
2195.000000000001
 30
0.0
 11
1946.587381269115
 21
2240.000000000001
 31
0.0
  0
INSERT
  5
BED9
  8
13製作用注記
 62
     0
  2
_OPEN
 10
1946.587381269115
 20
2120.000000000001
 30
0.0
 41
45.0
 42
45.0
 43
45.0
 50
90.0
  0
INSERT
  5
BEDA
  8
13製作用注記
 62
     0
  2
_OPEN
 10
1946.587381269115
 20
2150.000000000001
 30
0.0
 41
45.0
 42
45.0
 43
45.0
 50
270.0
  0
TEXT
  5
BEDB
  8
13製作用注記
  6
CONTINUOUS
 62
     0
 10
1931.595821934365
 20
1958.789260347631
 30
0.0
 40
45.0
  1
30
 50
90.0
  0
POINT
  5
BEDC
  8
DEFPOINTS
 62
     0
 10
2073.5
 20
2120.000000000001
 30
0.0
  0
POINT
  5
BEDD
  8
DEFPOINTS
 62
     0
 10
2073.5
 20
2150.000000000001
 30
0.0
  0
POINT
  5
BEDE
  8
DEFPOINTS
 62
     0
 10
1946.587381269115
 20
2150.000000000001
 30
0.0
  0
ENDBLK
  5
BED2
  8
0
  0
BLOCK
  8
0
  2
*D547
 70
     1
 10
0.0
 20
0.0
 30
0.0
  3
*D547
  1

  0
LINE
  5
BEE2
  8
13製作用注記
 62
     0
 10
1350.0
 20
2172.500000000001
 30
0.0
 11
1350.0
 21
2235.000000000001
 31
0.0
  0
LINE
  5
BEE3
  8
13製作用注記
 62
     0
 10
1689.0
 20
2154.000000000001
 30
0.0
 11
1689.0
 21
2235.000000000001
 31
0.0
  0
LINE
  5
BEE4
  8
13製作用注記
 62
     0
 10
1395.0
 20
2220.000000000001
 30
0.0
 11
1644.0
 21
2220.000000000001
 31
0.0
  0
INSERT
  5
BEE5
  8
13製作用注記
 62
     0
  2
_OPEN
 10
1350.0
 20
2220.000000000001
 30
0.0
 41
45.0
 42
45.0
 43
45.0
 50
180.0
  0
INSERT
  5
BEE6
  8
13製作用注記
 62
     0
  2
_OPEN
 10
1689.0
 20
2220.000000000001
 30
0.0
 41
45.0
 42
45.0
 43
45.0
  0
TEXT
  5
BEE7
  8
13製作用注記
  6
CONTINUOUS
 62
     0
 10
1476.072425597099
 20
2234.991559334751
 30
0.0
 40
45.0
  1
339
  0
POINT
  5
BEE8
  8
DEFPOINTS
 62
     0
 10
1350.0
 20
2150.000000000001
 30
0.0
  0
POINT
  5
BEE9
  8
DEFPOINTS
 62
     0
 10
1689.0
 20
2131.500000000001
 30
0.0
  0
POINT
  5
BEEA
  8
DEFPOINTS
 62
     0
 10
1689.0
 20
2220.000000000001
 30
0.0
  0
ENDBLK
  5
BEE1
  8
0
  0
BLOCK
  8
0
  2
*D548
 70
     1
 10
0.0
 20
0.0
 30
0.0
  3
*D548
  1

  0
LINE
  5
BEEE
  8
13製作用注記
 62
     0
 10
1689.0
 20
2154.000000000001
 30
0.0
 11
1689.0
 21
2235.000000000001
 31
0.0
  0
LINE
  5
BEEF
  8
13製作用注記
 62
     0
 10
2090.0
 20
2159.000000000001
 30
0.0
 11
2090.0
 21
2235.000000000001
 31
0.0
  0
LINE
  5
BEF0
  8
13製作用注記
 62
     0
 10
1734.0
 20
2220.000000000001
 30
0.0
 11
2045.0
 21
2220.000000000001
 31
0.0
  0
INSERT
  5
BEF1
  8
13製作用注記
 62
     0
  2
_OPEN
 10
1689.0
 20
2220.000000000001
 30
0.0
 41
45.0
 42
45.0
 43
45.0
 50
180.0
  0
INSERT
  5
BEF2
  8
13製作用注記
 62
     0
  2
_OPEN
 10
2090.0
 20
2220.000000000001
 30
0.0
 41
45.0
 42
45.0
 43
45.0
  0
TEXT
  5
BEF3
  8
13製作用注記
  6
CONTINUOUS
 62
     0
 10
1850.411982618482
 20
2234.991559334751
 30
0.0
 40
45.0
  1
401
  0
POINT
  5
BEF4
  8
DEFPOINTS
 62
     0
 10
1689.0
 20
2131.500000000001
 30
0.0
  0
POINT
  5
BEF5
  8
DEFPOINTS
 62
     0
 10
2090.0
 20
2136.500000000001
 30
0.0
  0
POINT
  5
BEF6
  8
DEFPOINTS
 62
     0
 10
2090.0
 20
2220.000000000001
 30
0.0
  0
ENDBLK
  5
BEED
  8
0
  0
BLOCK
  8
0
  2
*D549
 70
     1
 10
0.0
 20
0.0
 30
0.0
  3
*D549
  1

  0
LINE
  5
BEFA
  8
13製作用注記
 62
     0
 10
2090.0
 20
2159.000000000001
 30
0.0
 11
2090.0
 21
2235.000000000001
 31
0.0
  0
LINE
  5
BEFB
  8
13製作用注記
 62
     0
 10
2210.0
 20
2159.000000000001
 30
0.0
 11
2210.0
 21
2235.000000000001
 31
0.0
  0
LINE
  5
BEFC
  8
13製作用注記
 62
     0
 10
2135.0
 20
2220.000000000001
 30
0.0
 11
2165.0
 21
2220.000000000001
 31
0.0
  0
INSERT
  5
BEFD
  8
13製作用注記
 62
     0
  2
_OPEN
 10
2090.0
 20
2220.000000000001
 30
0.0
 41
45.0
 42
45.0
 43
45.0
 50
180.0
  0
INSERT
  5
BEFE
  8
13製作用注記
 62
     0
  2
_OPEN
 10
2210.0
 20
2220.000000000001
 30
0.0
 41
45.0
 42
45.0
 43
45.0
  0
TEXT
  5
BEFF
  8
13製作用注記
  6
CONTINUOUS
 62
     0
 10
2104.403174627986
 20
2234.991559334751
 30
0.0
 40
45.0
  1
120
  0
POINT
  5
BF00
  8
DEFPOINTS
 62
     0
 10
2090.0
 20
2136.500000000001
 30
0.0
  0
POINT
  5
BF01
  8
DEFPOINTS
 62
     0
 10
2210.0
 20
2136.500000000001
 30
0.0
  0
POINT
  5
BF02
  8
DEFPOINTS
 62
     0
 10
2210.0
 20
2220.000000000001
 30
0.0
  0
ENDBLK
  5
BEF9
  8
0
  0
BLOCK
  8
0
  2
*D550
 70
     1
 10
0.0
 20
0.0
 30
0.0
  3
*D550
  1

  0
LINE
  5
BF06
  8
13製作用注記
 62
     0
 10
2210.0
 20
2159.000000000001
 30
0.0
 11
2210.0
 21
2235.000000000001
 31
0.0
  0
LINE
  5
BF07
  8
13製作用注記
 62
     0
 10
2611.0
 20
2154.000000000001
 30
0.0
 11
2611.0
 21
2235.000000000001
 31
0.0
  0
LINE
  5
BF08
  8
13製作用注記
 62
     0
 10
2255.0
 20
2220.000000000001
 30
0.0
 11
2566.0
 21
2220.000000000001
 31
0.0
  0
INSERT
  5
BF09
  8
13製作用注記
 62
     0
  2
_OPEN
 10
2210.0
 20
2220.000000000001
 30
0.0
 41
45.0
 42
45.0
 43
45.0
 50
180.0
  0
INSERT
  5
BF0A
  8
13製作用注記
 62
     0
  2
_OPEN
 10
2611.0
 20
2220.000000000001
 30
0.0
 41
45.0
 42
45.0
 43
45.0
  0
TEXT
  5
BF0B
  8
13製作用注記
  6
CONTINUOUS
 62
     0
 10
2371.411982618482
 20
2234.991559334751
 30
0.0
 40
45.0
  1
401
  0
POINT
  5
BF0C
  8
DEFPOINTS
 62
     0
 10
2210.0
 20
2136.500000000001
 30
0.0
  0
POINT
  5
BF0D
  8
DEFPOINTS
 62
     0
 10
2611.0
 20
2131.500000000001
 30
0.0
  0
POINT
  5
BF0E
  8
DEFPOINTS
 62
     0
 10
2611.0
 20
2220.000000000001
 30
0.0
  0
ENDBLK
  5
BF05
  8
0
  0
BLOCK
  8
0
  2
*D551
 70
     1
 10
0.0
 20
0.0
 30
0.0
  3
*D551
  1

  0
LINE
  5
BF12
  8
13製作用注記
 62
     0
 10
2611.0
 20
2154.000000000001
 30
0.0
 11
2611.0
 21
2235.000000000001
 31
0.0
  0
LINE
  5
BF13
  8
13製作用注記
 62
     0
 10
2950.0
 20
2172.500000000001
 30
0.0
 11
2950.0
 21
2235.000000000001
 31
0.0
  0
LINE
  5
BF14
  8
13製作用注記
 62
     0
 10
2656.0
 20
2220.000000000001
 30
0.0
 11
2905.0
 21
2220.000000000001
 31
0.0
  0
INSERT
  5
BF15
  8
13製作用注記
 62
     0
  2
_OPEN
 10
2611.0
 20
2220.000000000001
 30
0.0
 41
45.0
 42
45.0
 43
45.0
 50
180.0
  0
INSERT
  5
BF16
  8
13製作用注記
 62
     0
  2
_OPEN
 10
2950.0
 20
2220.000000000001
 30
0.0
 41
45.0
 42
45.0
 43
45.0
  0
TEXT
  5
BF17
  8
13製作用注記
  6
CONTINUOUS
 62
     0
 10
2737.072425597099
 20
2234.991559334751
 30
0.0
 40
45.0
  1
339
  0
POINT
  5
BF18
  8
DEFPOINTS
 62
     0
 10
2611.0
 20
2131.500000000001
 30
0.0
  0
POINT
  5
BF19
  8
DEFPOINTS
 62
     0
 10
2950.0
 20
2150.000000000001
 30
0.0
  0
POINT
  5
BF1A
  8
DEFPOINTS
 62
     0
 10
2950.0
 20
2220.000000000001
 30
0.0
  0
ENDBLK
  5
BF11
  8
0
  0
BLOCK
  8
0
  2
*D552
 70
     1
 10
0.0
 20
0.0
 30
0.0
  3
*D552
  1

  0
LINE
  5
BF1E
  8
01注記寸法
 62
     0
 10
3322.799999999999
 20
1650.000000000003
 30
0.0
 11
3183.5
 21
1650.000000000003
 31
0.0
  0
LINE
  5
BF1F
  8
01注記寸法
 62
     0
 10
3333.500000000002
 20
1900.000000000001
 30
0.0
 11
3183.5
 21
1900.000000000001
 31
0.0
  0
LINE
  5
BF20
  8
01注記寸法
 62
     0
 10
3198.5
 20
1695.000000000003
 30
0.0
 11
3198.5
 21
1855.000000000001
 31
0.0
  0
INSERT
  5
BF21
  8
01注記寸法
 62
     0
  2
_OPEN
 10
3198.5
 20
1650.000000000003
 30
0.0
 41
45.0
 42
45.0
 43
45.0
 50
270.0
  0
INSERT
  5
BF22
  8
01注記寸法
 62
     0
  2
_OPEN
 10
3198.5
 20
1900.000000000001
 30
0.0
 41
45.0
 42
45.0
 43
45.0
 50
90.0
  0
TEXT
  5
BF23
  8
01注記寸法
  6
CONTINUOUS
 62
     0
 10
3183.508440665249
 20
1730.888731711894
 30
0.0
 40
45.0
  1
250
 50
90.0
  0
POINT
  5
BF24
  8
DEFPOINTS
 62
     0
 10
3345.299999999999
 20
1650.000000000003
 30
0.0
  0
POINT
  5
BF25
  8
DEFPOINTS
 62
     0
 10
3356.000000000002
 20
1900.000000000001
 30
0.0
  0
POINT
  5
BF26
  8
DEFPOINTS
 62
     0
 10
3198.5
 20
1900.000000000001
 30
0.0
  0
ENDBLK
  5
BF1D
  8
0
  0
BLOCK
  8
0
  2
*D560
 70
     1
 10
0.0
 20
0.0
 30
0.0
  3
*D560
  1

  0
LINE
  5
C051
  8
01注記寸法
 62
     0
 10
1350.0
 20
3729.0
 30
0.0
 11
1350.0
 21
4169.999999999998
 31
0.0
  0
LINE
  5
C052
  8
01注記寸法
 62
     0
 10
2950.0
 20
3728.999999999999
 30
0.0
 11
2950.0
 21
4169.999999999998
 31
0.0
  0
LINE
  5
C053
  8
01注記寸法
 62
     0
 10
1395.0
 20
4154.999999999998
 30
0.0
 11
2905.0
 21
4154.999999999998
 31
0.0
  0
INSERT
  5
C054
  8
01注記寸法
 62
     0
  2
_OPEN
 10
1350.0
 20
4154.999999999998
 30
0.0
 41
45.0
 42
45.0
 43
45.0
 50
180.0
  0
INSERT
  5
C055
  8
01注記寸法
 62
     0
  2
_OPEN
 10
2950.0
 20
4154.999999999998
 30
0.0
 41
45.0
 42
45.0
 43
45.0
  0
TEXT
  5
C056
  8
01注記寸法
  6
CONTINUOUS
 62
     0
 10
2089.772688195574
 20
4169.991559334749
 30
0.0
 40
45.0
  1
1600
  0
POINT
  5
C057
  8
DEFPOINTS
 62
     0
 10
1350.0
 20
3706.5
 30
0.0
  0
POINT
  5
C058
  8
DEFPOINTS
 62
     0
 10
2950.0
 20
3706.499999999999
 30
0.0
  0
POINT
  5
C059
  8
DEFPOINTS
 62
     0
 10
2950.0
 20
4154.999999999998
 30
0.0
  0
ENDBLK
  5
C050
  8
0
  0
BLOCK
  8
0
  2
*D561
 70
     1
 10
0.0
 20
0.0
 30
0.0
  3
*D561
  1

  0
LINE
  5
C05D
  8
01注記寸法
 62
     0
 10
1327.5
 20
3704.999999999998
 30
0.0
 11
1035.0
 21
3704.999999999998
 31
0.0
  0
LINE
  5
C05E
  8
01注記寸法
 62
     0
 10
1327.5
 20
2929.999999999998
 30
0.0
 11
1035.0
 21
2929.999999999998
 31
0.0
  0
LINE
  5
C05F
  8
01注記寸法
 62
     0
 10
1050.0
 20
3659.999999999998
 30
0.0
 11
1050.0
 21
2974.999999999998
 31
0.0
  0
INSERT
  5
C060
  8
01注記寸法
 62
     0
  2
_OPEN
 10
1050.0
 20
3704.999999999998
 30
0.0
 41
45.0
 42
45.0
 43
45.0
 50
90.0
  0
INSERT
  5
C061
  8
01注記寸法
 62
     0
  2
_OPEN
 10
1050.0
 20
2929.999999999998
 30
0.0
 41
45.0
 42
45.0
 43
45.0
 50
270.0
  0
TEXT
  5
C062
  8
01注記寸法
  6
CONTINUOUS
 62
     0
 10
1035.00844066525
 20
3273.5185069401
 30
0.0
 40
45.0
  1
775
 50
90.0
  0
POINT
  5
C063
  8
DEFPOINTS
 62
     0
 10
1350.0
 20
3704.999999999998
 30
0.0
  0
POINT
  5
C064
  8
DEFPOINTS
 62
     0
 10
1350.0
 20
2929.999999999998
 30
0.0
  0
POINT
  5
C065
  8
DEFPOINTS
 62
     0
 10
1050.0
 20
2929.999999999998
 30
0.0
  0
ENDBLK
  5
C05C
  8
0
  0
BLOCK
  8
0
  2
*D825
 70
     1
 10
0.0
 20
0.0
 30
0.0
  3
*D825
  1

  0
LINE
  5
D6F4
  8
01注記寸法
 62
     0
 10
4498.418814455152
 20
433.7004795614739
 30
0.0
 11
4377.529669687498
 21
433.7004795614739
 31
0.0
  0
LINE
  5
D6F5
  8
01注記寸法
 62
     0
 10
4498.418814455152
 20
298.7004795614698
 30
0.0
 11
4377.529669687498
 21
298.7004795614698
 31
0.0
  0
LINE
  5
D6F6
  8
01注記寸法
 62
     0
 10
4392.529669687498
 20
433.7004795614739
 30
0.0
 11
4392.529669687498
 21
738.7854795614744
 31
0.0
  0
LINE
  5
D6F7
  8
01注記寸法
 62
     0
 10
4392.529669687498
 20
388.7004795614739
 30
0.0
 11
4392.529669687498
 21
343.7004795614698
 31
0.0
  0
INSERT
  5
D6F8
  8
01注記寸法
 62
     0
  2
_OPEN
 10
4392.529669687498
 20
433.7004795614739
 30
0.0
 41
45.0
 42
45.0
 43
45.0
 50
90.0
  0
INSERT
  5
D6F9
  8
01注記寸法
 62
     0
  2
_OPEN
 10
4392.529669687498
 20
298.7004795614698
 30
0.0
 41
45.0
 42
45.0
 43
45.0
 50
270.0
  0
TEXT
  5
D6FA
  8
01注記寸法
  6
CONTINUOUS
 62
     0
 10
4377.538110352747
 20
491.3614614921985
 30
0.0
 40
45.0
  1
MAX 30mm
 50
90.0
  0
POINT
  5
D6FB
  8
DEFPOINTS
 62
     0
 10
4520.918814455152
 20
433.7004795614739
 30
0.0
  0
POINT
  5
D6FC
  8
DEFPOINTS
 62
     0
 10
4520.918814455152
 20
298.7004795614698
 30
0.0
  0
POINT
  5
D6FD
  8
DEFPOINTS
 62
     0
 10
4392.529669687498
 20
298.7004795614698
 30
0.0
  0
ENDBLK
  5
D6F3
  8
0
  0
BLOCK
  8
0
  2
RAS-AP450SG他
 70
     0
 10
0.0
 20
0.0
 30
0.0
  3
RAS-AP450SG他
  1

  0
LINE
  5
FA10
  8
11機器
 10
-130.0
 20
-2.299999999999727
 30
0.0
 11
-130.0
 21
731.9999999999995
 31
0.0
  0
LINE
  5
FA11
  8
11機器
 10
1468.000013
 20
-2.299999999999727
 30
0.0
 11
1468.000013
 21
731.9999999999995
 31
0.0
  0
LINE
  5
FA12
  8
11機器
 10
-127.3000000000001
 20
-2.0
 30
0.0
 11
-127.3000000000001
 21
-5.400000000000091
 31
0.0
  0
LINE
  5
FA13
  8
11機器
 10
1431.947488
 20
746.7006779999997
 30
0.0
 11
1428.600031
 21
746.7006779999997
 31
0.0
  0
LINE
  5
FA14
  8
11機器
 10
-90.59998900000005
 20
747.0000130000003
 30
0.0
 11
1428.600031
 21
747.0000130000003
 31
0.0
  0
LINE
  5
FA15
  8
11機器
 10
-90.59998900000005
 20
747.0000130000003
 30
0.0
 11
-90.59998900000005
 21
744.3999989999998
 31
0.0
  0
LINE
  5
FA16
  8
11機器
 10
-93.80087800000001
 20
746.6006620000003
 30
0.0
 11
-90.59998900000005
 21
746.6006620000003
 31
0.0
  0
ARC
  5
FA17
  8
11機器
 10
-95.0
 20
744.9999999999995
 30
0.0
 40
2.0
 50
0.0
 51
90.0
  0
ARC
  5
FA18
  8
11機器
 10
-95.0
 20
744.9999999999995
 30
0.0
 40
1.0
 50
0.0
 51
90.0
  0
ARC
  5
FA19
  8
11機器
 10
-88.80000000000007
 20
743.7999999999997
 30
0.0
 40
3.2
 50
124.2285850000005
 51
169.1930769999989
  0
ARC
  5
FA1A
  8
11機器
 10
-116.0
 20
731.9999999999995
 30
0.0
 40
14.0
 50
90.0
 51
180.0
  0
LINE
  5
FA1B
  8
11機器
 10
-127.299987
 20
734.4000080000001
 30
0.0
 11
-117.299988
 21
744.3999989999998
 31
0.0
  0
LINE
  5
FA1C
  8
11機器
 10
-117.299988
 20
744.3999989999998
 30
0.0
 11
-90.59998900000005
 21
744.3999989999998
 31
0.0
  0
LINE
  5
FA1D
  8
11機器
 10
-116.0
 20
746.0000260000002
 30
0.0
 11
-95.0
 21
746.0000260000002
 31
0.0
  0
LINE
  5
FA1E
  8
11機器
 10
-94.000002
 20
744.9999789999997
 30
0.0
 11
-94.000002
 21
744.3999989999998
 31
0.0
  0
LINE
  5
FA1F
  8
11機器
 10
-93.0
 20
744.9999789999997
 30
0.0
 11
-93.0
 21
744.3999989999998
 31
0.0
  0
LINE
  5
FA20
  8
11機器
 10
-129.899987
 20
730.99998
 30
0.0
 11
-127.299987
 21
730.99998
 31
0.0
  0
LINE
  5
FA21
  8
11機器
 10
-127.299987
 20
730.99998
 30
0.0
 11
-127.299987
 21
734.4000080000001
 31
0.0
  0
LINE
  5
FA22
  8
11機器
 10
-90.70787700000005
 20
744.3999989999998
 30
0.0
 11
-90.64775800000007
 21
744.5653420000003
 31
0.0
  0
LINE
  5
FA23
  8
11機器
 10
-90.64775800000007
 20
744.5653420000003
 30
0.0
 11
-90.59998900000005
 21
744.6717960000001
 31
0.0
  0
LINE
  5
FA24
  8
11機器
 10
-116.0
 20
746.9999999999995
 30
0.0
 11
-95.0
 21
747.0000130000003
 31
0.0
  0
LINE
  5
FA25
  8
11機器
 10
-96.19998700000008
 20
-15.40000000000009
 30
0.0
 11
-96.19998700000008
 21
-17.29999999999973
 31
0.0
  0
ARC
  5
FA26
  8
11機器
 10
-96.19998700000008
 20
-15.29999999999973
 30
0.0
 40
1.0
 50
185.739170000015
 51
270.0
  0
LINE
  5
FA27
  8
11機器
 10
1434.40004
 20
-15.40000000000009
 30
0.0
 11
1434.40004
 21
-17.29999999999973
 31
0.0
  0
LINE
  5
FA28
  8
11機器
 10
1436.200041
 20
-15.5
 30
0.0
 11
1436.200041
 21
-15.40000000000009
 31
0.0
  0
LINE
  5
FA29
  8
11機器
 10
1435.400027
 20
-15.5
 30
0.0
 11
1435.400027
 21
-15.40000000000009
 31
0.0
  0
ARC
  5
FA2A
  8
11機器
 10
1434.400013
 20
-15.5
 30
0.0
 40
1.8
 50
270.0
 51
0.0
  0
ARC
  5
FA2B
  8
11機器
 10
1434.400013
 20
-15.5
 30
0.0
 40
1.0
 50
270.0
 51
0.0
  0
ARC
  5
FA2C
  8
11機器
 10
-96.39998700000001
 20
-15.5
 30
0.0
 40
1.8
 50
180.0
 51
270.0
  0
ARC
  5
FA2D
  8
11機器
 10
1427.0
 20
743.7999999999997
 30
0.0
 40
3.2
 50
10.8069230000007
 51
59.99973100000695
  0
ARC
  5
FA2E
  8
11機器
 10
1427.0
 20
743.7999999999997
 30
0.0
 40
2.0
 50
17.45760300000483
 51
36.86927700001889
  0
ARC
  5
FA2F
  8
11機器
 10
-116.0
 20
731.9999999999995
 30
0.0
 40
15.0
 50
90.0
 51
180.0
  0
ARC
  5
FA30
  8
11機器
 10
1433.000013
 20
744.9999999999995
 30
0.0
 40
1.0
 50
90.0
 51
180.0
  0
ARC
  5
FA31
  8
11機器
 10
1433.000013
 20
744.9999999999995
 30
0.0
 40
2.0
 50
90.00074699999963
 51
180.0
  0
ARC
  5
FA32
  8
11機器
 10
1454.000013
 20
731.9999999999995
 30
0.0
 40
14.0
 50
0.0
 51
90.0
  0
ARC
  5
FA33
  8
11機器
 10
1454.000013
 20
731.9999999999995
 30
0.0
 40
15.0
 50
0.0
 51
90.0
  0
LINE
  5
FA34
  8
11機器
 10
1454.000014
 20
746.0000260000002
 30
0.0
 11
1432.999987
 21
746.0000260000002
 31
0.0
  0
LINE
  5
FA35
  8
11機器
 10
1431.999999
 20
744.9999789999997
 30
0.0
 11
1431.999999
 21
744.3999989999998
 31
0.0
  0
LINE
  5
FA36
  8
11機器
 10
1431.000012
 20
744.9999789999997
 30
0.0
 11
1431.000012
 21
744.3999989999998
 31
0.0
  0
ARC
  5
FA37
  8
11機器
 10
1441.000013
 20
-15.29999999999973
 30
0.0
 40
2.0
 50
182.8659840000097
 51
270.0
  0
LINE
  5
FA38
  8
11機器
 10
1428.599972
 20
-17.29999999999973
 30
0.0
 11
1434.40004
 21
-17.29999999999973
 31
0.0
  0
ARC
  5
FA39
  8
11機器
 10
1454.000013
 20
-2.299999999999727
 30
0.0
 40
15.0
 50
270.0
 51
0.0
  0
ARC
  5
FA3A
  8
11機器
 10
1454.000013
 20
-2.299999999999727
 30
0.0
 40
14.0
 50
270.0
 51
0.0
  0
LINE
  5
FA3B
  8
11機器
 10
1441.000003
 20
-16.29999999999973
 30
0.0
 11
1454.000014
 21
-16.29999999999973
 31
0.0
  0
ARC
  5
FA3C
  8
11機器
 10
1441.000013
 20
-15.29999999999973
 30
0.0
 40
1.0
 50
185.7391700000157
 51
270.0
  0
ARC
  5
FA3D
  8
11機器
 10
-103.0
 20
-15.29999999999973
 30
0.0
 40
1.0
 50
270.0
 51
354.2608299999849
  0
LINE
  5
FA3E
  8
11機器
 10
-103.0
 20
-16.29999999999973
 30
0.0
 11
-116.0
 21
-16.29999999999973
 31
0.0
  0
ARC
  5
FA3F
  8
11機器
 10
-116.0
 20
-2.299999999999727
 30
0.0
 40
14.0
 50
180.0
 51
270.0
  0
ARC
  5
FA40
  8
11機器
 10
-116.0
 20
-2.299999999999727
 30
0.0
 40
15.0
 50
180.0
 51
270.0
  0
LINE
  5
FA41
  8
11機器
 10
-90.60000000000002
 20
-17.29999999999973
 30
0.0
 11
-96.39998700000001
 21
-17.29999999999973
 31
0.0
  0
ARC
  5
FA42
  8
11機器
 10
-103.0
 20
-15.29999999999973
 30
0.0
 40
2.0
 50
270.0
 51
357.1340159999901
  0
LINE
  5
FA43
  8
11機器
 10
-131.0
 20
731.4999999999995
 30
0.0
 11
-131.0
 21
-2.299999999999727
 31
0.0
  0
LINE
  5
FA44
  8
11機器
 10
1469.0
 20
731.51953
 30
0.0
 11
1469.0
 21
-2.467717999999877
 31
0.0
  0
LINE
  5
FA45
  8
11機器
 10
-101.947497
 20
-17.00065799999993
 30
0.0
 11
-97.39398400000005
 21
-17.00065799999993
 31
0.0
  0
LINE
  5
FA46
  8
11機器
 10
1439.800877
 20
-16.90065800000002
 30
0.0
 11
1435.530561
 21
-16.90065800000002
 31
0.0
  0
LINE
  5
FA47
  8
11機器
 10
-117.3000010000001
 20
-15.40000000000009
 30
0.0
 11
-127.3000000000001
 21
-5.400000000000091
 31
0.0
  0
LINE
  5
FA48
  8
11機器
 10
-117.3000010000001
 20
-15.40000000000009
 30
0.0
 11
-90.60000000000002
 21
-15.40000000000009
 31
0.0
  0
LINE
  5
FA49
  8
11機器
 10
1455.299991
 20
-15.40000000000009
 30
0.0
 11
1428.599972
 21
-15.40000000000009
 31
0.0
  0
LINE
  5
FA4A
  8
11機器
 10
1465.299982
 20
-5.400000000000091
 30
0.0
 11
1455.299991
 21
-15.40000000000009
 31
0.0
  0
LINE
  5
FA4B
  8
11機器
 10
1465.299982
 20
-2.0
 30
0.0
 11
1465.299982
 21
-5.400000000000091
 31
0.0
  0
LINE
  5
FA4C
  8
11機器
 10
-129.9
 20
-2.0
 30
0.0
 11
-127.3000000000001
 21
-2.0
 31
0.0
  0
LINE
  5
FA4D
  8
11機器
 10
1465.299982
 20
-2.0
 30
0.0
 11
1468.000013
 21
-2.0
 31
0.0
  0
LINE
  5
FA4E
  8
11機器
 10
1428.599972
 20
-18.0
 30
0.0
 11
-90.60000000000002
 21
-18.0
 31
0.0
  0
LINE
  5
FA4F
  8
11機器
 10
1428.600031
 20
747.0000130000003
 30
0.0
 11
1428.600031
 21
744.3999989999998
 31
0.0
  0
LINE
  5
FA50
  8
11機器
 10
1432.916931
 20
747.0000130000003
 30
0.0
 11
1454.008585
 21
747.0000130000003
 31
0.0
  0
LINE
  5
FA51
  8
11機器
 10
1465.300042
 20
734.4000080000001
 30
0.0
 11
1465.300042
 21
730.99998
 31
0.0
  0
LINE
  5
FA52
  8
11機器
 10
1455.299991
 20
744.3999989999998
 30
0.0
 11
1465.300042
 21
734.4000080000001
 31
0.0
  0
LINE
  5
FA53
  8
11機器
 10
1455.299991
 20
744.3999989999998
 30
0.0
 11
1428.600031
 21
744.3999989999998
 31
0.0
  0
LINE
  5
FA54
  8
11機器
 10
1465.300042
 20
730.99998
 30
0.0
 11
1467.899996
 21
730.99998
 31
0.0
  0
LINE
  5
FA55
  8
11機器
 10
1428.599972
 20
-15.40000000000009
 30
0.0
 11
1428.599972
 21
-18.0
 31
0.0
  0
LINE
  5
FA56
  8
11機器
 10
-90.60000000000002
 20
-15.40000000000009
 30
0.0
 11
-90.60000000000002
 21
-18.0
 31
0.0
  0
LINE
  5
FA57
  8
11機器
 10
-103.0
 20
-17.29999999999973
 30
0.0
 11
-116.0
 21
-17.29999999999973
 31
0.0
  0
LINE
  5
FA58
  8
11機器
 10
1441.000013
 20
-17.29999999999973
 30
0.0
 11
1454.000014
 21
-17.29999999999973
 31
0.0
  0
ARC
  5
FA59
  8
11機器
 10
-116.0
 20
731.9999999999995
 30
0.0
 40
11.0
 50
106.723111999999
 51
163.2768879999986
  0
ARC
  5
FA5A
  8
11機器
 10
-110.1
 20
744.9999999999995
 30
0.0
 40
1.0
 50
0.0
 51
90.0
  0
LINE
  5
FA5B
  8
11機器
 10
-109.100001
 20
744.5000150000001
 30
0.0
 11
-102.9
 21
744.5000150000001
 31
0.0
  0
ARC
  5
FA5C
  8
11機器
 10
-101.9
 20
744.9999999999995
 30
0.0
 40
1.0
 50
90.0
 51
180.0
  0
LINE
  5
FA5D
  8
11機器
 10
-102.9
 20
744.9999789999997
 30
0.0
 11
-102.9
 21
744.5000150000001
 31
0.0
  0
LINE
  5
FA5E
  8
11機器
 10
-109.100001
 20
744.5000150000001
 30
0.0
 11
-109.100001
 21
744.9999789999997
 31
0.0
  0
LINE
  5
FA5F
  8
11機器
 10
-95.0
 20
746.0000260000002
 30
0.0
 11
-95.0
 21
744.3999989999998
 31
0.0
  0
LINE
  5
FA60
  8
11機器
 10
665.8
 20
53.00001599999996
 30
0.0
 11
665.799998
 21
677.0000159999995
 31
0.0
  0
LINE
  5
FA61
  8
11機器
 10
672.1999969999999
 20
677.0000159999995
 30
0.0
 11
672.1999999999999
 21
53.00001599999996
 31
0.0
  0
ARC
  5
FA62
  8
11機器
 10
1439.900013
 20
744.9999999999995
 30
0.0
 40
1.0
 50
0.0
 51
90.0
  0
ARC
  5
FA63
  8
11機器
 10
1448.100013
 20
744.9999999999995
 30
0.0
 40
1.0
 50
90.0
 51
180.0
  0
LINE
  5
FA64
  8
11機器
 10
1447.100002
 20
744.9999789999997
 30
0.0
 11
1447.100002
 21
744.5000150000001
 31
0.0
  0
LINE
  5
FA65
  8
11機器
 10
1440.899986
 20
744.5000150000001
 30
0.0
 11
1440.899986
 21
744.9999789999997
 31
0.0
  0
LINE
  5
FA66
  8
11機器
 10
-98.19998700000008
 20
-15.40000000000009
 30
0.0
 11
-98.19998700000008
 21
-15.5
 31
0.0
  0
LINE
  5
FA67
  8
11機器
 10
1440.899986
 20
744.5000150000001
 30
0.0
 11
1447.100002
 21
744.5000150000001
 31
0.0
  0
ARC
  5
FA68
  8
11機器
 10
1454.000013
 20
731.9999999999995
 30
0.0
 40
11.0
 50
16.72321300000264
 51
73.27678700000145
  0
LINE
  5
FA69
  8
11機器
 10
1432.999987
 20
746.0000260000002
 30
0.0
 11
1432.999987
 21
744.3999989999998
 31
0.0
  0
LINE
  5
FA6A
  8
11機器
 10
1441.000003
 20
-15.40000000000009
 30
0.0
 11
1441.000003
 21
-16.29999999999973
 31
0.0
  0
ARC
  5
FA6B
  8
11機器
 10
1454.000013
 20
-2.299999999999727
 30
0.0
 40
11.0
 50
292.7690309999998
 51
337.230968999998
  0
LINE
  5
FA6C
  8
11機器
 10
-103.0
 20
-15.40000000000009
 30
0.0
 11
-103.0
 21
-16.29999999999973
 31
0.0
  0
ARC
  5
FA6D
  8
11機器
 10
-116.0
 20
-2.299999999999727
 30
0.0
 40
11.0
 50
202.769158000001
 51
247.2308420000011
  0
LINE
  5
FA6E
  8
11機器
 10
1468.000013
 20
52.5
 30
0.0
 11
-130.0
 21
52.5
 31
0.0
  0
LINE
  5
FA6F
  8
11機器
 10
1326.499987
 20
-7.5
 30
0.0
 11
1349.499989
 21
-7.5
 31
0.0
  0
ARC
  5
FA70
  8
11機器
 10
1326.5
 20
0.0
 30
0.0
 40
7.5
 50
90.0
 51
270.0
  0
LINE
  5
FA71
  8
11機器
 10
1349.499989
 20
7.5
 30
0.0
 11
1326.499987
 21
7.5
 31
0.0
  0
ARC
  5
FA72
  8
11機器
 10
1349.5
 20
0.0
 30
0.0
 40
7.5
 50
270.0
 51
90.0
  0
LINE
  5
FA73
  8
11機器
 10
-11.499999
 20
-7.5
 30
0.0
 11
11.49999500000001
 21
-7.5
 31
0.0
  0
ARC
  5
FA74
  8
11機器
 10
-11.5
 20
0.0
 30
0.0
 40
7.5
 50
90.0
 51
270.0
  0
LINE
  5
FA75
  8
11機器
 10
11.49999500000001
 20
7.5
 30
0.0
 11
-11.499999
 21
7.5
 31
0.0
  0
ARC
  5
FA76
  8
11機器
 10
11.5
 20
0.0
 30
0.0
 40
7.5
 50
270.0
 51
90.0
  0
LINE
  5
FA77
  8
11機器
 10
11.50000999999997
 20
736.5000219999997
 30
0.0
 11
-11.49998400000004
 21
736.5000219999997
 31
0.0
  0
ARC
  5
FA78
  8
11機器
 10
11.50001299999997
 20
728.9999999999995
 30
0.0
 40
7.5
 50
270.0
 51
90.0
  0
LINE
  5
FA79
  8
11機器
 10
-11.49998400000004
 20
721.499977
 30
0.0
 11
11.50000999999997
 21
721.499977
 31
0.0
  0
ARC
  5
FA7A
  8
11機器
 10
-11.49998700000003
 20
728.9999999999995
 30
0.0
 40
7.5
 50
90.0
 51
270.0
  0
LINE
  5
FA7B
  8
11機器
 10
1349.499989
 20
736.5000219999997
 30
0.0
 11
1326.499987
 21
736.5000219999997
 31
0.0
  0
ARC
  5
FA7C
  8
11機器
 10
1349.500013
 20
728.9999999999995
 30
0.0
 40
7.5
 50
270.0
 51
90.0
  0
LINE
  5
FA7D
  8
11機器
 10
1326.499987
 20
721.499977
 30
0.0
 11
1349.499989
 21
721.499977
 31
0.0
  0
ARC
  5
FA7E
  8
11機器
 10
1326.500013
 20
728.9999999999995
 30
0.0
 40
7.5
 50
90.0
 51
270.0
  0
LINE
  5
FA7F
  8
11機器
 10
-130.0
 20
676.50002
 30
0.0
 11
1468.000013
 21
676.50002
 31
0.0
  0
LINE
  5
FA80
  8
11機器
 10
190.00001
 20
172.0029800000002
 30
0.0
 11
204.999996
 21
172.0029800000002
 31
0.0
  0
ARC
  5
FA81
  8
11機器
 10
205.0
 20
152.002978
 30
0.0
 40
20.0
 50
0.0
 51
90.0
  0
LINE
  5
FA82
  8
11機器
 10
225.000007
 20
152.0029840000002
 30
0.0
 11
225.000007
 21
133.5029770000001
 31
0.0
  0
LINE
  5
FA83
  8
11機器
 10
16.0
 20
133.5029770000001
 30
0.0
 11
16.0
 21
152.0029840000002
 31
0.0
  0
ARC
  5
FA84
  8
11機器
 10
36.0
 20
152.002978
 30
0.0
 40
20.0
 50
90.0
 51
180.0
  0
LINE
  5
FA85
  8
11機器
 10
35.99999600000001
 20
172.0029800000002
 30
0.0
 11
77.99999200000002
 21
172.0029800000002
 31
0.0
  0
LINE
  5
FA86
  8
11機器
 10
151.999993
 20
130.502978
 30
0.0
 11
151.999993
 21
112.002978
 31
0.0
  0
LINE
  5
FA87
  8
11機器
 10
172.000004
 20
92.00297499999988
 30
0.0
 11
186.999989
 21
92.00297499999988
 31
0.0
  0
ARC
  5
FA88
  8
11機器
 10
172.0
 20
112.002978
 30
0.0
 40
20.0
 50
180.0
 51
270.0
  0
LINE
  5
FA89
  8
11機器
 10
81.00001299999997
 20
92.00297499999988
 30
0.0
 11
123.000009
 21
92.00297499999988
 31
0.0
  0
LINE
  5
FA8A
  8
11機器
 10
142.999989
 20
112.002978
 30
0.0
 11
142.999989
 21
130.502978
 31
0.0
  0
ARC
  5
FA8B
  8
11機器
 10
123.0
 20
112.002978
 30
0.0
 40
20.0
 50
270.0
 51
0.0
  0
ARC
  5
FA8C
  8
11機器
 10
-21.0
 20
87.0
 30
0.0
 40
16.5
 50
212.6052510000007
 51
327.3947489999993
  0
ARC
  5
FA8D
  8
11機器
 10
-21.0
 20
87.0
 30
0.0
 40
16.5
 50
332.6052510000001
 51
84.78409100000002
  0
ARC
  5
FA8E
  8
11機器
 10
-26.0
 20
152.0
 30
0.0
 40
27.5
 50
93.12677599999994
 51
208.4371939999998
  0
ARC
  5
FA8F
  8
11機器
 10
-21.0
 20
232.0
 30
0.0
 40
32.5
 50
211.3223279999995
 51
328.6776719999996
  0
ARC
  5
FA90
  8
11機器
 10
-21.0
 20
232.0
 30
0.0
 40
32.5
 50
92.64536000000004
 51
208.6776719999997
  0
ARC
  5
FA91
  8
11機器
 10
-21.0
 20
232.0
 30
0.0
 40
32.5
 50
331.3223280000003
 51
87.35463999999997
  0
ARC
  5
FA92
  8
11機器
 10
-26.0
 20
152.0
 30
0.0
 40
27.5
 50
211.5628059999993
 51
328.4371939999996
  0
ARC
  5
FA93
  8
11機器
 10
-26.0
 20
152.0
 30
0.0
 40
27.5
 50
331.5628060000001
 51
86.87322400000008
  0
ARC
  5
FA94
  8
11機器
 10
-21.0
 20
87.0
 30
0.0
 40
16.5
 50
95.215909
 51
207.3947489999999
  0
LINE
  5
FA95
  8
11機器
 10
16.0
 20
130.502978
 30
0.0
 11
16.0
 21
112.002978
 31
0.0
  0
LINE
  5
FA96
  8
11機器
 10
35.99999600000001
 20
92.00297499999988
 30
0.0
 11
77.99999200000002
 21
92.00297499999988
 31
0.0
  0
ARC
  5
FA97
  8
11機器
 10
36.0
 20
112.002978
 30
0.0
 40
20.0
 50
180.0
 51
270.0
  0
LINE
  5
FA98
  8
11機器
 10
186.999989
 20
172.0029800000002
 30
0.0
 11
172.000004
 21
172.0029800000002
 31
0.0
  0
LINE
  5
FA99
  8
11機器
 10
151.999993
 20
152.0029840000002
 30
0.0
 11
151.999993
 21
133.5029770000001
 31
0.0
  0
ARC
  5
FA9A
  8
11機器
 10
172.0
 20
152.002978
 30
0.0
 40
20.0
 50
90.0
 51
180.0
  0
LINE
  5
FA9B
  8
11機器
 10
211.857868
 20
97.86084500000015
 30
0.0
 11
219.142122
 21
105.145113
 31
0.0
  0
ARC
  5
FA9C
  8
11機器
 10
197.715728
 20
112.002978
 30
0.0
 40
20.0
 50
270.0
 51
314.9999999999996
  0
LINE
  5
FA9D
  8
11機器
 10
190.00001
 20
92.00297499999988
 30
0.0
 11
197.715742
 21
92.00297499999988
 31
0.0
  0
LINE
  5
FA9E
  8
11機器
 10
225.000007
 20
119.2872470000002
 30
0.0
 11
225.000007
 21
130.502978
 31
0.0
  0
ARC
  5
FA9F
  8
11機器
 10
205.0
 20
119.287249
 30
0.0
 40
20.0
 50
314.9999999999996
 51
0.0
  0
LINE
  5
FAA0
  8
11機器
 10
81.00001299999997
 20
172.0029800000002
 30
0.0
 11
123.000009
 21
172.0029800000002
 31
0.0
  0
ARC
  5
FAA1
  8
11機器
 10
123.0
 20
152.002978
 30
0.0
 40
20.0
 50
0.0
 51
90.0
  0
LINE
  5
FAA2
  8
11機器
 10
142.999989
 20
152.0029840000002
 30
0.0
 11
142.999989
 21
133.5029770000001
 31
0.0
  0
LINE
  5
FAA3
  8
11機器
 10
680.50001
 20
736.5000219999997
 30
0.0
 11
657.500016
 21
736.5000219999997
 31
0.0
  0
ARC
  5
FAA4
  8
11機器
 10
680.500013
 20
728.9999999999995
 30
0.0
 40
7.5
 50
270.0
 51
90.0
  0
LINE
  5
FAA5
  8
11機器
 10
657.500016
 20
721.499977
 30
0.0
 11
680.50001
 21
721.499977
 31
0.0
  0
ARC
  5
FAA6
  8
11機器
 10
657.500013
 20
728.9999999999995
 30
0.0
 40
7.5
 50
90.0
 51
270.0
  0
ARC
  5
FAA7
  8
11機器
 10
657.500013
 20
0.0
 30
0.0
 40
7.5
 50
90.0
 51
270.0
  0
LINE
  5
FAA8
  8
11機器
 10
657.500016
 20
-7.500023000000056
 30
0.0
 11
680.50001
 21
-7.500023000000056
 31
0.0
  0
ARC
  5
FAA9
  8
11機器
 10
680.500013
 20
0.0
 30
0.0
 40
7.5
 50
270.0
 51
90.0
  0
LINE
  5
FAAA
  8
11機器
 10
680.50001
 20
7.500022000000172
 30
0.0
 11
657.500016
 21
7.500022000000172
 31
0.0
  0
LINE
  5
FAAB
  8
11機器
 10
106.1999979999999
 20
624.5000009999999
 30
0.0
 11
100.801503
 21
624.5000009999999
 31
0.0
  0
LINE
  5
FAAC
  8
11機器
 10
106.1999979999999
 20
609.5000009999999
 30
0.0
 11
106.1999979999999
 21
624.5000009999999
 31
0.0
  0
LINE
  5
FAAD
  8
11機器
 10
79.19849399999998
 20
624.5000009999999
 30
0.0
 11
73.79999799999996
 21
624.5000009999999
 31
0.0
  0
LINE
  5
FAAE
  8
11機器
 10
412.799998
 20
609.5000020000002
 30
0.0
 11
418.198494
 21
609.5000020000002
 31
0.0
  0
LINE
  5
FAAF
  8
11機器
 10
73.79999799999996
 20
624.5000009999999
 30
0.0
 11
73.79999799999996
 21
609.5000009999999
 31
0.0
  0
LINE
  5
FAB0
  8
11機器
 10
439.8015029999999
 20
609.5000020000002
 30
0.0
 11
445.1999979999999
 21
609.5000020000002
 31
0.0
  0
LINE
  5
FAB1
  8
11機器
 10
445.1999979999999
 20
622.4303750000004
 30
0.0
 11
443.956698
 21
623.3090120000002
 31
0.0
  0
LINE
  5
FAB2
  8
11機器
 10
443.956698
 20
623.3090120000002
 30
0.0
 11
442.023177
 21
624.5000020000002
 31
0.0
  0
ARC
  5
FAB3
  8
11機器
 10
89.999998
 20
617.0000009999999
 30
0.0
 40
13.15
 50
34.77409200000083
 51
145.2259079999992
  0
ARC
  5
FAB4
  8
11機器
 10
428.999998
 20
617.0000020000002
 30
0.0
 40
13.15
 50
34.77409200000083
 51
145.2259079999992
  0
ARC
  5
FAB5
  8
11機器
 10
428.999998
 20
617.0000020000002
 30
0.0
 40
13.15
 50
214.7740920000008
 51
325.2259079999992
  0
LINE
  5
FAB6
  8
11機器
 10
100.801503
 20
609.5000009999999
 30
0.0
 11
106.1999979999999
 21
609.5000009999999
 31
0.0
  0
LINE
  5
FAB7
  8
11機器
 10
411.942993
 20
635.0097680000003
 30
0.0
 11
411.928002
 21
635.0000020000002
 31
0.0
  0
LINE
  5
FAB8
  8
11機器
 10
107.057003
 20
598.9902340000003
 30
0.0
 11
107.071994
 21
599.0000009999999
 31
0.0
  0
LINE
  5
FAB9
  8
11機器
 10
411.928002
 20
599.0000020000002
 30
0.0
 11
411.942993
 21
598.9902349999998
 31
0.0
  0
LINE
  5
FABA
  8
11機器
 10
72.92800199999999
 20
599.0000009999999
 30
0.0
 11
72.942993
 21
598.9902340000003
 31
0.0
  0
LINE
  5
FABB
  8
11機器
 10
446.071994
 20
635.0000020000002
 30
0.0
 11
446.057003
 21
635.0097680000003
 31
0.0
  0
LINE
  5
FABC
  8
11機器
 10
73.79999799999996
 20
609.5000009999999
 30
0.0
 11
79.19849399999998
 21
609.5000009999999
 31
0.0
  0
LINE
  5
FABD
  8
11機器
 10
445.1999979999999
 20
624.5000020000002
 30
0.0
 11
439.8015029999999
 21
624.5000020000002
 31
0.0
  0
LINE
  5
FABE
  8
11機器
 10
445.1999979999999
 20
609.5000020000002
 30
0.0
 11
445.1999979999999
 21
624.5000020000002
 31
0.0
  0
LINE
  5
FABF
  8
11機器
 10
418.198494
 20
624.5000020000002
 30
0.0
 11
412.799998
 21
624.5000020000002
 31
0.0
  0
ARC
  5
FAC0
  8
11機器
 10
89.999998
 20
617.0000009999999
 30
0.0
 40
13.15
 50
214.7740920000008
 51
325.2259079999992
  0
LINE
  5
FAC1
  8
11機器
 10
412.799998
 20
624.5000020000002
 30
0.0
 11
412.799998
 21
609.5000020000002
 31
0.0
  0
LINE
  5
FAC2
  8
11機器
 10
446.057003
 20
598.9902349999998
 30
0.0
 11
446.071994
 21
599.0000020000002
 31
0.0
  0
LINE
  5
FAC3
  8
11機器
 10
1240.801502
 20
609.5000050000003
 30
0.0
 11
1246.199997
 21
609.5000050000003
 31
0.0
  0
LINE
  5
FAC4
  8
11機器
 10
1213.799997
 20
609.5000050000003
 30
0.0
 11
1219.198493
 21
609.5000050000003
 31
0.0
  0
LINE
  5
FAC5
  8
11機器
 10
1246.199997
 20
624.5000050000003
 30
0.0
 11
1240.801502
 21
624.5000050000003
 31
0.0
  0
LINE
  5
FAC6
  8
11機器
 10
1246.199997
 20
609.5000050000003
 30
0.0
 11
1246.199997
 21
624.5000050000003
 31
0.0
  0
ARC
  5
FAC7
  8
11機器
 10
1229.999997
 20
617.0000050000003
 30
0.0
 40
13.15
 50
34.77409200000098
 51
145.225907999999
  0
ARC
  5
FAC8
  8
11機器
 10
1229.999997
 20
617.0000050000003
 30
0.0
 40
13.15
 50
214.774092000001
 51
325.225907999999
  0
ARC
  5
FAC9
  8
11機器
 10
890.999997
 20
617.000004
 30
0.0
 40
13.15
 50
34.7740920000007
 51
145.2259079999993
  0
ARC
  5
FACA
  8
11機器
 10
890.999997
 20
617.000004
 30
0.0
 40
13.15
 50
214.7740920000007
 51
325.2259079999993
  0
LINE
  5
FACB
  8
11機器
 10
907.1999969999999
 20
624.500004
 30
0.0
 11
901.801502
 21
624.500004
 31
0.0
  0
LINE
  5
FACC
  8
11機器
 10
907.1999969999999
 20
609.500004
 30
0.0
 11
907.1999969999999
 21
624.500004
 31
0.0
  0
LINE
  5
FACD
  8
11機器
 10
874.799997
 20
624.500004
 30
0.0
 11
874.799997
 21
609.500004
 31
0.0
  0
LINE
  5
FACE
  8
11機器
 10
880.198493
 20
624.500004
 30
0.0
 11
874.799997
 21
624.500004
 31
0.0
  0
LINE
  5
FACF
  8
11機器
 10
1213.799997
 20
624.5000050000003
 30
0.0
 11
1213.799997
 21
609.5000050000003
 31
0.0
  0
LINE
  5
FAD0
  8
11機器
 10
1219.198493
 20
624.5000050000003
 30
0.0
 11
1213.799997
 21
624.5000050000003
 31
0.0
  0
LINE
  5
FAD1
  8
11機器
 10
901.801502
 20
609.500004
 30
0.0
 11
907.1999969999999
 21
609.500004
 31
0.0
  0
LINE
  5
FAD2
  8
11機器
 10
874.799997
 20
609.500004
 30
0.0
 11
880.198493
 21
609.500004
 31
0.0
  0
LINE
  5
FAD3
  8
11機器
 10
1246.199997
 20
623.0795130000001
 30
0.0
 11
1244.145439
 21
624.5000050000003
 31
0.0
  0
CIRCLE
  5
FAD4
  8
11機器
 10
0.0000129999999672
 20
728.9999999999995
 30
0.0
 40
7.5
  0
CIRCLE
  5
FAD5
  8
11機器
 10
0.0
 20
0.0
 30
0.0
 40
7.5
  0
CIRCLE
  5
FAD6
  8
11機器
 10
1338.0
 20
0.0
 30
0.0
 40
7.5
  0
CIRCLE
  5
FAD7
  8
11機器
 10
1338.000013
 20
728.9999999999995
 30
0.0
 40
7.5
  0
CIRCLE
  5
FAD8
  8
11機器
 10
669.000013
 20
0.0
 30
0.0
 40
7.5
  0
CIRCLE
  5
FAD9
  8
11機器
 10
669.000013
 20
728.9999999999995
 30
0.0
 40
7.5
  0
CIRCLE
  5
FADA
  8
11機器
 10
704.0
 20
307.0
 30
0.0
 40
30.0
  0
TEXT
  5
FADB
  8
11機器
 10
694.2463423783919
 20
292.0
 30
0.0
 40
30.0
  1
G
 72
     1
 11
704.0
 21
307.0
 31
0.0
 73
     2
  0
DIMENSION
  5
FADC
  8
11機器
  2
*D1223
 10
851.0425915823638
 20
-18.00000000000001
 30
0.0
 11
826.0425915823638
 21
144.5
 31
0.0
 70
    32
  3
NEMY-10
 13
734.0
 23
307.0
 33
0.0
 14
734.0
 24
-18.0
 34
0.0
 50
90.0
  0
DIMENSION
  5
FAE9
  8
11機器
  2
*D1224
 10
-131.0
 20
417.7365328688188
 30
0.0
 11
286.5
 21
442.7365328688188
 31
0.0
 70
    32
  3
NEMY-10
 13
704.0
 23
337.0
 33
0.0
 14
-131.0
 24
337.0
 34
0.0
  0
ENDBLK
  5
FAF6
  8
0
  0
BLOCK
  8
0
  2
*D1223
 70
     1
 10
0.0
 20
0.0
 30
0.0
  3
*D1223
  1

  0
LINE
  5
FADF
  8
11機器
 62
     0
 10
749.0
 20
307.0
 30
0.0
 11
861.0425915823638
 21
307.0
 31
0.0
  0
LINE
  5
FAE0
  8
11機器
 62
     0
 10
749.0
 20
-18.0
 30
0.0
 11
861.0425915823638
 21
-18.00000000000001
 31
0.0
  0
LINE
  5
FAE1
  8
11機器
 62
     0
 10
851.0425915823638
 20
277.0
 30
0.0
 11
851.0425915823638
 21
11.99999999999999
 31
0.0
  0
INSERT
  5
FAE2
  8
11機器
 62
     0
  2
_OPEN
 10
851.0425915823638
 20
307.0
 30
0.0
 41
30.0
 42
30.0
 43
30.0
 50
90.0
  0
INSERT
  5
FAE3
  8
11機器
 62
     0
  2
_OPEN
 10
851.0425915823638
 20
-18.00000000000001
 30
0.0
 41
30.0
 42
30.0
 43
30.0
 50
270.0
  0
TEXT
  5
FAE4
  8
11機器
  6
CONTINUOUS
 62
     0
 10
841.0482186925301
 20
115.5541453044892
 30
0.0
 40
30.0
  1
325
 50
90.0
  0
POINT
  5
FAE5
  8
DEFPOINTS
 62
     0
 10
734.0
 20
307.0
 30
0.0
  0
POINT
  5
FAE6
  8
DEFPOINTS
 62
     0
 10
734.0
 20
-18.0
 30
0.0
  0
POINT
  5
FAE7
  8
DEFPOINTS
 62
     0
 10
851.0425915823638
 20
-18.00000000000001
 30
0.0
  0
ENDBLK
  5
FAE8
  8
0
  0
BLOCK
  8
0
  2
*D1224
 70
     1
 10
0.0
 20
0.0
 30
0.0
  3
*D1224
  1

  0
LINE
  5
FAEC
  8
11機器
 62
     0
 10
704.0
 20
352.0
 30
0.0
 11
704.0
 21
427.7365328688188
 31
0.0
  0
LINE
  5
FAED
  8
11機器
 62
     0
 10
-131.0
 20
352.0
 30
0.0
 11
-131.0
 21
427.7365328688188
 31
0.0
  0
LINE
  5
FAEE
  8
11機器
 62
     0
 10
674.0
 20
417.7365328688188
 30
0.0
 11
-101.0
 21
417.7365328688188
 31
0.0
  0
INSERT
  5
FAEF
  8
11機器
 62
     0
  2
_OPEN
 10
704.0
 20
417.7365328688188
 30
0.0
 41
30.0
 42
30.0
 43
30.0
  0
INSERT
  5
FAF0
  8
11機器
 62
     0
  2
_OPEN
 10
-131.0
 20
417.7365328688188
 30
0.0
 41
30.0
 42
30.0
 43
30.0
 50
180.0
  0
TEXT
  5
FAF1
  8
11機器
  6
CONTINUOUS
 62
     0
 10
257.5569588595723
 20
427.7309057586525
 30
0.0
 40
30.0
  1
835
  0
POINT
  5
FAF2
  8
DEFPOINTS
 62
     0
 10
704.0
 20
337.0
 30
0.0
  0
POINT
  5
FAF3
  8
DEFPOINTS
 62
     0
 10
-131.0
 20
337.0
 30
0.0
  0
POINT
  5
FAF4
  8
DEFPOINTS
 62
     0
 10
-131.0
 20
417.7365328688188
 30
0.0
  0
ENDBLK
  5
FAF5
  8
0
  0
BLOCK
  8
0
  2
N-SPH1600
 70
     0
 10
0.0
 20
0.0
 30
0.0
  3
N-SPH1600
  1

  0
POLYLINE
  5
FB77
  8
12防振架台
 66
     1
 10
0.0
 20
0.0
 30
0.0
 70
     1
  0
VERTEX
  5
10480
  8
12防振架台
 10
0.0
 20
0.0
 30
0.0
  0
VERTEX
  5
10481
  8
12防振架台
 10
0.0
 20
765.0
 30
0.0
  0
VERTEX
  5
10482
  8
12防振架台
 10
1600.0
 20
765.0
 30
0.0
  0
VERTEX
  5
10483
  8
12防振架台
 10
1600.0
 20
0.0
 30
0.0
  0
SEQEND
  5
10531
  8
12防振架台
  0
POLYLINE
  5
FB78
  8
12防振架台
 66
     1
 10
0.0
 20
0.0
 30
0.0
 70
     1
  0
VERTEX
  5
10484
  8
12防振架台
 10
60.0
 20
60.0
 30
0.0
  0
VERTEX
  5
10485
  8
12防振架台
 10
60.0
 20
705.0
 30
0.0
  0
VERTEX
  5
10486
  8
12防振架台
 10
1540.0
 20
705.0
 30
0.0
  0
VERTEX
  5
10487
  8
12防振架台
 10
1540.0
 20
60.0
 30
0.0
  0
SEQEND
  5
10532
  8
12防振架台
  0
CIRCLE
  5
FB79
  8
12防振架台
 10
100.0
 20
30.0
 30
0.0
 40
8.0
  0
CIRCLE
  5
FB7A
  8
12防振架台
 10
131.0
 20
18.0
 30
0.0
 40
8.0
  0
CIRCLE
  5
FB7B
  8
12防振架台
 10
100.0
 20
735.0
 30
0.0
 40
8.0
  0
CIRCLE
  5
FB7C
  8
12防振架台
 10
131.0
 20
747.0
 30
0.0
 40
8.0
  0
CIRCLE
  5
FB7D
  8
12防振架台
 10
1500.0
 20
30.0
 30
0.0
 40
8.0
  0
CIRCLE
  5
FB7E
  8
12防振架台
 10
1469.0
 20
18.0
 30
0.0
 40
8.0
  0
CIRCLE
  5
FB7F
  8
12防振架台
 10
1500.0
 20
735.0
 30
0.0
 40
8.0
  0
CIRCLE
  5
FB80
  8
12防振架台
 10
1469.0
 20
747.0
 30
0.0
 40
8.0
  0
CIRCLE
  5
FB81
  8
12防振架台
 10
800.0
 20
747.0
 30
0.0
 40
8.0
  0
CIRCLE
  5
FB82
  8
12防振架台
 10
800.0
 20
18.0
 30
0.0
 40
8.0
  0
ENDBLK
  5
FB84
  8
0
  0
BLOCK
  8
0
  2
*D1226
 70
     1
 10
0.0
 20
0.0
 30
0.0
  3
*D1226
  1

  0
LINE
  5
FBE9
  8
01注記寸法
 62
     0
 10
1327.5
 20
3704.999999999999
 30
0.0
 11
1185.0
 21
3704.999999999999
 31
0.0
  0
LINE
  5
FBEA
  8
01注記寸法
 62
     0
 10
1438.5
 20
3681.974094
 30
0.0
 11
1185.0
 21
3681.974094
 31
0.0
  0
LINE
  5
FBEB
  8
01注記寸法
 62
     0
 10
1200.0
 20
3704.999999999999
 30
0.0
 11
1200.0
 21
3877.29
 31
0.0
  0
LINE
  5
FBEC
  8
01注記寸法
 62
     0
 10
1200.0
 20
3704.999999999999
 30
0.0
 11
1200.0
 21
3681.974094
 31
0.0
  0
LINE
  5
FBED
  8
01注記寸法
 62
     0
 10
1200.0
 20
3749.999999999999
 30
0.0
 11
1200.0
 21
3794.999999999999
 31
0.0
  0
LINE
  5
FBEE
  8
01注記寸法
 62
     0
 10
1200.0
 20
3636.974094
 30
0.0
 11
1200.0
 21
3591.974094
 31
0.0
  0
INSERT
  5
FBEF
  8
01注記寸法
 62
     0
  2
_OPEN
 10
1200.0
 20
3704.999999999999
 30
0.0
 41
45.0
 42
45.0
 43
45.0
 50
270.0
  0
INSERT
  5
FBF0
  8
01注記寸法
 62
     0
  2
_OPEN
 10
1200.0
 20
3681.974094
 30
0.0
 41
45.0
 42
45.0
 43
45.0
 50
90.0
  0
TEXT
  5
FBF1
  8
01注記寸法
  6
CONTINUOUS
 62
     0
 10
1185.00844066525
 20
3807.244162185819
 30
0.0
 40
45.0
  1
23
 50
90.0
  0
POINT
  5
FBF2
  8
DEFPOINTS
 62
     0
 10
1350.0
 20
3704.999999999999
 30
0.0
  0
POINT
  5
FBF3
  8
DEFPOINTS
 62
     0
 10
1461.0
 20
3681.974094
 30
0.0
  0
POINT
  5
FBF4
  8
DEFPOINTS
 62
     0
 10
1200.0
 20
3681.974094
 30
0.0
  0
ENDBLK
  5
FBE8
  8
0
  0
BLOCK
  8
0
  2
*D1227
 70
     1
 10
0.0
 20
0.0
 30
0.0
  3
*D1227
  1

  0
LINE
  5
FBF9
  8
01注記寸法
 62
     0
 10
1438.5
 20
3681.974094
 30
0.0
 11
1185.0
 21
3681.974094
 31
0.0
  0
LINE
  5
FBFA
  8
01注記寸法
 62
     0
 10
1438.5
 20
2952.974094
 30
0.0
 11
1185.0
 21
2952.974094
 31
0.0
  0
LINE
  5
FBFB
  8
01注記寸法
 62
     0
 10
1200.0
 20
3636.974094
 30
0.0
 11
1200.0
 21
2997.974094
 31
0.0
  0
INSERT
  5
FBFC
  8
01注記寸法
 62
     0
  2
_OPEN
 10
1200.0
 20
3681.974094
 30
0.0
 41
45.0
 42
45.0
 43
45.0
 50
90.0
  0
INSERT
  5
FBFD
  8
01注記寸法
 62
     0
  2
_OPEN
 10
1200.0
 20
2952.974094
 30
0.0
 41
45.0
 42
45.0
 43
45.0
 50
270.0
  0
TEXT
  5
FBFE
  8
01注記寸法
  6
CONTINUOUS
 62
     0
 10
1185.00844066525
 20
3273.483808580468
 30
0.0
 40
45.0
  1
729
 50
90.0
  0
POINT
  5
FBFF
  8
DEFPOINTS
 62
     0
 10
1461.0
 20
3681.974094
 30
0.0
  0
POINT
  5
FC00
  8
DEFPOINTS
 62
     0
 10
1461.0
 20
2952.974094
 30
0.0
  0
POINT
  5
FC01
  8
DEFPOINTS
 62
     0
 10
1200.0
 20
2952.974094
 30
0.0
  0
ENDBLK
  5
FBF8
  8
0
  0
BLOCK
  8
0
  2
*D1228
 70
     1
 10
0.0
 20
0.0
 30
0.0
  3
*D1228
  1

  0
LINE
  5
FC06
  8
01注記寸法
 62
     0
 10
1438.5
 20
2952.974094
 30
0.0
 11
1185.0
 21
2952.974094
 31
0.0
  0
LINE
  5
FC07
  8
01注記寸法
 62
     0
 10
1327.5
 20
2929.999999999999
 30
0.0
 11
1185.0
 21
2929.999999999999
 31
0.0
  0
LINE
  5
FC08
  8
01注記寸法
 62
     0
 10
1200.0
 20
2884.999999999999
 30
0.0
 11
1200.0
 21
2757.709999999999
 31
0.0
  0
LINE
  5
FC09
  8
01注記寸法
 62
     0
 10
1200.0
 20
2952.974094
 30
0.0
 11
1200.0
 21
2929.999999999999
 31
0.0
  0
LINE
  5
FC0A
  8
01注記寸法
 62
     0
 10
1200.0
 20
2997.974094
 30
0.0
 11
1200.0
 21
3042.974094
 31
0.0
  0
INSERT
  5
FC0B
  8
01注記寸法
 62
     0
  2
_OPEN
 10
1200.0
 20
2952.974094
 30
0.0
 41
45.0
 42
45.0
 43
45.0
 50
270.0
  0
INSERT
  5
FC0C
  8
01注記寸法
 62
     0
  2
_OPEN
 10
1200.0
 20
2929.999999999999
 30
0.0
 41
45.0
 42
45.0
 43
45.0
 50
90.0
  0
TEXT
  5
FC0D
  8
01注記寸法
  6
CONTINUOUS
 62
     0
 10
1185.00844066525
 20
2769.954162185819
 30
0.0
 40
45.0
  1
23
 50
90.0
  0
POINT
  5
FC0E
  8
DEFPOINTS
 62
     0
 10
1461.0
 20
2952.974094
 30
0.0
  0
POINT
  5
FC0F
  8
DEFPOINTS
 62
     0
 10
1350.0
 20
2929.999999999999
 30
0.0
  0
POINT
  5
FC10
  8
DEFPOINTS
 62
     0
 10
1200.0
 20
2929.999999999999
 30
0.0
  0
ENDBLK
  5
FC05
  8
0
  0
BLOCK
  8
0
  2
*D1229
 70
     1
 10
0.0
 20
0.0
 30
0.0
  3
*D1229
  1

  0
LINE
  5
FC15
  8
01注記寸法
 62
     0
 10
1350.0
 20
3728.999999999999
 30
0.0
 11
1350.0
 21
4020.0
 31
0.0
  0
LINE
  5
FC16
  8
01注記寸法
 62
     0
 10
1481.0
 20
3724.474094
 30
0.0
 11
1481.0
 21
4020.0
 31
0.0
  0
LINE
  5
FC17
  8
01注記寸法
 62
     0
 10
1395.0
 20
4005.0
 30
0.0
 11
1436.0
 21
4005.0
 31
0.0
  0
INSERT
  5
FC18
  8
01注記寸法
 62
     0
  2
_OPEN
 10
1350.0
 20
4005.0
 30
0.0
 41
45.0
 42
45.0
 43
45.0
 50
180.0
  0
INSERT
  5
FC19
  8
01注記寸法
 62
     0
  2
_OPEN
 10
1481.0
 20
4005.0
 30
0.0
 41
45.0
 42
45.0
 43
45.0
  0
TEXT
  5
FC1A
  8
01注記寸法
  6
CONTINUOUS
 62
     0
 10
1374.46711266725
 20
4019.99155933475
 30
0.0
 40
45.0
  1
131
  0
POINT
  5
FC1B
  8
DEFPOINTS
 62
     0
 10
1350.0
 20
3706.499999999999
 30
0.0
  0
POINT
  5
FC1C
  8
DEFPOINTS
 62
     0
 10
1481.0
 20
3701.974094
 30
0.0
  0
POINT
  5
FC1D
  8
DEFPOINTS
 62
     0
 10
1481.0
 20
4005.0
 30
0.0
  0
ENDBLK
  5
FC14
  8
0
  0
BLOCK
  8
0
  2
*D1230
 70
     1
 10
0.0
 20
0.0
 30
0.0
  3
*D1230
  1

  0
LINE
  5
FC22
  8
01注記寸法
 62
     0
 10
1481.0
 20
3724.474094
 30
0.0
 11
1481.0
 21
4020.0
 31
0.0
  0
LINE
  5
FC23
  8
01注記寸法
 62
     0
 10
2150.000013
 20
3724.474093999999
 30
0.0
 11
2150.000013
 21
4020.0
 31
0.0
  0
LINE
  5
FC24
  8
01注記寸法
 62
     0
 10
1526.0
 20
4005.0
 30
0.0
 11
2105.000013
 21
4005.0
 31
0.0
  0
INSERT
  5
FC25
  8
01注記寸法
 62
     0
  2
_OPEN
 10
1481.0
 20
4005.0
 30
0.0
 41
45.0
 42
45.0
 43
45.0
 50
180.0
  0
INSERT
  5
FC26
  8
01注記寸法
 62
     0
  2
_OPEN
 10
2150.000013
 20
4005.0
 30
0.0
 41
45.0
 42
45.0
 43
45.0
  0
TEXT
  5
FC27
  8
01注記寸法
  6
CONTINUOUS
 62
     0
 10
1771.733750403964
 20
4020.0
 30
0.0
 40
45.0
  1
669
  0
POINT
  5
FC28
  8
DEFPOINTS
 62
     0
 10
1481.0
 20
3701.974094
 30
0.0
  0
POINT
  5
FC29
  8
DEFPOINTS
 62
     0
 10
2150.000013
 20
3701.974093999999
 30
0.0
  0
POINT
  5
FC2A
  8
DEFPOINTS
 62
     0
 10
2150.000013
 20
4005.0
 30
0.0
  0
ENDBLK
  5
FC21
  8
0
  0
BLOCK
  8
0
  2
*D1231
 70
     1
 10
0.0
 20
0.0
 30
0.0
  3
*D1231
  1

  0
LINE
  5
FC2F
  8
01注記寸法
 62
     0
 10
2150.000013
 20
3724.474093999999
 30
0.0
 11
2150.000013
 21
4020.0
 31
0.0
  0
LINE
  5
FC30
  8
01注記寸法
 62
     0
 10
2819.0
 20
3724.474094
 30
0.0
 11
2819.0
 21
4020.0
 31
0.0
  0
LINE
  5
FC31
  8
01注記寸法
 62
     0
 10
2195.000013
 20
4005.0
 30
0.0
 11
2774.0
 21
4005.0
 31
0.0
  0
INSERT
  5
FC32
  8
01注記寸法
 62
     0
  2
_OPEN
 10
2150.000013
 20
4005.0
 30
0.0
 41
45.0
 42
45.0
 43
45.0
 50
180.0
  0
INSERT
  5
FC33
  8
01注記寸法
 62
     0
  2
_OPEN
 10
2819.0
 20
4005.0
 30
0.0
 41
45.0
 42
45.0
 43
45.0
  0
TEXT
  5
FC34
  8
01注記寸法
  6
CONTINUOUS
 62
     0
 10
2440.733750403964
 20
4020.0
 30
0.0
 40
45.0
  1
669
  0
POINT
  5
FC35
  8
DEFPOINTS
 62
     0
 10
2150.000013
 20
3701.974093999999
 30
0.0
  0
POINT
  5
FC36
  8
DEFPOINTS
 62
     0
 10
2819.0
 20
3701.974094
 30
0.0
  0
POINT
  5
FC37
  8
DEFPOINTS
 62
     0
 10
2819.0
 20
4005.0
 30
0.0
  0
ENDBLK
  5
FC2E
  8
0
  0
BLOCK
  8
0
  2
*D1232
 70
     1
 10
0.0
 20
0.0
 30
0.0
  3
*D1232
  1

  0
LINE
  5
FC3C
  8
01注記寸法
 62
     0
 10
2819.0
 20
3724.474094
 30
0.0
 11
2819.0
 21
4020.0
 31
0.0
  0
LINE
  5
FC3D
  8
01注記寸法
 62
     0
 10
2950.0
 20
3728.999999999999
 30
0.0
 11
2950.0
 21
4020.0
 31
0.0
  0
LINE
  5
FC3E
  8
01注記寸法
 62
     0
 10
2864.0
 20
4005.0
 30
0.0
 11
2905.0
 21
4005.0
 31
0.0
  0
INSERT
  5
FC3F
  8
01注記寸法
 62
     0
  2
_OPEN
 10
2819.0
 20
4005.0
 30
0.0
 41
45.0
 42
45.0
 43
45.0
 50
180.0
  0
INSERT
  5
FC40
  8
01注記寸法
 62
     0
  2
_OPEN
 10
2950.0
 20
4005.0
 30
0.0
 41
45.0
 42
45.0
 43
45.0
  0
TEXT
  5
FC41
  8
01注記寸法
  6
CONTINUOUS
 62
     0
 10
2843.467112667251
 20
4019.99155933475
 30
0.0
 40
45.0
  1
131
  0
POINT
  5
FC42
  8
DEFPOINTS
 62
     0
 10
2819.0
 20
3701.974094
 30
0.0
  0
POINT
  5
FC43
  8
DEFPOINTS
 62
     0
 10
2950.0
 20
3706.499999999999
 30
0.0
  0
POINT
  5
FC44
  8
DEFPOINTS
 62
     0
 10
2950.0
 20
4005.0
 30
0.0
  0
ENDBLK
  5
FC3B
  8
0
  0
BLOCK
  8
0
  2
*D1233
 70
     1
 10
0.0
 20
0.0
 30
0.0
  3
*D1233
  1

  0
LINE
  5
FC49
  8
01注記寸法
 62
     0
 10
1350.0
 20
2905.999999999999
 30
0.0
 11
1350.0
 21
2615.0
 31
0.0
  0
LINE
  5
FC4A
  8
01注記寸法
 62
     0
 10
1450.0
 20
2922.474094
 30
0.0
 11
1450.0
 21
2615.0
 31
0.0
  0
LINE
  5
FC4B
  8
01注記寸法
 62
     0
 10
1350.0
 20
2630.0
 30
0.0
 11
1450.0
 21
2630.0
 31
0.0
  0
LINE
  5
FC4C
  8
01注記寸法
 62
     0
 10
1305.0
 20
2630.0
 30
0.0
 11
1260.0
 21
2630.0
 31
0.0
  0
LINE
  5
FC4D
  8
01注記寸法
 62
     0
 10
1495.0
 20
2630.0
 30
0.0
 11
1540.0
 21
2630.0
 31
0.0
  0
INSERT
  5
FC4E
  8
01注記寸法
 62
     0
  2
_OPEN
 10
1350.0
 20
2630.0
 30
0.0
 41
45.0
 42
45.0
 43
45.0
  0
INSERT
  5
FC4F
  8
01注記寸法
 62
     0
  2
_OPEN
 10
1450.0
 20
2630.0
 30
0.0
 41
45.0
 42
45.0
 43
45.0
 50
180.0
  0
TEXT
  5
FC50
  8
01注記寸法
  6
CONTINUOUS
 62
     0
 10
1354.403174627985
 20
2644.99155933475
 30
0.0
 40
45.0
  1
100
  0
POINT
  5
FC51
  8
DEFPOINTS
 62
     0
 10
1350.0
 20
2928.499999999999
 30
0.0
  0
POINT
  5
FC52
  8
DEFPOINTS
 62
     0
 10
1450.0
 20
2944.974094
 30
0.0
  0
POINT
  5
FC53
  8
DEFPOINTS
 62
     0
 10
1450.0
 20
2630.0
 30
0.0
  0
ENDBLK
  5
FC48
  8
0
  0
BLOCK
  8
0
  2
*D1234
 70
     1
 10
0.0
 20
0.0
 30
0.0
  3
*D1234
  1

  0
LINE
  5
FC58
  8
01注記寸法
 62
     0
 10
1450.0
 20
2922.474094
 30
0.0
 11
1450.0
 21
2615.0
 31
0.0
  0
LINE
  5
FC59
  8
01注記寸法
 62
     0
 10
2850.0
 20
2922.474094
 30
0.0
 11
2850.0
 21
2615.0
 31
0.0
  0
LINE
  5
FC5A
  8
01注記寸法
 62
     0
 10
1495.0
 20
2630.0
 30
0.0
 11
2805.0
 21
2630.0
 31
0.0
  0
INSERT
  5
FC5B
  8
01注記寸法
 62
     0
  2
_OPEN
 10
1450.0
 20
2630.0
 30
0.0
 41
45.0
 42
45.0
 43
45.0
 50
180.0
  0
INSERT
  5
FC5C
  8
01注記寸法
 62
     0
  2
_OPEN
 10
2850.0
 20
2630.0
 30
0.0
 41
45.0
 42
45.0
 43
45.0
  0
TEXT
  5
FC5D
  8
01注記寸法
  6
CONTINUOUS
 62
     0
 10
2045.998694823059
 20
2647.961413029886
 30
0.0
 40
45.0
  1
※ 1400
  0
POINT
  5
FC5E
  8
DEFPOINTS
 62
     0
 10
1450.0
 20
2944.974094
 30
0.0
  0
POINT
  5
FC5F
  8
DEFPOINTS
 62
     0
 10
2850.0
 20
2944.974094
 30
0.0
  0
POINT
  5
FC60
  8
DEFPOINTS
 62
     0
 10
2850.0
 20
2630.0
 30
0.0
  0
ENDBLK
  5
FC57
  8
0
  0
BLOCK
  8
0
  2
*D1235
 70
     1
 10
0.0
 20
0.0
 30
0.0
  3
*D1235
  1

  0
LINE
  5
FC65
  8
01注記寸法
 62
     0
 10
2850.0
 20
2922.474094
 30
0.0
 11
2850.0
 21
2615.0
 31
0.0
  0
LINE
  5
FC66
  8
01注記寸法
 62
     0
 10
2950.0
 20
2905.999999999999
 30
0.0
 11
2950.0
 21
2615.0
 31
0.0
  0
LINE
  5
FC67
  8
01注記寸法
 62
     0
 10
2850.0
 20
2630.0
 30
0.0
 11
2950.0
 21
2630.0
 31
0.0
  0
LINE
  5
FC68
  8
01注記寸法
 62
     0
 10
2805.0
 20
2630.0
 30
0.0
 11
2760.0
 21
2630.0
 31
0.0
  0
LINE
  5
FC69
  8
01注記寸法
 62
     0
 10
2995.0
 20
2630.0
 30
0.0
 11
3040.0
 21
2630.0
 31
0.0
  0
INSERT
  5
FC6A
  8
01注記寸法
 62
     0
  2
_OPEN
 10
2850.0
 20
2630.0
 30
0.0
 41
45.0
 42
45.0
 43
45.0
  0
INSERT
  5
FC6B
  8
01注記寸法
 62
     0
  2
_OPEN
 10
2950.0
 20
2630.0
 30
0.0
 41
45.0
 42
45.0
 43
45.0
 50
180.0
  0
TEXT
  5
FC6C
  8
01注記寸法
  6
CONTINUOUS
 62
     0
 10
2854.403174627986
 20
2644.99155933475
 30
0.0
 40
45.0
  1
100
  0
POINT
  5
FC6D
  8
DEFPOINTS
 62
     0
 10
2850.0
 20
2944.974094
 30
0.0
  0
POINT
  5
FC6E
  8
DEFPOINTS
 62
     0
 10
2950.0
 20
2928.499999999999
 30
0.0
  0
POINT
  5
FC6F
  8
DEFPOINTS
 62
     0
 10
2950.0
 20
2630.0
 30
0.0
  0
ENDBLK
  5
FC64
  8
0
  0
BLOCK
  8
0
  2
*D1236
 70
     1
 10
0.0
 20
0.0
 30
0.0
  3
*D1236
  1

  0
LINE
  5
FC74
  8
01注記寸法
 62
     0
 10
2972.5
 20
2930.0
 30
0.0
 11
3115.0
 21
2930.0
 31
0.0
  0
LINE
  5
FC75
  8
01注記寸法
 62
     0
 10
2892.5
 20
2964.974094
 30
0.0
 11
3115.0
 21
2964.974094
 31
0.0
  0
LINE
  5
FC76
  8
01注記寸法
 62
     0
 10
3100.0
 20
2930.0
 30
0.0
 11
3100.0
 21
2757.485
 31
0.0
  0
LINE
  5
FC77
  8
01注記寸法
 62
     0
 10
3100.0
 20
2930.0
 30
0.0
 11
3100.0
 21
2964.974094
 31
0.0
  0
LINE
  5
FC78
  8
01注記寸法
 62
     0
 10
3100.0
 20
2885.0
 30
0.0
 11
3100.0
 21
2840.0
 31
0.0
  0
LINE
  5
FC79
  8
01注記寸法
 62
     0
 10
3100.0
 20
3009.974094
 30
0.0
 11
3100.0
 21
3054.974094
 31
0.0
  0
INSERT
  5
FC7A
  8
01注記寸法
 62
     0
  2
_OPEN
 10
3100.0
 20
2930.0
 30
0.0
 41
45.0
 42
45.0
 43
45.0
 50
90.0
  0
INSERT
  5
FC7B
  8
01注記寸法
 62
     0
  2
_OPEN
 10
3100.0
 20
2964.974094
 30
0.0
 41
45.0
 42
45.0
 43
45.0
 50
270.0
  0
TEXT
  5
FC7C
  8
01注記寸法
  6
CONTINUOUS
 62
     0
 10
3085.00844066525
 20
2769.954204389146
 30
0.0
 40
45.0
  1
35
 50
90.0
  0
POINT
  5
FC7D
  8
DEFPOINTS
 62
     0
 10
2950.0
 20
2930.0
 30
0.0
  0
POINT
  5
FC7E
  8
DEFPOINTS
 62
     0
 10
2870.0
 20
2964.974094
 30
0.0
  0
POINT
  5
FC7F
  8
DEFPOINTS
 62
     0
 10
3100.0
 20
2964.974094
 30
0.0
  0
ENDBLK
  5
FC73
  8
0
  0
BLOCK
  8
0
  2
*D1237
 70
     1
 10
0.0
 20
0.0
 30
0.0
  3
*D1237
  1

  0
LINE
  5
FC84
  8
01注記寸法
 62
     0
 10
2892.5
 20
2964.974094
 30
0.0
 11
3115.0
 21
2964.974094
 31
0.0
  0
LINE
  5
FC85
  8
01注記寸法
 62
     0
 10
2892.5
 20
3669.974094
 30
0.0
 11
3115.0
 21
3669.974094
 31
0.0
  0
LINE
  5
FC86
  8
01注記寸法
 62
     0
 10
3100.0
 20
3009.974094
 30
0.0
 11
3100.0
 21
3624.974094
 31
0.0
  0
INSERT
  5
FC87
  8
01注記寸法
 62
     0
  2
_OPEN
 10
3100.0
 20
2964.974094
 30
0.0
 41
45.0
 42
45.0
 43
45.0
 50
270.0
  0
INSERT
  5
FC88
  8
01注記寸法
 62
     0
  2
_OPEN
 10
3100.0
 20
3669.974094
 30
0.0
 41
45.0
 42
45.0
 43
45.0
 50
90.0
  0
TEXT
  5
FC89
  8
01注記寸法
  6
CONTINUOUS
 62
     0
 10
3082.038586970114
 20
3228.683219296986
 30
0.0
 40
45.0
  1
※ 705
 50
90.0
  0
POINT
  5
FC8A
  8
DEFPOINTS
 62
     0
 10
2870.0
 20
2964.974094
 30
0.0
  0
POINT
  5
FC8B
  8
DEFPOINTS
 62
     0
 10
2870.0
 20
3669.974094
 30
0.0
  0
POINT
  5
FC8C
  8
DEFPOINTS
 62
     0
 10
3100.0
 20
3669.974094
 30
0.0
  0
ENDBLK
  5
FC83
  8
0
  0
BLOCK
  8
0
  2
*D1238
 70
     1
 10
0.0
 20
0.0
 30
0.0
  3
*D1238
  1

  0
LINE
  5
FC91
  8
01注記寸法
 62
     0
 10
2892.5
 20
3669.974094
 30
0.0
 11
3115.0
 21
3669.974094
 31
0.0
  0
LINE
  5
FC92
  8
01注記寸法
 62
     0
 10
2972.5
 20
3704.999999999999
 30
0.0
 11
3115.0
 21
3704.999999999999
 31
0.0
  0
LINE
  5
FC93
  8
01注記寸法
 62
     0
 10
3100.0
 20
3749.999999999999
 30
0.0
 11
3100.0
 21
3877.514999999999
 31
0.0
  0
LINE
  5
FC94
  8
01注記寸法
 62
     0
 10
3100.0
 20
3669.974094
 30
0.0
 11
3100.0
 21
3704.999999999999
 31
0.0
  0
LINE
  5
FC95
  8
01注記寸法
 62
     0
 10
3100.0
 20
3624.974094
 30
0.0
 11
3100.0
 21
3579.974094
 31
0.0
  0
INSERT
  5
FC96
  8
01注記寸法
 62
     0
  2
_OPEN
 10
3100.0
 20
3669.974094
 30
0.0
 41
45.0
 42
45.0
 43
45.0
 50
90.0
  0
INSERT
  5
FC97
  8
01注記寸法
 62
     0
  2
_OPEN
 10
3100.0
 20
3704.999999999999
 30
0.0
 41
45.0
 42
45.0
 43
45.0
 50
270.0
  0
TEXT
  5
FC98
  8
01注記寸法
  6
CONTINUOUS
 62
     0
 10
3085.00844066525
 20
3807.469204389145
 30
0.0
 40
45.0
  1
35
 50
90.0
  0
POINT
  5
FC99
  8
DEFPOINTS
 62
     0
 10
2870.0
 20
3669.974094
 30
0.0
  0
POINT
  5
FC9A
  8
DEFPOINTS
 62
     0
 10
2950.0
 20
3704.999999999999
 30
0.0
  0
POINT
  5
FC9B
  8
DEFPOINTS
 62
     0
 10
3100.0
 20
3704.999999999999
 30
0.0
  0
ENDBLK
  5
FC90
  8
0
  0
BLOCK
  8
0
  2
*D1240
 70
     1
 10
0.0
 20
0.0
 30
0.0
  3
*D1240
  1

  0
LINE
  5
FCB7
  8
01注記寸法
 62
     0
 10
391.8999999999996
 20
901.0
 30
0.0
 11
235.0
 21
901.0
 31
0.0
  0
LINE
  5
FCB8
  8
01注記寸法
 62
     0
 10
391.8999999999996
 20
549.0
 30
0.0
 11
235.0
 21
549.0
 31
0.0
  0
LINE
  5
FCB9
  8
01注記寸法
 62
     0
 10
250.0
 20
856.0
 30
0.0
 11
250.0
 21
594.0
 31
0.0
  0
INSERT
  5
FCBA
  8
01注記寸法
 62
     0
  2
_OPEN
 10
250.0
 20
901.0
 30
0.0
 41
45.0
 42
45.0
 43
45.0
 50
90.0
  0
INSERT
  5
FCBB
  8
01注記寸法
 62
     0
  2
_OPEN
 10
250.0
 20
549.0
 30
0.0
 41
45.0
 42
45.0
 43
45.0
 50
270.0
  0
TEXT
  5
FCBC
  8
01注記寸法
  6
CONTINUOUS
 62
     0
 10
235.0084406652494
 20
680.3246139177191
 30
0.0
 40
45.0
  1
704
 50
90.0
  0
POINT
  5
FCBD
  8
DEFPOINTS
 62
     0
 10
414.3999999999996
 20
901.0
 30
0.0
  0
POINT
  5
FCBE
  8
DEFPOINTS
 62
     0
 10
414.3999999999996
 20
549.0
 30
0.0
  0
POINT
  5
FCBF
  8
DEFPOINTS
 62
     0
 10
250.0
 20
549.0
 30
0.0
  0
ENDBLK
  5
FCB6
  8
0
  0
BLOCK
  8
0
  2
*D1241
 70
     1
 10
0.0
 20
0.0
 30
0.0
  3
*D1241
  1

  0
LINE
  5
FCC4
  8
01注記寸法
 62
     0
 10
414.3999999999996
 20
923.5
 30
0.0
 11
414.3999999999996
 21
1083.75
 31
0.0
  0
LINE
  5
FCC5
  8
01注記寸法
 62
     0
 10
801.0
 20
921.8999999999996
 30
0.0
 11
801.0
 21
1083.75
 31
0.0
  0
LINE
  5
FCC6
  8
01注記寸法
 62
     0
 10
459.3999999999996
 20
1068.75
 30
0.0
 11
756.0
 21
1068.75
 31
0.0
  0
INSERT
  5
FCC7
  8
01注記寸法
 62
     0
  2
_OPEN
 10
414.3999999999996
 20
1068.75
 30
0.0
 41
45.0
 42
45.0
 43
45.0
 50
180.0
  0
INSERT
  5
FCC8
  8
01注記寸法
 62
     0
  2
_OPEN
 10
801.0
 20
1068.75
 30
0.0
 41
45.0
 42
45.0
 43
45.0
  0
TEXT
  5
FCC9
  8
01注記寸法
  6
CONTINUOUS
 62
     0
 10
563.7185069401023
 20
1083.74155933475
 30
0.0
 40
45.0
  1
773
  0
POINT
  5
FCCA
  8
DEFPOINTS
 62
     0
 10
414.3999999999996
 20
901.0
 30
0.0
  0
POINT
  5
FCCB
  8
DEFPOINTS
 62
     0
 10
801.0
 20
899.3999999999996
 30
0.0
  0
POINT
  5
FCCC
  8
DEFPOINTS
 62
     0
 10
801.0
 20
1068.75
 30
0.0
  0
ENDBLK
  5
FCC3
  8
0
  0
BLOCK
  8
0
  2
*D1242
 70
     1
 10
0.0
 20
0.0
 30
0.0
  3
*D1242
  1

  0
LINE
  5
FCD1
  8
01注記寸法
 62
     0
 10
801.0
 20
921.8999999999996
 30
0.0
 11
801.0
 21
1083.75
 31
0.0
  0
LINE
  5
FCD2
  8
01注記寸法
 62
     0
 10
1185.6
 20
923.5
 30
0.0
 11
1185.6
 21
1083.75
 31
0.0
  0
LINE
  5
FCD3
  8
01注記寸法
 62
     0
 10
846.0
 20
1068.75
 30
0.0
 11
1140.6
 21
1068.75
 31
0.0
  0
INSERT
  5
FCD4
  8
01注記寸法
 62
     0
  2
_OPEN
 10
801.0
 20
1068.75
 30
0.0
 41
45.0
 42
45.0
 43
45.0
 50
180.0
  0
INSERT
  5
FCD5
  8
01注記寸法
 62
     0
  2
_OPEN
 10
1185.6
 20
1068.75
 30
0.0
 41
45.0
 42
45.0
 43
45.0
  0
TEXT
  5
FCD6
  8
01注記寸法
  6
CONTINUOUS
 62
     0
 10
949.3097145804679
 20
1083.74155933475
 30
0.0
 40
45.0
  1
769
  0
POINT
  5
FCD7
  8
DEFPOINTS
 62
     0
 10
801.0
 20
899.3999999999996
 30
0.0
  0
POINT
  5
FCD8
  8
DEFPOINTS
 62
     0
 10
1185.6
 20
901.0
 30
0.0
  0
POINT
  5
FCD9
  8
DEFPOINTS
 62
     0
 10
1185.6
 20
1068.75
 30
0.0
  0
ENDBLK
  5
FCD0
  8
0
  0
BLOCK
  8
0
  2
*D1243
 70
     1
 10
0.0
 20
0.0
 30
0.0
  3
*D1243
  1

  0
LINE
  5
FCDE
  8
08非表示
 62
     0
 10
1088.375845678362
 20
918.75
 30
0.0
 11
1052.020728804338
 21
918.75
 31
0.0
  0
LINE
  5
FCDF
  8
08非表示
 62
     0
 10
1088.375845678362
 20
531.25
 30
0.0
 11
1052.020728804338
 21
531.25
 31
0.0
  0
LINE
  5
FCE0
  8
08非表示
 62
     0
 10
1067.020728804338
 20
873.75
 30
0.0
 11
1067.020728804338
 21
576.25
 31
0.0
  0
INSERT
  5
FCE1
  8
08非表示
 62
     0
  2
_OPEN
 10
1067.020728804338
 20
918.75
 30
0.0
 41
45.0
 42
45.0
 43
45.0
 50
90.0
  0
INSERT
  5
FCE2
  8
08非表示
 62
     0
  2
_OPEN
 10
1067.020728804338
 20
531.25
 30
0.0
 41
45.0
 42
45.0
 43
45.0
 50
270.0
  0
TEXT
  5
FCE3
  8
08非表示
  6
CONTINUOUS
 62
     0
 10
1052.029169469587
 20
681.0185069401025
 30
0.0
 40
45.0
  1
775
 50
90.0
  0
POINT
  5
FCE4
  8
DEFPOINTS
 62
     0
 10
1110.875845678362
 20
918.75
 30
0.0
  0
POINT
  5
FCE5
  8
DEFPOINTS
 62
     0
 10
1110.875845678362
 20
531.25
 30
0.0
  0
POINT
  5
FCE6
  8
DEFPOINTS
 62
     0
 10
1067.020728804338
 20
531.25
 30
0.0
  0
ENDBLK
  5
FCDD
  8
0
  0
BLOCK
  8
0
  2
*D1244
 70
     1
 10
0.0
 20
0.0
 30
0.0
  3
*D1244
  1

  0
LINE
  5
FCEB
  8
08非表示
 62
     0
 10
400.0
 20
640.6449726165329
 30
0.0
 11
400.0
 21
641.542760954112
 31
0.0
  0
LINE
  5
FCEC
  8
08非表示
 62
     0
 10
1200.0
 20
635.0464470581469
 30
0.0
 11
1200.0
 21
641.542760954112
 31
0.0
  0
LINE
  5
FCED
  8
08非表示
 62
     0
 10
445.0
 20
626.542760954112
 30
0.0
 11
1155.0
 21
626.542760954112
 31
0.0
  0
INSERT
  5
FCEE
  8
08非表示
 62
     0
  2
_OPEN
 10
400.0
 20
626.542760954112
 30
0.0
 41
45.0
 42
45.0
 43
45.0
 50
180.0
  0
INSERT
  5
FCEF
  8
08非表示
 62
     0
  2
_OPEN
 10
1200.0
 20
626.542760954112
 30
0.0
 41
45.0
 42
45.0
 43
45.0
  0
TEXT
  5
FCF0
  8
08非表示
  6
CONTINUOUS
 62
     0
 10
739.7726881955734
 20
641.5343202888627
 30
0.0
 40
45.0
  1
1600
  0
POINT
  5
FCF1
  8
DEFPOINTS
 62
     0
 10
400.0
 20
618.1449726165329
 30
0.0
  0
POINT
  5
FCF2
  8
DEFPOINTS
 62
     0
 10
1200.0
 20
612.5464470581469
 30
0.0
  0
POINT
  5
FCF3
  8
DEFPOINTS
 62
     0
 10
1200.0
 20
626.542760954112
 30
0.0
  0
ENDBLK
  5
FCEA
  8
0
  0
BLOCK
  8
0
  2
*D1245
 70
     1
 10
0.0
 20
0.0
 30
0.0
  3
*D1245
  1

  0
LINE
  5
FCF8
  8
01注記寸法
 62
     0
 10
778.5
 20
899.3999999999996
 30
0.0
 11
674.0892639081421
 21
899.3999999999996
 31
0.0
  0
LINE
  5
FCF9
  8
01注記寸法
 62
     0
 10
778.5
 20
550.5999999999995
 30
0.0
 11
674.0892639081421
 21
550.5999999999995
 31
0.0
  0
LINE
  5
FCFA
  8
01注記寸法
 62
     0
 10
689.0892639081421
 20
854.3999999999996
 30
0.0
 11
689.0892639081421
 21
595.5999999999995
 31
0.0
  0
INSERT
  5
FCFB
  8
01注記寸法
 62
     0
  2
_OPEN
 10
689.0892639081421
 20
899.3999999999996
 30
0.0
 41
45.0
 42
45.0
 43
45.0
 50
90.0
  0
INSERT
  5
FCFC
  8
01注記寸法
 62
     0
  2
_OPEN
 10
689.0892639081421
 20
550.5999999999995
 30
0.0
 41
45.0
 42
45.0
 43
45.0
 50
270.0
  0
TEXT
  5
FCFD
  8
01注記寸法
  6
CONTINUOUS
 62
     0
 10
674.0892639081421
 20
681.0054942478425
 30
0.0
 40
45.0
  1
698
 50
90.0
  0
POINT
  5
FCFE
  8
DEFPOINTS
 62
     0
 10
801.0
 20
899.3999999999996
 30
0.0
  0
POINT
  5
FCFF
  8
DEFPOINTS
 62
     0
 10
801.0
 20
550.5999999999995
 30
0.0
  0
POINT
  5
FD00
  8
DEFPOINTS
 62
     0
 10
689.0892639081421
 20
550.5999999999995
 30
0.0
  0
ENDBLK
  5
FCF7
  8
0
  0
BLOCK
  8
0
  2
*D1246
 70
     1
 10
0.0
 20
0.0
 30
0.0
  3
*D1246
  1

  0
LINE
  5
FD29
  8
01注記寸法
 62
     0
 10
1557.4
 20
905.0999999999995
 30
0.0
 11
1435.0
 21
905.0999999999995
 31
0.0
  0
LINE
  5
FD2A
  8
01注記寸法
 62
     0
 10
1557.4
 20
544.8999999999996
 30
0.0
 11
1435.0
 21
544.8999999999996
 31
0.0
  0
LINE
  5
FD2B
  8
01注記寸法
 62
     0
 10
1450.0
 20
860.0999999999995
 30
0.0
 11
1450.0
 21
589.8999999999996
 31
0.0
  0
INSERT
  5
FD2C
  8
01注記寸法
 62
     0
  2
_OPEN
 10
1450.0
 20
905.0999999999995
 30
0.0
 41
45.0
 42
45.0
 43
45.0
 50
90.0
  0
INSERT
  5
FD2D
  8
01注記寸法
 62
     0
  2
_OPEN
 10
1450.0
 20
544.8999999999996
 30
0.0
 41
45.0
 42
45.0
 43
45.0
 50
270.0
  0
TEXT
  5
FD2E
  8
01注記寸法
  6
CONTINUOUS
 62
     0
 10
1435.00844066525
 20
680.4385628985865
 30
0.0
 40
45.0
  1
720
 50
90.0
  0
POINT
  5
FD2F
  8
DEFPOINTS
 62
     0
 10
1579.9
 20
905.0999999999995
 30
0.0
  0
POINT
  5
FD30
  8
DEFPOINTS
 62
     0
 10
1579.9
 20
544.8999999999996
 30
0.0
  0
POINT
  5
FD31
  8
DEFPOINTS
 62
     0
 10
1450.0
 20
544.8999999999996
 30
0.0
  0
ENDBLK
  5
FD28
  8
0
  0
BLOCK
  8
0
  2
*D1247
 70
     1
 10
0.0
 20
0.0
 30
0.0
  3
*D1247
  1

  0
LINE
  5
FD35
  8
01注記寸法
 62
     0
 10
1579.9
 20
927.5999999999995
 30
0.0
 11
1579.9
 21
1083.75
 31
0.0
  0
LINE
  5
FD36
  8
01注記寸法
 62
     0
 10
2001.0
 20
921.8999999999996
 30
0.0
 11
2001.0
 21
1083.75
 31
0.0
  0
LINE
  5
FD37
  8
01注記寸法
 62
     0
 10
1624.9
 20
1068.75
 30
0.0
 11
1956.0
 21
1068.75
 31
0.0
  0
INSERT
  5
FD38
  8
01注記寸法
 62
     0
  2
_OPEN
 10
1579.9
 20
1068.75
 30
0.0
 41
45.0
 42
45.0
 43
45.0
 50
180.0
  0
INSERT
  5
FD39
  8
01注記寸法
 62
     0
  2
_OPEN
 10
2001.0
 20
1068.75
 30
0.0
 41
45.0
 42
45.0
 43
45.0
  0
TEXT
  5
FD3A
  8
01注記寸法
  6
CONTINUOUS
 62
     0
 10
1746.922896086032
 20
1083.74155933475
 30
0.0
 40
45.0
  1
842
  0
POINT
  5
FD3B
  8
DEFPOINTS
 62
     0
 10
1579.9
 20
905.0999999999995
 30
0.0
  0
POINT
  5
FD3C
  8
DEFPOINTS
 62
     0
 10
2001.0
 20
899.3999999999996
 30
0.0
  0
POINT
  5
FD3D
  8
DEFPOINTS
 62
     0
 10
2001.0
 20
1068.75
 30
0.0
  0
ENDBLK
  5
FD34
  8
0
  0
BLOCK
  8
0
  2
*D1248
 70
     1
 10
0.0
 20
0.0
 30
0.0
  3
*D1248
  1

  0
LINE
  5
FD41
  8
01注記寸法
 62
     0
 10
2001.0
 20
921.8999999999996
 30
0.0
 11
2001.0
 21
1083.75
 31
0.0
  0
LINE
  5
FD42
  8
01注記寸法
 62
     0
 10
2420.1
 20
927.5999999999995
 30
0.0
 11
2420.1
 21
1083.75
 31
0.0
  0
LINE
  5
FD43
  8
01注記寸法
 62
     0
 10
2046.0
 20
1068.75
 30
0.0
 11
2375.1
 21
1068.75
 31
0.0
  0
INSERT
  5
FD44
  8
01注記寸法
 62
     0
  2
_OPEN
 10
2001.0
 20
1068.75
 30
0.0
 41
45.0
 42
45.0
 43
45.0
 50
180.0
  0
INSERT
  5
FD45
  8
01注記寸法
 62
     0
  2
_OPEN
 10
2420.1
 20
1068.75
 30
0.0
 41
45.0
 42
45.0
 43
45.0
  0
TEXT
  5
FD46
  8
01注記寸法
  6
CONTINUOUS
 62
     0
 10
2166.898396273603
 20
1083.74155933475
 30
0.0
 40
45.0
  1
838
  0
POINT
  5
FD47
  8
DEFPOINTS
 62
     0
 10
2001.0
 20
899.3999999999996
 30
0.0
  0
POINT
  5
FD48
  8
DEFPOINTS
 62
     0
 10
2420.1
 20
905.0999999999995
 30
0.0
  0
POINT
  5
FD49
  8
DEFPOINTS
 62
     0
 10
2420.1
 20
1068.75
 30
0.0
  0
ENDBLK
  5
FD40
  8
0
  0
BLOCK
  8
0
  2
*D1249
 70
     1
 10
0.0
 20
0.0
 30
0.0
  3
*D1249
  1

  0
LINE
  5
FD4D
  8
08非表示
 62
     0
 10
2288.375845678362
 20
918.75
 30
0.0
 11
2252.020728804338
 21
918.75
 31
0.0
  0
LINE
  5
FD4E
  8
08非表示
 62
     0
 10
2288.375845678362
 20
531.25
 30
0.0
 11
2252.020728804338
 21
531.25
 31
0.0
  0
LINE
  5
FD4F
  8
08非表示
 62
     0
 10
2267.020728804338
 20
873.75
 30
0.0
 11
2267.020728804338
 21
576.25
 31
0.0
  0
INSERT
  5
FD50
  8
08非表示
 62
     0
  2
_OPEN
 10
2267.020728804338
 20
918.75
 30
0.0
 41
45.0
 42
45.0
 43
45.0
 50
90.0
  0
INSERT
  5
FD51
  8
08非表示
 62
     0
  2
_OPEN
 10
2267.020728804338
 20
531.25
 30
0.0
 41
45.0
 42
45.0
 43
45.0
 50
270.0
  0
TEXT
  5
FD52
  8
08非表示
  6
CONTINUOUS
 62
     0
 10
2252.029169469587
 20
681.0185069401023
 30
0.0
 40
45.0
  1
775
 50
90.0
  0
POINT
  5
FD53
  8
DEFPOINTS
 62
     0
 10
2310.875845678362
 20
918.75
 30
0.0
  0
POINT
  5
FD54
  8
DEFPOINTS
 62
     0
 10
2310.875845678362
 20
531.25
 30
0.0
  0
POINT
  5
FD55
  8
DEFPOINTS
 62
     0
 10
2267.020728804338
 20
531.25
 30
0.0
  0
ENDBLK
  5
FD4C
  8
0
  0
BLOCK
  8
0
  2
*D1250
 70
     1
 10
0.0
 20
0.0
 30
0.0
  3
*D1250
  1

  0
LINE
  5
FD59
  8
08非表示
 62
     0
 10
1600.0
 20
640.6449726165329
 30
0.0
 11
1600.0
 21
641.542760954112
 31
0.0
  0
LINE
  5
FD5A
  8
08非表示
 62
     0
 10
2400.0
 20
635.0464470581469
 30
0.0
 11
2400.0
 21
641.542760954112
 31
0.0
  0
LINE
  5
FD5B
  8
08非表示
 62
     0
 10
1645.0
 20
626.542760954112
 30
0.0
 11
2355.0
 21
626.542760954112
 31
0.0
  0
INSERT
  5
FD5C
  8
08非表示
 62
     0
  2
_OPEN
 10
1600.0
 20
626.542760954112
 30
0.0
 41
45.0
 42
45.0
 43
45.0
 50
180.0
  0
INSERT
  5
FD5D
  8
08非表示
 62
     0
  2
_OPEN
 10
2400.0
 20
626.542760954112
 30
0.0
 41
45.0
 42
45.0
 43
45.0
  0
TEXT
  5
FD5E
  8
08非表示
  6
CONTINUOUS
 62
     0
 10
1939.772688195573
 20
641.5343202888627
 30
0.0
 40
45.0
  1
1600
  0
POINT
  5
FD5F
  8
DEFPOINTS
 62
     0
 10
1600.0
 20
618.1449726165329
 30
0.0
  0
POINT
  5
FD60
  8
DEFPOINTS
 62
     0
 10
2400.0
 20
612.5464470581469
 30
0.0
  0
POINT
  5
FD61
  8
DEFPOINTS
 62
     0
 10
2400.0
 20
626.542760954112
 30
0.0
  0
ENDBLK
  5
FD58
  8
0
  0
BLOCK
  8
0
  2
*D1251
 70
     1
 10
0.0
 20
0.0
 30
0.0
  3
*D1251
  1

  0
LINE
  5
FD65
  8
01注記寸法
 62
     0
 10
1978.5
 20
899.3999999999996
 30
0.0
 11
1874.089263908142
 21
899.3999999999996
 31
0.0
  0
LINE
  5
FD66
  8
01注記寸法
 62
     0
 10
1978.5
 20
550.5999999999995
 30
0.0
 11
1874.089263908142
 21
550.5999999999995
 31
0.0
  0
LINE
  5
FD67
  8
01注記寸法
 62
     0
 10
1889.089263908142
 20
854.3999999999996
 30
0.0
 11
1889.089263908142
 21
595.5999999999995
 31
0.0
  0
INSERT
  5
FD68
  8
01注記寸法
 62
     0
  2
_OPEN
 10
1889.089263908142
 20
899.3999999999996
 30
0.0
 41
45.0
 42
45.0
 43
45.0
 50
90.0
  0
INSERT
  5
FD69
  8
01注記寸法
 62
     0
  2
_OPEN
 10
1889.089263908142
 20
550.5999999999995
 30
0.0
 41
45.0
 42
45.0
 43
45.0
 50
270.0
  0
TEXT
  5
FD6A
  8
01注記寸法
  6
CONTINUOUS
 62
     0
 10
1874.089263908142
 20
681.0054942478425
 30
0.0
 40
45.0
  1
698
 50
90.0
  0
POINT
  5
FD6B
  8
DEFPOINTS
 62
     0
 10
2001.0
 20
899.3999999999996
 30
0.0
  0
POINT
  5
FD6C
  8
DEFPOINTS
 62
     0
 10
2001.0
 20
550.5999999999995
 30
0.0
  0
POINT
  5
FD6D
  8
DEFPOINTS
 62
     0
 10
1889.089263908142
 20
550.5999999999995
 30
0.0
  0
ENDBLK
  5
FD64
  8
0
  0
BLOCK
  8
0
  2
*D1252
 70
     1
 10
0.0
 20
0.0
 30
0.0
  3
*D1252
  1

  0
LINE
  5
FD96
  8
01注記寸法
 62
     0
 10
2791.9
 20
939.5999999999995
 30
0.0
 11
2635.0
 21
939.5999999999995
 31
0.0
  0
LINE
  5
FD97
  8
01注記寸法
 62
     0
 10
2791.9
 20
510.3999999999996
 30
0.0
 11
2635.0
 21
510.3999999999996
 31
0.0
  0
LINE
  5
FD98
  8
01注記寸法
 62
     0
 10
2650.0
 20
894.5999999999995
 30
0.0
 11
2650.0
 21
555.3999999999996
 31
0.0
  0
INSERT
  5
FD99
  8
01注記寸法
 62
     0
  2
_OPEN
 10
2650.0
 20
939.5999999999995
 30
0.0
 41
45.0
 42
45.0
 43
45.0
 50
90.0
  0
INSERT
  5
FD9A
  8
01注記寸法
 62
     0
  2
_OPEN
 10
2650.0
 20
510.3999999999996
 30
0.0
 41
45.0
 42
45.0
 43
45.0
 50
270.0
  0
TEXT
  5
FD9B
  8
01注記寸法
  6
CONTINUOUS
 62
     0
 10
2635.00844066525
 20
681.3483962736022
 30
0.0
 40
45.0
  1
858
 50
90.0
  0
POINT
  5
FD9C
  8
DEFPOINTS
 62
     0
 10
2814.4
 20
939.5999999999995
 30
0.0
  0
POINT
  5
FD9D
  8
DEFPOINTS
 62
     0
 10
2814.4
 20
510.3999999999996
 30
0.0
  0
POINT
  5
FD9E
  8
DEFPOINTS
 62
     0
 10
2650.0
 20
510.3999999999996
 30
0.0
  0
ENDBLK
  5
FD95
  8
0
  0
BLOCK
  8
0
  2
*D1253
 70
     1
 10
0.0
 20
0.0
 30
0.0
  3
*D1253
  1

  0
LINE
  5
FDA2
  8
01注記寸法
 62
     0
 10
2814.4
 20
962.0999999999995
 30
0.0
 11
2814.4
 21
1083.75
 31
0.0
  0
LINE
  5
FDA3
  8
01注記寸法
 62
     0
 10
3201.0
 20
960.5
 30
0.0
 11
3201.0
 21
1083.75
 31
0.0
  0
LINE
  5
FDA4
  8
01注記寸法
 62
     0
 10
2859.4
 20
1068.75
 30
0.0
 11
3156.0
 21
1068.75
 31
0.0
  0
INSERT
  5
FDA5
  8
01注記寸法
 62
     0
  2
_OPEN
 10
2814.4
 20
1068.75
 30
0.0
 41
45.0
 42
45.0
 43
45.0
 50
180.0
  0
INSERT
  5
FDA6
  8
01注記寸法
 62
     0
  2
_OPEN
 10
3201.0
 20
1068.75
 30
0.0
 41
45.0
 42
45.0
 43
45.0
  0
TEXT
  5
FDA7
  8
01注記寸法
  6
CONTINUOUS
 62
     0
 10
2963.718506940102
 20
1083.74155933475
 30
0.0
 40
45.0
  1
773
  0
POINT
  5
FDA8
  8
DEFPOINTS
 62
     0
 10
2814.4
 20
939.5999999999995
 30
0.0
  0
POINT
  5
FDA9
  8
DEFPOINTS
 62
     0
 10
3201.0
 20
938.0
 30
0.0
  0
POINT
  5
FDAA
  8
DEFPOINTS
 62
     0
 10
3201.0
 20
1068.75
 30
0.0
  0
ENDBLK
  5
FDA1
  8
0
  0
BLOCK
  8
0
  2
*D1254
 70
     1
 10
0.0
 20
0.0
 30
0.0
  3
*D1254
  1

  0
LINE
  5
FDAE
  8
01注記寸法
 62
     0
 10
3201.0
 20
960.5
 30
0.0
 11
3201.0
 21
1083.75
 31
0.0
  0
LINE
  5
FDAF
  8
01注記寸法
 62
     0
 10
3585.6
 20
962.0999999999995
 30
0.0
 11
3585.6
 21
1083.75
 31
0.0
  0
LINE
  5
FDB0
  8
01注記寸法
 62
     0
 10
3246.0
 20
1068.75
 30
0.0
 11
3540.6
 21
1068.75
 31
0.0
  0
INSERT
  5
FDB1
  8
01注記寸法
 62
     0
  2
_OPEN
 10
3201.0
 20
1068.75
 30
0.0
 41
45.0
 42
45.0
 43
45.0
 50
180.0
  0
INSERT
  5
FDB2
  8
01注記寸法
 62
     0
  2
_OPEN
 10
3585.6
 20
1068.75
 30
0.0
 41
45.0
 42
45.0
 43
45.0
  0
TEXT
  5
FDB3
  8
01注記寸法
  6
CONTINUOUS
 62
     0
 10
3349.309714580468
 20
1083.74155933475
 30
0.0
 40
45.0
  1
769
  0
POINT
  5
FDB4
  8
DEFPOINTS
 62
     0
 10
3201.0
 20
938.0
 30
0.0
  0
POINT
  5
FDB5
  8
DEFPOINTS
 62
     0
 10
3585.6
 20
939.5999999999995
 30
0.0
  0
POINT
  5
FDB6
  8
DEFPOINTS
 62
     0
 10
3585.6
 20
1068.75
 30
0.0
  0
ENDBLK
  5
FDAD
  8
0
  0
BLOCK
  8
0
  2
*D1255
 70
     1
 10
0.0
 20
0.0
 30
0.0
  3
*D1255
  1

  0
LINE
  5
FDBA
  8
08非表示
 62
     0
 10
3488.375845678362
 20
918.75
 30
0.0
 11
3452.020728804338
 21
918.75
 31
0.0
  0
LINE
  5
FDBB
  8
08非表示
 62
     0
 10
3488.375845678362
 20
531.25
 30
0.0
 11
3452.020728804338
 21
531.25
 31
0.0
  0
LINE
  5
FDBC
  8
08非表示
 62
     0
 10
3467.020728804338
 20
873.75
 30
0.0
 11
3467.020728804338
 21
576.25
 31
0.0
  0
INSERT
  5
FDBD
  8
08非表示
 62
     0
  2
_OPEN
 10
3467.020728804338
 20
918.75
 30
0.0
 41
45.0
 42
45.0
 43
45.0
 50
90.0
  0
INSERT
  5
FDBE
  8
08非表示
 62
     0
  2
_OPEN
 10
3467.020728804338
 20
531.25
 30
0.0
 41
45.0
 42
45.0
 43
45.0
 50
270.0
  0
TEXT
  5
FDBF
  8
08非表示
  6
CONTINUOUS
 62
     0
 10
3452.029169469588
 20
681.0185069401023
 30
0.0
 40
45.0
  1
775
 50
90.0
  0
POINT
  5
FDC0
  8
DEFPOINTS
 62
     0
 10
3510.875845678362
 20
918.75
 30
0.0
  0
POINT
  5
FDC1
  8
DEFPOINTS
 62
     0
 10
3510.875845678362
 20
531.25
 30
0.0
  0
POINT
  5
FDC2
  8
DEFPOINTS
 62
     0
 10
3467.020728804338
 20
531.25
 30
0.0
  0
ENDBLK
  5
FDB9
  8
0
  0
BLOCK
  8
0
  2
*D1256
 70
     1
 10
0.0
 20
0.0
 30
0.0
  3
*D1256
  1

  0
LINE
  5
FDC6
  8
08非表示
 62
     0
 10
2800.0
 20
640.6449726165329
 30
0.0
 11
2800.0
 21
641.542760954112
 31
0.0
  0
LINE
  5
FDC7
  8
08非表示
 62
     0
 10
3600.0
 20
635.0464470581469
 30
0.0
 11
3600.0
 21
641.542760954112
 31
0.0
  0
LINE
  5
FDC8
  8
08非表示
 62
     0
 10
2845.0
 20
626.542760954112
 30
0.0
 11
3555.0
 21
626.542760954112
 31
0.0
  0
INSERT
  5
FDC9
  8
08非表示
 62
     0
  2
_OPEN
 10
2800.0
 20
626.542760954112
 30
0.0
 41
45.0
 42
45.0
 43
45.0
 50
180.0
  0
INSERT
  5
FDCA
  8
08非表示
 62
     0
  2
_OPEN
 10
3600.0
 20
626.542760954112
 30
0.0
 41
45.0
 42
45.0
 43
45.0
  0
TEXT
  5
FDCB
  8
08非表示
  6
CONTINUOUS
 62
     0
 10
3139.772688195574
 20
641.5343202888627
 30
0.0
 40
45.0
  1
1600
  0
POINT
  5
FDCC
  8
DEFPOINTS
 62
     0
 10
2800.0
 20
618.1449726165329
 30
0.0
  0
POINT
  5
FDCD
  8
DEFPOINTS
 62
     0
 10
3600.0
 20
612.5464470581469
 30
0.0
  0
POINT
  5
FDCE
  8
DEFPOINTS
 62
     0
 10
3600.0
 20
626.542760954112
 30
0.0
  0
ENDBLK
  5
FDC5
  8
0
  0
BLOCK
  8
0
  2
*D1257
 70
     1
 10
0.0
 20
0.0
 30
0.0
  3
*D1257
  1

  0
LINE
  5
FDD2
  8
01注記寸法
 62
     0
 10
3178.5
 20
938.0
 30
0.0
 11
3074.089263908142
 21
938.0
 31
0.0
  0
LINE
  5
FDD3
  8
01注記寸法
 62
     0
 10
3178.5
 20
512.0
 30
0.0
 11
3074.089263908142
 21
512.0
 31
0.0
  0
LINE
  5
FDD4
  8
01注記寸法
 62
     0
 10
3089.089263908142
 20
893.0
 30
0.0
 11
3089.089263908142
 21
557.0
 31
0.0
  0
INSERT
  5
FDD5
  8
01注記寸法
 62
     0
  2
_OPEN
 10
3089.089263908142
 20
938.0
 30
0.0
 41
45.0
 42
45.0
 43
45.0
 50
90.0
  0
INSERT
  5
FDD6
  8
01注記寸法
 62
     0
  2
_OPEN
 10
3089.089263908142
 20
512.0
 30
0.0
 41
45.0
 42
45.0
 43
45.0
 50
270.0
  0
TEXT
  5
FDD7
  8
01注記寸法
  6
CONTINUOUS
 62
     0
 10
3074.097704573392
 20
681.472896086032
 30
0.0
 40
45.0
  1
852
 50
90.0
  0
POINT
  5
FDD8
  8
DEFPOINTS
 62
     0
 10
3201.0
 20
938.0
 30
0.0
  0
POINT
  5
FDD9
  8
DEFPOINTS
 62
     0
 10
3201.0
 20
512.0
 30
0.0
  0
POINT
  5
FDDA
  8
DEFPOINTS
 62
     0
 10
3089.089263908142
 20
512.0
 30
0.0
  0
ENDBLK
  5
FDD1
  8
0
  0
BLOCK
  8
0
  2
*X1258
 70
     1
 10
0.0
 20
0.0
 30
0.0
  3
*X1258
  1

  0
INSERT
  5
10374
  8
01注記寸法
  2
_OPEN
 10
1481.0
 20
3681.974094
 30
0.0
 41
45.0
 42
45.0
 43
45.0
 50
241.7522420224922
  0
LINE
  5
10375
  8
01注記寸法
 10
1502.297833863822
 20
3721.615010648194
 30
0.0
 11
1573.961447708934
 21
3855.0
 31
0.0
  0
LINE
  5
10376
  8
01注記寸法
 10
1573.961447708934
 20
3855.0
 30
0.0
 11
2053.961447708934
 21
3855.0
 31
0.0
  0
ENDBLK
  5
10489
  8
0
  0
BLOCK
  8
0
  2
*X1259
 70
     1
 10
0.0
 20
0.0
 30
0.0
  3
*X1259
  1

  0
INSERT
  5
103B4
  8
13製作用注記
  2
_OPEN
 10
2890.0
 20
3255.0
 30
0.0
 41
45.0
 42
45.0
 43
45.0
 50
317.1305733277167
  0
LINE
  5
103B5
  8
13製作用注記
 10
2857.019228618627
 20
3285.614844750376
 30
0.0
 11
2797.34960471196
 21
3341.00397592296
 31
0.0
  0
ENDBLK
  5
1048B
  8
0
  0
BLOCK
  8
0
  2
*X1260
 70
     1
 10
0.0
 20
0.0
 30
0.0
  3
*X1260
  1

  0
INSERT
  5
103B7
  8
13製作用注記
  2
_OPEN
 10
2180.0
 20
3255.0
 30
0.0
 41
45.0
 42
45.0
 43
45.0
 50
222.8694266722833
  0
LINE
  5
103B8
  8
13製作用注記
 10
2212.980771381373
 20
3285.614844750376
 30
0.0
 11
2272.65039528804
 21
3341.00397592296
 31
0.0
  0
ENDBLK
  5
1048D
  8
0
  0
BLOCK
  8
0
  2
*X1261
 70
     1
 10
0.0
 20
0.0
 30
0.0
  3
*X1261
  1

  0
INSERT
  5
103BA
  8
13製作用注記
  2
_OPEN
 10
1736.04386734424
 20
3625.0
 30
0.0
 41
45.0
 42
45.0
 43
45.0
 50
137.1305733277167
  0
LINE
  5
103BB
  8
13製作用注記
 10
1769.024638725614
 20
3594.385155249624
 30
0.0
 11
1828.694262632281
 21
3538.99602407704
 31
0.0
  0
ENDBLK
  5
1048F
  8
0
  0
BLOCK
  8
0
  2
*X1262
 70
     1
 10
0.0
 20
0.0
 30
0.0
  3
*X1262
  1

  0
INSERT
  5
103BD
  8
13製作用注記
  2
_OPEN
 10
1736.04386734424
 20
3010.0
 30
0.0
 41
45.0
 42
45.0
 43
45.0
 50
222.8694266722833
  0
LINE
  5
103BE
  8
13製作用注記
 10
1769.024638725614
 20
3040.614844750376
 30
0.0
 11
1828.694262632281
 21
3096.00397592296
 31
0.0
  0
ENDBLK
  5
10491
  8
0
  0
BLOCK
  8
0
  2
*X1263
 70
     1
 10
0.0
 20
0.0
 30
0.0
  3
*X1263
  1

  0
INSERT
  5
103C0
  8
13製作用注記
  2
_OPEN
 10
1410.0
 20
3255.0
 30
0.0
 41
45.0
 42
45.0
 43
45.0
 50
222.8694266722833
  0
LINE
  5
103C1
  8
13製作用注記
 10
1442.980771381373
 20
3285.614844750376
 30
0.0
 11
1502.65039528804
 21
3341.00397592296
 31
0.0
  0
ENDBLK
  5
10493
  8
0
  0
BLOCK
  8
0
  2
*X1264
 70
     1
 10
0.0
 20
0.0
 30
0.0
  3
*X1264
  1

  0
INSERT
  5
103C3
  8
13製作用注記
  2
_OPEN
 10
1406.799999999999
 20
1750.000000000001
 30
0.0
 41
44.99999999999999
 42
44.99999999999999
 43
45.0
 50
137.130573327717
  0
LINE
  5
103C4
  8
13製作用注記
 10
1439.780771381373
 20
1719.385155249626
 30
0.0
 11
1499.45039528804
 21
1663.996024077041
 31
0.0
  0
ENDBLK
  5
10495
  8
0
  0
BLOCK
  8
0
  2
*X1265
 70
     1
 10
0.0
 20
0.0
 30
0.0
  3
*X1265
  1

  0
INSERT
  5
103C6
  8
13製作用注記
  2
_OPEN
 10
1544.288831443102
 20
1979.9032419578
 30
0.0
 41
44.99999999999999
 42
44.99999999999999
 43
45.0
 50
137.130573327717
  0
LINE
  5
103C7
  8
13製作用注記
 10
1577.269602824475
 20
1949.288397207425
 30
0.0
 11
1636.939226731143
 21
1893.89926603484
 31
0.0
  0
ENDBLK
  5
10497
  8
0
  0
BLOCK
  8
0
  2
*X1266
 70
     1
 10
0.0
 20
0.0
 30
0.0
  3
*X1266
  1

  0
INSERT
  5
103C9
  8
13製作用注記
  2
_OPEN
 10
2180.0
 20
1750.000000000001
 30
0.0
 41
45.0
 42
45.0
 43
45.0
 50
137.1305733277164
  0
LINE
  5
103CA
  8
13製作用注記
 10
2212.980771381373
 20
1719.385155249626
 30
0.0
 11
2272.650395288039
 21
1663.996024077041
 31
0.0
  0
ENDBLK
  5
10499
  8
0
  0
BLOCK
  8
0
  2
*X1267
 70
     1
 10
0.0
 20
0.0
 30
0.0
  3
*X1267
  1

  0
INSERT
  5
103CC
  8
13製作用注記
  2
_OPEN
 10
2893.200000000001
 20
1750.000000000001
 30
0.0
 41
45.0
 42
45.0
 43
45.0
 50
42.86942667228332
  0
LINE
  5
103CD
  8
13製作用注記
 10
2860.219228618628
 20
1719.385155249626
 30
0.0
 11
2800.54960471196
 21
1663.996024077041
 31
0.0
  0
ENDBLK
  5
1049B
  8
0
  0
BLOCK
  8
0
  2
*X1268
 70
     1
 10
0.0
 20
0.0
 30
0.0
  3
*X1268
  1

  0
INSERT
  5
103CF
  8
13製作用注記
  2
_OPEN
 10
2755.711168556898
 20
1979.9032419578
 30
0.0
 41
45.0
 42
45.0
 43
45.0
 50
42.86942667228332
  0
LINE
  5
103D0
  8
13製作用注記
 10
2722.730397175525
 20
1949.288397207425
 30
0.0
 11
2663.060773268858
 21
1893.89926603484
 31
0.0
  0
ENDBLK
  5
1049D
  8
0
  0
BLOCK
  8
0
  2
*X1269
 70
     1
 10
0.0
 20
0.0
 30
0.0
  3
*X1269
  1

  0
INSERT
  5
103D2
  8
01注記寸法
  2
_OPEN
 10
3846.93234845287
 20
433.7004795614671
 30
0.0
 41
45.0
 42
45.0
 43
45.0
 50
90.0
  0
LINE
  5
103D3
  8
01注記寸法
 10
3846.93234845287
 20
388.7004795614671
 30
0.0
 11
3846.93234845287
 21
298.7004795614698
 31
0.0
  0
ENDBLK
  5
1049F
  8
0
  0
BLOCK
  8
0
  2
*X1270
 70
     1
 10
0.0
 20
0.0
 30
0.0
  3
*X1270
  1

  0
INSERT
  5
103D5
  8
01注記寸法
  2
_OPEN
 10
3846.93234845287
 20
298.7004795614698
 30
0.0
 41
45.0
 42
45.0
 43
45.0
 50
270.0
  0
LINE
  5
103D6
  8
01注記寸法
 10
3846.93234845287
 20
343.7004795614698
 30
0.0
 11
3846.93234845287
 21
433.7004795614671
 31
0.0
  0
ENDBLK
  5
104A1
  8
0
  0
BLOCK
  8
0
  2
*X1271
 70
     1
 10
0.0
 20
0.0
 30
0.0
  3
*X1271
  1

  0
INSERT
  5
103D8
  8
01注記寸法
  2
_OPEN
 10
2850.0
 20
2964.974094
 30
0.0
 41
45.0
 42
45.0
 43
45.0
 50
59.97377911629319
  0
LINE
  5
103D9
  8
01注記寸法
 10
2827.482167573443
 20
2926.013251827256
 30
0.0
 11
2743.092258286448
 21
2780.0
 31
0.0
  0
LINE
  5
103DA
  8
01注記寸法
 10
2743.092258286448
 20
2780.0
 30
0.0
 11
2083.092258286448
 21
2780.0
 31
0.0
  0
ENDBLK
  5
104A3
  8
0
  0
BLOCK
  8
0
  2
*X1272
 70
     1
 10
0.0
 20
0.0
 30
0.0
  3
*X1272
  1

  0
INSERT
  5
103DC
  8
01注記寸法
  2
_OPEN
 10
414.3999999999996
 20
549.0
 30
0.0
 41
44.99999999999999
 42
44.99999999999999
 43
45.0
 50
121.5955613052786
  0
LINE
  5
103DD
  8
01注記寸法
 10
437.9763964562809
 20
510.6704613889464
 30
0.0
 11
517.5825753415311
 21
381.25
 31
0.0
  0
LINE
  5
103DE
  8
01注記寸法
 10
517.5825753415311
 20
381.25
 30
0.0
 11
997.5825753415311
 21
381.25
 31
0.0
  0
ENDBLK
  5
104A5
  8
0
  0
BLOCK
  8
0
  2
*X1273
 70
     1
 10
0.0
 20
0.0
 30
0.0
  3
*X1273
  1

  0
INSERT
  5
10444
  8
01注記寸法
  2
_OPEN
 10
1579.9
 20
544.8999999999996
 30
0.0
 41
45.00000000000001
 42
45.00000000000001
 43
45.0
 50
130.0746871312013
  0
LINE
  5
10445
  8
01注記寸法
 10
1608.870353352936
 20
510.4657347021021
 30
0.0
 11
1717.582575341531
 21
381.25
 31
0.0
  0
LINE
  5
10446
  8
01注記寸法
 10
1717.582575341531
 20
381.25
 30
0.0
 11
2197.582575341531
 21
381.25
 31
0.0
  0
ENDBLK
  5
104A7
  8
0
  0
BLOCK
  8
0
  2
*X1274
 70
     1
 10
0.0
 20
0.0
 30
0.0
  3
*X1274
  1

  0
INSERT
  5
1044C
  8
01注記寸法
  2
_OPEN
 10
2814.4
 20
510.3999999999996
 30
0.0
 41
45.00000000000001
 42
45.00000000000001
 43
45.0
 50
128.6226141191825
  0
LINE
  5
1044D
  8
01注記寸法
 10
2842.488460318449
 20
475.2426622603629
 30
0.0
 11
2917.582575341531
 21
381.25
 31
0.0
  0
LINE
  5
1044E
  8
01注記寸法
 10
2917.582575341531
 20
381.25
 30
0.0
 11
3397.582575341531
 21
381.25
 31
0.0
  0
ENDBLK
  5
104A9
  8
0
  0
ENDSEC
  0
SECTION
  2
ENTITIES
  0
POLYLINE
  5
7E6F
  8
08非表示
  6
PHANTOM
 66
     1
 10
0.0
 20
0.0
 30
0.0
 70
     1
  0
VERTEX
  5
10231
  8
08非表示
  6
PHANTOM
 10
0.0
 20
0.0
 30
0.0
  0
VERTEX
  5
10232
  8
08非表示
  6
PHANTOM
 10
0.0
 20
4455.0
 30
0.0
  0
VERTEX
  5
10233
  8
08非表示
  6
PHANTOM
 10
6300.0
 20
4455.0
 30
0.0
  0
VERTEX
  5
10234
  8
08非表示
  6
PHANTOM
 10
6300.0
 20
0.0
 30
0.0
  0
SEQEND
  5
104AA
  8
08非表示
  6
PHANTOM
  0
POLYLINE
  5
7E74
  8
09図枠
 66
     1
 10
0.0
 20
0.0
 30
0.0
 70
     1
  0
VERTEX
  5
10235
  8
09図枠
 10
150.0
 20
150.0
 30
0.0
  0
VERTEX
  5
10236
  8
09図枠
 10
150.0
 20
4305.0
 30
0.0
  0
VERTEX
  5
10237
  8
09図枠
 10
6150.0
 20
4305.0
 30
0.0
  0
VERTEX
  5
10238
  8
09図枠
 10
6150.0
 20
150.0
 30
0.0
  0
SEQEND
  5
104AB
  8
09図枠
  0
POLYLINE
  5
7E7B
  8
09図枠
 66
     1
 10
0.0
 20
0.0
 30
0.0
 70
     1
  0
VERTEX
  5
10239
  8
09図枠
 10
4950.0
 20
4065.0
 30
0.0
  0
VERTEX
  5
1023A
  8
09図枠
 10
4950.0
 20
4305.0
 30
0.0
  0
VERTEX
  5
1023B
  8
09図枠
 10
6150.0
 20
4305.0
 30
0.0
  0
VERTEX
  5
1023C
  8
09図枠
 10
6150.0
 20
4065.0
 30
0.0
  0
SEQEND
  5
104AC
  8
09図枠
  0
POLYLINE
  5
7E88
  8
09図枠
 66
     1
 10
0.0
 20
0.0
 30
0.0
 70
     1
  0
VERTEX
  5
1023D
  8
09図枠
 10
5190.0
 20
3945.0
 30
0.0
  0
VERTEX
  5
1023E
  8
09図枠
 10
5190.0
 20
4065.0
 30
0.0
  0
VERTEX
  5
1023F
  8
09図枠
 10
6150.0
 20
4065.0
 30
0.0
  0
VERTEX
  5
10240
  8
09図枠
 10
6150.0
 20
3945.0
 30
0.0
  0
SEQEND
  5
104AD
  8
09図枠
  0
POLYLINE
  5
7E89
  8
09図枠
 66
     1
 10
0.0
 20
0.0
 30
0.0
 70
     1
  0
VERTEX
  5
10241
  8
09図枠
 10
4950.0
 20
3945.0
 30
0.0
  0
VERTEX
  5
10242
  8
09図枠
 10
4950.0
 20
4065.0
 30
0.0
  0
VERTEX
  5
10243
  8
09図枠
 10
5190.0
 20
4065.0
 30
0.0
  0
VERTEX
  5
10244
  8
09図枠
 10
5190.0
 20
3945.0
 30
0.0
  0
SEQEND
  5
104AE
  8
09図枠
  0
TEXT
  5
7E8A
  8
01注記寸法
 10
4991.970739027135
 20
3975.0
 30
0.0
 40
60.0
  1
型式
 72
     1
 11
5070.0
 21
4005.0
 31
0.0
 73
     2
  0
TEXT
  5
7E8B
  8
01注記寸法
 10
5248.64199074653
 20
3975.0
 30
0.0
 40
60.0
  1
Ｎ－ＢＨＨ１６００Ｄ－５
 41
0.9
 72
     1
 11
5670.0
 21
4005.0
 31
0.0
 73
     2
  0
POLYLINE
  5
7E8C
  8
09図枠
 66
     1
 10
0.0
 20
0.0
 30
0.0
 70
     1
  0
VERTEX
  5
10245
  8
09図枠
 10
4950.0
 20
3645.0
 30
0.0
  0
VERTEX
  5
10246
  8
09図枠
 10
4950.0
 20
3945.0
 30
0.0
  0
VERTEX
  5
10247
  8
09図枠
 10
6150.0
 20
3945.0
 30
0.0
  0
VERTEX
  5
10248
  8
09図枠
 10
6150.0
 20
3645.0
 30
0.0
  0
SEQEND
  5
104AF
  8
09図枠
  0
LINE
  5
7E8D
  8
01注記寸法
  6
HIDDEN
 10
4950.0
 20
3765.0
 30
0.0
 11
6150.0
 21
3765.0
 31
0.0
  0
TEXT
  5
7E8F
  8
01注記寸法
 10
4995.0
 20
3832.5
 30
0.0
 40
45.0
  1
機器
 11
4995.0
 21
3855.0
 31
0.0
 73
     2
  0
TEXT
  5
7E90
  8
01注記寸法
 10
4995.0
 20
3682.5
 30
0.0
 40
45.0
  1
機器質量
 11
4995.0
 21
3705.0
 31
0.0
 73
     2
  0
POLYLINE
  5
7E94
  8
09図枠
 66
     1
 10
0.0
 20
0.0
 30
0.0
 70
     1
  0
VERTEX
  5
10249
  8
09図枠
 10
4950.0
 20
3375.0
 30
0.0
  0
VERTEX
  5
1024A
  8
09図枠
 10
4950.0
 20
3645.0
 30
0.0
  0
VERTEX
  5
1024B
  8
09図枠
 10
6150.0
 20
3645.0
 30
0.0
  0
VERTEX
  5
1024C
  8
09図枠
 10
6150.0
 20
3375.0
 30
0.0
  0
SEQEND
  5
104B0
  8
09図枠
  0
TEXT
  5
7E95
  8
01注記寸法
 10
4995.0
 20
3532.5
 30
0.0
 40
45.0
  1
現場名
 11
4995.0
 21
3555.0
 31
0.0
 73
     2
  0
LINE
  5
7E97
  8
01注記寸法
  6
HIDDEN
 10
4950.0
 20
3465.0
 30
0.0
 11
6150.0
 21
3465.0
 31
0.0
  0
TEXT
  5
7E98
  8
01注記寸法
 10
4995.0
 20
3397.5
 30
0.0
 40
45.0
  1
系統名
 11
4995.0
 21
3420.0
 31
0.0
 73
     2
  0
POLYLINE
  5
7EA4
  8
09図枠
 66
     1
 10
0.0
 20
0.0
 30
0.0
 70
     1
  0
VERTEX
  5
1024D
  8
09図枠
 10
5190.0
 20
150.0
 30
0.0
  0
VERTEX
  5
1024E
  8
09図枠
 10
5190.0
 20
270.0
 30
0.0
  0
VERTEX
  5
1024F
  8
09図枠
 10
6150.0
 20
270.0
 30
0.0
  0
VERTEX
  5
10250
  8
09図枠
 10
6150.0
 20
150.0
 30
0.0
  0
SEQEND
  5
104B1
  8
09図枠
  0
POLYLINE
  5
7EA5
  8
09図枠
 66
     1
 10
0.0
 20
0.0
 30
0.0
 70
     1
  0
VERTEX
  5
10251
  8
09図枠
 10
4950.0
 20
150.0
 30
0.0
  0
VERTEX
  5
10252
  8
09図枠
 10
4950.0
 20
270.0
 30
0.0
  0
VERTEX
  5
10253
  8
09図枠
 10
5190.0
 20
270.0
 30
0.0
  0
VERTEX
  5
10254
  8
09図枠
 10
5190.0
 20
150.0
 30
0.0
  0
SEQEND
  5
104B2
  8
09図枠
  0
TEXT
  5
7EA6
  8
01注記寸法
 10
4991.970739027135
 20
180.0
 30
0.0
 40
60.0
  1
図番
 72
     1
 11
5070.0
 21
210.0
 31
0.0
 73
     2
  0
TEXT
  5
7EA7
  8
01注記寸法
 10
5201.824434162811
 20
180.0
 30
0.0
 40
60.0
  1
３－ＨＴＲ１２０＃Ｅ２Ｂ１－５
 41
0.8
 72
     1
 11
5670.0
 21
210.0
 31
0.0
 73
     2
  0
POLYLINE
  5
7EB6
  8
09図枠
 66
     1
 10
0.0
 20
0.0
 30
0.0
 70
     1
  0
VERTEX
  5
10255
  8
09図枠
 10
4950.0
 20
270.0
 30
0.0
  0
VERTEX
  5
10256
  8
09図枠
 10
4950.0
 20
420.0
 30
0.0
  0
VERTEX
  5
10257
  8
09図枠
 10
6150.0
 20
420.0
 30
0.0
  0
VERTEX
  5
10258
  8
09図枠
 10
6150.0
 20
270.0
 30
0.0
  0
SEQEND
  5
104B3
  8
09図枠
  0
POLYLINE
  5
7EB9
  8
09図枠
 66
     1
 10
0.0
 20
0.0
 30
0.0
 70
     1
  0
VERTEX
  5
10259
  8
09図枠
 10
4950.0
 20
420.0
 30
0.0
  0
VERTEX
  5
1025A
  8
09図枠
 10
4950.0
 20
630.0
 30
0.0
  0
VERTEX
  5
1025B
  8
09図枠
 10
6150.0
 20
630.0
 30
0.0
  0
VERTEX
  5
1025C
  8
09図枠
 10
6150.0
 20
420.0
 30
0.0
  0
SEQEND
  5
104B4
  8
09図枠
  0
TEXT
  5
7EBE
  8
01注記寸法
 10
5057.217081405527
 20
562.5
 30
0.0
 40
45.0
  1
発行日
 72
     1
 11
5145.0
 21
585.0
 31
0.0
 73
     2
  0
TEXT
  5
7EBF
  8
01注記寸法
 10
5416.478054270351
 20
562.5
 30
0.0
 40
45.0
  1
承認
 72
     1
 11
5475.0
 21
585.0
 31
0.0
 73
     2
  0
TEXT
  5
7EC0
  8
01注記寸法
 10
5686.478054270351
 20
562.5
 30
0.0
 40
45.0
  1
設計
 72
     1
 11
5745.0
 21
585.0
 31
0.0
 73
     2
  0
TEXT
  5
7EC1
  8
01注記寸法
 10
5956.478054270351
 20
562.5
 30
0.0
 40
45.0
  1
作図
 72
     1
 11
6015.0
 21
585.0
 31
0.0
 73
     2
  0
TEXT
  5
7EC2
  8
01注記寸法
 10
5013.32562210829
 20
457.5
 30
0.0
 40
45.0
  1
'16.04.25
 72
     1
 11
5145.0
 21
480.0
 31
0.0
 73
     2
  0
TEXT
  5
7EC3
  8
01注記寸法
 10
5416.478054270351
 20
457.5
 30
0.0
 40
45.0
  1
加納
 72
     1
 11
5475.0
 21
480.0
 31
0.0
 73
     2
  0
TEXT
  5
7EC4
  8
01注記寸法
 10
5686.478054270351
 20
457.5
 30
0.0
 40
45.0
  1
内野
 72
     1
 11
5745.0
 21
480.0
 31
0.0
 73
     2
  0
TEXT
  5
7EC5
  8
01注記寸法
 10
5956.478054270351
 20
457.5
 30
0.0
 40
45.0
  1
内野
 72
     1
 11
6015.0
 21
480.0
 31
0.0
 73
     2
  0
POLYLINE
  5
7EC6
  8
01注記寸法
 66
     1
 10
0.0
 20
0.0
 30
0.0
 70
     1
  0
VERTEX
  5
1025D
  8
01注記寸法
 10
4950.0
 20
1080.0
 30
0.0
  0
VERTEX
  5
1025E
  8
01注記寸法
 10
4950.0
 20
1170.0
 30
0.0
  0
VERTEX
  5
1025F
  8
01注記寸法
 10
5100.0
 20
1170.0
 30
0.0
  0
VERTEX
  5
10260
  8
01注記寸法
 10
5100.0
 20
1080.0
 30
0.0
  0
SEQEND
  5
104B5
  8
01注記寸法
  0
POLYLINE
  5
7EC7
  8
01注記寸法
 66
     1
 10
0.0
 20
0.0
 30
0.0
 70
     1
  0
VERTEX
  5
10261
  8
01注記寸法
 10
6375.0
 20
1080.0
 30
0.0
  0
VERTEX
  5
10262
  8
01注記寸法
 10
6375.0
 20
1170.0
 30
0.0
  0
VERTEX
  5
10263
  8
01注記寸法
 10
6525.0
 20
1170.0
 30
0.0
  0
VERTEX
  5
10264
  8
01注記寸法
 10
6525.0
 20
1080.0
 30
0.0
  0
SEQEND
  5
104B6
  8
01注記寸法
  0
POLYLINE
  5
7EC8
  8
01注記寸法
 66
     1
 10
0.0
 20
0.0
 30
0.0
 70
     1
  0
VERTEX
  5
10265
  8
01注記寸法
 10
5100.0
 20
1080.0
 30
0.0
  0
VERTEX
  5
10266
  8
01注記寸法
 10
5100.0
 20
1170.0
 30
0.0
  0
VERTEX
  5
10267
  8
01注記寸法
 10
5400.0
 20
1170.0
 30
0.0
  0
VERTEX
  5
10268
  8
01注記寸法
 10
5400.0
 20
1080.0
 30
0.0
  0
SEQEND
  5
104B7
  8
01注記寸法
  0
POLYLINE
  5
7EC9
  8
01注記寸法
 66
     1
 10
0.0
 20
0.0
 30
0.0
 70
     1
  0
VERTEX
  5
10269
  8
01注記寸法
 10
5400.0
 20
1080.0
 30
0.0
  0
VERTEX
  5
1026A
  8
01注記寸法
 10
5400.0
 20
1170.0
 30
0.0
  0
VERTEX
  5
1026B
  8
01注記寸法
 10
6150.0
 20
1170.0
 30
0.0
  0
VERTEX
  5
1026C
  8
01注記寸法
 10
6150.0
 20
1080.0
 30
0.0
  0
SEQEND
  5
104B8
  8
01注記寸法
  0
TEXT
  5
7ECA
  8
01注記寸法
 10
4966.478054270351
 20
1102.5
 30
0.0
 40
45.0
  1
番号
 72
     1
 11
5025.0
 21
1125.0
 31
0.0
 73
     2
  0
TEXT
  5
7ECB
  8
01注記寸法
 10
6391.478054270351
 20
1102.5
 30
0.0
 40
45.0
  1
担当
 72
     1
 11
6450.0
 21
1125.0
 31
0.0
 73
     2
  0
TEXT
  5
7ECC
  8
01注記寸法
 10
5191.478054270351
 20
1102.5
 30
0.0
 40
45.0
  1
日付
 72
     1
 11
5250.0
 21
1125.0
 31
0.0
 73
     2
  0
TEXT
  5
7ECD
  8
01注記寸法
 10
5657.956108540703
 20
1102.5
 30
0.0
 40
45.0
  1
改訂記事
 72
     1
 11
5775.0
 21
1125.0
 31
0.0
 73
     2
  0
POLYLINE
  5
7ECE
  8
01注記寸法
 66
     1
 10
0.0
 20
0.0
 30
0.0
 70
     1
  0
VERTEX
  5
1026D
  8
01注記寸法
 10
4950.0
 20
990.0
 30
0.0
  0
VERTEX
  5
1026E
  8
01注記寸法
 10
4950.0
 20
1080.0
 30
0.0
  0
VERTEX
  5
1026F
  8
01注記寸法
 10
5100.0
 20
1080.0
 30
0.0
  0
VERTEX
  5
10270
  8
01注記寸法
 10
5100.0
 20
990.0
 30
0.0
  0
SEQEND
  5
104B9
  8
01注記寸法
  0
POLYLINE
  5
7ECF
  8
01注記寸法
 66
     1
 10
0.0
 20
0.0
 30
0.0
 70
     1
  0
VERTEX
  5
10271
  8
01注記寸法
 10
6375.0
 20
990.0
 30
0.0
  0
VERTEX
  5
10272
  8
01注記寸法
 10
6375.0
 20
1080.0
 30
0.0
  0
VERTEX
  5
10273
  8
01注記寸法
 10
6525.0
 20
1080.0
 30
0.0
  0
VERTEX
  5
10274
  8
01注記寸法
 10
6525.0
 20
990.0
 30
0.0
  0
SEQEND
  5
104BA
  8
01注記寸法
  0
POLYLINE
  5
7ED0
  8
01注記寸法
 66
     1
 10
0.0
 20
0.0
 30
0.0
 70
     1
  0
VERTEX
  5
10275
  8
01注記寸法
 10
5100.0
 20
990.0
 30
0.0
  0
VERTEX
  5
10276
  8
01注記寸法
 10
5100.0
 20
1080.0
 30
0.0
  0
VERTEX
  5
10277
  8
01注記寸法
 10
5400.0
 20
1080.0
 30
0.0
  0
VERTEX
  5
10278
  8
01注記寸法
 10
5400.0
 20
990.0
 30
0.0
  0
SEQEND
  5
104BB
  8
01注記寸法
  0
POLYLINE
  5
7ED1
  8
01注記寸法
 66
     1
 10
0.0
 20
0.0
 30
0.0
 70
     1
  0
VERTEX
  5
10279
  8
01注記寸法
 10
5400.0
 20
990.0
 30
0.0
  0
VERTEX
  5
1027A
  8
01注記寸法
 10
5400.0
 20
1080.0
 30
0.0
  0
VERTEX
  5
1027B
  8
01注記寸法
 10
6150.0
 20
1080.0
 30
0.0
  0
VERTEX
  5
1027C
  8
01注記寸法
 10
6150.0
 20
990.0
 30
0.0
  0
SEQEND
  5
104BC
  8
01注記寸法
  0
TEXT
  5
7ED2
  8
01注記寸法
 10
6391.478054270351
 20
1012.5
 30
0.0
 40
45.0
  1
内野
 72
     1
 11
6450.0
 21
1035.0
 31
0.0
 73
     2
  0
TEXT
  5
7ED4
  8
01注記寸法
 10
5118.32562210829
 20
1012.50015
 30
0.0
 40
45.0
  1
'16.06.28
 72
     1
 11
5250.0
 21
1035.00015
 31
0.0
 73
     2
  0
TEXT
  5
7ED5
  8
01注記寸法
 10
5657.956108540703
 20
1012.500113123142
 30
0.0
 40
45.0
  1
型式追記
 72
     1
 11
5775.0
 21
1035.000113123142
 31
0.0
 73
     2
  0
TEXT
  5
7ED6
  8
01注記寸法
 10
5010.369513567592
 20
1002.646495132547
 30
0.0
 40
45.0
  1
1
 72
     4
 11
5025.000000000004
 21
1024.929851391144
 31
0.0
  0
POLYLINE
  5
7EDA
  8
09図枠
 66
     1
 10
0.0
 20
0.0
 30
0.0
 70
     1
  0
VERTEX
  5
1027D
  8
09図枠
 10
4950.0
 20
1170.0
 30
0.0
  0
VERTEX
  5
1027E
  8
09図枠
 10
4950.0
 20
3375.0
 30
0.0
  0
VERTEX
  5
1027F
  8
09図枠
 10
6150.0
 20
3375.0
 30
0.0
  0
VERTEX
  5
10280
  8
09図枠
 10
6150.0
 20
1170.0
 30
0.0
  0
SEQEND
  5
104BD
  8
09図枠
  0
POLYLINE
  5
7EDB
  8
09図枠
 66
     1
 10
0.0
 20
0.0
 30
0.0
 70
     1
  0
VERTEX
  5
10281
  8
09図枠
 10
4950.0
 20
630.0
 30
0.0
  0
VERTEX
  5
10282
  8
09図枠
 10
4950.0
 20
1170.0
 30
0.0
  0
VERTEX
  5
10283
  8
09図枠
 10
6150.0
 20
1170.0
 30
0.0
  0
VERTEX
  5
10284
  8
09図枠
 10
6150.0
 20
630.0
 30
0.0
  0
SEQEND
  5
104BE
  8
09図枠
  0
POLYLINE
  5
7EDC
  8
01注記寸法
 66
     1
 10
0.0
 20
0.0
 30
0.0
 70
     1
  0
VERTEX
  5
10285
  8
01注記寸法
 10
4950.0
 20
900.0
 30
0.0
  0
VERTEX
  5
10286
  8
01注記寸法
 10
4950.0
 20
990.0
 30
0.0
  0
VERTEX
  5
10287
  8
01注記寸法
 10
5100.0
 20
990.0
 30
0.0
  0
VERTEX
  5
10288
  8
01注記寸法
 10
5100.0
 20
900.0
 30
0.0
  0
SEQEND
  5
104BF
  8
01注記寸法
  0
POLYLINE
  5
7EDD
  8
01注記寸法
 66
     1
 10
0.0
 20
0.0
 30
0.0
 70
     1
  0
VERTEX
  5
10289
  8
01注記寸法
 10
6375.0
 20
900.0
 30
0.0
  0
VERTEX
  5
1028A
  8
01注記寸法
 10
6375.0
 20
990.0
 30
0.0
  0
VERTEX
  5
1028B
  8
01注記寸法
 10
6525.0
 20
990.0
 30
0.0
  0
VERTEX
  5
1028C
  8
01注記寸法
 10
6525.0
 20
900.0
 30
0.0
  0
SEQEND
  5
104C0
  8
01注記寸法
  0
POLYLINE
  5
7EDE
  8
01注記寸法
 66
     1
 10
0.0
 20
0.0
 30
0.0
 70
     1
  0
VERTEX
  5
1028D
  8
01注記寸法
 10
5100.0
 20
900.0
 30
0.0
  0
VERTEX
  5
1028E
  8
01注記寸法
 10
5100.0
 20
990.0
 30
0.0
  0
VERTEX
  5
1028F
  8
01注記寸法
 10
5400.0
 20
990.0
 30
0.0
  0
VERTEX
  5
10290
  8
01注記寸法
 10
5400.0
 20
900.0
 30
0.0
  0
SEQEND
  5
104C1
  8
01注記寸法
  0
POLYLINE
  5
7EDF
  8
01注記寸法
 66
     1
 10
0.0
 20
0.0
 30
0.0
 70
     1
  0
VERTEX
  5
10291
  8
01注記寸法
 10
5400.0
 20
900.0
 30
0.0
  0
VERTEX
  5
10292
  8
01注記寸法
 10
5400.0
 20
990.0
 30
0.0
  0
VERTEX
  5
10293
  8
01注記寸法
 10
6150.0
 20
990.0
 30
0.0
  0
VERTEX
  5
10294
  8
01注記寸法
 10
6150.0
 20
900.0
 30
0.0
  0
SEQEND
  5
104C2
  8
01注記寸法
  0
TEXT
  5
7EE0
  8
01注記寸法
 10
6391.478054270351
 20
922.5
 30
0.0
 40
45.0
  1
内野
 72
     1
 11
6450.0
 21
945.0
 31
0.0
 73
     2
  0
TEXT
  5
7EE2
  8
01注記寸法
 10
5570.17318994623
 20
922.500113123142
 30
0.0
 40
45.0
  1
付属品数量訂正
 72
     1
 11
5775.0
 21
945.000113123142
 31
0.0
 73
     2
  0
TEXT
  5
7EE3
  8
01注記寸法
 10
5010.369513567588
 20
912.6471437414034
 30
0.0
 40
45.0
  1
2
 72
     4
 11
5025.0
 21
934.9305000000004
 31
0.0
  0
POLYLINE
  5
7EE7
  8
01注記寸法
 66
     1
 10
0.0
 20
0.0
 30
0.0
 70
     1
  0
VERTEX
  5
10295
  8
01注記寸法
 10
4950.0
 20
810.0
 30
0.0
  0
VERTEX
  5
10296
  8
01注記寸法
 10
4950.0
 20
900.0
 30
0.0
  0
VERTEX
  5
10297
  8
01注記寸法
 10
5100.0
 20
900.0
 30
0.0
  0
VERTEX
  5
10298
  8
01注記寸法
 10
5100.0
 20
810.0
 30
0.0
  0
SEQEND
  5
104C3
  8
01注記寸法
  0
POLYLINE
  5
7EE8
  8
01注記寸法
 66
     1
 10
0.0
 20
0.0
 30
0.0
 70
     1
  0
VERTEX
  5
10299
  8
01注記寸法
 10
6375.0
 20
810.0
 30
0.0
  0
VERTEX
  5
1029A
  8
01注記寸法
 10
6375.0
 20
900.0
 30
0.0
  0
VERTEX
  5
1029B
  8
01注記寸法
 10
6525.0
 20
900.0
 30
0.0
  0
VERTEX
  5
1029C
  8
01注記寸法
 10
6525.0
 20
810.0
 30
0.0
  0
SEQEND
  5
104C4
  8
01注記寸法
  0
POLYLINE
  5
7EE9
  8
01注記寸法
 66
     1
 10
0.0
 20
0.0
 30
0.0
 70
     1
  0
VERTEX
  5
1029D
  8
01注記寸法
 10
5100.0
 20
810.0
 30
0.0
  0
VERTEX
  5
1029E
  8
01注記寸法
 10
5100.0
 20
900.0
 30
0.0
  0
VERTEX
  5
1029F
  8
01注記寸法
 10
5400.0
 20
900.0
 30
0.0
  0
VERTEX
  5
102A0
  8
01注記寸法
 10
5400.0
 20
810.0
 30
0.0
  0
SEQEND
  5
104C5
  8
01注記寸法
  0
POLYLINE
  5
7EEA
  8
01注記寸法
 66
     1
 10
0.0
 20
0.0
 30
0.0
 70
     1
  0
VERTEX
  5
102A1
  8
01注記寸法
 10
5400.0
 20
810.0
 30
0.0
  0
VERTEX
  5
102A2
  8
01注記寸法
 10
5400.0
 20
900.0
 30
0.0
  0
VERTEX
  5
102A3
  8
01注記寸法
 10
6150.0
 20
900.0
 30
0.0
  0
VERTEX
  5
102A4
  8
01注記寸法
 10
6150.0
 20
810.0
 30
0.0
  0
SEQEND
  5
104C6
  8
01注記寸法
  0
TEXT
  5
7EEB
  8
01注記寸法
 10
6391.478054270351
 20
832.5
 30
0.0
 40
45.0
  1
内野
 72
     1
 11
6450.0
 21
855.0
 31
0.0
 73
     2
  0
TEXT
  5
7EED
  8
01注記寸法
 10
5540.912217081405
 20
832.500113123142
 30
0.0
 40
45.0
  1
適用防振架台追加
 72
     1
 11
5775.0
 21
855.000113123142
 31
0.0
 73
     2
  0
TEXT
  5
7EEE
  8
01注記寸法
 10
5010.369513567588
 20
822.6471437414034
 30
0.0
 40
45.0
  1
3
 72
     4
 11
5025.0
 21
844.9305000000004
 31
0.0
  0
POLYLINE
  5
7EF2
  8
01注記寸法
 66
     1
 10
0.0
 20
0.0
 30
0.0
 70
     1
  0
VERTEX
  5
102A5
  8
01注記寸法
 10
4950.0
 20
720.0
 30
0.0
  0
VERTEX
  5
102A6
  8
01注記寸法
 10
4950.0
 20
810.0
 30
0.0
  0
VERTEX
  5
102A7
  8
01注記寸法
 10
5100.0
 20
810.0
 30
0.0
  0
VERTEX
  5
102A8
  8
01注記寸法
 10
5100.0
 20
720.0
 30
0.0
  0
SEQEND
  5
104C7
  8
01注記寸法
  0
POLYLINE
  5
7EF3
  8
01注記寸法
 66
     1
 10
0.0
 20
0.0
 30
0.0
 70
     1
  0
VERTEX
  5
102A9
  8
01注記寸法
 10
6375.0
 20
720.0
 30
0.0
  0
VERTEX
  5
102AA
  8
01注記寸法
 10
6375.0
 20
810.0
 30
0.0
  0
VERTEX
  5
102AB
  8
01注記寸法
 10
6525.0
 20
810.0
 30
0.0
  0
VERTEX
  5
102AC
  8
01注記寸法
 10
6525.0
 20
720.0
 30
0.0
  0
SEQEND
  5
104C8
  8
01注記寸法
  0
POLYLINE
  5
7EF4
  8
01注記寸法
 66
     1
 10
0.0
 20
0.0
 30
0.0
 70
     1
  0
VERTEX
  5
102AD
  8
01注記寸法
 10
5100.0
 20
720.0
 30
0.0
  0
VERTEX
  5
102AE
  8
01注記寸法
 10
5100.0
 20
810.0
 30
0.0
  0
VERTEX
  5
102AF
  8
01注記寸法
 10
5400.0
 20
810.0
 30
0.0
  0
VERTEX
  5
102B0
  8
01注記寸法
 10
5400.0
 20
720.0
 30
0.0
  0
SEQEND
  5
104C9
  8
01注記寸法
  0
POLYLINE
  5
7EF5
  8
01注記寸法
 66
     1
 10
0.0
 20
0.0
 30
0.0
 70
     1
  0
VERTEX
  5
102B1
  8
01注記寸法
 10
5400.0
 20
720.0
 30
0.0
  0
VERTEX
  5
102B2
  8
01注記寸法
 10
5400.0
 20
810.0
 30
0.0
  0
VERTEX
  5
102B3
  8
01注記寸法
 10
6150.0
 20
810.0
 30
0.0
  0
VERTEX
  5
102B4
  8
01注記寸法
 10
6150.0
 20
720.0
 30
0.0
  0
SEQEND
  5
104CA
  8
01注記寸法
  0
TEXT
  5
7EF6
  8
01注記寸法
 10
6391.478054270351
 20
742.5
 30
0.0
 40
45.0
  1
担当
 72
     1
 11
6450.0
 21
765.0
 31
0.0
 73
     2
  0
TEXT
  5
7EF8
  8
08非表示
 10
5701.875
 20
742.500113123142
 30
0.0
 40
45.0
  1
*****
 72
     1
 11
5775.0
 21
765.000113123142
 31
0.0
 73
     2
  0
TEXT
  5
7EF9
  8
08非表示
 10
5010.375
 20
732.2055000000004
 30
0.0
 40
45.0
  1
4
 72
     4
 11
5025.0
 21
754.9305000000004
 31
0.0
  0
POLYLINE
  5
7EFD
  8
01注記寸法
 66
     1
 10
0.0
 20
0.0
 30
0.0
 70
     1
  0
VERTEX
  5
102B5
  8
01注記寸法
 10
4950.0
 20
630.0
 30
0.0
  0
VERTEX
  5
102B6
  8
01注記寸法
 10
4950.0
 20
720.0
 30
0.0
  0
VERTEX
  5
102B7
  8
01注記寸法
 10
5100.0
 20
720.0
 30
0.0
  0
VERTEX
  5
102B8
  8
01注記寸法
 10
5100.0
 20
630.0
 30
0.0
  0
SEQEND
  5
104CB
  8
01注記寸法
  0
POLYLINE
  5
7EFE
  8
01注記寸法
 66
     1
 10
0.0
 20
0.0
 30
0.0
 70
     1
  0
VERTEX
  5
102B9
  8
01注記寸法
 10
6375.0
 20
630.0
 30
0.0
  0
VERTEX
  5
102BA
  8
01注記寸法
 10
6375.0
 20
720.0
 30
0.0
  0
VERTEX
  5
102BB
  8
01注記寸法
 10
6525.0
 20
720.0
 30
0.0
  0
VERTEX
  5
102BC
  8
01注記寸法
 10
6525.0
 20
630.0
 30
0.0
  0
SEQEND
  5
104CC
  8
01注記寸法
  0
POLYLINE
  5
7EFF
  8
01注記寸法
 66
     1
 10
0.0
 20
0.0
 30
0.0
 70
     1
  0
VERTEX
  5
102BD
  8
01注記寸法
 10
5100.0
 20
630.0
 30
0.0
  0
VERTEX
  5
102BE
  8
01注記寸法
 10
5100.0
 20
720.0
 30
0.0
  0
VERTEX
  5
102BF
  8
01注記寸法
 10
5400.0
 20
720.0
 30
0.0
  0
VERTEX
  5
102C0
  8
01注記寸法
 10
5400.0
 20
630.0
 30
0.0
  0
SEQEND
  5
104CD
  8
01注記寸法
  0
POLYLINE
  5
7F00
  8
01注記寸法
 66
     1
 10
0.0
 20
0.0
 30
0.0
 70
     1
  0
VERTEX
  5
102C1
  8
01注記寸法
 10
5400.0
 20
630.0
 30
0.0
  0
VERTEX
  5
102C2
  8
01注記寸法
 10
5400.0
 20
720.0
 30
0.0
  0
VERTEX
  5
102C3
  8
01注記寸法
 10
6150.0
 20
720.0
 30
0.0
  0
VERTEX
  5
102C4
  8
01注記寸法
 10
6150.0
 20
630.0
 30
0.0
  0
SEQEND
  5
104CE
  8
01注記寸法
  0
TEXT
  5
7F01
  8
01注記寸法
 10
6391.478054270351
 20
652.5
 30
0.0
 40
45.0
  1
担当
 72
     1
 11
6450.0
 21
675.0
 31
0.0
 73
     2
  0
TEXT
  5
7F03
  8
08非表示
 10
5701.875
 20
652.500113123142
 30
0.0
 40
45.0
  1
*****
 72
     1
 11
5775.0
 21
675.000113123142
 31
0.0
 73
     2
  0
TEXT
  5
7F04
  8
08非表示
 10
5010.375
 20
642.2055000000004
 30
0.0
 40
45.0
  1
5
 72
     4
 11
5025.0
 21
664.9305000000004
 31
0.0
  0
ARC
  5
7F08
  8
09図枠
 10
5010.0
 20
3315.0
 30
0.0
 40
45.0
 50
90.0
 51
270.0
  0
ARC
  5
7F09
  8
09図枠
 10
5220.0
 20
3315.0
 30
0.0
 40
45.0
 50
270.0
 51
90.0
  0
LINE
  5
7F0A
  8
09図枠
 10
5010.0
 20
3360.0
 30
0.0
 11
5220.0
 21
3360.0
 31
0.0
  0
LINE
  5
7F0B
  8
09図枠
 10
5010.0
 20
3270.0
 30
0.0
 11
5220.0
 21
3270.0
 31
0.0
  0
TEXT
  5
7F0C
  8
01注記寸法
 10
5056.478054270351
 20
3292.5
 30
0.0
 40
45.0
  1
仕様
 72
     1
 11
5115.0
 21
3315.0
 31
0.0
 73
     2
  0
TEXT
  5
7F0D
  8
01注記寸法
 10
4995.0
 20
3202.5
 30
0.0
 40
45.0
  1
架台質量
 11
4995.0
 21
3225.0
 31
0.0
 73
     2
  0
TEXT
  5
7F12
  8
01注記寸法
 10
6061.478054270351
 20
3202.5
 30
0.0
 40
45.0
  1
kg
 72
     2
 11
6120.0
 21
3225.0
 31
0.0
 73
     2
  0
TEXT
  5
7F13
  8
01注記寸法
 10
5971.478054270351
 20
3202.5
 30
0.0
 40
45.0
  1
35
 72
     2
 11
6030.0
 21
3225.0
 31
0.0
 73
     2
  0
LINE
  5
7F19
  8
01注記寸法
 10
6150.0
 20
3180.0
 30
0.0
 11
4950.0
 21
3180.0
 31
0.0
  0
TEXT
  5
7F1B
  8
01注記寸法
 10
4995.0
 20
3112.5
 30
0.0
 40
45.0
  1
材質
 11
4995.0
 21
3135.0
 31
0.0
 73
     2
  0
TEXT
  5
7F1C
  8
01注記寸法
 10
5973.695135675878
 20
3112.5
 30
0.0
 40
45.0
  1
SS400
 72
     2
 11
6120.0
 21
3135.0
 31
0.0
 73
     2
  0
LINE
  5
7F47
  8
09図枠
 10
6150.0
 20
2175.0
 30
0.0
 11
4950.0
 21
2175.0
 31
0.0
  0
LINE
  5
7F48
  8
09図枠
 10
5010.0
 20
2160.0
 30
0.0
 11
5220.0
 21
2160.0
 31
0.0
  0
ARC
  5
7F49
  8
09図枠
 10
5220.0
 20
2115.0
 30
0.0
 40
45.0
 50
270.0
 51
90.0
  0
TEXT
  5
7F4A
  8
01注記寸法
 10
5027.217379803044
 20
2092.5
 30
0.0
 40
45.0
  1
その他
 72
     1
 11
5115.000298397516
 21
2115.0
 31
0.0
 73
     2
  0
LINE
  5
7F4B
  8
09図枠
 10
5010.0
 20
2070.0
 30
0.0
 11
5220.0
 21
2070.0
 31
0.0
  0
ARC
  5
7F4C
  8
09図枠
 10
5010.0
 20
2115.0
 30
0.0
 40
45.0
 50
90.0
 51
270.0
  0
POLYLINE
  5
7F4E
  8
01注記寸法
 66
     1
 10
0.0
 20
0.0
 30
0.0
 70
     1
  0
VERTEX
  5
102C5
  8
01注記寸法
 10
5850.0
 20
-165.0
 30
0.0
  0
VERTEX
  5
102C6
  8
01注記寸法
 10
5850.0
 20
-75.0
 30
0.0
  0
VERTEX
  5
102C7
  8
01注記寸法
 10
6000.0
 20
-75.0
 30
0.0
  0
VERTEX
  5
102C8
  8
01注記寸法
 10
6000.0
 20
-165.0
 30
0.0
  0
SEQEND
  5
104CF
  8
01注記寸法
  0
POLYLINE
  5
7F4F
  8
01注記寸法
 66
     1
 10
0.0
 20
0.0
 30
0.0
 70
     1
  0
VERTEX
  5
102C9
  8
01注記寸法
 10
4800.0
 20
-165.0
 30
0.0
  0
VERTEX
  5
102CA
  8
01注記寸法
 10
4800.0
 20
-75.0
 30
0.0
  0
VERTEX
  5
102CB
  8
01注記寸法
 10
5100.0
 20
-75.0
 30
0.0
  0
VERTEX
  5
102CC
  8
01注記寸法
 10
5100.0
 20
-165.0
 30
0.0
  0
SEQEND
  5
104D0
  8
01注記寸法
  0
POLYLINE
  5
7F50
  8
01注記寸法
 66
     1
 10
0.0
 20
0.0
 30
0.0
 70
     1
  0
VERTEX
  5
102CD
  8
01注記寸法
 10
5100.0
 20
-165.0
 30
0.0
  0
VERTEX
  5
102CE
  8
01注記寸法
 10
5100.0
 20
-75.0
 30
0.0
  0
VERTEX
  5
102CF
  8
01注記寸法
 10
5850.0
 20
-75.0
 30
0.0
  0
VERTEX
  5
102D0
  8
01注記寸法
 10
5850.0
 20
-165.0
 30
0.0
  0
SEQEND
  5
104D1
  8
01注記寸法
  0
TEXT
  5
7F51
  8
01注記寸法
 10
5866.478054270351
 20
-142.5
 30
0.0
 40
45.0
  1
担当
 72
     1
 11
5925.0
 21
-120.0
 31
0.0
 73
     2
  0
TEXT
  5
7F52
  8
01注記寸法
 10
4891.478054270351
 20
-142.5
 30
0.0
 40
45.0
  1
日付
 72
     1
 11
4950.0
 21
-120.0
 31
0.0
 73
     2
  0
TEXT
  5
7F53
  8
01注記寸法
 10
5211.651244216581
 20
-142.5
 30
0.0
 40
45.0
  1
社内都合による改訂
 72
     1
 11
5475.0
 21
-120.0
 31
0.0
 73
     2
  0
POLYLINE
  5
7F54
  8
01注記寸法
 66
     1
 10
0.0
 20
0.0
 30
0.0
 70
     1
  0
VERTEX
  5
102D1
  8
01注記寸法
 10
5850.0
 20
-255.0
 30
0.0
  0
VERTEX
  5
102D2
  8
01注記寸法
 10
5850.0
 20
-165.0
 30
0.0
  0
VERTEX
  5
102D3
  8
01注記寸法
 10
6000.0
 20
-165.0
 30
0.0
  0
VERTEX
  5
102D4
  8
01注記寸法
 10
6000.0
 20
-255.0
 30
0.0
  0
SEQEND
  5
104D2
  8
01注記寸法
  0
POLYLINE
  5
7F55
  8
01注記寸法
 66
     1
 10
0.0
 20
0.0
 30
0.0
 70
     1
  0
VERTEX
  5
102D5
  8
01注記寸法
 10
4800.0
 20
-255.0
 30
0.0
  0
VERTEX
  5
102D6
  8
01注記寸法
 10
4800.0
 20
-165.0
 30
0.0
  0
VERTEX
  5
102D7
  8
01注記寸法
 10
5100.0
 20
-165.0
 30
0.0
  0
VERTEX
  5
102D8
  8
01注記寸法
 10
5100.0
 20
-255.0
 30
0.0
  0
SEQEND
  5
104D3
  8
01注記寸法
  0
POLYLINE
  5
7F56
  8
01注記寸法
 66
     1
 10
0.0
 20
0.0
 30
0.0
 70
     1
  0
VERTEX
  5
102D9
  8
01注記寸法
 10
5100.0
 20
-255.0
 30
0.0
  0
VERTEX
  5
102DA
  8
01注記寸法
 10
5100.0
 20
-165.0
 30
0.0
  0
VERTEX
  5
102DB
  8
01注記寸法
 10
5850.0
 20
-165.0
 30
0.0
  0
VERTEX
  5
102DC
  8
01注記寸法
 10
5850.0
 20
-255.0
 30
0.0
  0
SEQEND
  5
104D4
  8
01注記寸法
  0
TEXT
  5
7F57
  8
01注記寸法
 10
5866.478054270351
 20
-232.5
 30
0.0
 40
45.0
  1
担当
 72
     1
 11
5925.0
 21
-210.0
 31
0.0
 73
     2
  0
TEXT
  5
7F58
  8
01注記寸法
 10
4818.32562210829
 20
-232.4998430661597
 30
0.0
 40
45.0
  1
'yy.mm.dd
 72
     1
 11
4950.0
 21
-209.9998430661597
 31
0.0
 73
     2
  0
TEXT
  5
7F59
  8
01注記寸法
 10
5401.847567837939
 20
-232.499886876858
 30
0.0
 40
45.0
  1
*****
 72
     1
 11
5475.0
 21
-209.999886876858
 31
0.0
 73
     2
  0
POLYLINE
  5
7F8D
  8
01注記寸法
 66
     1
 10
0.0
 20
0.0
 30
0.0
 70
     1
  0
VERTEX
  5
102DD
  8
01注記寸法
 10
6525.0
 20
1080.0
 30
0.0
  0
VERTEX
  5
102DE
  8
01注記寸法
 10
6525.0
 20
1170.0
 30
0.0
  0
VERTEX
  5
102DF
  8
01注記寸法
 10
6825.0
 20
1170.0
 30
0.0
  0
VERTEX
  5
102E0
  8
01注記寸法
 10
6825.0
 20
1080.0
 30
0.0
  0
SEQEND
  5
104D5
  8
01注記寸法
  0
TEXT
  5
7F8E
  8
01注記寸法
 10
6587.217081405527
 20
1102.500492815348
 30
0.0
 40
45.0
  1
依頼書
 72
     1
 11
6675.0
 21
1125.000492815348
 31
0.0
 73
     2
  0
POLYLINE
  5
7F8F
  8
01注記寸法
 66
     1
 10
0.0
 20
0.0
 30
0.0
 70
     1
  0
VERTEX
  5
102E1
  8
01注記寸法
 10
6525.0
 20
990.0
 30
0.0
  0
VERTEX
  5
102E2
  8
01注記寸法
 10
6525.0
 20
1080.0
 30
0.0
  0
VERTEX
  5
102E3
  8
01注記寸法
 10
6825.0
 20
1080.0
 30
0.0
  0
VERTEX
  5
102E4
  8
01注記寸法
 10
6825.0
 20
990.0
 30
0.0
  0
SEQEND
  5
104D6
  8
01注記寸法
  0
TEXT
  5
7F90
  8
01注記寸法
 10
6557.956108540703
 20
1012.500492815348
 30
0.0
 40
45.0
  1
T1606288
 72
     1
 11
6675.0
 21
1035.000492815348
 31
0.0
 73
     2
  0
TEXT
  5
7F91
  8
01注記寸法
 10
6616.478054270351
 20
922.500113123142
 30
0.0
 40
45.0
  1
無し
 72
     1
 11
6675.0
 21
945.000113123142
 31
0.0
 73
     2
  0
POLYLINE
  5
7F92
  8
01注記寸法
 66
     1
 10
0.0
 20
0.0
 30
0.0
 70
     1
  0
VERTEX
  5
102E5
  8
01注記寸法
 10
6525.0
 20
900.0
 30
0.0
  0
VERTEX
  5
102E6
  8
01注記寸法
 10
6525.0
 20
990.0
 30
0.0
  0
VERTEX
  5
102E7
  8
01注記寸法
 10
6825.0
 20
990.0
 30
0.0
  0
VERTEX
  5
102E8
  8
01注記寸法
 10
6825.0
 20
900.0
 30
0.0
  0
SEQEND
  5
104D7
  8
01注記寸法
  0
TEXT
  5
7F93
  8
01注記寸法
 10
6557.956108540703
 20
832.500113123142
 30
0.0
 40
45.0
  1
T1705014
 72
     1
 11
6675.0
 21
855.000113123142
 31
0.0
 73
     2
  0
POLYLINE
  5
7F94
  8
01注記寸法
 66
     1
 10
0.0
 20
0.0
 30
0.0
 70
     1
  0
VERTEX
  5
102E9
  8
01注記寸法
 10
6525.0
 20
810.0
 30
0.0
  0
VERTEX
  5
102EA
  8
01注記寸法
 10
6525.0
 20
900.0
 30
0.0
  0
VERTEX
  5
102EB
  8
01注記寸法
 10
6825.0
 20
900.0
 30
0.0
  0
VERTEX
  5
102EC
  8
01注記寸法
 10
6825.0
 20
810.0
 30
0.0
  0
SEQEND
  5
104D8
  8
01注記寸法
  0
TEXT
  5
7F95
  8
01注記寸法
 10
6587.217081405527
 20
742.500113123142
 30
0.0
 40
45.0
  1
******
 72
     1
 11
6675.0
 21
765.000113123142
 31
0.0
 73
     2
  0
POLYLINE
  5
7F96
  8
01注記寸法
 66
     1
 10
0.0
 20
0.0
 30
0.0
 70
     1
  0
VERTEX
  5
102ED
  8
01注記寸法
 10
6525.0
 20
720.0
 30
0.0
  0
VERTEX
  5
102EE
  8
01注記寸法
 10
6525.0
 20
810.0
 30
0.0
  0
VERTEX
  5
102EF
  8
01注記寸法
 10
6825.0
 20
810.0
 30
0.0
  0
VERTEX
  5
102F0
  8
01注記寸法
 10
6825.0
 20
720.0
 30
0.0
  0
SEQEND
  5
104D9
  8
01注記寸法
  0
TEXT
  5
7F97
  8
01注記寸法
 10
6587.217081405527
 20
652.500113123142
 30
0.0
 40
45.0
  1
******
 72
     1
 11
6675.0
 21
675.000113123142
 31
0.0
 73
     2
  0
POLYLINE
  5
7F98
  8
01注記寸法
 66
     1
 10
0.0
 20
0.0
 30
0.0
 70
     1
  0
VERTEX
  5
102F1
  8
01注記寸法
 10
6525.0
 20
630.0
 30
0.0
  0
VERTEX
  5
102F2
  8
01注記寸法
 10
6525.0
 20
720.0
 30
0.0
  0
VERTEX
  5
102F3
  8
01注記寸法
 10
6825.0
 20
720.0
 30
0.0
  0
VERTEX
  5
102F4
  8
01注記寸法
 10
6825.0
 20
630.0
 30
0.0
  0
SEQEND
  5
104DA
  8
01注記寸法
  0
TEXT
  5
7FC3
  8
01注記寸法
 10
4995.0
 20
1912.5
 30
0.0
 40
45.0
  1
　底面全体で水平面に設置してください。
 11
4995.0
 21
1935.0
 31
0.0
 73
     2
  0
TEXT
  5
7FC9
  8
01注記寸法
 10
195.0
 20
82.5
 30
0.0
 40
45.0
  1
A3
 11
195.0
 21
105.0
 31
0.0
 73
     2
  0
TEXT
  5
7FCA
  8
01注記寸法
 10
345.0
 20
82.5
 30
0.0
 40
45.0
  1
SCALE=
 11
345.0
 21
105.0
 31
0.0
 73
     2
  0
TEXT
  5
7FCB
  8
01注記寸法
 10
540.0
 20
82.5
 30
0.0
 40
45.0
  1
1:15
 11
540.0
 21
105.0
 31
0.0
 73
     2
  0
POLYLINE
  5
807F
  8
01注記寸法
 66
     1
 10
0.0
 20
0.0
 30
0.0
 70
     1
  0
VERTEX
  5
102F5
  8
01注記寸法
 10
6000.0
 20
-165.0
 30
0.0
  0
VERTEX
  5
102F6
  8
01注記寸法
 10
6000.0
 20
-75.0
 30
0.0
  0
VERTEX
  5
102F7
  8
01注記寸法
 10
6300.0
 20
-75.0
 30
0.0
  0
VERTEX
  5
102F8
  8
01注記寸法
 10
6300.0
 20
-165.0
 30
0.0
  0
SEQEND
  5
104DB
  8
01注記寸法
  0
TEXT
  5
8080
  8
01注記寸法
 10
6062.217081405527
 20
-142.4995071846524
 30
0.0
 40
45.0
  1
依頼書
 72
     1
 11
6150.0
 21
-119.9995071846524
 31
0.0
 73
     2
  0
POLYLINE
  5
8081
  8
01注記寸法
 66
     1
 10
0.0
 20
0.0
 30
0.0
 70
     1
  0
VERTEX
  5
102F9
  8
01注記寸法
 10
6000.0
 20
-255.0
 30
0.0
  0
VERTEX
  5
102FA
  8
01注記寸法
 10
6000.0
 20
-165.0
 30
0.0
  0
VERTEX
  5
102FB
  8
01注記寸法
 10
6300.0
 20
-165.0
 30
0.0
  0
VERTEX
  5
102FC
  8
01注記寸法
 10
6300.0
 20
-255.0
 30
0.0
  0
SEQEND
  5
104DC
  8
01注記寸法
  0
TEXT
  5
8082
  8
01注記寸法
 10
6062.217081405527
 20
-232.4995071846524
 30
0.0
 40
45.0
  1
******
 72
     1
 11
6150.0
 21
-209.9995071846524
 31
0.0
 73
     2
  0
TEXT
  5
818F
  8
01注記寸法
 10
4995.000298397516
 20
3022.5
 30
0.0
 40
45.0
  1
表面処理
 11
4995.000298397516
 21
3045.0
 31
0.0
 73
     2
  0
LINE
  5
8191
  8
09図枠
 10
6150.0
 20
2820.0
 30
0.0
 11
4950.0
 21
2820.0
 31
0.0
  0
TEXT
  5
8192
  8
01注記寸法
 10
5710.346678289976
 20
3022.5
 30
0.0
 40
45.0
  1
溶融亜鉛めっき
 72
     2
 11
6120.000298397516
 21
3045.0
 31
0.0
 73
     2
  0
TEXT
  5
8193
  8
01注記寸法
 10
5827.390569749274
 20
2932.5
 30
0.0
 40
45.0
  1
2種・HDZ45
 72
     2
 11
6120.000298397516
 21
2955.0
 31
0.0
 73
     2
  0
LINE
  5
8194
  8
09図枠
 10
5010.0
 20
2715.0
 30
0.0
 11
5220.0
 21
2715.0
 31
0.0
  0
ARC
  5
8195
  8
09図枠
 10
5220.0
 20
2760.0
 30
0.0
 40
45.0
 50
270.0
 51
90.0
  0
LINE
  5
8196
  8
09図枠
 10
5010.0
 20
2805.0
 30
0.0
 11
5220.0
 21
2805.0
 31
0.0
  0
TEXT
  5
8197
  8
01注記寸法
 10
5027.217379803044
 20
2737.5
 30
0.0
 40
45.0
  1
付属品
 72
     1
 11
5115.000298397516
 21
2760.0
 31
0.0
 73
     2
  0
ARC
  5
8199
  8
09図枠
 10
5010.0
 20
2760.0
 30
0.0
 40
45.0
 50
90.0
 51
270.0
  0
TEXT
  5
819A
  8
01注記寸法
 10
4995.000298397516
 20
2647.5
 30
0.0
 40
45.0
  1
機器固定ボルト
 11
4995.000298397516
 21
2670.0
 31
0.0
 73
     2
  0
TEXT
  5
819C
  8
01注記寸法
 10
5710.346678289976
 20
2647.5
 30
0.0
 40
45.0
  1
溶融亜鉛めっき
 72
     2
 11
6120.000298397516
 21
2670.0
 31
0.0
 73
     2
  0
TEXT
  5
819D
  8
01注記寸法
 10
5944.434461208571
 20
2557.5
 30
0.0
 40
45.0
  1
セット
 72
     2
 11
6120.000298397516
 21
2580.0
 31
0.0
 73
     2
  0
TEXT
  5
819F
  8
01注記寸法
 10
5040.0
 20
2557.5
 30
0.0
 40
45.0
  1
M12×40L
 11
5040.0
 21
2580.0
 31
0.0
 73
     2
  0
TEXT
  5
81A1
  8
01注記寸法
 10
5903.239327135176
 20
2557.5
 30
0.0
 40
45.0
  1
6
 72
     2
 11
5932.5003
 21
2580.0
 31
0.0
 73
     2
  0
TEXT
  5
81A4
  8
01注記寸法
 10
5310.0
 20
2557.5
 30
0.0
 40
45.0
  1
(平W×2,NT×2付)
 11
5310.0
 21
2580.0
 31
0.0
 73
     2
  0
TEXT
  5
81A5
  8
01注記寸法
 10
5903.239325532692
 20
2377.5
 30
0.0
 40
45.0
  1
4
 72
     2
 11
5932.500298397516
 21
2400.0
 31
0.0
 73
     2
  0
TEXT
  5
81A6
  8
01注記寸法
 10
5944.434461208571
 20
2377.5
 30
0.0
 40
45.0
  1
セット
 72
     2
 11
6120.000298397516
 21
2400.0
 31
0.0
 73
     2
  0
TEXT
  5
81A7
  8
01注記寸法
 10
5710.346678289976
 20
2467.5
 30
0.0
 40
45.0
  1
溶融亜鉛めっき
 72
     2
 11
6120.000298397516
 21
2490.0
 31
0.0
 73
     2
  0
TEXT
  5
81AA
  8
01注記寸法
 10
5310.0
 20
2377.5
 30
0.0
 40
45.0
  1
(平W,角W,NT×2付)
 11
5310.0
 21
2400.0
 31
0.0
 73
     2
  0
TEXT
  5
81AB
  8
01注記寸法
 10
5040.0
 20
2377.5
 30
0.0
 40
45.0
  1
M12×70L
 11
5040.0
 21
2400.0
 31
0.0
 73
     2
  0
TEXT
  5
81AC
  8
01注記寸法
 10
4995.000298397516
 20
2467.5
 30
0.0
 40
45.0
  1
防振架台固定ボルト
 11
4995.000298397516
 21
2490.0
 31
0.0
 73
     2
  0
TEXT
  5
81AD
  8
08非表示
 10
4995.000298397516
 20
2287.5
 30
0.0
 40
45.0
  1
架台連結ボルト
 11
4995.000298397516
 21
2310.0
 31
0.0
 73
     2
  0
TEXT
  5
81AE
  8
08非表示
 10
5040.0
 20
2197.5
 30
0.0
 40
45.0
  1
M16×40L
 11
5040.0
 21
2220.0
 31
0.0
 73
     2
  0
TEXT
  5
81AF
  8
08非表示
 10
5310.0
 20
2197.5
 30
0.0
 40
45.0
  1
(平W×2,NT×2付)
 11
5310.0
 21
2220.0
 31
0.0
 73
     2
  0
TEXT
  5
81B0
  8
08非表示
 10
5710.500298397516
 20
2287.5
 30
0.0
 40
45.0
  1
溶融亜鉛めっき
 72
     2
 11
6120.000298397516
 21
2310.0
 31
0.0
 73
     2
  0
TEXT
  5
81B1
  8
08非表示
 10
5903.250298397516
 20
2197.5
 30
0.0
 40
45.0
  1
4
 72
     2
 11
5932.500298397516
 21
2220.0
 31
0.0
 73
     2
  0
TEXT
  5
81B2
  8
08非表示
 10
5944.500298397516
 20
2197.5
 30
0.0
 40
45.0
  1
セット
 72
     2
 11
6120.000298397516
 21
2220.0
 31
0.0
 73
     2
  0
TEXT
  5
81BB
  8
01注記寸法
 10
4995.0
 20
2842.5
 30
0.0
 40
45.0
  1
耐震基準
 11
4995.0
 21
2865.0
 31
0.0
 73
     2
  0
TEXT
  5
81BC
  8
01注記寸法
 10
6002.956108540703
 20
2842.5
 30
0.0
 40
45.0
  1
1.0G
 72
     2
 11
6120.0
 21
2865.0
 31
0.0
 73
     2
  0
CIRCLE
  5
81BD
  8
08非表示
 10
5347.5
 20
2760.0
 30
0.0
 40
37.5
  0
TEXT
  5
81BE
  8
08非表示
 10
5332.875
 20
2737.5
 30
0.0
 40
45.0
  1
A
 72
     1
 11
5347.5
 21
2760.0
 31
0.0
 73
     2
  0
CIRCLE
  5
81BF
  8
08非表示
 10
5422.5
 20
2760.0
 30
0.0
 40
37.5
  0
TEXT
  5
81C0
  8
08非表示
 10
5407.875
 20
2737.5
 30
0.0
 40
45.0
  1
B
 72
     1
 11
5422.5
 21
2760.0
 31
0.0
 73
     2
  0
CIRCLE
  5
81C1
  8
08非表示
 10
5497.5
 20
2760.0
 30
0.0
 40
37.5
  0
TEXT
  5
81C2
  8
08非表示
 10
5482.875
 20
2737.5
 30
0.0
 40
45.0
  1
C
 72
     1
 11
5497.5
 21
2760.0
 31
0.0
 73
     2
  0
CIRCLE
  5
81C3
  8
08非表示
 10
5572.5
 20
2760.0
 30
0.0
 40
37.5
  0
TEXT
  5
81C4
  8
08非表示
 10
5557.875
 20
2737.5
 30
0.0
 40
45.0
  1
1
 72
     1
 11
5572.5
 21
2760.0
 31
0.0
 73
     2
  0
TEXT
  5
81C5
  8
08非表示
 10
5632.875
 20
2737.5
 30
0.0
 40
45.0
  1
2
 72
     1
 11
5647.5
 21
2760.0
 31
0.0
 73
     2
  0
CIRCLE
  5
81C6
  8
08非表示
 10
5647.5
 20
2760.0
 30
0.0
 40
37.5
  0
TEXT
  5
81C7
  8
08非表示
 10
5707.875
 20
2737.5
 30
0.0
 40
45.0
  1
3
 72
     1
 11
5722.5
 21
2760.0
 31
0.0
 73
     2
  0
CIRCLE
  5
81C8
  8
08非表示
 10
5722.5
 20
2760.0
 30
0.0
 40
37.5
  0
LINE
  5
81CD
  8
01注記寸法
 10
6150.0
 20
2910.0
 30
0.0
 11
4950.0
 21
2910.0
 31
0.0
  0
TEXT
  5
81E7
  8
01注記寸法
 10
4995.0
 20
1822.5
 30
0.0
 40
45.0
  1
2.アンカーボルトは含まれておりません。
 11
4995.0
 21
1845.0
 31
0.0
 73
     2
  0
TEXT
  5
81E8
  8
01注記寸法
 10
4995.0
 20
1732.5
 30
0.0
 40
45.0
  1
　先様にてご用意ください。
 11
4995.0
 21
1755.0
 31
0.0
 73
     2
  0
TEXT
  5
81F8
  8
01注記寸法
 10
4995.0
 20
2002.5
 30
0.0
 40
45.0
  1
1.架台の据付
 11
4995.0
 21
2025.0
 31
0.0
 73
     2
  0
LINE
  5
86AE
  8
08非表示
 10
6150.0
 20
3090.0
 30
0.0
 11
4950.0
 21
3090.0
 31
0.0
  0
LINE
  5
86AF
  8
08非表示
 10
6375.0
 20
1035.0
 30
0.0
 11
6150.0
 21
1035.0
 31
0.0
  0
LINE
  5
86B0
  8
08非表示
 10
6375.0
 20
945.0
 30
0.0
 11
6150.0
 21
945.0
 31
0.0
  0
LINE
  5
86B1
  8
08非表示
 10
6375.0
 20
855.0
 30
0.0
 11
6150.0
 21
855.0
 31
0.0
  0
LINE
  5
86B2
  8
08非表示
 10
6375.0
 20
765.0
 30
0.0
 11
6150.0
 21
765.0
 31
0.0
  0
LINE
  5
86B3
  8
08非表示
 10
6375.0
 20
675.0
 30
0.0
 11
6150.0
 21
675.0
 31
0.0
  0
TEXT
  5
86B4
  8
01注記寸法
 10
5118.32562210829
 20
922.50015
 30
0.0
 40
45.0
  1
'16.11.14
 72
     1
 11
5250.0
 21
945.00015
 31
0.0
 73
     2
  0
TEXT
  5
86B5
  8
01注記寸法
 10
5118.32562210829
 20
832.50015
 30
0.0
 40
45.0
  1
'17.05.26
 72
     1
 11
5250.0
 21
855.00015
 31
0.0
 73
     2
  0
TEXT
  5
86B6
  8
08非表示
 10
5118.375
 20
742.50015
 30
0.0
 40
45.0
  1
'yy.mm.dd
 72
     1
 11
5250.0
 21
765.00015
 31
0.0
 73
     2
  0
TEXT
  5
86B7
  8
08非表示
 10
5118.375
 20
652.50015
 30
0.0
 40
45.0
  1
'yy.mm.dd
 72
     1
 11
5250.0
 21
675.00015
 31
0.0
 73
     2
  0
POLYLINE
  5
86F1
  8
01注記寸法
 66
     1
 10
0.0
 20
0.0
 30
0.0
 70
     1
  0
VERTEX
  5
102FD
  8
01注記寸法
 10
0.0
 20
-165.0
 30
0.0
  0
VERTEX
  5
102FE
  8
01注記寸法
 10
0.0
 20
-75.0
 30
0.0
  0
VERTEX
  5
102FF
  8
01注記寸法
 10
750.0
 20
-75.0
 30
0.0
  0
VERTEX
  5
10300
  8
01注記寸法
 10
750.0
 20
-165.0
 30
0.0
  0
SEQEND
  5
104DD
  8
01注記寸法
  0
TEXT
  5
86F2
  8
01注記寸法
 10
257.9561085407028
 20
-142.5
 30
0.0
 40
45.0
  1
適用機種
 72
     1
 11
375.0
 21
-120.0
 31
0.0
 73
     2
  0
POLYLINE
  5
86F3
  8
01注記寸法
 66
     1
 10
0.0
 20
0.0
 30
0.0
 70
     1
  0
VERTEX
  5
10301
  8
01注記寸法
 10
0.0
 20
-255.0
 30
0.0
  0
VERTEX
  5
10302
  8
01注記寸法
 10
0.0
 20
-165.0
 30
0.0
  0
VERTEX
  5
10303
  8
01注記寸法
 10
750.0
 20
-165.0
 30
0.0
  0
VERTEX
  5
10304
  8
01注記寸法
 10
750.0
 20
-255.0
 30
0.0
  0
SEQEND
  5
104DE
  8
01注記寸法
  0
TEXT
  5
86FD
  8
01注記寸法
 10
15.0
 20
-232.5
 30
0.0
 40
45.0
  1
適用防振架台参照
 11
15.0
 21
-210.0
 31
0.0
 73
     2
  0
TEXT
  5
885B
  8
01注記寸法
 10
5111.085407027635
 20
4147.5
 30
0.0
 40
75.0
  1
高置ＢＨ架台仕様書
 72
     1
 11
5550.0
 21
4185.0
 31
0.0
 73
     2
  0
TEXT
  5
8864
  8
08非表示
 10
5514.0
 20
3870.0
 30
0.0
 40
60.0
  1
メーカー
 72
     1
 11
5670.0
 21
3900.0
 31
0.0
 73
     2
  0
TEXT
  5
8865
  8
08非表示
 10
5553.0
 20
3780.0
 30
0.0
 40
60.0
  1
機種名
 72
     1
 11
5670.0
 21
3810.0
 31
0.0
 73
     2
  0
TEXT
  5
8867
  8
08非表示
 10
5582.25
 20
3682.5
 30
0.0
 40
45.0
  1
*** kg
 72
     1
 11
5670.0
 21
3705.0
 31
0.0
 73
     2
  0
TEXT
  5
8869
  8
08非表示
 10
5596.875
 20
3397.5
 30
0.0
 40
45.0
  1
*****
 72
     1
 11
5670.0
 21
3420.0
 31
0.0
 73
     2
  0
TEXT
  5
886D
  8
08非表示
 10
5509.125
 20
3532.5
 30
0.0
 40
45.0
  1
現場名(1行)
 72
     1
 11
5670.0
 21
3555.0
 31
0.0
 73
     2
  0
TEXT
  5
886E
  8
08非表示
 10
5479.875
 20
3577.5
 30
0.0
 40
45.0
  1
現場名(1/2行)
 72
     1
 11
5670.0
 21
3600.0
 31
0.0
 73
     2
  0
TEXT
  5
886F
  8
08非表示
 10
5479.875
 20
3487.5
 30
0.0
 40
45.0
  1
現場名(2/2行)
 72
     1
 11
5670.0
 21
3510.0
 31
0.0
 73
     2
  0
POLYLINE
  5
8C2C
  8
01注記寸法
 66
     1
 10
0.0
 20
0.0
 30
0.0
 70
     1
  0
VERTEX
  5
10305
  8
01注記寸法
 10
6375.0
 20
435.0
 30
0.0
  0
VERTEX
  5
10306
  8
01注記寸法
 10
6375.0
 20
525.0
 30
0.0
  0
VERTEX
  5
10307
  8
01注記寸法
 10
6525.0
 20
525.0
 30
0.0
  0
VERTEX
  5
10308
  8
01注記寸法
 10
6525.0
 20
435.0
 30
0.0
  0
SEQEND
  5
104DF
  8
01注記寸法
  0
TEXT
  5
8C2E
  8
01注記寸法
 10
6543.32562210829
 20
457.500113123142
 30
0.0
 40
45.0
  1
PJK000258
 72
     1
 11
6675.0
 21
480.000113123142
 31
0.0
 73
     2
  0
POLYLINE
  5
8C2F
  8
01注記寸法
 66
     1
 10
0.0
 20
0.0
 30
0.0
 70
     1
  0
VERTEX
  5
10309
  8
01注記寸法
 10
6525.0
 20
435.0
 30
0.0
  0
VERTEX
  5
1030A
  8
01注記寸法
 10
6525.0
 20
525.0
 30
0.0
  0
VERTEX
  5
1030B
  8
01注記寸法
 10
6825.0
 20
525.0
 30
0.0
  0
VERTEX
  5
1030C
  8
01注記寸法
 10
6825.0
 20
435.0
 30
0.0
  0
SEQEND
  5
104E0
  8
01注記寸法
  0
LINE
  5
8C30
  8
08非表示
 10
6375.0
 20
480.0
 30
0.0
 11
6150.0
 21
480.0
 31
0.0
  0
LINE
  5
8C31
  8
01注記寸法
 10
6375.0
 20
435.0
 30
0.0
 11
6525.0
 21
525.0
 31
0.0
  0
POLYLINE
  5
969D
  8
01注記寸法
 66
     1
 10
0.0
 20
0.0
 30
0.0
  0
VERTEX
  5
1030D
  8
01注記寸法
 10
5025.000000000004
 20
1066.150186134337
 30
0.0
  0
VERTEX
  5
1030E
  8
01注記寸法
 10
4985.364796555424
 20
997.5
 30
0.0
  0
VERTEX
  5
1030F
  8
01注記寸法
 10
5064.635203444576
 20
997.5
 30
0.0
  0
VERTEX
  5
10310
  8
01注記寸法
 10
5025.000000000004
 20
1066.150186134337
 30
0.0
  0
SEQEND
  5
104E1
  8
01注記寸法
  0
POLYLINE
  5
96A0
  8
01注記寸法
 66
     1
 10
0.0
 20
0.0
 30
0.0
  0
VERTEX
  5
10311
  8
01注記寸法
 10
5025.000000000004
 20
976.1501861343368
 30
0.0
  0
VERTEX
  5
10312
  8
01注記寸法
 10
4985.364796555424
 20
907.5
 30
0.0
  0
VERTEX
  5
10313
  8
01注記寸法
 10
5064.635203444576
 20
907.5
 30
0.0
  0
VERTEX
  5
10314
  8
01注記寸法
 10
5025.000000000004
 20
976.1501861343368
 30
0.0
  0
SEQEND
  5
104E2
  8
01注記寸法
  0
POLYLINE
  5
96A1
  8
01注記寸法
 66
     1
 10
0.0
 20
0.0
 30
0.0
  0
VERTEX
  5
10315
  8
01注記寸法
 10
5025.000000000004
 20
886.1501861343368
 30
0.0
  0
VERTEX
  5
10316
  8
01注記寸法
 10
4985.364796555424
 20
817.5
 30
0.0
  0
VERTEX
  5
10317
  8
01注記寸法
 10
5064.635203444576
 20
817.5
 30
0.0
  0
VERTEX
  5
10318
  8
01注記寸法
 10
5025.000000000004
 20
886.1501861343368
 30
0.0
  0
SEQEND
  5
104E3
  8
01注記寸法
  0
POLYLINE
  5
96A2
  8
08非表示
 66
     1
 10
0.0
 20
0.0
 30
0.0
  0
VERTEX
  5
10319
  8
08非表示
 10
5025.000000000004
 20
796.1501861343368
 30
0.0
  0
VERTEX
  5
1031A
  8
08非表示
 10
4985.364796555424
 20
727.5
 30
0.0
  0
VERTEX
  5
1031B
  8
08非表示
 10
5064.635203444576
 20
727.5
 30
0.0
  0
VERTEX
  5
1031C
  8
08非表示
 10
5025.000000000004
 20
796.1501861343368
 30
0.0
  0
SEQEND
  5
104E4
  8
08非表示
  0
POLYLINE
  5
96A3
  8
08非表示
 66
     1
 10
0.0
 20
0.0
 30
0.0
  0
VERTEX
  5
1031D
  8
08非表示
 10
5025.000000000004
 20
706.1501861343368
 30
0.0
  0
VERTEX
  5
1031E
  8
08非表示
 10
4985.364796555424
 20
637.5
 30
0.0
  0
VERTEX
  5
1031F
  8
08非表示
 10
5064.635203444576
 20
637.5
 30
0.0
  0
VERTEX
  5
10320
  8
08非表示
 10
5025.000000000004
 20
706.1501861343368
 30
0.0
  0
SEQEND
  5
104E5
  8
08非表示
  0
LINE
  5
9A59
  8
08非表示
 10
6120.0
 20
3180.0
 30
0.0
 11
6120.0
 21
3270.0
 31
0.0
  0
LINE
  5
9A5A
  8
08非表示
 10
4950.0
 20
3225.0
 30
0.0
 11
6150.0
 21
3225.0
 31
0.0
  0
LINE
  5
9A5B
  8
08非表示
 10
4995.0
 20
3270.0
 30
0.0
 11
4995.0
 21
3180.0
 31
0.0
  0
LINE
  5
9A5C
  8
08非表示
 10
6030.0
 20
3180.0
 30
0.0
 11
6030.0
 21
3270.0
 31
0.0
  0
LINE
  5
9A60
  8
08非表示
 10
6120.0
 20
3090.0
 30
0.0
 11
6120.0
 21
3180.0
 31
0.0
  0
LINE
  5
9A61
  8
08非表示
 10
4950.0
 20
3135.0
 30
0.0
 11
6150.0
 21
3135.0
 31
0.0
  0
LINE
  5
9A62
  8
08非表示
 10
4995.0
 20
3180.0
 30
0.0
 11
4995.0
 21
3090.0
 31
0.0
  0
LINE
  5
9A63
  8
08非表示
 10
4995.0
 20
3000.0
 30
0.0
 11
4995.0
 21
2910.0
 31
0.0
  0
LINE
  5
9A64
  8
08非表示
 10
4950.0
 20
2955.0
 30
0.0
 11
6150.0
 21
2955.0
 31
0.0
  0
LINE
  5
9A65
  8
08非表示
 10
6120.0
 20
2910.0
 30
0.0
 11
6120.0
 21
3000.0
 31
0.0
  0
LINE
  5
9A69
  8
08非表示
 10
4995.0
 20
2910.0
 30
0.0
 11
4995.0
 21
2820.0
 31
0.0
  0
LINE
  5
9A6A
  8
08非表示
 10
4950.0
 20
2865.0
 30
0.0
 11
6150.0
 21
2865.0
 31
0.0
  0
LINE
  5
9A6B
  8
08非表示
 10
6120.0
 20
2820.0
 30
0.0
 11
6120.0
 21
2910.0
 31
0.0
  0
LINE
  5
9A6C
  8
08非表示
 10
6120.0
 20
3000.0
 30
0.0
 11
6120.0
 21
3090.0
 31
0.0
  0
LINE
  5
9A6D
  8
08非表示
 10
4950.0
 20
3045.0
 30
0.0
 11
6150.0
 21
3045.0
 31
0.0
  0
LINE
  5
9A6E
  8
08非表示
 10
4995.0
 20
3090.0
 30
0.0
 11
4995.0
 21
3000.0
 31
0.0
  0
LINE
  5
9A6F
  8
08非表示
 10
6150.0
 20
3270.0
 30
0.0
 11
4950.0
 21
3270.0
 31
0.0
  0
LINE
  5
9A71
  8
08非表示
 10
4950.0
 20
2220.0
 30
0.0
 11
6150.0
 21
2220.0
 31
0.0
  0
LINE
  5
9A72
  8
08非表示
 10
5310.0
 20
2175.0
 30
0.0
 11
5310.0
 21
2265.0
 31
0.0
  0
LINE
  5
9A73
  8
08非表示
 10
6120.0
 20
2175.0
 30
0.0
 11
6120.0
 21
2265.0
 31
0.0
  0
LINE
  5
9A75
  8
08非表示
 10
5932.5
 20
2175.0
 30
0.0
 11
5932.5
 21
2265.0
 31
0.0
  0
LINE
  5
9A76
  8
08非表示
 10
5040.0
 20
2265.0
 30
0.0
 11
5040.0
 21
2175.0
 31
0.0
  0
LINE
  5
9A77
  8
08非表示
 10
4995.0
 20
2355.0
 30
0.0
 11
4995.0
 21
2265.0
 31
0.0
  0
LINE
  5
9A78
  8
08非表示
 10
4950.0
 20
2310.0
 30
0.0
 11
6150.0
 21
2310.0
 31
0.0
  0
LINE
  5
9A7A
  8
08非表示
 10
6120.0
 20
2265.0
 30
0.0
 11
6120.0
 21
2355.0
 31
0.0
  0
LINE
  5
9A7C
  8
08非表示
 10
4950.0
 20
3000.0
 30
0.0
 11
6150.0
 21
3000.0
 31
0.0
  0
LINE
  5
9A7D
  8
08非表示
 10
4950.0
 20
2265.0
 30
0.0
 11
6150.0
 21
2265.0
 31
0.0
  0
LINE
  5
9A7E
  8
08非表示
 10
4950.0
 20
2355.0
 30
0.0
 11
6150.0
 21
2355.0
 31
0.0
  0
LINE
  5
9A7F
  8
08非表示
 10
4995.0
 20
2535.0
 30
0.0
 11
4995.0
 21
2445.0
 31
0.0
  0
LINE
  5
9A80
  8
08非表示
 10
4950.0
 20
2535.0
 30
0.0
 11
6150.0
 21
2535.0
 31
0.0
  0
LINE
  5
9A81
  8
08非表示
 10
4950.0
 20
2490.0
 30
0.0
 11
6150.0
 21
2490.0
 31
0.0
  0
LINE
  5
9A82
  8
08非表示
 10
4950.0
 20
2400.0
 30
0.0
 11
6150.0
 21
2400.0
 31
0.0
  0
LINE
  5
9A83
  8
08非表示
 10
4950.0
 20
2445.0
 30
0.0
 11
6150.0
 21
2445.0
 31
0.0
  0
LINE
  5
9A84
  8
08非表示
 10
5040.0
 20
2445.0
 30
0.0
 11
5040.0
 21
2355.0
 31
0.0
  0
LINE
  5
9A85
  8
08非表示
 10
5310.0
 20
2355.0
 30
0.0
 11
5310.0
 21
2445.0
 31
0.0
  0
LINE
  5
9A86
  8
08非表示
 10
5932.5
 20
2355.0
 30
0.0
 11
5932.5
 21
2445.0
 31
0.0
  0
LINE
  5
9A87
  8
08非表示
 10
6120.0
 20
2355.0
 30
0.0
 11
6120.0
 21
2445.0
 31
0.0
  0
LINE
  5
9A88
  8
08非表示
 10
6120.0
 20
2445.0
 30
0.0
 11
6120.0
 21
2535.0
 31
0.0
  0
LINE
  5
9A89
  8
08非表示
 10
4995.0
 20
2715.0
 30
0.0
 11
4995.0
 21
2625.0
 31
0.0
  0
LINE
  5
9A8A
  8
08非表示
 10
4950.0
 20
2715.0
 30
0.0
 11
6150.0
 21
2715.0
 31
0.0
  0
LINE
  5
9A8B
  8
08非表示
 10
4950.0
 20
2670.0
 30
0.0
 11
6150.0
 21
2670.0
 31
0.0
  0
LINE
  5
9A8C
  8
08非表示
 10
4950.0
 20
2580.0
 30
0.0
 11
6150.0
 21
2580.0
 31
0.0
  0
LINE
  5
9A8D
  8
08非表示
 10
4950.0
 20
2625.0
 30
0.0
 11
6150.0
 21
2625.0
 31
0.0
  0
LINE
  5
9A8E
  8
08非表示
 10
5040.0
 20
2625.0
 30
0.0
 11
5040.0
 21
2535.0
 31
0.0
  0
LINE
  5
9A8F
  8
08非表示
 10
5310.0
 20
2535.0
 30
0.0
 11
5310.0
 21
2625.0
 31
0.0
  0
LINE
  5
9A90
  8
08非表示
 10
5932.5
 20
2535.0
 30
0.0
 11
5932.5
 21
2625.0
 31
0.0
  0
LINE
  5
9A91
  8
08非表示
 10
6120.0
 20
2535.0
 30
0.0
 11
6120.0
 21
2625.0
 31
0.0
  0
LINE
  5
9A92
  8
08非表示
 10
6120.0
 20
2625.0
 30
0.0
 11
6120.0
 21
2715.0
 31
0.0
  0
LINE
  5
9A93
  8
08非表示
 10
4950.0
 20
2760.0
 30
0.0
 11
6150.0
 21
2760.0
 31
0.0
  0
LINE
  5
9A94
  8
08非表示
 10
6150.0
 20
3315.0
 30
0.0
 11
4950.0
 21
3315.0
 31
0.0
  0
LINE
  5
9A9C
  8
08非表示
 10
4950.0
 20
2070.0
 30
0.0
 11
6150.0
 21
2070.0
 31
0.0
  0
LINE
  5
9A9D
  8
08非表示
 10
4950.0
 20
2025.0
 30
0.0
 11
6150.0
 21
2025.0
 31
0.0
  0
LINE
  5
9A9E
  8
08非表示
 10
4950.0
 20
1980.0
 30
0.0
 11
6150.0
 21
1980.0
 31
0.0
  0
LINE
  5
9A9F
  8
08非表示
 10
4950.0
 20
1935.0
 30
0.0
 11
6150.0
 21
1935.0
 31
0.0
  0
LINE
  5
9AA0
  8
08非表示
 10
4950.0
 20
1890.0
 30
0.0
 11
6150.0
 21
1890.0
 31
0.0
  0
LINE
  5
9AA1
  8
08非表示
 10
4950.0
 20
1845.0
 30
0.0
 11
6150.0
 21
1845.0
 31
0.0
  0
LINE
  5
9AA2
  8
08非表示
 10
4950.0
 20
1800.0
 30
0.0
 11
6150.0
 21
1800.0
 31
0.0
  0
LINE
  5
9AA3
  8
08非表示
 10
4950.0
 20
1755.0
 30
0.0
 11
6150.0
 21
1755.0
 31
0.0
  0
LINE
  5
9AA4
  8
08非表示
 10
4950.0
 20
1710.0
 30
0.0
 11
6150.0
 21
1710.0
 31
0.0
  0
LINE
  5
9AA5
  8
08非表示
 10
4995.0
 20
2070.0
 30
0.0
 11
4995.0
 21
1980.0
 31
0.0
  0
LINE
  5
9AA6
  8
08非表示
 10
4995.0
 20
1980.0
 30
0.0
 11
4995.0
 21
1890.0
 31
0.0
  0
LINE
  5
9AA7
  8
08非表示
 10
4995.0
 20
1890.0
 30
0.0
 11
4995.0
 21
1800.0
 31
0.0
  0
LINE
  5
9AA8
  8
08非表示
 10
4995.0
 20
1800.0
 30
0.0
 11
4995.0
 21
1710.0
 31
0.0
  0
LINE
  5
9AAB
  8
08非表示
 10
4995.0
 20
3465.0
 30
0.0
 11
4995.0
 21
3375.0
 31
0.0
  0
LINE
  5
9AAC
  8
08非表示
 10
4950.0
 20
3420.0
 30
0.0
 11
6150.0
 21
3420.0
 31
0.0
  0
LINE
  5
9AAD
  8
08非表示
 10
4995.0
 20
3765.0
 30
0.0
 11
4995.0
 21
3645.0
 31
0.0
  0
LINE
  5
9AAE
  8
08非表示
 10
4950.0
 20
3705.0
 30
0.0
 11
6150.0
 21
3705.0
 31
0.0
  0
LINE
  5
9AAF
  8
08非表示
 10
4995.0
 20
3855.0
 30
0.0
 11
4995.0
 21
3765.0
 31
0.0
  0
LINE
  5
9AB0
  8
08非表示
 10
4950.0
 20
3810.0
 30
0.0
 11
6150.0
 21
3810.0
 31
0.0
  0
LINE
  5
9AB1
  8
08非表示
 10
4950.0
 20
3855.0
 30
0.0
 11
6150.0
 21
3855.0
 31
0.0
  0
LINE
  5
9AB2
  8
08非表示
 10
4995.0
 20
3900.0
 30
0.0
 11
4995.0
 21
3810.0
 31
0.0
  0
LINE
  5
9AB3
  8
08非表示
 10
4950.0
 20
3900.0
 30
0.0
 11
6150.0
 21
3900.0
 31
0.0
  0
LINE
  5
9AB4
  8
08非表示
 10
4995.0
 20
3945.0
 30
0.0
 11
4995.0
 21
3855.0
 31
0.0
  0
LINE
  5
9AB5
  8
08非表示
 10
4950.0
 20
3555.0
 30
0.0
 11
6150.0
 21
3555.0
 31
0.0
  0
LINE
  5
9AB6
  8
08非表示
 10
4995.0
 20
3600.0
 30
0.0
 11
4995.0
 21
3510.0
 31
0.0
  0
LINE
  5
9AB7
  8
08非表示
 10
4950.0
 20
3600.0
 30
0.0
 11
6150.0
 21
3600.0
 31
0.0
  0
LINE
  5
9AB8
  8
08非表示
 10
4950.0
 20
3510.0
 30
0.0
 11
6150.0
 21
3510.0
 31
0.0
  0
LINE
  5
9AB9
  8
08非表示
 10
5190.0
 20
4005.0
 30
0.0
 11
6150.0
 21
4005.0
 31
0.0
  0
LINE
  5
9ABA
  8
08非表示
 10
5670.0
 20
4065.0
 30
0.0
 11
5670.0
 21
3945.0
 31
0.0
  0
LINE
  5
9ABB
  8
08非表示
 10
5670.0
 20
3945.0
 30
0.0
 11
5670.0
 21
3645.0
 31
0.0
  0
LINE
  5
9ABC
  8
08非表示
 10
5670.0
 20
3645.0
 30
0.0
 11
5670.0
 21
3375.0
 31
0.0
  0
LINE
  5
A00E
  8
08非表示
 10
750.0
 20
-75.0
 30
0.0
 11
825.0
 21
-75.0
 31
0.0
  0
TEXT
  5
A162
  8
13製作用注記
 10
232.3898045082161
 20
4342.499560703486
 30
0.0
 40
75.0
  1
製作用詳細図
 72
     1
 11
524.9995331564592
 21
4379.999560703486
 31
0.0
 73
     2
  0
POLYLINE
  5
A163
  8
13製作用注記
 66
     1
 10
0.0
 20
0.0
 30
0.0
 70
     1
  0
VERTEX
  5
10321
  8
13製作用注記
 10
150.0
 20
4305.0
 30
0.0
  0
VERTEX
  5
10322
  8
13製作用注記
 10
150.0
 20
4455.0
 30
0.0
  0
VERTEX
  5
10323
  8
13製作用注記
 10
900.0000000000003
 20
4455.0
 30
0.0
  0
VERTEX
  5
10324
  8
13製作用注記
 10
900.0000000000003
 20
4305.0
 30
0.0
  0
SEQEND
  5
104E6
  8
13製作用注記
  0
TEXT
  5
A3F3
  8
08非表示
 10
5422.5
 20
8.220234375
 30
0.0
 40
45.0
  1
仕様書フォーム：2016年03月30日
 72
     2
 11
6300.0
 21
0.0
 31
0.0
 73
     1
  0
POLYLINE
  5
A843
  8
02実線
 66
     1
 10
0.0
 20
0.0
 30
0.0
 70
     1
  0
VERTEX
  5
10325
  8
02実線
 10
1350.0
 20
2930.0
 30
0.0
  0
VERTEX
  5
10326
  8
02実線
 10
1350.0
 20
3705.0
 30
0.0
  0
VERTEX
  5
10327
  8
02実線
 10
2950.0
 20
3705.0
 30
0.0
  0
VERTEX
  5
10328
  8
02実線
 10
2950.0
 20
2930.0
 30
0.0
  0
SEQEND
  5
104E7
  8
02実線
  0
POLYLINE
  5
A845
  8
03破線
 66
     1
 10
0.0
 20
0.0
 30
0.0
 70
     1
  0
VERTEX
  5
10329
  8
03破線
 10
1353.200000000001
 20
2933.199999999999
 30
0.0
  0
VERTEX
  5
1032A
  8
03破線
 10
1353.200000000001
 20
3701.799999999999
 30
0.0
  0
VERTEX
  5
1032B
  8
03破線
 10
2946.799999999999
 20
3701.799999999999
 30
0.0
  0
VERTEX
  5
1032C
  8
03破線
 10
2946.799999999999
 20
2933.199999999999
 30
0.0
  0
SEQEND
  5
104E8
  8
03破線
  0
INSERT
  5
A846
  8
02実線
  2
BH-端柱_L60_-平面
 10
1346.799999999999
 20
2925.299999999999
 30
0.0
  0
INSERT
  5
A847
  8
02実線
  2
BH-端柱_L60_-平面
 10
1346.799999999999
 20
3709.699999999999
 30
0.0
 41
-1.0
 50
180.0
  0
INSERT
  5
A848
  8
02実線
  2
BH-端柱_L60_-平面
 10
2953.200000000001
 20
3709.699999999999
 30
0.0
 50
180.0
  0
INSERT
  5
A849
  8
02実線
  2
BH-端柱_L60_-平面
 10
2953.200000000001
 20
2925.299999999999
 30
0.0
 41
-1.0
  0
INSERT
  5
A85D
  8
02実線
  2
BH-中柱_L60_-平面
 10
2150.0
 20
2928.5
 30
0.0
  0
INSERT
  5
A85E
  8
02実線
  2
BH-中柱_L60_-平面
 10
2150.0
 20
3706.5
 30
0.0
 41
-1.0
 50
180.0
  0
LINE
  5
A8B3
  8
02実線
 10
1410.0
 20
3010.0
 30
0.0
 11
1410.0
 21
3625.0
 31
0.0
  0
LINE
  5
A8B4
  8
02実線
 10
1350.0
 20
3625.0
 30
0.0
 11
2950.0
 21
3625.0
 31
0.0
  0
LINE
  5
A8B5
  8
02実線
 10
2890.0
 20
3625.0
 30
0.0
 11
2890.0
 21
3010.0
 31
0.0
  0
LINE
  5
A8B6
  8
02実線
 10
2950.0
 20
3010.0
 30
0.0
 11
1350.0
 21
3010.0
 31
0.0
  0
LINE
  5
A8B7
  8
03破線
 10
2946.799999999999
 20
3006.799999999999
 30
0.0
 11
1353.200000000001
 21
3006.799999999999
 31
0.0
  0
LINE
  5
A8B8
  8
03破線
 10
2946.799999999999
 20
3628.199999999999
 30
0.0
 11
1353.200000000001
 21
3628.199999999999
 31
0.0
  0
POLYLINE
  5
A948
  8
01注記寸法
 66
     1
 10
0.0
 20
0.0
 30
0.0
 70
     1
  0
VERTEX
  5
1032D
  8
01注記寸法
 10
6375.0
 20
4365.0
 30
0.0
  0
VERTEX
  5
1032E
  8
01注記寸法
 10
6375.0
 20
4455.0
 30
0.0
  0
VERTEX
  5
1032F
  8
01注記寸法
 10
6900.0
 20
4455.0
 30
0.0
  0
VERTEX
  5
10330
  8
01注記寸法
 10
6900.0
 20
4365.0
 30
0.0
  0
SEQEND
  5
104E9
  8
01注記寸法
  0
TEXT
  5
A94D
  8
01注記寸法
 10
6405.0
 20
4387.5
 30
0.0
 40
45.0
  1
機器脚   t=
 11
6405.0
 21
4410.0
 31
0.0
 73
     2
  0
LINE
  5
A94E
  8
08非表示
 10
6750.0
 20
4365.0
 30
0.0
 11
6750.0
 21
4455.0
 31
0.0
  0
POLYLINE
  5
A972
  8
01注記寸法
 66
     1
 10
0.0
 20
0.0
 30
0.0
 70
     1
  0
VERTEX
  5
10331
  8
01注記寸法
 10
6375.0
 20
4275.0
 30
0.0
  0
VERTEX
  5
10332
  8
01注記寸法
 10
6375.0
 20
4365.0
 30
0.0
  0
VERTEX
  5
10333
  8
01注記寸法
 10
6900.0
 20
4365.0
 30
0.0
  0
VERTEX
  5
10334
  8
01注記寸法
 10
6900.0
 20
4275.0
 30
0.0
  0
SEQEND
  5
104EA
  8
01注記寸法
  0
TEXT
  5
A974
  8
01注記寸法
 10
6405.0
 20
4297.5
 30
0.0
 40
45.0
  1
アンカー M=
 11
6405.0
 21
4320.0
 31
0.0
 73
     2
  0
LINE
  5
A975
  8
08非表示
 10
6750.0
 20
4275.0
 30
0.0
 11
6750.0
 21
4365.0
 31
0.0
  0
TEXT
  5
A9E7
  8
01注記寸法
 10
6781.108540702763
 20
4387.5
 30
0.0
 40
45.0
  1
3.2
 72
     1
 11
6825.0
 21
4410.0
 31
0.0
 73
     2
  0
TEXT
  5
A9E8
  8
01注記寸法
 10
6795.739027135176
 20
4297.5
 30
0.0
 40
45.0
  1
12
 72
     1
 11
6825.0
 21
4320.0
 31
0.0
 73
     2
  0
POLYLINE
  5
B716
  8
01注記寸法
 66
     1
 10
0.0
 20
0.0
 30
0.0
 70
     1
  0
VERTEX
  5
10335
  8
01注記寸法
 10
4650.0
 20
-255.0
 30
0.0
  0
VERTEX
  5
10336
  8
01注記寸法
 10
4650.0
 20
-165.0
 30
0.0
  0
VERTEX
  5
10337
  8
01注記寸法
 10
4800.0
 20
-165.0
 30
0.0
  0
VERTEX
  5
10338
  8
01注記寸法
 10
4800.0
 20
-255.0
 30
0.0
  0
SEQEND
  5
104EB
  8
01注記寸法
  0
TEXT
  5
B719
  8
01注記寸法
 10
4666.478054270351
 20
-142.5
 30
0.0
 40
45.0
  1
番号
 72
     1
 11
4725.0
 21
-120.0
 31
0.0
 73
     2
  0
POLYLINE
  5
B71A
  8
01注記寸法
 66
     1
 10
0.0
 20
0.0
 30
0.0
 70
     1
  0
VERTEX
  5
10339
  8
01注記寸法
 10
4650.0
 20
-165.0
 30
0.0
  0
VERTEX
  5
1033A
  8
01注記寸法
 10
4650.0
 20
-75.0
 30
0.0
  0
VERTEX
  5
1033B
  8
01注記寸法
 10
4800.0
 20
-75.0
 30
0.0
  0
VERTEX
  5
1033C
  8
01注記寸法
 10
4800.0
 20
-165.0
 30
0.0
  0
SEQEND
  5
104EC
  8
01注記寸法
  0
POLYLINE
  5
B71B
  8
01注記寸法
 66
     1
 10
0.0
 20
0.0
 30
0.0
 70
     1
  0
VERTEX
  5
1033D
  8
01注記寸法
 10
4695.0
 20
-240.0
 30
0.0
  0
VERTEX
  5
1033E
  8
01注記寸法
 10
4695.0
 20
-180.0
 30
0.0
  0
VERTEX
  5
1033F
  8
01注記寸法
 10
4755.0
 20
-180.0
 30
0.0
  0
VERTEX
  5
10340
  8
01注記寸法
 10
4755.0
 20
-240.0
 30
0.0
  0
SEQEND
  5
104ED
  8
01注記寸法
  0
TEXT
  5
B71D
  8
01注記寸法
 10
4710.369513567588
 20
-232.5
 30
0.0
 40
45.0
  1
1
 72
     1
 11
4725.0
 21
-210.0
 31
0.0
 73
     2
  0
INSERT
  5
BDFC
  8
02実線
  2
BH-筋交_柱L60_-500H
 10
1376.799999999999
 20
1865.000000000003
 30
0.0
  0
INSERT
  5
BDFD
  8
02実線
  2
BH-端柱_L60_-500H-正面
 10
1346.799999999999
 20
1650.000000000001
 30
0.0
  0
INSERT
  5
BDFE
  8
02実線
  2
BH-端柱_L60_-500H-側面
 10
3345.299999999999
 20
1650.000000000003
 30
0.0
  0
INSERT
  5
BDFF
  8
02実線
  2
BH-端柱_L60_-500H-正面
 10
2953.200000000001
 20
1650.000000000001
 30
0.0
 41
-1.0
  0
INSERT
  5
BE00
  8
02実線
  2
BH-端柱_L60_-500H-側面
 10
4129.700000000001
 20
1650.000000000003
 30
0.0
 41
-1.0
  0
POLYLINE
  5
BE01
  8
08非表示
 66
     1
 10
0.0
 20
0.0
 30
0.0
 70
     1
  0
VERTEX
  5
10341
  8
08非表示
 10
4119.000000000002
 20
1860.000000000001
 30
0.0
  0
VERTEX
  5
10342
  8
08非表示
 10
4119.000000000002
 20
1900.000000000001
 30
0.0
  0
VERTEX
  5
10343
  8
08非表示
 10
4129.700000000003
 20
1900.000000000001
 30
0.0
  0
VERTEX
  5
10344
  8
08非表示
 10
4129.700000000003
 20
1860.000000000001
 30
0.0
  0
SEQEND
  5
104EE
  8
08非表示
  0
POLYLINE
  5
BE02
  8
08非表示
 66
     1
 10
0.0
 20
0.0
 30
0.0
 70
     1
  0
VERTEX
  5
10345
  8
08非表示
 10
3356.000000000002
 20
1860.000000000001
 30
0.0
  0
VERTEX
  5
10346
  8
08非表示
 10
3356.000000000002
 20
1900.000000000001
 30
0.0
  0
VERTEX
  5
10347
  8
08非表示
 10
3345.299999999999
 20
1900.000000000001
 30
0.0
  0
VERTEX
  5
10348
  8
08非表示
 10
3345.299999999999
 20
1860.000000000001
 30
0.0
  0
SEQEND
  5
104EF
  8
08非表示
  0
LINE
  5
BE03
  8
03破線
 10
3356.000000000002
 20
1860.000000000001
 30
0.0
 11
3405.300000000001
 21
1860.000000000001
 31
0.0
  0
LINE
  5
BE04
  8
03破線
 10
3356.000000000002
 20
1900.000000000001
 30
0.0
 11
3405.300000000001
 21
1900.000000000001
 31
0.0
  0
LINE
  5
BE05
  8
03破線
 10
3356.000000000002
 20
1860.000000000001
 30
0.0
 11
3356.000000000002
 21
1900.000000000001
 31
0.0
  0
LINE
  5
BE06
  8
03破線
 10
4119.000000000002
 20
1860.000000000001
 30
0.0
 11
4069.700000000003
 21
1860.000000000001
 31
0.0
  0
LINE
  5
BE07
  8
03破線
 10
4119.000000000002
 20
1900.000000000001
 30
0.0
 11
4069.700000000003
 21
1900.000000000001
 31
0.0
  0
LINE
  5
BE08
  8
03破線
 10
4119.000000000002
 20
1860.000000000001
 30
0.0
 11
4119.000000000002
 21
1900.000000000001
 31
0.0
  0
LINE
  5
BE09
  8
02実線
 10
4069.700000000003
 20
1900.000000000001
 30
0.0
 11
3405.300000000001
 21
1900.000000000001
 31
0.0
  0
LINE
  5
BE0A
  8
03破線
 10
4119.000000000002
 20
1896.800000000002
 30
0.0
 11
3356.000000000002
 21
1896.800000000002
 31
0.0
  0
LINE
  5
BE0B
  8
02実線
 10
4069.700000000003
 20
1860.000000000001
 30
0.0
 11
3405.300000000001
 21
1860.000000000001
 31
0.0
  0
INSERT
  5
BE0C
  8
03破線
  2
BH-ANCHOR-L60-背面
 10
2921.200000000001
 20
1650.000000000001
 30
0.0
  0
INSERT
  5
BE0D
  8
03破線
  2
BH-ANCHOR-L60-背面
 10
1378.799999999999
 20
1650.000000000001
 30
0.0
  0
INSERT
  5
BE0E
  8
03破線
  2
BH-ANCHOR-L60-立面
 10
4089.5
 20
1650.000000000003
 30
0.0
 41
-1.0
  0
INSERT
  5
BE0F
  8
03破線
  2
BH-ANCHOR-L60-立面
 10
3385.5
 20
1650.000000000003
 30
0.0
  0
INSERT
  5
BE10
  8
02実線
  2
BH-筋交_柱L60_-500H
 10
2923.200000000001
 20
1865.000000000003
 30
0.0
 41
-1.0
  0
POLYLINE
  5
BE11
  8
03破線
 66
     1
 10
0.0
 20
0.0
 30
0.0
  0
VERTEX
  5
10349
  8
03破線
 10
1353.199999999997
 20
2100.000000000001
 30
0.0
  0
VERTEX
  5
1034A
  8
03破線
 10
1353.199999999997
 20
2146.800000000002
 30
0.0
  0
VERTEX
  5
1034B
  8
03破線
 10
2946.799999999999
 20
2146.800000000002
 30
0.0
  0
VERTEX
  5
1034C
  8
03破線
 10
2946.799999999999
 20
2100.000000000001
 30
0.0
  0
SEQEND
  5
104F0
  8
03破線
  0
LINE
  5
BE12
  8
03破線
 10
1353.199999999997
 20
2100.000000000001
 30
0.0
 11
1370.0
 21
2090.000000000001
 31
0.0
  0
LINE
  5
BE13
  8
03破線
 10
2946.799999999999
 20
2100.000000000001
 30
0.0
 11
2930.0
 21
2090.000000000001
 31
0.0
  0
LINE
  5
BE14
  8
03破線
 10
1350.0
 20
2147.000000000001
 30
0.0
 11
1350.0
 21
2100.000000000001
 31
0.0
  0
LINE
  5
BE15
  8
03破線
 10
2946.799999999999
 20
2100.000000000001
 30
0.0
 11
2950.0
 21
2100.000000000001
 31
0.0
  0
LINE
  5
BE16
  8
03破線
 10
1353.199999999997
 20
2100.000000000001
 30
0.0
 11
1350.0
 21
2100.000000000001
 31
0.0
  0
LINE
  5
BE17
  8
03破線
 10
1388.5
 20
2109.500000000001
 30
0.0
 11
1371.5
 21
2109.500000000001
 31
0.0
  0
LINE
  5
BE18
  8
03破線
 10
1388.5
 20
2122.500000000001
 30
0.0
 11
1371.5
 21
2122.500000000001
 31
0.0
  0
ARC
  5
BE19
  8
03破線
 10
1388.5
 20
2116.000000000001
 30
0.0
 40
6.5
 50
270.0
 51
90.0
  0
ARC
  5
BE1A
  8
03破線
 10
1371.5
 20
2116.000000000001
 30
0.0
 40
6.5
 50
90.0
 51
270.0
  0
CIRCLE
  5
BE1B
  8
02実線
 10
1689.0
 20
2115.000000000001
 30
0.0
 40
6.5
  0
CIRCLE
  5
BE1C
  8
02実線
 10
2611.0
 20
2115.000000000001
 30
0.0
 40
6.5
  0
ARC
  5
BE1D
  8
03破線
 10
2928.5
 20
2116.000000000001
 30
0.0
 40
6.5
 50
270.0
 51
90.0
  0
ARC
  5
BE1E
  8
03破線
 10
2911.5
 20
2116.000000000001
 30
0.0
 40
6.5
 50
90.0
 51
270.0
  0
LINE
  5
BE1F
  8
03破線
 10
2911.5
 20
2122.500000000001
 30
0.0
 11
2928.5
 21
2122.500000000001
 31
0.0
  0
LINE
  5
BE20
  8
03破線
 10
2911.5
 20
2109.500000000001
 30
0.0
 11
2928.5
 21
2109.500000000001
 31
0.0
  0
POLYLINE
  5
BE21
  8
03破線
 66
     1
 10
0.0
 20
0.0
 30
0.0
 70
   128
  0
VERTEX
  5
1034D
  8
03破線
 10
1406.799999999999
 20
2090.000000000001
 30
0.0
  0
VERTEX
  5
1034E
  8
03破線
 10
1370.0
 20
2090.000000000001
 30
0.0
  0
SEQEND
  5
104F1
  8
03破線
  0
POLYLINE
  5
BE22
  8
03破線
 66
     1
 10
0.0
 20
0.0
 30
0.0
  0
VERTEX
  5
1034F
  8
03破線
 10
2930.0
 20
2090.000000000001
 30
0.0
  0
VERTEX
  5
10350
  8
03破線
 10
2893.200000000001
 20
2090.000000000001
 30
0.0
  0
SEQEND
  5
104F2
  8
03破線
  0
POLYLINE
  5
BE23
  8
02実線
 66
     1
 10
0.0
 20
0.0
 30
0.0
  0
VERTEX
  5
10351
  8
02実線
 10
2893.200000000001
 20
2090.000000000001
 30
0.0
  0
VERTEX
  5
10352
  8
02実線
 10
1406.799999999999
 20
2090.000000000001
 30
0.0
  0
SEQEND
  5
104F3
  8
02実線
  0
POLYLINE
  5
BE24
  8
03破線
 66
     1
 10
0.0
 20
0.0
 30
0.0
  0
VERTEX
  5
10353
  8
03破線
 10
2950.0
 20
2147.000000000001
 30
0.0
  0
VERTEX
  5
10354
  8
03破線
 10
2950.0
 20
2100.000000000001
 30
0.0
  0
SEQEND
  5
104F4
  8
03破線
  0
POLYLINE
  5
BE25
  8
02実線
 66
     1
 10
0.0
 20
0.0
 30
0.0
  0
VERTEX
  5
10355
  8
02実線
 10
1350.0
 20
2147.000000000001
 30
0.0
  0
VERTEX
  5
10356
  8
02実線
 10
1350.0
 20
2150.000000000001
 30
0.0
  0
VERTEX
  5
10357
  8
02実線
 10
2950.0
 20
2150.000000000001
 30
0.0
  0
VERTEX
  5
10358
  8
02実線
 10
2950.0
 20
2147.000000000001
 30
0.0
  0
SEQEND
  5
104F5
  8
02実線
  0
LINE
  5
BE26
  8
04一点鎖線
 10
1689.0
 20
2131.500000000001
 30
0.0
 11
1689.0
 21
2098.500000000001
 31
0.0
  0
LINE
  5
BE27
  8
04一点鎖線
 10
1705.5
 20
2115.000000000001
 30
0.0
 11
1672.5
 21
2115.000000000001
 31
0.0
  0
LINE
  5
BE28
  8
04一点鎖線
 10
2611.0
 20
2131.500000000001
 30
0.0
 11
2611.0
 21
2098.500000000001
 31
0.0
  0
LINE
  5
BE29
  8
04一点鎖線
 10
2627.5
 20
2115.000000000001
 30
0.0
 11
2594.5
 21
2115.000000000001
 31
0.0
  0
POLYLINE
  5
BE2A
  8
03破線
  6
HIDDEN
 66
     1
 10
0.0
 20
0.0
 30
0.0
  0
VERTEX
  5
10359
  8
03破線
  6
HIDDEN
 10
3353.200000000001
 20
2100.000000000001
 30
0.0
  0
VERTEX
  5
1035A
  8
03破線
  6
HIDDEN
 10
3353.200000000001
 20
2146.800000000002
 30
0.0
  0
VERTEX
  5
1035B
  8
03破線
  6
HIDDEN
 10
4121.799999999999
 20
2146.800000000002
 30
0.0
  0
VERTEX
  5
1035C
  8
03破線
  6
HIDDEN
 10
4121.799999999999
 20
2100.000000000001
 30
0.0
  0
SEQEND
  5
104F6
  8
03破線
  6
HIDDEN
  0
POLYLINE
  5
BE2B
  8
02実線
 66
     1
 10
0.0
 20
0.0
 30
0.0
  0
VERTEX
  5
1035D
  8
02実線
 10
4065.0
 20
2090.000000000001
 30
0.0
  0
VERTEX
  5
1035E
  8
02実線
 10
3410.0
 20
2090.000000000001
 30
0.0
  0
SEQEND
  5
104F7
  8
02実線
  0
LINE
  5
BE2C
  8
02実線
 10
3410.0
 20
2090.000000000001
 30
0.0
 11
3410.0
 21
2100.000000000001
 31
0.0
  0
LINE
  5
BE2D
  8
02実線
 10
4065.0
 20
2090.000000000001
 30
0.0
 11
4065.0
 21
2100.000000000001
 31
0.0
  0
CIRCLE
  5
BE2E
  8
02実線
 10
3450.0
 20
2120.000000000001
 30
0.0
 40
6.5
  0
CIRCLE
  5
BE2F
  8
02実線
 10
3380.0
 20
2120.000000000001
 30
0.0
 40
6.5
  0
CIRCLE
  5
BE30
  8
02実線
 10
4095.0
 20
2120.000000000001
 30
0.0
 40
6.5
  0
CIRCLE
  5
BE31
  8
02実線
 10
4025.0
 20
2120.000000000001
 30
0.0
 40
6.5
  0
LINE
  5
BE32
  8
02実線
 10
3410.0
 20
2100.000000000001
 30
0.0
 11
3405.299999999999
 21
2100.000000000001
 31
0.0
  0
POLYLINE
  5
BE33
  8
03破線
  6
HIDDEN
 66
     1
 10
0.0
 20
0.0
 30
0.0
  0
VERTEX
  5
1035F
  8
03破線
  6
HIDDEN
 10
3350.0
 20
2100.000000000001
 30
0.0
  0
VERTEX
  5
10360
  8
03破線
  6
HIDDEN
 10
3350.0
 20
2147.000000000003
 30
0.0
  0
SEQEND
  5
104F8
  8
03破線
  6
HIDDEN
  0
LINE
  5
BE34
  8
03破線
  6
HIDDEN
 10
3405.299999999999
 20
2100.000000000001
 30
0.0
 11
3350.0
 21
2100.000000000001
 31
0.0
  0
POLYLINE
  5
BE35
  8
02実線
 66
     1
 10
0.0
 20
0.0
 30
0.0
  0
VERTEX
  5
10361
  8
02実線
 10
3350.0
 20
2147.000000000003
 30
0.0
  0
VERTEX
  5
10362
  8
02実線
 10
3350.0
 20
2150.000000000001
 30
0.0
  0
VERTEX
  5
10363
  8
02実線
 10
4125.0
 20
2150.000000000001
 30
0.0
  0
VERTEX
  5
10364
  8
02実線
 10
4125.0
 20
2147.000000000003
 30
0.0
  0
SEQEND
  5
104F9
  8
02実線
  0
LINE
  5
BE36
  8
02実線
 10
4065.0
 20
2100.000000000001
 30
0.0
 11
4069.700000000001
 21
2100.000000000001
 31
0.0
  0
POLYLINE
  5
BE37
  8
03破線
  6
HIDDEN
 66
     1
 10
0.0
 20
0.0
 30
0.0
  0
VERTEX
  5
10365
  8
03破線
  6
HIDDEN
 10
4125.0
 20
2147.000000000003
 30
0.0
  0
VERTEX
  5
10366
  8
03破線
  6
HIDDEN
 10
4125.0
 20
2100.000000000001
 30
0.0
  0
SEQEND
  5
104FA
  8
03破線
  6
HIDDEN
  0
LINE
  5
BE38
  8
03破線
  6
HIDDEN
 10
4069.700000000001
 20
2100.000000000001
 30
0.0
 11
4125.0
 21
2100.000000000001
 31
0.0
  0
LINE
  5
BE39
  8
04一点鎖線
 10
4041.5
 20
2120.000000000001
 30
0.0
 11
4008.5
 21
2120.000000000001
 31
0.0
  0
LINE
  5
BE3A
  8
04一点鎖線
 10
4025.0
 20
2103.500000000001
 30
0.0
 11
4025.0
 21
2136.500000000001
 31
0.0
  0
LINE
  5
BE3B
  8
04一点鎖線
 10
3466.5
 20
2120.000000000001
 30
0.0
 11
3433.5
 21
2120.000000000001
 31
0.0
  0
LINE
  5
BE3C
  8
04一点鎖線
 10
3450.0
 20
2103.500000000001
 30
0.0
 11
3450.0
 21
2136.500000000001
 31
0.0
  0
DIMENSION
  5
BE5D
  8
08非表示
  2
*D541
 10
4125.0
 20
2250.000000000001
 30
0.0
 11
3737.5
 21
2275.000000000001
 31
0.0
 70
    32
  3
NEMY-10
 13
3350.0
 23
2150.000000000001
 33
0.0
 14
4125.0
 24
2150.000000000001
 34
0.0
  0
POLYLINE
  5
BE5E
  8
03破線
 66
     1
 10
0.0
 20
0.0
 30
0.0
  0
VERTEX
  5
10367
  8
03破線
 10
2120.0
 20
2090.000000000001
 30
0.0
  0
VERTEX
  5
10368
  8
03破線
 10
2120.0
 20
2143.600000000001
 30
0.0
 42
-0.4142135623730948
  0
VERTEX
  5
10369
  8
03破線
 10
2126.399999999998
 20
2150.000000000001
 30
0.0
  0
VERTEX
  5
1036A
  8
03破線
 10
2180.0
 20
2150.000000000001
 30
0.0
  0
VERTEX
  5
1036B
  8
03破線
 10
2180.0
 20
2146.800000000001
 30
0.0
  0
VERTEX
  5
1036C
  8
03破線
 10
2126.399999999998
 20
2146.800000000001
 30
0.0
 42
0.4142135623730948
  0
VERTEX
  5
1036D
  8
03破線
 10
2123.199999999999
 20
2143.600000000001
 30
0.0
  0
VERTEX
  5
1036E
  8
03破線
 10
2123.199999999999
 20
2090.000000000001
 30
0.0
  0
VERTEX
  5
1036F
  8
03破線
 10
2120.0
 20
2090.000000000001
 30
0.0
  0
SEQEND
  5
104FB
  8
03破線
  0
POLYLINE
  5
BE5F
  8
08非表示
 66
     1
 10
0.0
 20
0.0
 30
0.0
  0
VERTEX
  5
10370
  8
08非表示
 10
2120.0
 20
2143.600000000001
 30
0.0
  0
VERTEX
  5
10371
  8
08非表示
 10
2120.0
 20
2150.000000000001
 30
0.0
  0
VERTEX
  5
10372
  8
08非表示
 10
2126.399999999998
 20
2150.000000000001
 30
0.0
  0
SEQEND
  5
104FC
  8
08非表示
  0
INSERT
  5
BE60
  8
02実線
  2
BH-中柱_L60_-500H
 10
2150.0
 20
2147.000000000001
 30
0.0
  0
INSERT
  5
BE61
  8
03破線
  2
BH-ANCHOR-L60-背面
 10
2152.0
 20
1650.000000000001
 30
0.0
  0
DIMENSION
  5
BE62
  8
13製作用注記
  2
*D542
 10
1346.799999999999
 20
1939.037128224684
 30
0.0
 11
1214.957499999999
 21
1976.537128224684
 31
0.0
 70
    32
  3
NEMY-15
 13
1376.799999999999
 23
1881.500000000001
 33
0.0
 14
1346.799999999999
 24
1881.500000000001
 34
0.0
  0
DIMENSION
  5
BE63
  8
13製作用注記
  2
*D543
 10
1196.799999999999
 20
1865.000000000001
 30
0.0
 11
1159.299999999999
 21
1757.500000000001
 31
0.0
 70
    32
  3
NEMY-15
 13
1346.799999999999
 23
1650.000000000001
 33
0.0
 14
1360.299999999999
 24
1865.000000000001
 34
0.0
 50
90.0
  0
DIMENSION
  5
BE64
  8
01注記寸法
  2
*D544
 10
1100.0
 20
2150.000000000001
 30
0.0
 11
1062.5
 21
1900.000000000001
 31
0.0
 70
    32
  3
NEMY-15
 13
1346.799999999999
 23
1650.000000000001
 33
0.0
 14
1350.0
 24
2150.000000000001
 34
0.0
 50
90.0
  0
DIMENSION
  5
BE65
  8
13製作用注記
  2
*D545
 10
1805.457882818133
 20
2150.000000000001
 30
0.0
 11
1805.457882818133
 21
1983.742500000001
 31
0.0
 70
   160
  3
NEMY-15
 13
1705.5
 23
2115.000000000001
 33
0.0
 14
1705.5
 24
2150.000000000001
 34
0.0
 50
90.0
  0
DIMENSION
  5
BE66
  8
13製作用注記
  2
*D546
 10
1946.587381269115
 20
2150.000000000001
 30
0.0
 11
1946.587381269115
 21
1988.157500000001
 31
0.0
 70
   160
  3
NEMY-15
 13
2073.5
 23
2120.000000000001
 33
0.0
 14
2073.5
 24
2150.000000000001
 34
0.0
 50
90.0
  0
DIMENSION
  5
BE67
  8
13製作用注記
  2
*D547
 10
1689.0
 20
2220.000000000001
 30
0.0
 11
1519.5
 21
2257.500000000001
 31
0.0
 70
    32
  3
NEMY-15
 13
1350.0
 23
2150.000000000001
 33
0.0
 14
1689.0
 24
2131.500000000001
 34
0.0
  0
DIMENSION
  5
BE68
  8
13製作用注記
  2
*D548
 10
2090.0
 20
2220.000000000001
 30
0.0
 11
1889.5
 21
2257.500000000001
 31
0.0
 70
    32
  3
NEMY-15
 13
1689.0
 23
2131.500000000001
 33
0.0
 14
2090.0
 24
2136.500000000001
 34
0.0
  0
DIMENSION
  5
BE69
  8
13製作用注記
  2
*D549
 10
2210.0
 20
2220.000000000001
 30
0.0
 11
2150.0
 21
2257.500000000001
 31
0.0
 70
    32
  3
NEMY-15
 13
2090.0
 23
2136.500000000001
 33
0.0
 14
2210.0
 24
2136.500000000001
 34
0.0
  0
DIMENSION
  5
BE6A
  8
13製作用注記
  2
*D550
 10
2611.0
 20
2220.000000000001
 30
0.0
 11
2410.5
 21
2257.500000000001
 31
0.0
 70
    32
  3
NEMY-15
 13
2210.0
 23
2136.500000000001
 33
0.0
 14
2611.0
 24
2131.500000000001
 34
0.0
  0
DIMENSION
  5
BE6B
  8
13製作用注記
  2
*D551
 10
2950.0
 20
2220.000000000001
 30
0.0
 11
2780.5
 21
2257.500000000001
 31
0.0
 70
    32
  3
NEMY-15
 13
2611.0
 23
2131.500000000001
 33
0.0
 14
2950.0
 24
2150.000000000001
 34
0.0
  0
DIMENSION
  5
BE72
  8
01注記寸法
  2
*D552
 10
3198.5
 20
1900.000000000001
 30
0.0
 11
3161.0
 21
1775.000000000002
 31
0.0
 70
    32
  3
NEMY-15
 13
3345.299999999999
 23
1650.000000000003
 33
0.0
 14
3356.000000000002
 24
1900.000000000001
 34
0.0
 50
90.0
  0
TEXT
  5
BF9B
  8
01注記寸法
 10
1573.961447708934
 20
3873.75
 30
0.0
 40
45.0
  1
機器固定ボルト孔
  0
INSERT
  5
BF9C
  8
01注記寸法
  2
*X1258
 10
0.0
 20
0.0
 30
0.0
  0
TEXT
  5
BF9D
  8
01注記寸法
 10
1573.961447708934
 20
3798.75
 30
0.0
 40
45.0
  1
(6-φ16)
  0
TEXT
  5
BFA7
  8
01注記寸法
 10
2083.092258286448
 20
2723.75
 30
0.0
 40
45.0
  1
(4-φ16)
  0
TEXT
  5
BFA8
  8
01注記寸法
 10
2083.092258286448
 20
2798.75
 30
0.0
 40
45.0
  1
※防振架台固定ボルト孔
  0
DIMENSION
  5
C04C
  8
01注記寸法
  2
*D560
 10
2950.0
 20
4154.999999999998
 30
0.0
 11
2150.0
 21
4192.499999999998
 31
0.0
 70
    32
  3
NEMY-15
 13
1350.0
 23
3706.5
 33
0.0
 14
2950.0
 24
3706.499999999999
 34
0.0
  0
DIMENSION
  5
C04D
  8
01注記寸法
  2
*D561
 10
1050.0
 20
2929.999999999998
 30
0.0
 11
1012.5
 21
3317.499999999998
 31
0.0
 70
    32
  3
NEMY-15
 13
1350.0
 23
3704.999999999998
 33
0.0
 14
1350.0
 24
2929.999999999998
 34
0.0
 50
90.0
  0
TEXT
  5
C4B5
  8
01注記寸法
 10
517.5825753415311
 20
400.0
 30
0.0
 40
45.0
  1
アンカーボルト孔
  0
TEXT
  5
C4B7
  8
01注記寸法
 10
517.5825753415311
 20
325.0
 30
0.0
 40
45.0
  1
(6-φ16)
  0
TEXT
  5
D023
  8
01注記寸法
 10
4995.0
 20
1642.5
 30
0.0
 40
45.0
  1
3.品質改善のため製品の仕様は予告無く
 11
4995.0
 21
1665.0
 31
0.0
 73
     2
  0
TEXT
  5
D024
  8
01注記寸法
 10
4995.0
 20
1552.5
 30
0.0
 40
45.0
  1
　変更する場合があります。
 11
4995.0
 21
1575.0
 31
0.0
 73
     2
  0
LINE
  5
D025
  8
08非表示
 10
4950.0
 20
1665.0
 30
0.0
 11
6150.0
 21
1665.0
 31
0.0
  0
LINE
  5
D026
  8
08非表示
 10
4950.0
 20
1620.0
 30
0.0
 11
6150.0
 21
1620.0
 31
0.0
  0
LINE
  5
D027
  8
08非表示
 10
4950.0
 20
1575.0
 30
0.0
 11
6150.0
 21
1575.0
 31
0.0
  0
LINE
  5
D028
  8
08非表示
 10
4950.0
 20
1530.0
 30
0.0
 11
6150.0
 21
1530.0
 31
0.0
  0
LINE
  5
D029
  8
08非表示
 10
4995.0
 20
1710.0
 30
0.0
 11
4995.0
 21
1620.0
 31
0.0
  0
LINE
  5
D02A
  8
08非表示
 10
4995.0
 20
1620.0
 30
0.0
 11
4995.0
 21
1530.0
 31
0.0
  0
POLYLINE
  5
D0BA
  8
08非表示
 66
     1
 10
0.0
 20
0.0
 30
0.0
 70
     1
  0
VERTEX
  5
10377
  8
08非表示
 10
1200.0
 20
2780.0
 30
0.0
  0
VERTEX
  5
10378
  8
08非表示
 10
1200.0
 20
3855.0
 30
0.0
  0
VERTEX
  5
10379
  8
08非表示
 10
3100.0
 20
3855.0
 30
0.0
  0
VERTEX
  5
1037A
  8
08非表示
 10
3100.0
 20
2780.0
 30
0.0
  0
SEQEND
  5
104FD
  8
08非表示
  0
POLYLINE
  5
D0BB
  8
08非表示
 66
     1
 10
0.0
 20
0.0
 30
0.0
 70
     1
  0
VERTEX
  5
1037B
  8
08非表示
 10
1050.0
 20
2630.0
 30
0.0
  0
VERTEX
  5
1037C
  8
08非表示
 10
1050.0
 20
4005.0
 30
0.0
  0
VERTEX
  5
1037D
  8
08非表示
 10
3250.0
 20
4005.0
 30
0.0
  0
VERTEX
  5
1037E
  8
08非表示
 10
3250.0
 20
2630.0
 30
0.0
  0
SEQEND
  5
104FE
  8
08非表示
  0
POLYLINE
  5
D5F5
  8
09図枠
 66
     1
 10
0.0
 20
0.0
 30
0.0
 70
     1
  0
VERTEX
  5
1037F
  8
09図枠
 10
150.0
 20
150.0
 30
0.0
  0
VERTEX
  5
10380
  8
09図枠
 10
150.0
 20
1500.000000000001
 30
0.0
  0
VERTEX
  5
10381
  8
09図枠
 10
4950.0
 20
1500.000000000001
 30
0.0
  0
VERTEX
  5
10382
  8
09図枠
 10
4950.0
 20
150.0
 30
0.0
  0
SEQEND
  5
104FF
  8
09図枠
  0
POLYLINE
  5
D62C
  8
09図枠
 66
     1
 10
0.0
 20
0.0
 30
0.0
 70
     1
  0
VERTEX
  5
10383
  8
09図枠
 10
150.0
 20
1500.000000000001
 30
0.0
  0
VERTEX
  5
10384
  8
09図枠
 10
150.0
 20
4304.999999999998
 30
0.0
  0
VERTEX
  5
10385
  8
09図枠
 10
4950.0
 20
4304.999999999998
 30
0.0
  0
VERTEX
  5
10386
  8
09図枠
 10
4950.0
 20
1500.000000000001
 30
0.0
  0
SEQEND
  5
10500
  8
09図枠
  0
POLYLINE
  5
D62E
  8
01注記寸法
 66
     1
 10
0.0
 20
0.0
 30
0.0
 70
     1
  0
VERTEX
  5
10387
  8
01注記寸法
 10
4950.0
 20
420.0
 30
0.0
  0
VERTEX
  5
10388
  8
01注記寸法
 10
4950.0
 20
539.9999999999999
 30
0.0
  0
VERTEX
  5
10389
  8
01注記寸法
 10
5340.0
 20
539.9999999999999
 30
0.0
  0
VERTEX
  5
1038A
  8
01注記寸法
 10
5340.0
 20
420.0
 30
0.0
  0
SEQEND
  5
10501
  8
01注記寸法
  0
POLYLINE
  5
D62F
  8
01注記寸法
 66
     1
 10
0.0
 20
0.0
 30
0.0
 70
     1
  0
VERTEX
  5
1038B
  8
01注記寸法
 10
5340.0
 20
420.0
 30
0.0
  0
VERTEX
  5
1038C
  8
01注記寸法
 10
5340.0
 20
540.0
 30
0.0
  0
VERTEX
  5
1038D
  8
01注記寸法
 10
5610.0
 20
540.0
 30
0.0
  0
VERTEX
  5
1038E
  8
01注記寸法
 10
5610.0
 20
420.0
 30
0.0
  0
SEQEND
  5
10502
  8
01注記寸法
  0
POLYLINE
  5
D630
  8
01注記寸法
 66
     1
 10
0.0
 20
0.0
 30
0.0
 70
     1
  0
VERTEX
  5
1038F
  8
01注記寸法
 10
5610.0
 20
420.0
 30
0.0
  0
VERTEX
  5
10390
  8
01注記寸法
 10
5610.0
 20
540.0
 30
0.0
  0
VERTEX
  5
10391
  8
01注記寸法
 10
5880.0
 20
540.0
 30
0.0
  0
VERTEX
  5
10392
  8
01注記寸法
 10
5880.0
 20
420.0
 30
0.0
  0
SEQEND
  5
10503
  8
01注記寸法
  0
POLYLINE
  5
D631
  8
01注記寸法
 66
     1
 10
0.0
 20
0.0
 30
0.0
 70
     1
  0
VERTEX
  5
10393
  8
01注記寸法
 10
5880.0
 20
420.0
 30
0.0
  0
VERTEX
  5
10394
  8
01注記寸法
 10
5880.0
 20
540.0
 30
0.0
  0
VERTEX
  5
10395
  8
01注記寸法
 10
6150.0
 20
540.0
 30
0.0
  0
VERTEX
  5
10396
  8
01注記寸法
 10
6150.0
 20
420.0
 30
0.0
  0
SEQEND
  5
10504
  8
01注記寸法
  0
POLYLINE
  5
D632
  8
01注記寸法
 66
     1
 10
0.0
 20
0.0
 30
0.0
 70
     1
  0
VERTEX
  5
10397
  8
01注記寸法
 10
4950.0
 20
540.0
 30
0.0
  0
VERTEX
  5
10398
  8
01注記寸法
 10
4950.0
 20
629.9999999999998
 30
0.0
  0
VERTEX
  5
10399
  8
01注記寸法
 10
5340.0
 20
629.9999999999998
 30
0.0
  0
VERTEX
  5
1039A
  8
01注記寸法
 10
5340.0
 20
540.0
 30
0.0
  0
SEQEND
  5
10505
  8
01注記寸法
  0
POLYLINE
  5
D633
  8
01注記寸法
 66
     1
 10
0.0
 20
0.0
 30
0.0
 70
     1
  0
VERTEX
  5
1039B
  8
01注記寸法
 10
5340.0
 20
539.9999999999999
 30
0.0
  0
VERTEX
  5
1039C
  8
01注記寸法
 10
5340.0
 20
629.9999999999998
 30
0.0
  0
VERTEX
  5
1039D
  8
01注記寸法
 10
5610.0
 20
629.9999999999998
 30
0.0
  0
VERTEX
  5
1039E
  8
01注記寸法
 10
5610.0
 20
539.9999999999999
 30
0.0
  0
SEQEND
  5
10506
  8
01注記寸法
  0
POLYLINE
  5
D634
  8
01注記寸法
 66
     1
 10
0.0
 20
0.0
 30
0.0
 70
     1
  0
VERTEX
  5
1039F
  8
01注記寸法
 10
5610.0
 20
539.9999999999999
 30
0.0
  0
VERTEX
  5
103A0
  8
01注記寸法
 10
5610.0
 20
629.9999999999998
 30
0.0
  0
VERTEX
  5
103A1
  8
01注記寸法
 10
5880.0
 20
629.9999999999998
 30
0.0
  0
VERTEX
  5
103A2
  8
01注記寸法
 10
5880.0
 20
539.9999999999999
 30
0.0
  0
SEQEND
  5
10507
  8
01注記寸法
  0
POLYLINE
  5
D635
  8
01注記寸法
 66
     1
 10
0.0
 20
0.0
 30
0.0
 70
     1
  0
VERTEX
  5
103A3
  8
01注記寸法
 10
5880.0
 20
540.0
 30
0.0
  0
VERTEX
  5
103A4
  8
01注記寸法
 10
5880.0
 20
629.9999999999999
 30
0.0
  0
VERTEX
  5
103A5
  8
01注記寸法
 10
6150.0
 20
629.9999999999999
 30
0.0
  0
VERTEX
  5
103A6
  8
01注記寸法
 10
6150.0
 20
540.0
 30
0.0
  0
SEQEND
  5
10508
  8
01注記寸法
  0
POLYLINE
  5
D6C7
  8
09図枠
 66
     1
 10
0.0
 20
0.0
 30
0.0
 70
     1
  0
VERTEX
  5
103A7
  8
09図枠
 10
150.0
 20
150.0
 30
0.0
  0
VERTEX
  5
103A8
  8
09図枠
 10
150.0
 20
1500.000000000001
 30
0.0
  0
VERTEX
  5
103A9
  8
09図枠
 10
4950.0
 20
1500.000000000001
 30
0.0
  0
VERTEX
  5
103AA
  8
09図枠
 10
4950.0
 20
150.0
 30
0.0
  0
SEQEND
  5
10509
  8
09図枠
  0
LINE
  5
D6D6
  8
04一点鎖線
  6
CENTER
 10
4624.418814455152
 20
330.2004795614698
 30
0.0
 11
4624.418814455152
 21
287.4504795614698
 31
0.0
  0
DIMENSION
  5
D6DC
  8
01注記寸法
  2
*D825
 10
4392.529669687498
 20
298.7004795614698
 30
0.0
 11
4392.529669687498
 21
608.7429795614748
 31
0.0
 70
   160
  1
MAX 30mm
  3
NEMY-15
 13
4520.918814455152
 23
433.7004795614739
 33
0.0
 14
4520.918814455152
 24
298.7004795614698
 34
0.0
 50
90.0
  0
LINE
  5
D6DD
  8
04一点鎖線
  6
CENTER
 10
4065.93234845287
 20
330.2004795614698
 30
0.0
 11
4065.93234845287
 21
287.4504795614698
 31
0.0
  0
TEXT
  5
D6DE
  8
01注記寸法
 10
3795.0
 20
1357.5
 30
0.0
 40
45.0
  1
<レベル調整>
 11
3795.0
 21
1380.0
 31
0.0
 73
     2
  0
TEXT
  5
D6DF
  8
01注記寸法
 10
3795.0
 20
1267.5
 30
0.0
 40
45.0
  1
アンカー金具を上下にスライドさせて
 11
3795.0
 21
1290.0
 31
0.0
 73
     2
  0
POLYLINE
  5
D6E0
  8
09図枠
 66
     1
 10
0.0
 20
0.0
 30
0.0
 70
     1
  0
VERTEX
  5
103AB
  8
09図枠
 10
3750.0
 20
150.0
 30
0.0
  0
VERTEX
  5
103AC
  8
09図枠
 10
3750.0
 20
1500.0
 30
0.0
  0
VERTEX
  5
103AD
  8
09図枠
 10
4950.0
 20
1500.0
 30
0.0
  0
VERTEX
  5
103AE
  8
09図枠
 10
4950.0
 20
150.0
 30
0.0
  0
SEQEND
  5
1050A
  8
09図枠
  0
TEXT
  5
D6E1
  8
01注記寸法
 10
3795.0
 20
1177.5
 30
0.0
 40
45.0
  1
レベルを調整します。
 11
3795.0
 21
1200.0
 31
0.0
 73
     2
  0
TEXT
  5
D6E2
  8
01注記寸法
 10
3795.0
 20
1087.5
 30
0.0
 40
45.0
  1
架台全体の嵩上げには使用しないで
 11
3795.0
 21
1110.0
 31
0.0
 73
     2
  0
TEXT
  5
D6E3
  8
01注記寸法
 10
1395.0
 20
1357.5
 30
0.0
 40
45.0
  1
アンカー金具取付（Ｂ）
 11
1395.0
 21
1380.0
 31
0.0
 73
     2
  0
TEXT
  5
D6E4
  8
01注記寸法
 10
2595.0
 20
1357.5
 30
0.0
 40
45.0
  1
アンカー金具取付（Ｃ）
 11
2595.0
 21
1380.0
 31
0.0
 73
     2
  0
LINE
  5
D6E5
  8
01注記寸法
 10
1350.0
 20
150.0
 30
0.0
 11
1350.0
 21
1500.0
 31
0.0
  0
LINE
  5
D6E6
  8
01注記寸法
 10
2550.0
 20
150.0
 30
0.0
 11
2550.0
 21
1500.0
 31
0.0
  0
TEXT
  5
D6E7
  8
01注記寸法
 10
195.0
 20
1357.5
 30
0.0
 40
45.0
  1
アンカー金具取付（Ａ）
 11
195.0
 21
1380.0
 31
0.0
 73
     2
  0
TEXT
  5
D6E8
  8
01注記寸法
 10
195.0
 20
1432.5
 30
0.0
 40
45.0
  1
<アンカー寸法図>
 11
195.0
 21
1455.0
 31
0.0
 73
     2
  0
TEXT
  5
D6E9
  8
01注記寸法
 10
720.0
 20
1432.5
 30
0.0
 40
45.0
  1
SCALE=
 11
720.0
 21
1455.0
 31
0.0
 73
     2
  0
TEXT
  5
D6EA
  8
01注記寸法
 10
915.0
 20
1432.5
 30
0.0
 40
45.0
  1
1:30
 11
915.0
 21
1455.0
 31
0.0
 73
     2
  0
TEXT
  5
D6EB
  8
01注記寸法
 10
3795.0
 20
997.5
 30
0.0
 40
45.0
  1
ください。
 11
3795.0
 21
1020.0
 31
0.0
 73
     2
  0
LINE
  5
D814
  8
03破線
 10
2123.199999999999
 20
3701.8
 30
0.0
 11
2123.199999999999
 21
2930.0
 31
0.0
  0
LINE
  5
D815
  8
03破線
 10
2120.0
 20
3625.0
 30
0.0
 11
2120.0
 21
3701.800000000001
 31
0.0
  0
LINE
  5
D816
  8
03破線
 10
2120.0
 20
3010.0
 30
0.0
 11
2120.0
 21
2933.200000000001
 31
0.0
  0
POLYLINE
  5
D817
  8
02実線
 66
     1
 10
0.0
 20
0.0
 30
0.0
 70
     1
  0
VERTEX
  5
103AF
  8
02実線
 10
2120.0
 20
3010.0
 30
0.0
  0
VERTEX
  5
103B0
  8
02実線
 10
2120.0
 20
3625.0
 30
0.0
  0
VERTEX
  5
103B1
  8
02実線
 10
2180.0
 20
3625.0
 30
0.0
  0
VERTEX
  5
103B2
  8
02実線
 10
2180.0
 20
3010.0
 30
0.0
  0
SEQEND
  5
1050B
  8
02実線
  0
CIRCLE
  5
D865
  8
13製作用注記
 10
2769.865628560815
 20
3366.516346548274
 30
0.0
 40
37.5
  0
TEXT
  5
D866
  8
13製作用注記
 10
2755.235142128403
 20
3344.016346548274
 30
0.0
 40
45.0
  1
2
 72
     1
 11
2769.865628560815
 21
3366.516346548274
 31
0.0
 73
     2
  0
INSERT
  5
D867
  8
13製作用注記
  2
*X1259
 10
0.0
 20
0.0
 30
0.0
  0
CIRCLE
  5
D868
  8
13製作用注記
 10
2300.134371439185
 20
3366.516346548274
 30
0.0
 40
37.5
  0
TEXT
  5
D869
  8
13製作用注記
 10
2285.503885006773
 20
3344.016346548274
 30
0.0
 40
45.0
  1
3
 72
     1
 11
2300.134371439185
 21
3366.516346548274
 31
0.0
 73
     2
  0
INSERT
  5
D86A
  8
13製作用注記
  2
*X1260
 10
0.0
 20
0.0
 30
0.0
  0
CIRCLE
  5
D86B
  8
13製作用注記
 10
1856.178238783426
 20
3513.483653451726
 30
0.0
 40
37.5
  0
TEXT
  5
D86C
  8
13製作用注記
 10
1841.547752351013
 20
3490.983653451726
 30
0.0
 40
45.0
  1
1
 72
     1
 11
1856.178238783426
 21
3513.483653451726
 31
0.0
 73
     2
  0
INSERT
  5
D86D
  8
13製作用注記
  2
*X1261
 10
0.0
 20
0.0
 30
0.0
  0
CIRCLE
  5
D86E
  8
13製作用注記
 10
1856.178238783426
 20
3121.516346548274
 30
0.0
 40
37.5
  0
TEXT
  5
D86F
  8
13製作用注記
 10
1841.547752351013
 20
3099.016346548274
 30
0.0
 40
45.0
  1
1
 72
     1
 11
1856.178238783426
 21
3121.516346548274
 31
0.0
 73
     2
  0
INSERT
  5
D870
  8
13製作用注記
  2
*X1262
 10
0.0
 20
0.0
 30
0.0
  0
CIRCLE
  5
D871
  8
13製作用注記
 10
1530.134371439185
 20
3366.516346548274
 30
0.0
 40
37.5
  0
TEXT
  5
D872
  8
13製作用注記
 10
1515.503885006773
 20
3344.016346548274
 30
0.0
 40
45.0
  1
2
 72
     1
 11
1530.134371439185
 21
3366.516346548274
 31
0.0
 73
     2
  0
INSERT
  5
D873
  8
13製作用注記
  2
*X1263
 10
0.0
 20
0.0
 30
0.0
  0
CIRCLE
  5
D886
  8
13製作用注記
 10
1526.934371439185
 20
1638.483653451727
 30
0.0
 40
37.5
  0
TEXT
  5
D887
  8
13製作用注記
 10
1512.303885006773
 20
1615.983653451727
 30
0.0
 40
45.0
  1
4
 72
     1
 11
1526.934371439185
 21
1638.483653451727
 31
0.0
 73
     2
  0
INSERT
  5
D888
  8
13製作用注記
  2
*X1264
 10
0.0
 20
0.0
 30
0.0
  0
CIRCLE
  5
D889
  8
13製作用注記
 10
1664.423202882286
 20
1868.386895409526
 30
0.0
 40
37.5
  0
TEXT
  5
D88A
  8
13製作用注記
 10
1649.792716449874
 20
1845.886895409526
 30
0.0
 40
45.0
  1
6
 72
     1
 11
1664.423202882286
 21
1868.386895409526
 31
0.0
 73
     2
  0
INSERT
  5
D88B
  8
13製作用注記
  2
*X1265
 10
0.0
 20
0.0
 30
0.0
  0
CIRCLE
  5
D88C
  8
13製作用注記
 10
2300.134371439184
 20
1638.483653451727
 30
0.0
 40
37.5
  0
TEXT
  5
D88D
  8
13製作用注記
 10
2285.503885006772
 20
1615.983653451727
 30
0.0
 40
45.0
  1
5
 72
     1
 11
2300.134371439184
 21
1638.483653451727
 31
0.0
 73
     2
  0
INSERT
  5
D88E
  8
13製作用注記
  2
*X1266
 10
0.0
 20
0.0
 30
0.0
  0
CIRCLE
  5
D88F
  8
13製作用注記
 10
2773.065628560816
 20
1638.483653451727
 30
0.0
 40
37.5
  0
TEXT
  5
D890
  8
13製作用注記
 10
2758.435142128404
 20
1615.983653451727
 30
0.0
 40
45.0
  1
4
 72
     1
 11
2773.065628560816
 21
1638.483653451727
 31
0.0
 73
     2
  0
INSERT
  5
D891
  8
13製作用注記
  2
*X1267
 10
0.0
 20
0.0
 30
0.0
  0
CIRCLE
  5
D8A2
  8
13製作用注記
 10
2635.576797117713
 20
1868.386895409526
 30
0.0
 40
37.5
  0
TEXT
  5
D8A3
  8
13製作用注記
 10
2620.946310685301
 20
1845.886895409526
 30
0.0
 40
45.0
  1
6
 72
     1
 11
2635.576797117713
 21
1868.386895409526
 31
0.0
 73
     2
  0
INSERT
  5
D8A4
  8
13製作用注記
  2
*X1268
 10
0.0
 20
0.0
 30
0.0
  0
INSERT
  5
D9A1
  8
01注記寸法
  2
*X1269
 10
0.0
 20
0.0
 30
0.0
  0
INSERT
  5
D9A2
  8
01注記寸法
  2
*X1270
 10
0.0
 20
0.0
 30
0.0
  0
TEXT
  5
EC96
  8
01注記寸法
 10
5276.897586594973
 20
315.0
 30
0.0
 40
60.0
  1
ネミー株式会社
 72
     1
 11
5550.0
 21
345.0
 31
0.0
 73
     2
  0
INSERT
  5
F267
  8
01注記寸法
  2
*X1271
 10
0.0
 20
0.0
 30
0.0
  0
INSERT
  5
F274
  8
01注記寸法
  2
*X1272
 10
0.0
 20
0.0
 30
0.0
  0
TEXT
  5
F9A7
  8
01注記寸法
 10
3614.780169228681
 20
4214.999648562787
 30
0.0
 40
60.0
  1
機器本体・防振架台取付共用仕様
 72
     1
 11
4199.999626525168
 21
4244.999648562787
 31
0.0
 73
     2
  0
POLYLINE
  5
F9A8
  8
09図枠
 66
     1
 10
0.0
 20
0.0
 30
0.0
 70
     1
  0
VERTEX
  5
103DF
  8
09図枠
 10
3450.0
 20
4064.999999999998
 30
0.0
  0
VERTEX
  5
103E0
  8
09図枠
 10
3450.0
 20
4184.999999999998
 30
0.0
  0
VERTEX
  5
103E1
  8
09図枠
 10
4950.0
 20
4184.999999999998
 30
0.0
  0
VERTEX
  5
103E2
  8
09図枠
 10
4950.0
 20
4064.999999999998
 30
0.0
  0
SEQEND
  5
1050C
  8
09図枠
  0
TEXT
  5
F9A9
  8
01注記寸法
 10
3731.824060687979
 20
4094.999648562787
 30
0.0
 40
60.0
  1
標準/耐塩/耐重塩共用仕様
 72
     1
 11
4199.999626525168
 21
4124.999648562787
 31
0.0
 73
     2
  0
POLYLINE
  5
F9AA
  8
09図枠
 66
     1
 10
0.0
 20
0.0
 30
0.0
 70
     1
  0
VERTEX
  5
103E3
  8
09図枠
 10
3450.0
 20
4184.999999999998
 30
0.0
  0
VERTEX
  5
103E4
  8
09図枠
 10
3450.0
 20
4304.999999999998
 30
0.0
  0
VERTEX
  5
103E5
  8
09図枠
 10
4950.0
 20
4304.999999999998
 30
0.0
  0
VERTEX
  5
103E6
  8
09図枠
 10
4950.0
 20
4184.999999999998
 30
0.0
  0
SEQEND
  5
1050D
  8
09図枠
  0
POLYLINE
  5
F9C5
  8
09図枠
 66
     1
 10
0.0
 20
0.0
 30
0.0
 70
     1
  0
VERTEX
  5
103E7
  8
09図枠
 10
4200.0
 20
3825.0
 30
0.0
  0
VERTEX
  5
103E8
  8
09図枠
 10
4200.0
 20
3915.0
 30
0.0
  0
VERTEX
  5
103E9
  8
09図枠
 10
4950.0
 20
3915.0
 30
0.0
  0
VERTEX
  5
103EA
  8
09図枠
 10
4950.0
 20
3825.0
 30
0.0
  0
SEQEND
  5
1050E
  8
09図枠
  0
TEXT
  5
F9C6
  8
01注記寸法
 10
4370.17318994623
 20
3847.5
 30
0.0
 40
45.0
  1
防振架台仕様書
 72
     1
 11
4575.0
 21
3870.0
 31
0.0
 73
     2
  0
POLYLINE
  5
F9D9
  8
09図枠
 66
     1
 10
0.0
 20
0.0
 30
0.0
 70
     1
  0
VERTEX
  5
103EB
  8
09図枠
 10
4200.0
 20
3735.0
 30
0.0
  0
VERTEX
  5
103EC
  8
09図枠
 10
4200.0
 20
3825.0
 30
0.0
  0
VERTEX
  5
103ED
  8
09図枠
 10
4950.0
 20
3825.0
 30
0.0
  0
VERTEX
  5
103EE
  8
09図枠
 10
4950.0
 20
3735.0
 30
0.0
  0
SEQEND
  5
1050F
  8
09図枠
  0
TEXT
  5
F9DA
  8
01注記寸法
 10
4232.646617481556
 20
3757.5
 30
0.0
 40
45.0
  1
１－ＨＴＢ５１８（＃Ｅ２）
 41
0.9
 72
     1
 11
4575.0
 21
3780.0
 31
0.0
 73
     2
  0
INSERT
  5
FB24
  8
11機器
  2
RAS-AP450SG他
 10
1481.0
 20
2952.974094
 30
0.0
  0
INSERT
  5
FB25
  8
02実線
  2
HOLE-Φ16
 10
1481.0
 20
2952.974094
 30
0.0
  0
INSERT
  5
FB26
  8
10副資材
  2
平W-M12
 10
1481.0
 20
2952.974094
 30
0.0
  0
INSERT
  5
FB27
  8
10副資材
  2
角ワッシャーM12
 10
1481.0
 20
2952.974094
 30
0.0
  0
INSERT
  5
FB29
  8
02実線
  2
HOLE-Φ16
 10
2150.0
 20
2952.974094
 30
0.0
  0
INSERT
  5
FB2A
  8
10副資材
  2
平W-M12
 10
2150.0
 20
2952.974094
 30
0.0
  0
INSERT
  5
FB2B
  8
10副資材
  2
角ワッシャーM12
 10
2150.0
 20
2952.974094
 30
0.0
  0
INSERT
  5
FB2D
  8
02実線
  2
HOLE-Φ16
 10
2819.0
 20
2952.974094
 30
0.0
  0
INSERT
  5
FB2E
  8
10副資材
  2
平W-M12
 10
2819.0
 20
2952.974094
 30
0.0
  0
INSERT
  5
FB2F
  8
10副資材
  2
角ワッシャーM12
 10
2819.0
 20
2952.974094
 30
0.0
  0
INSERT
  5
FB31
  8
02実線
  2
HOLE-Φ16
 10
2819.0
 20
3681.974094
 30
0.0
  0
INSERT
  5
FB32
  8
10副資材
  2
平W-M12
 10
2819.0
 20
3681.974094
 30
0.0
  0
INSERT
  5
FB33
  8
10副資材
  2
角ワッシャーM12
 10
2819.0
 20
3681.974094
 30
0.0
  0
INSERT
  5
FB35
  8
02実線
  2
HOLE-Φ16
 10
2150.000013
 20
3681.974093999999
 30
0.0
  0
INSERT
  5
FB36
  8
10副資材
  2
平W-M12
 10
2150.000013
 20
3681.974093999999
 30
0.0
  0
INSERT
  5
FB37
  8
10副資材
  2
角ワッシャーM12
 10
2150.000013
 20
3681.974093999999
 30
0.0
  0
INSERT
  5
FB39
  8
02実線
  2
HOLE-Φ16
 10
1481.0
 20
3681.974094
 30
0.0
  0
INSERT
  5
FB3A
  8
10副資材
  2
平W-M12
 10
1481.0
 20
3681.974094
 30
0.0
  0
INSERT
  5
FB3B
  8
10副資材
  2
角ワッシャーM12
 10
1481.0
 20
3681.974094
 30
0.0
  0
POLYLINE
  5
FB42
  8
13製作用注記
 66
     1
 10
0.0
 20
0.0
 30
0.0
 70
     1
  0
VERTEX
  5
103EF
  8
13製作用注記
 10
4050.0
 20
3465.0
 30
0.0
  0
VERTEX
  5
103F0
  8
13製作用注記
 10
4050.0
 20
3555.0
 30
0.0
  0
VERTEX
  5
103F1
  8
13製作用注記
 10
4350.0
 20
3555.0
 30
0.0
  0
VERTEX
  5
103F2
  8
13製作用注記
 10
4350.0
 20
3465.0
 30
0.0
  0
SEQEND
  5
10510
  8
13製作用注記
  0
POLYLINE
  5
FB43
  8
13製作用注記
 66
     1
 10
0.0
 20
0.0
 30
0.0
 70
     1
  0
VERTEX
  5
103F3
  8
13製作用注記
 10
3960.0
 20
3465.0
 30
0.0
  0
VERTEX
  5
103F4
  8
13製作用注記
 10
3960.0
 20
3555.0
 30
0.0
  0
VERTEX
  5
103F5
  8
13製作用注記
 10
4050.0
 20
3555.0
 30
0.0
  0
VERTEX
  5
103F6
  8
13製作用注記
 10
4050.0
 20
3465.0
 30
0.0
  0
SEQEND
  5
10511
  8
13製作用注記
  0
TEXT
  5
FB44
  8
13製作用注記
 10
3990.369513567588
 20
3487.5
 30
0.0
 40
45.0
  1
1
 72
     1
 11
4005.0
 21
3510.0
 31
0.0
 73
     2
  0
TEXT
  5
FB45
  8
13製作用注記
 10
4112.217081405527
 20
3487.5
 30
0.0
 40
45.0
  1
梁長手
 72
     1
 11
4200.0
 21
3510.0
 31
0.0
 73
     2
  0
POLYLINE
  5
FB46
  8
13製作用注記
 66
     1
 10
0.0
 20
0.0
 30
0.0
 70
     1
  0
VERTEX
  5
103F7
  8
13製作用注記
 10
4050.0
 20
3375.0
 30
0.0
  0
VERTEX
  5
103F8
  8
13製作用注記
 10
4050.0
 20
3465.0
 30
0.0
  0
VERTEX
  5
103F9
  8
13製作用注記
 10
4350.0
 20
3465.0
 30
0.0
  0
VERTEX
  5
103FA
  8
13製作用注記
 10
4350.0
 20
3375.0
 30
0.0
  0
SEQEND
  5
10512
  8
13製作用注記
  0
POLYLINE
  5
FB47
  8
13製作用注記
 66
     1
 10
0.0
 20
0.0
 30
0.0
 70
     1
  0
VERTEX
  5
103FB
  8
13製作用注記
 10
3960.0
 20
3375.0
 30
0.0
  0
VERTEX
  5
103FC
  8
13製作用注記
 10
3960.0
 20
3465.0
 30
0.0
  0
VERTEX
  5
103FD
  8
13製作用注記
 10
4050.0
 20
3465.0
 30
0.0
  0
VERTEX
  5
103FE
  8
13製作用注記
 10
4050.0
 20
3375.0
 30
0.0
  0
SEQEND
  5
10513
  8
13製作用注記
  0
TEXT
  5
FB48
  8
13製作用注記
 10
3990.369513567588
 20
3397.5
 30
0.0
 40
45.0
  1
2
 72
     1
 11
4005.0
 21
3420.0
 31
0.0
 73
     2
  0
TEXT
  5
FB49
  8
13製作用注記
 10
4112.217081405527
 20
3397.5
 30
0.0
 40
45.0
  1
梁短手
 72
     1
 11
4200.0
 21
3420.0
 31
0.0
 73
     2
  0
POLYLINE
  5
FB4A
  8
13製作用注記
 66
     1
 10
0.0
 20
0.0
 30
0.0
 70
     1
  0
VERTEX
  5
103FF
  8
13製作用注記
 10
4050.0
 20
3285.0
 30
0.0
  0
VERTEX
  5
10400
  8
13製作用注記
 10
4050.0
 20
3375.0
 30
0.0
  0
VERTEX
  5
10401
  8
13製作用注記
 10
4350.0
 20
3375.0
 30
0.0
  0
VERTEX
  5
10402
  8
13製作用注記
 10
4350.0
 20
3285.0
 30
0.0
  0
SEQEND
  5
10514
  8
13製作用注記
  0
POLYLINE
  5
FB4B
  8
13製作用注記
 66
     1
 10
0.0
 20
0.0
 30
0.0
 70
     1
  0
VERTEX
  5
10403
  8
13製作用注記
 10
3960.0
 20
3285.0
 30
0.0
  0
VERTEX
  5
10404
  8
13製作用注記
 10
3960.0
 20
3375.0
 30
0.0
  0
VERTEX
  5
10405
  8
13製作用注記
 10
4050.0
 20
3375.0
 30
0.0
  0
VERTEX
  5
10406
  8
13製作用注記
 10
4050.0
 20
3285.0
 30
0.0
  0
SEQEND
  5
10515
  8
13製作用注記
  0
TEXT
  5
FB4C
  8
13製作用注記
 10
3990.369513567588
 20
3307.5
 30
0.0
 40
45.0
  1
3
 72
     1
 11
4005.0
 21
3330.0
 31
0.0
 73
     2
  0
TEXT
  5
FB4D
  8
13製作用注記
 10
4141.478054270351
 20
3307.5
 30
0.0
 40
45.0
  1
中桟
 72
     1
 11
4200.0
 21
3330.0
 31
0.0
 73
     2
  0
POLYLINE
  5
FB4E
  8
13製作用注記
 66
     1
 10
0.0
 20
0.0
 30
0.0
 70
     1
  0
VERTEX
  5
10407
  8
13製作用注記
 10
4050.0
 20
3195.0
 30
0.0
  0
VERTEX
  5
10408
  8
13製作用注記
 10
4050.0
 20
3285.0
 30
0.0
  0
VERTEX
  5
10409
  8
13製作用注記
 10
4350.0
 20
3285.0
 30
0.0
  0
VERTEX
  5
1040A
  8
13製作用注記
 10
4350.0
 20
3195.0
 30
0.0
  0
SEQEND
  5
10516
  8
13製作用注記
  0
POLYLINE
  5
FB4F
  8
13製作用注記
 66
     1
 10
0.0
 20
0.0
 30
0.0
 70
     1
  0
VERTEX
  5
1040B
  8
13製作用注記
 10
3960.0
 20
3195.0
 30
0.0
  0
VERTEX
  5
1040C
  8
13製作用注記
 10
3960.0
 20
3285.0
 30
0.0
  0
VERTEX
  5
1040D
  8
13製作用注記
 10
4050.0
 20
3285.0
 30
0.0
  0
VERTEX
  5
1040E
  8
13製作用注記
 10
4050.0
 20
3195.0
 30
0.0
  0
SEQEND
  5
10517
  8
13製作用注記
  0
TEXT
  5
FB50
  8
13製作用注記
 10
3990.369513567588
 20
3217.5
 30
0.0
 40
45.0
  1
4
 72
     1
 11
4005.0
 21
3240.0
 31
0.0
 73
     2
  0
TEXT
  5
FB51
  8
13製作用注記
 10
4141.478054270351
 20
3217.5
 30
0.0
 40
45.0
  1
端柱
 72
     1
 11
4200.0
 21
3240.0
 31
0.0
 73
     2
  0
POLYLINE
  5
FB52
  8
13製作用注記
 66
     1
 10
0.0
 20
0.0
 30
0.0
 70
     1
  0
VERTEX
  5
1040F
  8
13製作用注記
 10
4050.0
 20
3105.0
 30
0.0
  0
VERTEX
  5
10410
  8
13製作用注記
 10
4050.0
 20
3195.0
 30
0.0
  0
VERTEX
  5
10411
  8
13製作用注記
 10
4350.0
 20
3195.0
 30
0.0
  0
VERTEX
  5
10412
  8
13製作用注記
 10
4350.0
 20
3105.0
 30
0.0
  0
SEQEND
  5
10518
  8
13製作用注記
  0
POLYLINE
  5
FB53
  8
13製作用注記
 66
     1
 10
0.0
 20
0.0
 30
0.0
 70
     1
  0
VERTEX
  5
10413
  8
13製作用注記
 10
3960.0
 20
3105.0
 30
0.0
  0
VERTEX
  5
10414
  8
13製作用注記
 10
3960.0
 20
3195.0
 30
0.0
  0
VERTEX
  5
10415
  8
13製作用注記
 10
4050.0
 20
3195.0
 30
0.0
  0
VERTEX
  5
10416
  8
13製作用注記
 10
4050.0
 20
3105.0
 30
0.0
  0
SEQEND
  5
10519
  8
13製作用注記
  0
TEXT
  5
FB54
  8
13製作用注記
 10
3990.369513567588
 20
3127.5
 30
0.0
 40
45.0
  1
5
 72
     1
 11
4005.0
 21
3150.0
 31
0.0
 73
     2
  0
TEXT
  5
FB55
  8
13製作用注記
 10
4141.478054270351
 20
3127.5
 30
0.0
 40
45.0
  1
中柱
 72
     1
 11
4200.0
 21
3150.0
 31
0.0
 73
     2
  0
POLYLINE
  5
FB56
  8
13製作用注記
 66
     1
 10
0.0
 20
0.0
 30
0.0
 70
     1
  0
VERTEX
  5
10417
  8
13製作用注記
 10
4050.0
 20
3015.0
 30
0.0
  0
VERTEX
  5
10418
  8
13製作用注記
 10
4050.0
 20
3105.0
 30
0.0
  0
VERTEX
  5
10419
  8
13製作用注記
 10
4350.0
 20
3105.0
 30
0.0
  0
VERTEX
  5
1041A
  8
13製作用注記
 10
4350.0
 20
3015.0
 30
0.0
  0
SEQEND
  5
1051A
  8
13製作用注記
  0
POLYLINE
  5
FB57
  8
13製作用注記
 66
     1
 10
0.0
 20
0.0
 30
0.0
 70
     1
  0
VERTEX
  5
1041B
  8
13製作用注記
 10
3960.0
 20
3015.0
 30
0.0
  0
VERTEX
  5
1041C
  8
13製作用注記
 10
3960.0
 20
3105.0
 30
0.0
  0
VERTEX
  5
1041D
  8
13製作用注記
 10
4050.0
 20
3105.0
 30
0.0
  0
VERTEX
  5
1041E
  8
13製作用注記
 10
4050.0
 20
3015.0
 30
0.0
  0
SEQEND
  5
1051B
  8
13製作用注記
  0
TEXT
  5
FB58
  8
13製作用注記
 10
3990.369513567588
 20
3037.5
 30
0.0
 40
45.0
  1
6
 72
     1
 11
4005.0
 21
3060.0
 31
0.0
 73
     2
  0
TEXT
  5
FB59
  8
13製作用注記
 10
4141.478054270351
 20
3037.5
 30
0.0
 40
45.0
  1
筋交
 72
     1
 11
4200.0
 21
3060.0
 31
0.0
 73
     2
  0
POLYLINE
  5
FB5A
  8
13製作用注記
 66
     1
 10
0.0
 20
0.0
 30
0.0
 70
     1
  0
VERTEX
  5
1041F
  8
13製作用注記
 10
4350.0
 20
3465.0
 30
0.0
  0
VERTEX
  5
10420
  8
13製作用注記
 10
4350.0
 20
3555.0
 30
0.0
  0
VERTEX
  5
10421
  8
13製作用注記
 10
4950.0
 20
3555.0
 30
0.0
  0
VERTEX
  5
10422
  8
13製作用注記
 10
4950.0
 20
3465.0
 30
0.0
  0
SEQEND
  5
1051C
  8
13製作用注記
  0
TEXT
  5
FB5B
  8
13製作用注記
 10
4401.281730648993
 20
3487.5
 30
0.0
 40
45.0
  1
[80×60×20×t3.2
 72
     1
 11
4650.0
 21
3510.0
 31
0.0
 73
     2
  0
POLYLINE
  5
FB5C
  8
13製作用注記
 66
     1
 10
0.0
 20
0.0
 30
0.0
 70
     1
  0
VERTEX
  5
10423
  8
13製作用注記
 10
4350.0
 20
3375.0
 30
0.0
  0
VERTEX
  5
10424
  8
13製作用注記
 10
4350.0
 20
3465.0
 30
0.0
  0
VERTEX
  5
10425
  8
13製作用注記
 10
4950.0
 20
3465.0
 30
0.0
  0
VERTEX
  5
10426
  8
13製作用注記
 10
4950.0
 20
3375.0
 30
0.0
  0
SEQEND
  5
1051D
  8
13製作用注記
  0
TEXT
  5
FB5D
  8
13製作用注記
 10
4459.803676378642
 20
3397.5
 30
0.0
 40
45.0
  1
L60×60×t3.2
 72
     1
 11
4650.0
 21
3420.0
 31
0.0
 73
     2
  0
POLYLINE
  5
FB5E
  8
13製作用注記
 66
     1
 10
0.0
 20
0.0
 30
0.0
 70
     1
  0
VERTEX
  5
10427
  8
13製作用注記
 10
4350.0
 20
3285.0
 30
0.0
  0
VERTEX
  5
10428
  8
13製作用注記
 10
4350.0
 20
3375.0
 30
0.0
  0
VERTEX
  5
10429
  8
13製作用注記
 10
4950.0
 20
3375.0
 30
0.0
  0
VERTEX
  5
1042A
  8
13製作用注記
 10
4950.0
 20
3285.0
 30
0.0
  0
SEQEND
  5
1051E
  8
13製作用注記
  0
TEXT
  5
FB5F
  8
13製作用注記
 10
4459.803676378642
 20
3307.5
 30
0.0
 40
45.0
  1
L60×60×t3.2
 72
     1
 11
4650.0
 21
3330.0
 31
0.0
 73
     2
  0
POLYLINE
  5
FB60
  8
13製作用注記
 66
     1
 10
0.0
 20
0.0
 30
0.0
 70
     1
  0
VERTEX
  5
1042B
  8
13製作用注記
 10
4350.0
 20
3195.0
 30
0.0
  0
VERTEX
  5
1042C
  8
13製作用注記
 10
4350.0
 20
3285.0
 30
0.0
  0
VERTEX
  5
1042D
  8
13製作用注記
 10
4950.0
 20
3285.0
 30
0.0
  0
VERTEX
  5
1042E
  8
13製作用注記
 10
4950.0
 20
3195.0
 30
0.0
  0
SEQEND
  5
1051F
  8
13製作用注記
  0
TEXT
  5
FB61
  8
13製作用注記
 10
4459.803676378642
 20
3217.5
 30
0.0
 40
45.0
  1
L60×60×t3.2
 72
     1
 11
4650.0
 21
3240.0
 31
0.0
 73
     2
  0
POLYLINE
  5
FB62
  8
13製作用注記
 66
     1
 10
0.0
 20
0.0
 30
0.0
 70
     1
  0
VERTEX
  5
1042F
  8
13製作用注記
 10
4350.0
 20
3105.0
 30
0.0
  0
VERTEX
  5
10430
  8
13製作用注記
 10
4350.0
 20
3195.0
 30
0.0
  0
VERTEX
  5
10431
  8
13製作用注記
 10
4950.0
 20
3195.0
 30
0.0
  0
VERTEX
  5
10432
  8
13製作用注記
 10
4950.0
 20
3105.0
 30
0.0
  0
SEQEND
  5
10520
  8
13製作用注記
  0
TEXT
  5
FB63
  8
13製作用注記
 10
4459.803676378642
 20
3127.5
 30
0.0
 40
45.0
  1
L60×60×t3.2
 72
     1
 11
4650.0
 21
3150.0
 31
0.0
 73
     2
  0
POLYLINE
  5
FB64
  8
13製作用注記
 66
     1
 10
0.0
 20
0.0
 30
0.0
 70
     1
  0
VERTEX
  5
10433
  8
13製作用注記
 10
4350.0
 20
3015.0
 30
0.0
  0
VERTEX
  5
10434
  8
13製作用注記
 10
4350.0
 20
3105.0
 30
0.0
  0
VERTEX
  5
10435
  8
13製作用注記
 10
4950.0
 20
3105.0
 30
0.0
  0
VERTEX
  5
10436
  8
13製作用注記
 10
4950.0
 20
3015.0
 30
0.0
  0
SEQEND
  5
10521
  8
13製作用注記
  0
TEXT
  5
FB65
  8
13製作用注記
 10
4562.217081405527
 20
3037.5
 30
0.0
 40
45.0
  1
500H用
 72
     1
 11
4650.0
 21
3060.0
 31
0.0
 73
     2
  0
POLYLINE
  5
FB66
  8
13製作用注記
 66
     1
 10
0.0
 20
0.0
 30
0.0
 70
     1
  0
VERTEX
  5
10437
  8
13製作用注記
 10
3960.0
 20
3555.0
 30
0.0
  0
VERTEX
  5
10438
  8
13製作用注記
 10
3960.0
 20
3645.0
 30
0.0
  0
VERTEX
  5
10439
  8
13製作用注記
 10
4950.0
 20
3645.0
 30
0.0
  0
VERTEX
  5
1043A
  8
13製作用注記
 10
4950.0
 20
3555.0
 30
0.0
  0
SEQEND
  5
10522
  8
13製作用注記
  0
TEXT
  5
FB67
  8
13製作用注記
 10
4250.17318994623
 20
3577.5
 30
0.0
 40
45.0
  1
部　材　一　覧
 72
     1
 11
4455.0
 21
3600.0
 31
0.0
 73
     2
  0
INSERT
  5
FB85
  8
12防振架台
  2
N-SPH1600
 10
1350.0
 20
2934.974094
 30
0.0
  0
INSERT
  5
FB86
  8
10副資材
  2
平W-M12
 10
1450.0
 20
3669.974094
 30
0.0
  0
INSERT
  5
FB87
  8
02実線
  2
HOLE-Φ16
 10
1450.0
 20
3669.974094
 30
0.0
  0
INSERT
  5
FB88
  8
02実線
  2
HOLE-Φ16
 10
2850.0
 20
3669.974094
 30
0.0
  0
INSERT
  5
FB89
  8
10副資材
  2
平W-M12
 10
2850.0
 20
3669.974094
 30
0.0
  0
INSERT
  5
FB8A
  8
02実線
  2
HOLE-Φ16
 10
2850.0
 20
2964.974094
 30
0.0
  0
INSERT
  5
FB8B
  8
10副資材
  2
平W-M12
 10
2850.0
 20
2964.974094
 30
0.0
  0
INSERT
  5
FB8C
  8
02実線
  2
HOLE-Φ16
 10
1450.0
 20
2964.974094
 30
0.0
  0
INSERT
  5
FB8D
  8
10副資材
  2
平W-M12
 10
1450.0
 20
2964.974094
 30
0.0
  0
DIMENSION
  5
FBE5
  8
01注記寸法
  2
*D1226
 10
1200.0
 20
3681.974094
 30
0.0
 11
1200.0
 21
3836.145
 31
0.0
 70
   160
  3
NEMY-15
 13
1350.0
 23
3704.999999999999
 33
0.0
 14
1461.0
 24
3681.974094
 34
0.0
 50
90.0
  0
DIMENSION
  5
FBF5
  8
01注記寸法
  2
*D1227
 10
1200.0
 20
2952.974094
 30
0.0
 11
1162.5
 21
3317.474094
 31
0.0
 70
    32
  3
NEMY-15
 13
1461.0
 23
3681.974094
 33
0.0
 14
1461.0
 24
2952.974094
 34
0.0
 50
90.0
  0
DIMENSION
  5
FC02
  8
01注記寸法
  2
*D1228
 10
1200.0
 20
2929.999999999999
 30
0.0
 11
1162.5
 21
2798.854999999999
 31
0.0
 70
    32
  3
NEMY-15
 13
1461.0
 23
2952.974094
 33
0.0
 14
1350.0
 24
2929.999999999999
 34
0.0
 50
90.0
  0
DIMENSION
  5
FC11
  8
01注記寸法
  2
*D1229
 10
1481.0
 20
4005.0
 30
0.0
 11
1415.5
 21
4042.5
 31
0.0
 70
    32
  3
NEMY-15
 13
1350.0
 23
3706.499999999999
 33
0.0
 14
1481.0
 24
3701.974094
 34
0.0
  0
DIMENSION
  5
FC1E
  8
01注記寸法
  2
*D1230
 10
2150.000013
 20
4005.0
 30
0.0
 11
1815.5000065
 21
4042.5
 31
0.0
 70
    32
  3
NEMY-15
 13
1481.0
 23
3701.974094
 33
0.0
 14
2150.000013
 24
3701.974093999999
 34
0.0
  0
DIMENSION
  5
FC2B
  8
01注記寸法
  2
*D1231
 10
2819.0
 20
4005.0
 30
0.0
 11
2484.5000065
 21
4042.5
 31
0.0
 70
    32
  3
NEMY-15
 13
2150.000013
 23
3701.974093999999
 33
0.0
 14
2819.0
 24
3701.974094
 34
0.0
  0
DIMENSION
  5
FC38
  8
01注記寸法
  2
*D1232
 10
2950.0
 20
4005.0
 30
0.0
 11
2884.5
 21
4042.5
 31
0.0
 70
    32
  3
NEMY-15
 13
2819.0
 23
3701.974094
 33
0.0
 14
2950.0
 24
3706.499999999999
 34
0.0
  0
DIMENSION
  5
FC45
  8
01注記寸法
  2
*D1233
 10
1450.0
 20
2630.0
 30
0.0
 11
1400.0
 21
2630.0
 31
0.0
 70
   160
  3
NEMY-15
 13
1350.0
 23
2928.499999999999
 33
0.0
 14
1450.0
 24
2944.974094
 34
0.0
  0
DIMENSION
  5
FC54
  8
01注記寸法
  2
*D1234
 10
2850.0
 20
2630.0
 30
0.0
 11
2150.0
 21
2668.985
 31
0.0
 70
    32
  1
※ <>
  3
NEMY-15
 13
1450.0
 23
2944.974094
 33
0.0
 14
2850.0
 24
2944.974094
 34
0.0
  0
DIMENSION
  5
FC61
  8
01注記寸法
  2
*D1235
 10
2950.0
 20
2630.0
 30
0.0
 11
2900.0
 21
2630.0
 31
0.0
 70
   160
  3
NEMY-15
 13
2850.0
 23
2944.974094
 33
0.0
 14
2950.0
 24
2928.499999999999
 34
0.0
  0
DIMENSION
  5
FC70
  8
01注記寸法
  2
*D1236
 10
3100.0
 20
2964.974094
 30
0.0
 11
3100.0
 21
2798.7425
 31
0.0
 70
   160
  3
NEMY-15
 13
2950.0
 23
2930.0
 33
0.0
 14
2870.0
 24
2964.974094
 34
0.0
 50
90.0
  0
DIMENSION
  5
FC80
  8
01注記寸法
  2
*D1237
 10
3100.0
 20
3669.974094
 30
0.0
 11
3061.015
 21
3317.474094
 31
0.0
 70
    32
  1
※ <>
  3
NEMY-15
 13
2870.0
 23
2964.974094
 33
0.0
 14
2870.0
 24
3669.974094
 34
0.0
 50
90.0
  0
DIMENSION
  5
FC8D
  8
01注記寸法
  2
*D1238
 10
3100.0
 20
3704.999999999999
 30
0.0
 11
3062.5
 21
3836.257499999999
 31
0.0
 70
    32
  3
NEMY-15
 13
2870.0
 23
3669.974094
 33
0.0
 14
2950.0
 24
3704.999999999999
 34
0.0
 50
90.0
  0
POLYLINE
  5
FCAB
  8
08非表示
 66
     1
 10
0.0
 20
0.0
 30
0.0
 70
     1
  0
VERTEX
  5
1043B
  8
08非表示
 10
300.0
 20
1650.000000000001
 30
0.0
  0
VERTEX
  5
1043C
  8
08非表示
 10
300.0
 20
4154.999999999998
 30
0.0
  0
VERTEX
  5
1043D
  8
08非表示
 10
4800.0
 20
4154.999999999998
 30
0.0
  0
VERTEX
  5
1043E
  8
08非表示
 10
4800.0
 20
1650.000000000002
 30
0.0
  0
SEQEND
  5
10523
  8
08非表示
  0
POLYLINE
  5
FCB2
  8
08非表示
 66
     1
 10
0.0
 20
0.0
 30
0.0
 70
     1
  0
VERTEX
  5
1043F
  8
08非表示
 10
250.0
 20
381.25
 30
0.0
  0
VERTEX
  5
10440
  8
08非表示
 10
250.0
 20
1068.75
 30
0.0
  0
VERTEX
  5
10441
  8
08非表示
 10
1350.0
 20
1068.75
 30
0.0
  0
VERTEX
  5
10442
  8
08非表示
 10
1350.0
 20
381.25
 30
0.0
  0
SEQEND
  5
10524
  8
08非表示
  0
DIMENSION
  5
FCB3
  8
01注記寸法
  2
*D1240
 10
250.0
 20
549.0
 30
0.0
 11
212.5
 21
725.0
 31
0.0
 70
    32
  3
NEMY-15
 13
414.3999999999996
 23
901.0
 33
0.0
 14
414.3999999999996
 24
549.0
 34
0.0
 50
90.0
1001
ACAD
1000
DSTYLE
1002
{
1070
   271
1070
     0
1070
   144
1040
2.0
1002
}
  0
DIMENSION
  5
FCC0
  8
01注記寸法
  2
*D1241
 10
801.0
 20
1068.75
 30
0.0
 11
607.6999999999998
 21
1106.25
 31
0.0
 70
    32
  3
NEMY-15
 13
414.3999999999996
 23
901.0
 33
0.0
 14
801.0
 24
899.3999999999996
 34
0.0
1001
ACAD
1000
DSTYLE
1002
{
1070
   271
1070
     0
1070
   144
1040
2.0
1002
}
  0
DIMENSION
  5
FCCD
  8
01注記寸法
  2
*D1242
 10
1185.6
 20
1068.75
 30
0.0
 11
993.3000000000002
 21
1106.25
 31
0.0
 70
    32
  3
NEMY-15
 13
801.0
 23
899.3999999999996
 33
0.0
 14
1185.6
 24
901.0
 34
0.0
1001
ACAD
1000
DSTYLE
1002
{
1070
   271
1070
     0
1070
   144
1040
2.0
1002
}
  0
DIMENSION
  5
FCDA
  8
08非表示
  2
*D1243
 10
1067.020728804338
 20
531.25
 30
0.0
 11
1029.520728804338
 21
725.0
 31
0.0
 70
    32
  3
NEMY-15
 13
1110.875845678362
 23
918.75
 33
0.0
 14
1110.875845678362
 24
531.25
 34
0.0
 50
90.0
1001
ACAD
1000
DSTYLE
1002
{
1070
   144
1040
2.0
1002
}
  0
DIMENSION
  5
FCE7
  8
08非表示
  2
*D1244
 10
1200.0
 20
626.542760954112
 30
0.0
 11
800.0
 21
664.042760954112
 31
0.0
 70
    32
  3
NEMY-15
 13
400.0
 23
618.1449726165329
 33
0.0
 14
1200.0
 24
612.5464470581469
 34
0.0
1001
ACAD
1000
DSTYLE
1002
{
1070
   144
1040
2.0
1002
}
  0
DIMENSION
  5
FCF4
  8
01注記寸法
  2
*D1245
 10
689.0892639081421
 20
550.5999999999995
 30
0.0
 11
651.5892639081421
 21
724.9999999999995
 31
0.0
 70
    32
  3
NEMY-15
 13
801.0
 23
899.3999999999996
 33
0.0
 14
801.0
 24
550.5999999999995
 34
0.0
 50
90.0
1001
ACAD
1000
DSTYLE
1002
{
1070
   271
1070
     0
1070
   144
1040
2.0
1002
}
  0
TEXT
  5
FD01
  8
01注記寸法
 10
1717.582575341531
 20
400.0
 30
0.0
 40
45.0
  1
アンカーボルト孔
  0
TEXT
  5
FD02
  8
01注記寸法
 10
1717.582575341531
 20
325.0
 30
0.0
 40
45.0
  1
(6-φ16)
  0
INSERT
  5
FD03
  8
01注記寸法
  2
*X1273
 10
0.0
 20
0.0
 30
0.0
  0
POLYLINE
  5
FD1F
  8
08非表示
 66
     1
 10
0.0
 20
0.0
 30
0.0
 70
     1
  0
VERTEX
  5
10447
  8
08非表示
 10
1450.0
 20
381.25
 30
0.0
  0
VERTEX
  5
10448
  8
08非表示
 10
1450.0
 20
1068.75
 30
0.0
  0
VERTEX
  5
10449
  8
08非表示
 10
2550.0
 20
1068.75
 30
0.0
  0
VERTEX
  5
1044A
  8
08非表示
 10
2550.0
 20
381.25
 30
0.0
  0
SEQEND
  5
10525
  8
08非表示
  0
DIMENSION
  5
FD20
  8
01注記寸法
  2
*D1246
 10
1450.0
 20
544.8999999999996
 30
0.0
 11
1412.5
 21
724.9999999999995
 31
0.0
 70
    32
  3
NEMY-15
 13
1579.9
 23
905.0999999999995
 33
0.0
 14
1579.9
 24
544.8999999999996
 34
0.0
 50
90.0
1001
ACAD
1000
DSTYLE
1002
{
1070
   271
1070
     0
1070
   144
1040
2.0
1002
}
  0
DIMENSION
  5
FD21
  8
01注記寸法
  2
*D1247
 10
2001.0
 20
1068.75
 30
0.0
 11
1790.45
 21
1106.25
 31
0.0
 70
    32
  3
NEMY-15
 13
1579.9
 23
905.0999999999995
 33
0.0
 14
2001.0
 24
899.3999999999996
 34
0.0
1001
ACAD
1000
DSTYLE
1002
{
1070
   271
1070
     0
1070
   144
1040
2.0
1002
}
  0
DIMENSION
  5
FD22
  8
01注記寸法
  2
*D1248
 10
2420.1
 20
1068.75
 30
0.0
 11
2210.55
 21
1106.25
 31
0.0
 70
    32
  3
NEMY-15
 13
2001.0
 23
899.3999999999996
 33
0.0
 14
2420.1
 24
905.0999999999995
 34
0.0
1001
ACAD
1000
DSTYLE
1002
{
1070
   271
1070
     0
1070
   144
1040
2.0
1002
}
  0
DIMENSION
  5
FD23
  8
08非表示
  2
*D1249
 10
2267.020728804338
 20
531.25
 30
0.0
 11
2229.520728804338
 21
725.0
 31
0.0
 70
    32
  3
NEMY-15
 13
2310.875845678362
 23
918.75
 33
0.0
 14
2310.875845678362
 24
531.25
 34
0.0
 50
90.0
1001
ACAD
1000
DSTYLE
1002
{
1070
   144
1040
2.0
1002
}
  0
DIMENSION
  5
FD24
  8
08非表示
  2
*D1250
 10
2400.0
 20
626.542760954112
 30
0.0
 11
2000.0
 21
664.042760954112
 31
0.0
 70
    32
  3
NEMY-15
 13
1600.0
 23
618.1449726165329
 33
0.0
 14
2400.0
 24
612.5464470581469
 34
0.0
1001
ACAD
1000
DSTYLE
1002
{
1070
   144
1040
2.0
1002
}
  0
DIMENSION
  5
FD25
  8
01注記寸法
  2
*D1251
 10
1889.089263908142
 20
550.5999999999995
 30
0.0
 11
1851.589263908142
 21
724.9999999999995
 31
0.0
 70
    32
  3
NEMY-15
 13
2001.0
 23
899.3999999999996
 33
0.0
 14
2001.0
 24
550.5999999999995
 34
0.0
 50
90.0
1001
ACAD
1000
DSTYLE
1002
{
1070
   271
1070
     0
1070
   144
1040
2.0
1002
}
  0
TEXT
  5
FD6E
  8
01注記寸法
 10
2917.582575341531
 20
400.0
 30
0.0
 40
45.0
  1
アンカーボルト孔
  0
TEXT
  5
FD6F
  8
01注記寸法
 10
2917.582575341531
 20
325.0
 30
0.0
 40
45.0
  1
(6-φ16)
  0
INSERT
  5
FD70
  8
01注記寸法
  2
*X1274
 10
0.0
 20
0.0
 30
0.0
  0
POLYLINE
  5
FD8C
  8
08非表示
 66
     1
 10
0.0
 20
0.0
 30
0.0
 70
     1
  0
VERTEX
  5
1044F
  8
08非表示
 10
2650.0
 20
381.25
 30
0.0
  0
VERTEX
  5
10450
  8
08非表示
 10
2650.0
 20
1068.75
 30
0.0
  0
VERTEX
  5
10451
  8
08非表示
 10
3750.0
 20
1068.75
 30
0.0
  0
VERTEX
  5
10452
  8
08非表示
 10
3750.0
 20
381.25
 30
0.0
  0
SEQEND
  5
10526
  8
08非表示
  0
DIMENSION
  5
FD8D
  8
01注記寸法
  2
*D1252
 10
2650.0
 20
510.3999999999996
 30
0.0
 11
2612.5
 21
724.9999999999995
 31
0.0
 70
    32
  3
NEMY-15
 13
2814.4
 23
939.5999999999995
 33
0.0
 14
2814.4
 24
510.3999999999996
 34
0.0
 50
90.0
1001
ACAD
1000
DSTYLE
1002
{
1070
   271
1070
     0
1070
   144
1040
2.0
1002
}
  0
DIMENSION
  5
FD8E
  8
01注記寸法
  2
*D1253
 10
3201.0
 20
1068.75
 30
0.0
 11
3007.7
 21
1106.25
 31
0.0
 70
    32
  3
NEMY-15
 13
2814.4
 23
939.5999999999995
 33
0.0
 14
3201.0
 24
938.0
 34
0.0
1001
ACAD
1000
DSTYLE
1002
{
1070
   271
1070
     0
1070
   144
1040
2.0
1002
}
  0
DIMENSION
  5
FD8F
  8
01注記寸法
  2
*D1254
 10
3585.6
 20
1068.75
 30
0.0
 11
3393.3
 21
1106.25
 31
0.0
 70
    32
  3
NEMY-15
 13
3201.0
 23
938.0
 33
0.0
 14
3585.6
 24
939.5999999999995
 34
0.0
1001
ACAD
1000
DSTYLE
1002
{
1070
   271
1070
     0
1070
   144
1040
2.0
1002
}
  0
DIMENSION
  5
FD90
  8
08非表示
  2
*D1255
 10
3467.020728804338
 20
531.25
 30
0.0
 11
3429.520728804338
 21
725.0
 31
0.0
 70
    32
  3
NEMY-15
 13
3510.875845678362
 23
918.75
 33
0.0
 14
3510.875845678362
 24
531.25
 34
0.0
 50
90.0
1001
ACAD
1000
DSTYLE
1002
{
1070
   144
1040
2.0
1002
}
  0
DIMENSION
  5
FD91
  8
08非表示
  2
*D1256
 10
3600.0
 20
626.542760954112
 30
0.0
 11
3200.0
 21
664.042760954112
 31
0.0
 70
    32
  3
NEMY-15
 13
2800.0
 23
618.1449726165329
 33
0.0
 14
3600.0
 24
612.5464470581469
 34
0.0
1001
ACAD
1000
DSTYLE
1002
{
1070
   144
1040
2.0
1002
}
  0
DIMENSION
  5
FD92
  8
01注記寸法
  2
*D1257
 10
3089.089263908142
 20
512.0
 30
0.0
 11
3051.589263908142
 21
725.0
 31
0.0
 70
    32
  3
NEMY-15
 13
3201.0
 23
938.0
 33
0.0
 14
3201.0
 24
512.0
 34
0.0
 50
90.0
1001
ACAD
1000
DSTYLE
1002
{
1070
   271
1070
     0
1070
   144
1040
2.0
1002
}
  0
POLYLINE
  5
FDDC
  8
01注記寸法
 66
     1
 10
0.0
 20
0.0
 30
0.0
  0
VERTEX
  5
10453
  8
01注記寸法
 10
4875.000000000004
 20
4036.150186134337
 30
0.0
  0
VERTEX
  5
10454
  8
01注記寸法
 10
4835.364796555424
 20
3967.5
 30
0.0
  0
VERTEX
  5
10455
  8
01注記寸法
 10
4914.635203444576
 20
3967.5
 30
0.0
  0
VERTEX
  5
10456
  8
01注記寸法
 10
4875.000000000004
 20
4036.150186134337
 30
0.0
  0
SEQEND
  5
10527
  8
01注記寸法
  0
TEXT
  5
FDDD
  8
01注記寸法
 10
4860.369513567592
 20
3972.646495132547
 30
0.0
 40
45.0
  1
1
 72
     4
 11
4875.000000000004
 21
3994.929851391144
 31
0.0
  0
POLYLINE
  5
FE4B
  8
01注記寸法
 66
     1
 10
0.0
 20
0.0
 30
0.0
  0
VERTEX
  5
10457
  8
01注記寸法
 10
5857.500000000004
 20
2611.150186134337
 30
0.0
  0
VERTEX
  5
10458
  8
01注記寸法
 10
5817.864796555424
 20
2542.5
 30
0.0
  0
VERTEX
  5
10459
  8
01注記寸法
 10
5897.135203444576
 20
2542.5
 30
0.0
  0
VERTEX
  5
1045A
  8
01注記寸法
 10
5857.500000000004
 20
2611.150186134337
 30
0.0
  0
SEQEND
  5
10528
  8
01注記寸法
  0
TEXT
  5
FE4C
  8
01注記寸法
 10
5842.869513567588
 20
2547.647143741403
 30
0.0
 40
45.0
  1
2
 72
     4
 11
5857.5
 21
2569.9305
 31
0.0
  0
POLYLINE
  5
FE70
  8
09図枠
 66
     1
 10
0.0
 20
0.0
 30
0.0
 70
     1
  0
VERTEX
  5
1045B
  8
09図枠
 10
4200.0
 20
3645.0
 30
0.0
  0
VERTEX
  5
1045C
  8
09図枠
 10
4200.0
 20
3735.0
 30
0.0
  0
VERTEX
  5
1045D
  8
09図枠
 10
4950.0
 20
3735.0
 30
0.0
  0
VERTEX
  5
1045E
  8
09図枠
 10
4950.0
 20
3645.0
 30
0.0
  0
SEQEND
  5
10529
  8
09図枠
  0
TEXT
  5
FE71
  8
01注記寸法
 10
4232.646617481556
 20
3667.5
 30
0.0
 40
45.0
  1
１－ＨＴＰ３４６（＃Ｅ２）
 41
0.9
 72
     1
 11
4575.0
 21
3690.0
 31
0.0
 73
     2
  0
TEXT
  5
FE72
  8
01注記寸法
 10
4110.369513567588
 20
3657.647143741403
 30
0.0
 40
45.0
  1
3
 72
     4
 11
4125.0
 21
3679.9305
 31
0.0
  0
POLYLINE
  5
FE73
  8
01注記寸法
 66
     1
 10
0.0
 20
0.0
 30
0.0
  0
VERTEX
  5
1045F
  8
01注記寸法
 10
4125.000000000004
 20
3721.150186134337
 30
0.0
  0
VERTEX
  5
10460
  8
01注記寸法
 10
4085.364796555424
 20
3652.5
 30
0.0
  0
VERTEX
  5
10461
  8
01注記寸法
 10
4164.635203444576
 20
3652.5
 30
0.0
  0
VERTEX
  5
10462
  8
01注記寸法
 10
4125.000000000004
 20
3721.150186134337
 30
0.0
  0
SEQEND
  5
1052A
  8
01注記寸法
  0
VIEWPORT
  5
9F0D
 67
     1
  8
0
 10
202.5
 20
128.5
 30
0.0
 40
486.0
 41
308.4
 68
     1
 69
     1
1001
ACAD
1000
MVIEW
1002
{
1070
    16
1010
0.0
1020
0.0
1030
0.0
1010
0.0
1020
0.0
1030
1.0
1040
0.0
1040
308.4
1040
202.5
1040
128.5
1040
50.0
1040
0.0
1040
0.0
1070
     0
1070
   100
1070
     0
1070
     3
1070
     0
1070
     0
1070
     0
1070
     0
1040
0.0
1040
0.0
1040
0.0
1040
0.5
1040
0.5
1040
0.0
1040
0.0
1070
     0
1002
{
1002
}
1002
}
  0
VIEWPORT
  5
9F0E
 67
     1
  8
0
 10
202.5
 20
128.5
 30
0.0
 40
324.0
 41
205.6
 68
     2
 69
     2
1001
ACAD
1000
MVIEW
1002
{
1070
    16
1010
0.0
1020
0.0
1030
0.0
1010
0.0
1020
0.0
1030
1.0
1040
0.0
1040
10712.16027781073
1040
-3224.9849078482
1040
3553.815758143106
1040
50.0
1040
0.0
1040
0.0
1070
     0
1070
   100
1070
     0
1070
     3
1070
     0
1070
     0
1070
     0
1070
     0
1040
0.0
1040
0.0
1040
0.0
1040
0.5
1040
0.5
1040
0.0
1040
0.0
1070
     0
1002
{
1002
}
1002
}
  0
ENDSEC
  0
EOF
