  0
SECTION
  2
HEADER
  9
$ACADVER
  1
AC1015
  9
$ACADMAINTVER
 70
     6
  9
$DWGCODEPAGE
  3
ANSI_932
  9
$INSBASE
 10
0.0
 20
0.0
 30
0.0
  9
$EXTMIN
 10
0.0
 20
-170.0
 30
0.0
  9
$EXTMAX
 10
4600.0
 20
2970.0
 30
0.0
  9
$LIMMIN
 10
0.0
 20
0.0
  9
$LIMMAX
 10
4200.0
 20
2970.0
  9
$ORTHOMODE
 70
     1
  9
$REGENMODE
 70
     1
  9
$FILLMODE
 70
     1
  9
$QTEXTMODE
 70
     0
  9
$MIRRTEXT
 70
     1
  9
$LTSCALE
 40
3.0
  9
$ATTMODE
 70
     1
  9
$TEXTSIZE
 40
30.0
  9
$TRACEWID
 40
1.0
  9
$TEXTSTYLE
  7
Standard
  9
$CLAYER
  8
06点線
  9
$CELTYPE
  6
ByLayer
  9
$CECOLOR
 62
   256
  9
$CELTSCALE
 40
1.0
  9
$DISPSILH
 70
     0
  9
$DIMSCALE
 40
10.0
  9
$DIMASZ
 40
3.0
  9
$DIMEXO
 40
1.5
  9
$DIMDLI
 40
10.0
  9
$DIMRND
 40
0.0
  9
$DIMDLE
 40
0.0
  9
$DIMEXE
 40
1.0
  9
$DIMTP
 40
0.0
  9
$DIMTM
 40
0.0
  9
$DIMTXT
 40
3.0
  9
$DIMCEN
 40
1.5
  9
$DIMTSZ
 40
0.0
  9
$DIMTOL
 70
     0
  9
$DIMLIM
 70
     0
  9
$DIMTIH
 70
     0
  9
$DIMTOH
 70
     0
  9
$DIMSE1
 70
     0
  9
$DIMSE2
 70
     0
  9
$DIMTAD
 70
     1
  9
$DIMZIN
 70
     8
  9
$DIMBLK
  1
Open
  9
$DIMASO
 70
     1
  9
$DIMSHO
 70
     1
  9
$DIMPOST
  1

  9
$DIMAPOST
  1

  9
$DIMALT
 70
     0
  9
$DIMALTD
 70
     3
  9
$DIMALTF
 40
0.03937007874016
  9
$DIMLFAC
 40
1.0
  9
$DIMTOFL
 70
     1
  9
$DIMTVP
 40
0.0
  9
$DIMTIX
 70
     0
  9
$DIMSOXD
 70
     0
  9
$DIMSAH
 70
     0
  9
$DIMBLK1
  1

  9
$DIMBLK2
  1

  9
$DIMSTYLE
  2
NEMY-10
  9
$DIMCLRD
 70
     0
  9
$DIMCLRE
 70
     0
  9
$DIMCLRT
 70
     0
  9
$DIMTFAC
 40
1.0
  9
$DIMGAP
 40
1.0
  9
$DIMJUST
 70
     0
  9
$DIMSD1
 70
     0
  9
$DIMSD2
 70
     0
  9
$DIMTOLJ
 70
     0
  9
$DIMTZIN
 70
     8
  9
$DIMALTZ
 70
     0
  9
$DIMALTTZ
 70
     0
  9
$DIMUPT
 70
     0
  9
$DIMDEC
 70
     1
  9
$DIMTDEC
 70
     1
  9
$DIMALTU
 70
     2
  9
$DIMALTTD
 70
     3
  9
$DIMTXSTY
  7
Standard
  9
$DIMAUNIT
 70
     0
  9
$DIMADEC
 70
     0
  9
$DIMALTRND
 40
0.0
  9
$DIMAZIN
 70
     0
  9
$DIMDSEP
 70
    46
  9
$DIMATFIT
 70
     3
  9
$DIMFRAC
 70
     0
  9
$DIMLDRBLK
  1
Open
  9
$DIMLUNIT
 70
     2
  9
$DIMLWD
 70
    -2
  9
$DIMLWE
 70
    -2
  9
$DIMTMOVE
 70
     0
  9
$LUNITS
 70
     2
  9
$LUPREC
 70
     4
  9
$SKETCHINC
 40
1.0
  9
$FILLETRAD
 40
6.4
  9
$AUNITS
 70
     0
  9
$AUPREC
 70
     0
  9
$MENU
  1
.
  9
$ELEVATION
 40
0.0
  9
$PELEVATION
 40
0.0
  9
$THICKNESS
 40
0.0
  9
$LIMCHECK
 70
     0
  9
$CHAMFERA
 40
5.0
  9
$CHAMFERB
 40
5.0
  9
$CHAMFERC
 40
20.0
  9
$CHAMFERD
 40
0.0
  9
$SKPOLY
 70
     0
  9
$TDCREATE
 40
2455859.405048461
  9
$TDUCREATE
 40
2455859.030048461
  9
$TDUPDATE
 40
2459010.407974711
  9
$TDUUPDATE
 40
2459010.032974711
  9
$TDINDWG
 40
0.0005817361
  9
$TDUSRTIMER
 40
0.0005713542
  9
$USRTIMER
 70
     1
  9
$ANGBASE
 50
0.0
  9
$ANGDIR
 70
     0
  9
$PDMODE
 70
     0
  9
$PDSIZE
 40
0.0
  9
$PLINEWID
 40
0.0
  9
$SPLFRAME
 70
     0
  9
$SPLINETYPE
 70
     6
  9
$SPLINESEGS
 70
     8
  9
$HANDSEED
  5
FCEF
  9
$SURFTAB1
 70
     6
  9
$SURFTAB2
 70
     6
  9
$SURFTYPE
 70
     6
  9
$SURFU
 70
     6
  9
$SURFV
 70
     6
  9
$UCSBASE
  2

  9
$UCSNAME
  2

  9
$UCSORG
 10
0.0
 20
0.0
 30
0.0
  9
$UCSXDIR
 10
1.0
 20
0.0
 30
0.0
  9
$UCSYDIR
 10
0.0
 20
1.0
 30
0.0
  9
$UCSORTHOREF
  2

  9
$UCSORTHOVIEW
 70
     0
  9
$UCSORGTOP
 10
0.0
 20
0.0
 30
0.0
  9
$UCSORGBOTTOM
 10
0.0
 20
0.0
 30
0.0
  9
$UCSORGLEFT
 10
0.0
 20
0.0
 30
0.0
  9
$UCSORGRIGHT
 10
0.0
 20
0.0
 30
0.0
  9
$UCSORGFRONT
 10
0.0
 20
0.0
 30
0.0
  9
$UCSORGBACK
 10
0.0
 20
0.0
 30
0.0
  9
$PUCSBASE
  2

  9
$PUCSNAME
  2

  9
$PUCSORG
 10
0.0
 20
0.0
 30
0.0
  9
$PUCSXDIR
 10
1.0
 20
0.0
 30
0.0
  9
$PUCSYDIR
 10
0.0
 20
1.0
 30
0.0
  9
$PUCSORTHOREF
  2

  9
$PUCSORTHOVIEW
 70
     0
  9
$PUCSORGTOP
 10
0.0
 20
0.0
 30
0.0
  9
$PUCSORGBOTTOM
 10
0.0
 20
0.0
 30
0.0
  9
$PUCSORGLEFT
 10
0.0
 20
0.0
 30
0.0
  9
$PUCSORGRIGHT
 10
0.0
 20
0.0
 30
0.0
  9
$PUCSORGFRONT
 10
0.0
 20
0.0
 30
0.0
  9
$PUCSORGBACK
 10
0.0
 20
0.0
 30
0.0
  9
$USERI1
 70
     0
  9
$USERI2
 70
     0
  9
$USERI3
 70
     0
  9
$USERI4
 70
     0
  9
$USERI5
 70
     0
  9
$USERR1
 40
0.0
  9
$USERR2
 40
0.0
  9
$USERR3
 40
0.0
  9
$USERR4
 40
0.0
  9
$USERR5
 40
0.0
  9
$WORLDVIEW
 70
     1
  9
$SHADEDGE
 70
     3
  9
$SHADEDIF
 70
    70
  9
$TILEMODE
 70
     1
  9
$MAXACTVP
 70
    64
  9
$PINSBASE
 10
0.0
 20
0.0
 30
0.0
  9
$PLIMCHECK
 70
     0
  9
$PEXTMIN
 10
1.000000000000000E+20
 20
1.000000000000000E+20
 30
1.000000000000000E+20
  9
$PEXTMAX
 10
-1.000000000000000E+20
 20
-1.000000000000000E+20
 30
-1.000000000000000E+20
  9
$PLIMMIN
 10
-7.5
 20
-20.0
  9
$PLIMMAX
 10
412.5
 20
277.0
  9
$UNITMODE
 70
     0
  9
$VISRETAIN
 70
     1
  9
$PLINEGEN
 70
     0
  9
$PSLTSCALE
 70
     1
  9
$TREEDEPTH
 70
  3020
  9
$CMLSTYLE
  2
Standard
  9
$CMLJUST
 70
     0
  9
$CMLSCALE
 40
20.0
  9
$PROXYGRAPHICS
 70
     1
  9
$MEASUREMENT
 70
     1
  9
$CELWEIGHT
370
    -1
  9
$ENDCAPS
280
     0
  9
$JOINSTYLE
280
     0
  9
$LWDISPLAY
290
     0
  9
$INSUNITS
 70
     4
  9
$HYPERLINKBASE
  1

  9
$STYLESHEET
  1
monochrome.ctb
  9
$XEDIT
290
     1
  9
$CEPSNTYPE
380
     0
  9
$PSTYLEMODE
290
     1
  9
$FINGERPRINTGUID
  2
{FDEAD578-A652-11D2-9A35-0060089B3A3F}
  9
$VERSIONGUID
  2
{11DB8456-EC16-47A0-BA21-BBDA07550E8A}
  9
$EXTNAMES
290
     1
  9
$PSVPSCALE
 40
0.0
  9
$OLESTARTUP
290
     0
  0
ENDSEC
  0
SECTION
  2
CLASSES
  0
CLASS
  1
ACDBDICTIONARYWDFLT
  2
AcDbDictionaryWithDefault
  3
ObjectDBX Classes
 90
        0
280
     0
281
     0
  0
CLASS
  1
ACDBPLACEHOLDER
  2
AcDbPlaceHolder
  3
ObjectDBX Classes
 90
        0
280
     0
281
     0
  0
CLASS
  1
LAYOUT
  2
AcDbLayout
  3
ObjectDBX Classes
 90
        0
280
     0
281
     0
  0
CLASS
  1
DICTIONARYVAR
  2
AcDbDictionaryVar
  3
ObjectDBX Classes
 90
        0
280
     0
281
     0
  0
CLASS
  1
SCALE
  2
AcDbScale
  3
ObjectDBX Classes
 90
     1153
280
     0
281
     0
  0
CLASS
  1
MATERIAL
  2
AcDbMaterial
  3
ObjectDBX Classes
 90
     1153
280
     0
281
     0
  0
CLASS
  1
VISUALSTYLE
  2
AcDbVisualStyle
  3
ObjectDBX Classes
 90
     4095
280
     0
281
     0
  0
CLASS
  1
TABLESTYLE
  2
AcDbTableStyle
  3
ObjectDBX Classes
 90
     4095
280
     0
281
     0
  0
CLASS
  1
RASTERVARIABLES
  2
AcDbRasterVariables
  3
ISM
 90
        0
280
     0
281
     0
  0
CLASS
  1
SORTENTSTABLE
  2
AcDbSortentsTable
  3
ObjectDBX Classes
 90
        0
280
     0
281
     0
  0
CLASS
  1
SUN
  2
AcDbSun
  3
SCENEOE
 90
     1153
280
     0
281
     0
  0
CLASS
  1
MLEADERSTYLE
  2
AcDbMLeaderStyle
  3
ACDB_MLEADERSTYLE_CLASS
 90
     4095
280
     0
281
     0
  0
ENDSEC
  0
SECTION
  2
TABLES
  0
TABLE
  2
VPORT
  5
8
330
0
100
AcDbSymbolTable
 70
     1
  0
VPORT
  5
7A57
330
8
100
AcDbSymbolTableRecord
100
AcDbViewportTableRecord
  2
*Active
 70
     0
 10
0.0
 20
0.0
 11
1.0
 21
1.0
 12
1733.741041144399
 22
1708.215837611875
 13
0.0
 23
0.0
 14
10.0
 24
10.0
 15
10.0
 25
10.0
 16
0.0
 26
0.0
 36
1.0
 17
0.0
 27
0.0
 37
0.0
 40
1782.232825435897
 41
1.448916408668731
 42
50.0
 43
0.0
 44
0.0
 50
0.0
 51
0.0
 71
    16
 72
   100
 73
     1
 74
     2
 75
     0
 76
     0
 77
     0
 78
     0
281
     0
 65
     1
110
0.0
120
0.0
130
0.0
111
1.0
121
0.0
131
0.0
112
0.0
122
1.0
132
0.0
 79
     0
146
0.0
  0
ENDTAB
  0
TABLE
  2
LTYPE
  5
5
330
0
100
AcDbSymbolTable
 70
     5
  0
LTYPE
  5
14
330
5
100
AcDbSymbolTableRecord
100
AcDbLinetypeTableRecord
  2
ByBlock
 70
     0
  3

 72
    65
 73
     0
 40
0.0
  0
LTYPE
  5
15
330
5
100
AcDbSymbolTableRecord
100
AcDbLinetypeTableRecord
  2
ByLayer
 70
     0
  3

 72
    65
 73
     0
 40
0.0
  0
LTYPE
  5
16
330
5
100
AcDbSymbolTableRecord
100
AcDbLinetypeTableRecord
  2
Continuous
 70
     0
  3
Solid line
 72
    65
 73
     0
 40
0.0
  0
LTYPE
  5
BA
330
5
100
AcDbSymbolTableRecord
100
AcDbLinetypeTableRecord
  2
HIDDEN
 70
     0
  3
Hidden __ __ __ __ __ __ __ __ __ __ __ __ __ _
 72
    65
 73
     2
 40
9.524999999999999
 49
6.35
 74
     0
 49
-3.175
 74
     0
  0
LTYPE
  5
BB
330
5
100
AcDbSymbolTableRecord
100
AcDbLinetypeTableRecord
  2
PHANTOM
 70
     0
  3
Phantom ______  __  __  ______  __  __  ______
 72
    65
 73
     6
 40
63.5
 49
31.75
 74
     0
 49
-6.35
 74
     0
 49
6.35
 74
     0
 49
-6.35
 74
     0
 49
6.35
 74
     0
 49
-6.35
 74
     0
  0
LTYPE
  5
BC
330
5
100
AcDbSymbolTableRecord
100
AcDbLinetypeTableRecord
  2
CENTER
 70
     0
  3
Center ____ _ ____ _ ____ _ ____ _ ____ _ ____
 72
    65
 73
     4
 40
50.8
 49
31.75
 74
     0
 49
-6.35
 74
     0
 49
6.35
 74
     0
 49
-6.35
 74
     0
  0
LTYPE
  5
47C
330
5
100
AcDbSymbolTableRecord
100
AcDbLinetypeTableRecord
  2
DOT
 70
     0
  3
Dot . . . . . . . . . . . . . . . . . . . . . .
 72
    65
 73
     2
 40
6.35
 49
0.0
 74
     0
 49
-6.35
 74
     0
  0
ENDTAB
  0
TABLE
  2
LAYER
  5
2
102
{ACAD_XDICTIONARY
360
7A6F
102
}
330
0
100
AcDbSymbolTable
 70
    15
  0
LAYER
  5
10
330
2
100
AcDbSymbolTableRecord
100
AcDbLayerTableRecord
  2
0
 70
     0
 62
    -7
  6
Continuous
370
    -3
390
F
  0
LAYER
  5
45
330
2
100
AcDbSymbolTableRecord
100
AcDbLayerTableRecord
  2
01注記寸法
 70
     0
 62
    -7
  6
Continuous
370
     9
390
F
  0
LAYER
  5
46
330
2
100
AcDbSymbolTableRecord
100
AcDbLayerTableRecord
  2
02実線
 70
     0
 62
     2
  6
Continuous
370
    15
390
F
  0
LAYER
  5
5F
330
2
100
AcDbSymbolTableRecord
100
AcDbLayerTableRecord
  2
Defpoints
 70
     0
 62
    -7
  6
Continuous
290
     0
370
    -3
390
F
  0
LAYER
  5
7E52
330
2
100
AcDbSymbolTableRecord
100
AcDbLayerTableRecord
  2
03破線
 70
     0
 62
    -3
  6
HIDDEN
370
     9
390
F
  0
LAYER
  5
7E55
330
2
100
AcDbSymbolTableRecord
100
AcDbLayerTableRecord
  2
04一点鎖線
 70
     0
 62
   -70
  6
CENTER
370
     9
390
F
  0
LAYER
  5
7E58
330
2
100
AcDbSymbolTableRecord
100
AcDbLayerTableRecord
  2
05二点鎖線
 70
     0
 62
  -110
  6
PHANTOM
370
     9
390
F
  0
LAYER
  5
7E5B
330
2
100
AcDbSymbolTableRecord
100
AcDbLayerTableRecord
  2
06点線
 70
     0
 62
   -96
  6
DOT
370
     9
390
F
  0
LAYER
  5
7E5E
330
2
100
AcDbSymbolTableRecord
100
AcDbLayerTableRecord
  2
07その他
 70
     0
 62
    -6
  6
Continuous
370
     5
390
F
  0
LAYER
  5
7E60
330
2
100
AcDbSymbolTableRecord
100
AcDbLayerTableRecord
  2
08非表示
 70
     0
 62
    -4
  6
Continuous
290
     0
370
     0
390
F
  0
LAYER
  5
7E62
330
2
100
AcDbSymbolTableRecord
100
AcDbLayerTableRecord
  2
09図枠
 70
     0
 62
    -1
  6
Continuous
370
    30
390
F
  0
LAYER
  5
835A
330
2
100
AcDbSymbolTableRecord
100
AcDbLayerTableRecord
  2
10副資材
 70
     0
 62
   -51
  6
Continuous
290
     0
370
    -3
390
F
1001
AcAecLayerStandard
1000

1000

  0
LAYER
  5
8CAC
330
2
100
AcDbSymbolTableRecord
100
AcDbLayerTableRecord
  2
11機器
 70
     0
 62
   -11
  6
Continuous
290
     0
370
    -3
390
F
1001
AcAecLayerStandard
1000

1000

  0
LAYER
  5
8CB1
330
2
100
AcDbSymbolTableRecord
100
AcDbLayerTableRecord
  2
12防振架台
 70
     0
 62
  -190
  6
Continuous
290
     0
370
    -3
390
F
1001
AcAecLayerStandard
1000

1000

  0
LAYER
  5
A15B
330
2
100
AcDbSymbolTableRecord
100
AcDbLayerTableRecord
  2
13製作用注記
 70
     0
 62
    -5
  6
Continuous
290
     0
370
     9
390
F
1001
AcAecLayerStandard
1000

1000

  0
ENDTAB
  0
TABLE
  2
STYLE
  5
3
330
0
100
AcDbSymbolTable
 70
     2
  0
STYLE
  5
11
330
3
100
AcDbSymbolTableRecord
100
AcDbTextStyleTableRecord
  2
Standard
 70
     0
 40
0.0
 41
1.0
 50
0.0
 71
     0
 42
30.0
  3
MSGOTHIC.TTC
  4

1001
ACAD
1000
MS Gothic
1071
    32817
  0
STYLE
  5
47B
330
3
100
AcDbSymbolTableRecord
100
AcDbTextStyleTableRecord
  2

 70
     1
 40
0.0
 41
1.0
 50
0.0
 71
     0
 42
3.0
  3
ltypeshp.shx
  4

  0
ENDTAB
  0
TABLE
  2
VIEW
  5
6
330
0
100
AcDbSymbolTable
 70
     0
  0
ENDTAB
  0
TABLE
  2
UCS
  5
7
330
0
100
AcDbSymbolTable
 70
     0
  0
ENDTAB
  0
TABLE
  2
APPID
  5
9
330
0
100
AcDbSymbolTable
 70
     6
  0
APPID
  5
12
330
9
100
AcDbSymbolTableRecord
100
AcDbRegAppTableRecord
  2
ACAD
 70
     0
  0
APPID
  5
6A9E
330
9
100
AcDbSymbolTableRecord
100
AcDbRegAppTableRecord
  2
ACAD_DSTYLE_DIMRADIAL_EXTENSION
 70
     0
  0
APPID
  5
742C
330
9
100
AcDbSymbolTableRecord
100
AcDbRegAppTableRecord
  2
ACAD_PSEXT
 70
     0
  0
APPID
  5
742D
330
9
100
AcDbSymbolTableRecord
100
AcDbRegAppTableRecord
  2
ACAD_DSTYLE_DIMJAG
 70
     0
  0
APPID
  5
742E
330
9
100
AcDbSymbolTableRecord
100
AcDbRegAppTableRecord
  2
ACAD_DSTYLE_DIMTALN
 70
     0
  0
APPID
  5
835C
330
9
100
AcDbSymbolTableRecord
100
AcDbRegAppTableRecord
  2
AcAecLayerStandard
 70
     0
  0
ENDTAB
  0
TABLE
  2
DIMSTYLE
  5
A
330
0
100
AcDbSymbolTable
 70
    24
100
AcDbDimStyleTable
  0
DIMSTYLE
105
73
330
A
100
AcDbSymbolTableRecord
100
AcDbDimStyleTableRecord
  2
NEMY-1
 70
     0
 41
3.0
 42
1.5
 43
10.0
 44
1.0
 73
     0
 74
     0
 77
     1
 78
     8
140
3.0
141
1.5
143
0.03937007874016
147
1.0
171
     3
172
     1
178
     0
271
     1
272
     1
274
     3
283
     0
284
     8
340
11
341
8F
342
8F
  0
DIMSTYLE
105
4DCE
330
A
100
AcDbSymbolTableRecord
100
AcDbDimStyleTableRecord
  2
NEMY-2
 70
     0
 40
2.0
 41
3.0
 42
1.5
 43
10.0
 44
1.0
 73
     0
 74
     0
 77
     1
 78
     8
140
3.0
141
1.5
143
0.03937007874016
147
1.0
171
     3
172
     1
178
     0
271
     1
272
     1
274
     3
283
     0
284
     8
340
11
341
8F
342
8F
  0
DIMSTYLE
105
4DCF
330
A
100
AcDbSymbolTableRecord
100
AcDbDimStyleTableRecord
  2
NEMY-3
 70
     0
 40
3.0
 41
3.0
 42
1.5
 43
10.0
 44
1.0
 73
     0
 74
     0
 77
     1
 78
     8
140
3.0
141
1.5
143
0.03937007874016
147
1.0
171
     3
172
     1
178
     0
271
     1
272
     1
274
     3
283
     0
284
     8
340
11
341
8F
342
8F
  0
DIMSTYLE
105
4DD0
330
A
100
AcDbSymbolTableRecord
100
AcDbDimStyleTableRecord
  2
NEMY-5
 70
     0
 40
5.0
 41
3.0
 42
1.5
 43
10.0
 44
1.0
 73
     0
 74
     0
 77
     1
 78
     8
140
3.0
141
1.5
143
0.03937007874016
147
1.0
171
     3
172
     1
178
     0
271
     1
272
     1
274
     3
283
     0
284
     8
340
11
341
8F
342
8F
  0
DIMSTYLE
105
4DD1
330
A
100
AcDbSymbolTableRecord
100
AcDbDimStyleTableRecord
  2
NEMY-8
 70
     0
 40
8.0
 41
3.0
 42
1.5
 43
10.0
 44
1.0
 73
     0
 74
     0
 77
     1
 78
     8
140
3.0
141
1.5
143
0.03937007874016
147
1.0
171
     3
172
     1
178
     0
271
     1
272
     1
274
     3
283
     0
284
     8
340
11
341
8F
342
8F
  0
DIMSTYLE
105
4DD2
330
A
100
AcDbSymbolTableRecord
100
AcDbDimStyleTableRecord
  2
NEMY-15
 70
     0
 40
15.0
 41
3.0
 42
1.5
 43
10.0
 44
1.0
 73
     0
 74
     0
 77
     1
 78
     8
140
3.0
141
1.5
143
0.03937007874016
147
1.0
171
     3
172
     1
178
     0
271
     1
272
     1
274
     3
283
     0
284
     8
340
11
341
8F
342
8F
  0
DIMSTYLE
105
4DD3
102
{ACAD_REACTORS
330
BE5D
330
BE62
330
BE63
330
BE64
330
BE65
330
BE67
330
BE6A
330
BE6B
330
BE72
330
D6DC
330
D888
330
D88B
330
D891
330
D8A4
330
D9A1
330
D9A2
330
F274
330
F7F1
330
F7FE
330
F81D
330
F81E
330
F849
330
F84A
330
F864
330
F867
330
F948
330
F949
330
F951
330
F954
330
F957
330
F95A
330
F95D
330
F95E
330
F96E
330
F96F
330
F970
330
F971
330
F972
330
F975
330
F976
330
F977
330
F978
330
F979
330
F97A
330
F97B
330
F97C
330
F97D
330
F97E
330
F97F
102
}
330
A
100
AcDbSymbolTableRecord
100
AcDbDimStyleTableRecord
  2
NEMY-10
 70
     0
 40
10.0
 41
3.0
 42
1.5
 43
10.0
 44
1.0
 73
     0
 74
     0
 77
     1
 78
     8
140
3.0
141
1.5
143
0.03937007874016
147
1.0
171
     3
172
     1
178
     0
271
     1
272
     1
274
     3
283
     0
284
     8
340
11
341
8F
342
8F
  0
DIMSTYLE
105
4DD4
330
A
100
AcDbSymbolTableRecord
100
AcDbDimStyleTableRecord
  2
NEMY-25
 70
     0
 40
25.0
 41
3.0
 42
1.5
 43
10.0
 44
1.0
 73
     0
 74
     0
 77
     1
 78
     8
140
3.0
141
1.5
143
0.03937007874016
147
1.0
171
     3
172
     1
178
     0
271
     1
272
     1
274
     3
283
     0
284
     8
340
11
341
8F
342
8F
  0
DIMSTYLE
105
4DD5
330
A
100
AcDbSymbolTableRecord
100
AcDbDimStyleTableRecord
  2
NEMY-30
 70
     0
 40
30.0
 41
3.0
 42
1.5
 43
10.0
 44
1.0
 73
     0
 74
     0
 77
     1
 78
     8
140
3.0
141
1.5
143
0.03937007874016
147
1.0
171
     3
172
     1
178
     0
271
     1
272
     1
274
     3
283
     0
284
     8
340
11
341
8F
342
8F
  0
DIMSTYLE
105
4DD6
330
A
100
AcDbSymbolTableRecord
100
AcDbDimStyleTableRecord
  2
NEMY-50
 70
     0
 40
50.0
 41
3.0
 42
1.5
 43
10.0
 44
1.0
 73
     0
 74
     0
 77
     1
 78
     8
140
3.0
141
1.5
143
0.03937007874016
147
1.0
171
     3
172
     1
178
     0
271
     1
272
     1
274
     3
283
     0
284
     8
340
11
341
8F
342
8F
  0
DIMSTYLE
105
4E6F
330
A
100
AcDbSymbolTableRecord
100
AcDbDimStyleTableRecord
  2
NEMY-20
 70
     0
 40
20.0
 41
3.0
 42
1.5
 43
10.0
 44
1.0
 73
     0
 74
     0
 77
     1
 78
     8
140
3.0
141
1.5
143
0.03937007874016
147
1.0
171
     3
172
     1
178
     0
271
     1
272
     1
274
     3
283
     0
284
     8
340
11
341
8F
342
8F
  0
DIMSTYLE
105
4F44
330
A
100
AcDbSymbolTableRecord
100
AcDbDimStyleTableRecord
  2
NEMY-10$3
 70
     0
 40
10.0
 41
3.0
 42
1.5
 43
10.0
 44
1.0
 77
     1
 78
     8
140
3.0
141
1.5
143
0.03937007874016
147
1.0
171
     3
172
     1
178
     0
271
     1
272
     1
274
     3
283
     0
284
     8
340
11
341
8F
342
8F
  0
DIMSTYLE
105
4F45
330
A
100
AcDbSymbolTableRecord
100
AcDbDimStyleTableRecord
  2
NEMY-1$3
 70
     0
 41
3.0
 42
1.5
 43
10.0
 44
1.0
 77
     1
 78
     8
140
3.0
141
1.5
143
0.03937007874016
147
1.0
171
     3
172
     1
178
     0
271
     1
272
     1
274
     3
283
     0
284
     8
340
11
341
8F
342
8F
  0
DIMSTYLE
105
4F46
330
A
100
AcDbSymbolTableRecord
100
AcDbDimStyleTableRecord
  2
NEMY-12
 70
     0
 40
12.0
 41
3.0
 42
1.5
 43
10.0
 44
1.0
 73
     0
 74
     0
 77
     1
 78
     8
140
3.0
141
1.5
143
0.03937007874016
147
1.0
171
     3
172
     1
178
     0
271
     1
272
     1
274
     3
283
     0
284
     8
340
11
341
8F
342
8F
  0
DIMSTYLE
105
4F47
330
A
100
AcDbSymbolTableRecord
100
AcDbDimStyleTableRecord
  2
NEMY-12$3
 70
     0
 40
12.0
 41
3.0
 42
1.5
 43
10.0
 44
1.0
 77
     1
 78
     8
140
3.0
141
1.5
143
0.03937007874016
147
1.0
171
     3
172
     1
178
     0
271
     1
272
     1
274
     3
283
     0
284
     8
340
11
341
8F
342
8F
  0
DIMSTYLE
105
5E6E
330
A
100
AcDbSymbolTableRecord
100
AcDbDimStyleTableRecord
  2
NEMY-8$3
 70
     0
 40
8.0
 41
3.0
 42
1.5
 43
10.0
 44
1.0
 77
     1
 78
     8
140
3.0
141
1.5
143
0.03937007874016
147
1.0
171
     3
172
     1
178
     0
271
     1
272
     1
274
     3
283
     0
284
     8
340
11
341
8F
342
8F
  0
DIMSTYLE
105
5E6F
330
A
100
AcDbSymbolTableRecord
100
AcDbDimStyleTableRecord
  2
NEMY-50$3
 70
     0
 40
50.0
 41
3.0
 42
1.5
 43
10.0
 44
1.0
 77
     1
 78
     8
140
3.0
141
1.5
143
0.03937007874016
147
1.0
171
     3
172
     1
178
     0
271
     1
272
     1
274
     3
283
     0
284
     8
340
11
341
8F
342
8F
  0
DIMSTYLE
105
5E70
330
A
100
AcDbSymbolTableRecord
100
AcDbDimStyleTableRecord
  2
NEMY-5$3
 70
     0
 40
5.0
 41
3.0
 42
1.5
 43
10.0
 44
1.0
 77
     1
 78
     8
140
3.0
141
1.5
143
0.03937007874016
147
1.0
171
     3
172
     1
178
     0
271
     1
272
     1
274
     3
283
     0
284
     8
340
11
341
8F
342
8F
  0
DIMSTYLE
105
5E71
330
A
100
AcDbSymbolTableRecord
100
AcDbDimStyleTableRecord
  2
NEMY-30$3
 70
     0
 40
30.0
 41
3.0
 42
1.5
 43
10.0
 44
1.0
 77
     1
 78
     8
140
3.0
141
1.5
143
0.03937007874016
147
1.0
171
     3
172
     1
178
     0
271
     1
272
     1
274
     3
283
     0
284
     8
340
11
341
8F
342
8F
  0
DIMSTYLE
105
5E72
330
A
100
AcDbSymbolTableRecord
100
AcDbDimStyleTableRecord
  2
NEMY-3$3
 70
     0
 40
3.0
 41
3.0
 42
1.5
 43
10.0
 44
1.0
 77
     1
 78
     8
140
3.0
141
1.5
143
0.03937007874016
147
1.0
171
     3
172
     1
178
     0
271
     1
272
     1
274
     3
283
     0
284
     8
340
11
341
8F
342
8F
  0
DIMSTYLE
105
5E73
330
A
100
AcDbSymbolTableRecord
100
AcDbDimStyleTableRecord
  2
NEMY-25$3
 70
     0
 40
25.0
 41
3.0
 42
1.5
 43
10.0
 44
1.0
 77
     1
 78
     8
140
3.0
141
1.5
143
0.03937007874016
147
1.0
171
     3
172
     1
178
     0
271
     1
272
     1
274
     3
283
     0
284
     8
340
11
341
8F
342
8F
  0
DIMSTYLE
105
5E74
330
A
100
AcDbSymbolTableRecord
100
AcDbDimStyleTableRecord
  2
NEMY-20$3
 70
     0
 40
20.0
 41
3.0
 42
1.5
 43
10.0
 44
1.0
 77
     1
 78
     8
140
3.0
141
1.5
143
0.03937007874016
147
1.0
171
     3
172
     1
178
     0
271
     1
272
     1
274
     3
283
     0
284
     8
340
11
341
8F
342
8F
  0
DIMSTYLE
105
5E75
330
A
100
AcDbSymbolTableRecord
100
AcDbDimStyleTableRecord
  2
NEMY-2$3
 70
     0
 40
2.0
 41
3.0
 42
1.5
 43
10.0
 44
1.0
 77
     1
 78
     8
140
3.0
141
1.5
143
0.03937007874016
147
1.0
171
     3
172
     1
178
     0
271
     1
272
     1
274
     3
283
     0
284
     8
340
11
341
8F
342
8F
  0
DIMSTYLE
105
5E76
330
A
100
AcDbSymbolTableRecord
100
AcDbDimStyleTableRecord
  2
NEMY-15$3
 70
     0
 40
15.0
 41
3.0
 42
1.5
 43
10.0
 44
1.0
 77
     1
 78
     8
140
3.0
141
1.5
143
0.03937007874016
147
1.0
171
     3
172
     1
178
     0
271
     1
272
     1
274
     3
283
     0
284
     8
340
11
341
8F
342
8F
  0
ENDTAB
  0
TABLE
  2
BLOCK_RECORD
  5
1
330
0
100
AcDbSymbolTable
 70
    47
  0
BLOCK_RECORD
  5
1F
102
{ACAD_XDICTIONARY
360
969E
102
}
330
1
100
AcDbSymbolTableRecord
100
AcDbBlockTableRecord
  2
*Model_Space
340
22
  0
BLOCK_RECORD
  5
1B
330
1
100
AcDbSymbolTableRecord
100
AcDbBlockTableRecord
  2
*Paper_Space
340
1E
  0
BLOCK_RECORD
  5
8F
330
1
100
AcDbSymbolTableRecord
100
AcDbBlockTableRecord
  2
_Open
340
0
102
{BLKREFS
331
BE95
331
BE96
331
BEA3
331
BEA4
331
BEAF
331
BEB0
331
BEBB
331
BEBC
331
BECA
331
BECB
331
BEE5
331
BEE6
331
BF09
331
BF0A
331
BF15
331
BF16
331
BF21
331
BF22
331
D6F8
331
D6F9
331
F7F8
331
F7F9
331
F805
331
F806
331
F825
331
F826
331
F831
331
F832
331
F851
331
F852
331
F85D
331
F85E
331
F98A
331
F98B
331
F996
331
F997
331
F9A5
331
F9A6
331
F9B1
331
F9B2
331
F9BF
331
F9C0
331
F9CB
331
F9CC
331
F9D7
331
F9D8
331
F9E3
331
F9E4
331
F9EF
331
F9F0
331
F9FB
331
F9FC
331
FA07
331
FA08
331
FA13
331
FA14
331
FA1F
331
FA20
331
FA2E
331
FA2F
331
FA3A
331
FA3B
331
FA48
331
FA49
102
}
  0
BLOCK_RECORD
  5
82EB
330
1
100
AcDbSymbolTableRecord
100
AcDbBlockTableRecord
  2
hole-φ14
340
0
102
{BLKREFS
331
F963
331
F967
331
F968
331
F969
102
}
  0
BLOCK_RECORD
  5
82F2
330
1
100
AcDbSymbolTableRecord
100
AcDbBlockTableRecord
  2
hole-φ16
340
0
102
{BLKREFS
331
F960
331
F964
331
F965
331
F966
102
}
  0
BLOCK_RECORD
  5
8366
330
1
100
AcDbSymbolTableRecord
100
AcDbBlockTableRecord
  2
平W-M10
340
0
102
{BLKREFS
331
F962
102
}
  0
BLOCK_RECORD
  5
836D
330
1
100
AcDbSymbolTableRecord
100
AcDbBlockTableRecord
  2
平W-M12
340
0
102
{BLKREFS
331
F961
102
}
  0
BLOCK_RECORD
  5
841D
330
1
100
AcDbSymbolTableRecord
100
AcDbBlockTableRecord
  2
BH-端柱補強桟(L40x15xt3.2)
340
0
102
{BLKREFS
331
843A
102
}
  0
BLOCK_RECORD
  5
842A
330
1
100
AcDbSymbolTableRecord
100
AcDbBlockTableRecord
  2
BH-端柱(L60)-500H-正面
340
0
102
{BLKREFS
331
BDFD
331
BDFF
102
}
  0
BLOCK_RECORD
  5
843D
330
1
100
AcDbSymbolTableRecord
100
AcDbBlockTableRecord
  2
BH-端柱(L60)-500H-側面
340
0
102
{BLKREFS
331
BDFE
331
BE00
102
}
  0
BLOCK_RECORD
  5
8522
330
1
100
AcDbSymbolTableRecord
100
AcDbBlockTableRecord
  2
BH-anchor-L60-背面
340
0
102
{BLKREFS
331
BE0C
331
BE0D
102
}
  0
BLOCK_RECORD
  5
8548
330
1
100
AcDbSymbolTableRecord
100
AcDbBlockTableRecord
  2
BH-anchor-L60-立面
340
0
102
{BLKREFS
331
BE0E
331
BE0F
102
}
  0
BLOCK_RECORD
  5
856D
330
1
100
AcDbSymbolTableRecord
100
AcDbBlockTableRecord
  2
BH-端柱(L60)-平面
340
0
102
{BLKREFS
331
0
331
0
331
0
331
0
331
0
331
0
331
0
331
0
331
0
331
0
331
0
331
0
331
F941
331
F942
331
F943
331
F944
102
}
  0
BLOCK_RECORD
  5
858C
330
1
100
AcDbSymbolTableRecord
100
AcDbBlockTableRecord
  2
BH-anchor-L60-平面(実線)
340
0
102
{BLKREFS
331
0
331
0
331
0
331
0
331
0
331
0
331
0
331
0
331
0
331
0
331
0
331
0
102
}
  0
BLOCK_RECORD
  5
85C5
330
1
100
AcDbSymbolTableRecord
100
AcDbBlockTableRecord
  2
BH-レベル調整ボルト
340
0
102
{BLKREFS
331
0
102
}
  0
BLOCK_RECORD
  5
9928
330
1
100
AcDbSymbolTableRecord
100
AcDbBlockTableRecord
  2
BH-筋交(柱L60)-500H
340
0
102
{BLKREFS
331
BDFC
331
BE10
102
}
  0
BLOCK_RECORD
  5
BE8F
330
1
100
AcDbSymbolTableRecord
100
AcDbBlockTableRecord
  2
*D541
340
0
  0
BLOCK_RECORD
  5
BE9B
330
1
100
AcDbSymbolTableRecord
100
AcDbBlockTableRecord
  2
*D542
340
0
  0
BLOCK_RECORD
  5
BEA9
330
1
100
AcDbSymbolTableRecord
100
AcDbBlockTableRecord
  2
*D543
340
0
  0
BLOCK_RECORD
  5
BEB5
330
1
100
AcDbSymbolTableRecord
100
AcDbBlockTableRecord
  2
*D544
340
0
  0
BLOCK_RECORD
  5
BEC1
330
1
100
AcDbSymbolTableRecord
100
AcDbBlockTableRecord
  2
*D545
340
0
  0
BLOCK_RECORD
  5
BEDF
330
1
100
AcDbSymbolTableRecord
100
AcDbBlockTableRecord
  2
*D547
340
0
  0
BLOCK_RECORD
  5
BF03
330
1
100
AcDbSymbolTableRecord
100
AcDbBlockTableRecord
  2
*D550
340
0
  0
BLOCK_RECORD
  5
BF0F
330
1
100
AcDbSymbolTableRecord
100
AcDbBlockTableRecord
  2
*D551
340
0
  0
BLOCK_RECORD
  5
BF1B
330
1
100
AcDbSymbolTableRecord
100
AcDbBlockTableRecord
  2
*D552
340
0
  0
BLOCK_RECORD
  5
D6F1
330
1
100
AcDbSymbolTableRecord
100
AcDbBlockTableRecord
  2
*D825
340
0
  0
BLOCK_RECORD
  5
F776
330
1
100
AcDbSymbolTableRecord
100
AcDbBlockTableRecord
  2
1-HTA183
340
0
102
{BLKREFS
331
F95F
102
}
  0
BLOCK_RECORD
  5
F7F2
330
1
100
AcDbSymbolTableRecord
100
AcDbBlockTableRecord
  2
*D1202
340
0
  0
BLOCK_RECORD
  5
F7FF
330
1
100
AcDbSymbolTableRecord
100
AcDbBlockTableRecord
  2
*D1203
340
0
  0
BLOCK_RECORD
  5
F81F
330
1
100
AcDbSymbolTableRecord
100
AcDbBlockTableRecord
  2
*D1204
340
0
  0
BLOCK_RECORD
  5
F82B
330
1
100
AcDbSymbolTableRecord
100
AcDbBlockTableRecord
  2
*D1205
340
0
  0
BLOCK_RECORD
  5
F84B
330
1
100
AcDbSymbolTableRecord
100
AcDbBlockTableRecord
  2
*D1206
340
0
  0
BLOCK_RECORD
  5
F857
330
1
100
AcDbSymbolTableRecord
100
AcDbBlockTableRecord
  2
*D1207
340
0
  0
BLOCK_RECORD
  5
F984
330
1
100
AcDbSymbolTableRecord
100
AcDbBlockTableRecord
  2
*D1222
340
0
  0
BLOCK_RECORD
  5
F990
330
1
100
AcDbSymbolTableRecord
100
AcDbBlockTableRecord
  2
*D1223
340
0
  0
BLOCK_RECORD
  5
F99C
330
1
100
AcDbSymbolTableRecord
100
AcDbBlockTableRecord
  2
*D1224
340
0
  0
BLOCK_RECORD
  5
F9AB
330
1
100
AcDbSymbolTableRecord
100
AcDbBlockTableRecord
  2
*D1225
340
0
  0
BLOCK_RECORD
  5
F9B7
330
1
100
AcDbSymbolTableRecord
100
AcDbBlockTableRecord
  2
*D1226
340
0
  0
BLOCK_RECORD
  5
F9C5
330
1
100
AcDbSymbolTableRecord
100
AcDbBlockTableRecord
  2
*D1227
340
0
  0
BLOCK_RECORD
  5
F9D1
330
1
100
AcDbSymbolTableRecord
100
AcDbBlockTableRecord
  2
*D1228
340
0
  0
BLOCK_RECORD
  5
F9DD
330
1
100
AcDbSymbolTableRecord
100
AcDbBlockTableRecord
  2
*D1229
340
0
  0
BLOCK_RECORD
  5
F9E9
330
1
100
AcDbSymbolTableRecord
100
AcDbBlockTableRecord
  2
*D1230
340
0
  0
BLOCK_RECORD
  5
F9F5
330
1
100
AcDbSymbolTableRecord
100
AcDbBlockTableRecord
  2
*D1231
340
0
  0
BLOCK_RECORD
  5
FA01
330
1
100
AcDbSymbolTableRecord
100
AcDbBlockTableRecord
  2
*D1232
340
0
  0
BLOCK_RECORD
  5
FA0D
330
1
100
AcDbSymbolTableRecord
100
AcDbBlockTableRecord
  2
*D1233
340
0
  0
BLOCK_RECORD
  5
FA19
330
1
100
AcDbSymbolTableRecord
100
AcDbBlockTableRecord
  2
*D1234
340
0
  0
BLOCK_RECORD
  5
FA25
330
1
100
AcDbSymbolTableRecord
100
AcDbBlockTableRecord
  2
*D1235
340
0
  0
BLOCK_RECORD
  5
FA34
330
1
100
AcDbSymbolTableRecord
100
AcDbBlockTableRecord
  2
*D1236
340
0
  0
BLOCK_RECORD
  5
FA40
330
1
100
AcDbSymbolTableRecord
100
AcDbBlockTableRecord
  2
*D1237
340
0
  0
ENDTAB
  0
ENDSEC
  0
SECTION
  2
BLOCKS
  0
BLOCK
  5
20
330
1F
100
AcDbEntity
  8
0
100
AcDbBlockBegin
  2
*Model_Space
 70
     0
 10
0.0
 20
0.0
 30
0.0
  3
*Model_Space
  1

  0
ENDBLK
  5
21
330
1F
100
AcDbEntity
  8
0
100
AcDbBlockEnd
  0
BLOCK
  5
1C
330
1B
100
AcDbEntity
 67
     1
  8
0
100
AcDbBlockBegin
  2
*Paper_Space
 70
     0
 10
0.0
 20
0.0
 30
0.0
  3
*Paper_Space
  1

  0
ENDBLK
  5
1D
330
1B
100
AcDbEntity
 67
     1
  8
0
100
AcDbBlockEnd
  0
BLOCK
  5
93
330
8F
100
AcDbEntity
  8
0
100
AcDbBlockBegin
  2
_Open
 70
     0
 10
0.0
 20
0.0
 30
0.0
  3
_Open
  1

  0
LINE
  5
90
330
8F
100
AcDbEntity
  8
01注記寸法
 62
     0
370
    -2
100
AcDbLine
 10
-1.0
 20
0.1666666666666667
 30
0.0
 11
0.0
 21
0.0
 31
0.0
  0
LINE
  5
91
330
8F
100
AcDbEntity
  8
01注記寸法
 62
     0
370
    -2
100
AcDbLine
 10
-1.0
 20
-0.1666666666666667
 30
0.0
 11
0.0
 21
0.0
 31
0.0
  0
LINE
  5
92
330
8F
100
AcDbEntity
  8
01注記寸法
 62
     0
370
    -2
100
AcDbLine
 10
0.0
 20
0.0
 30
0.0
 11
-1.0
 21
0.0
 31
0.0
  0
ENDBLK
  5
94
330
8F
100
AcDbEntity
  8
0
100
AcDbBlockEnd
  0
BLOCK
  5
82EC
330
82EB
100
AcDbEntity
  8
0
100
AcDbBlockBegin
  2
hole-φ14
 70
     0
 10
0.0
 20
0.0
 30
0.0
  3
hole-φ14
  1

  0
CIRCLE
  5
82ED
330
82EB
100
AcDbEntity
  8
02実線
100
AcDbCircle
 10
0.0
 20
0.0
 30
0.0
 40
7.0
  0
LINE
  5
82EE
330
82EB
100
AcDbEntity
  8
04一点鎖線
  6
CENTER
 48
0.2
100
AcDbLine
 10
0.0
 20
-17.0
 30
0.0
 11
0.0
 21
17.0
 31
0.0
  0
LINE
  5
82EF
330
82EB
100
AcDbEntity
  8
04一点鎖線
  6
CENTER
 48
0.2
100
AcDbLine
 10
-17.0
 20
0.0
 30
0.0
 11
17.0
 21
0.0
 31
0.0
  0
ENDBLK
  5
82F0
330
82EB
100
AcDbEntity
  8
0
100
AcDbBlockEnd
  0
BLOCK
  5
82F3
330
82F2
100
AcDbEntity
  8
0
100
AcDbBlockBegin
  2
hole-φ16
 70
     0
 10
0.0
 20
0.0
 30
0.0
  3
hole-φ16
  1

  0
CIRCLE
  5
82F4
330
82F2
100
AcDbEntity
  8
02実線
100
AcDbCircle
 10
0.0
 20
0.0
 30
0.0
 40
8.0
  0
LINE
  5
82F5
330
82F2
100
AcDbEntity
  8
04一点鎖線
  6
CENTER
 48
0.2
100
AcDbLine
 10
0.0
 20
-18.0
 30
0.0
 11
0.0
 21
18.0
 31
0.0
  0
LINE
  5
82F6
330
82F2
100
AcDbEntity
  8
04一点鎖線
  6
CENTER
 48
0.2
100
AcDbLine
 10
-18.0
 20
0.0
 30
0.0
 11
18.0
 21
0.0
 31
0.0
  0
ENDBLK
  5
82F7
330
82F2
100
AcDbEntity
  8
0
100
AcDbBlockEnd
  0
BLOCK
  5
8367
330
8366
100
AcDbEntity
  8
0
100
AcDbBlockBegin
  2
平W-M10
 70
     0
 10
0.0
 20
0.0
 30
0.0
  3
平W-M10
  1

  0
TEXT
  5
8368
330
8366
100
AcDbEntity
  8
10副資材
100
AcDbText
 10
-2.92496274867317
 20
-9.299398648765873
 30
0.0
 40
3.0
  1
M10
 72
     1
 11
0.0000372513268303
 21
-7.799398648765873
 31
0.0
100
AcDbText
 73
     2
  0
CIRCLE
  5
8369
330
8366
100
AcDbEntity
  8
10副資材
100
AcDbCircle
 10
0.0
 20
0.0
 30
0.0
 40
11.0
  0
CIRCLE
  5
836A
330
8366
100
AcDbEntity
  8
10副資材
100
AcDbCircle
 10
0.0
 20
0.0
 30
0.0
 40
5.0
  0
ENDBLK
  5
836B
330
8366
100
AcDbEntity
  8
0
100
AcDbBlockEnd
  0
BLOCK
  5
836E
330
836D
100
AcDbEntity
  8
0
100
AcDbBlockBegin
  2
平W-M12
 70
     0
 10
0.0
 20
0.0
 30
0.0
  3
平W-M12
  1

  0
CIRCLE
  5
836F
330
836D
100
AcDbEntity
  8
10副資材
100
AcDbCircle
 10
0.0
 20
0.0
 30
0.0
 40
6.0
  0
CIRCLE
  5
8370
330
836D
100
AcDbEntity
  8
10副資材
100
AcDbCircle
 10
0.0
 20
0.0
 30
0.0
 40
13.0
  0
TEXT
  5
8371
330
836D
100
AcDbEntity
  8
10副資材
100
AcDbText
 10
-3.899921878130408
 20
-11.29716620919794
 30
0.0
 40
4.0
  1
M12
 72
     1
 11
0.000078121869592
 21
-9.29716620919794
 31
0.0
100
AcDbText
 73
     2
  0
ENDBLK
  5
8372
330
836D
100
AcDbEntity
  8
0
100
AcDbBlockEnd
  0
BLOCK
  5
841E
330
841D
100
AcDbEntity
  8
0
100
AcDbBlockBegin
  2
BH-端柱補強桟(L40x15xt3.2)
 70
     0
 10
0.0
 20
0.0
 30
0.0
  3
BH-端柱補強桟(L40x15xt3.2)
  1

  0
LINE
  5
841F
330
841D
100
AcDbEntity
  8
03破線
  6
HIDDEN
 48
0.5
100
AcDbLine
 10
3.199999999999818
 20
-3.199999999999818
 30
0.0
 11
3.199999999999818
 21
-40.0
 31
0.0
  0
LINE
  5
8420
330
841D
100
AcDbEntity
  8
03破線
  6
HIDDEN
 48
0.5
100
AcDbLine
 10
15.0
 20
0.0
 30
0.0
 11
15.0
 21
-3.199999999999818
 31
0.0
  0
LINE
  5
8421
330
841D
100
AcDbEntity
  8
03破線
  6
HIDDEN
 48
0.5
100
AcDbLine
 10
15.0
 20
-3.199999999999818
 30
0.0
 11
3.199999999999818
 21
-3.199999999999818
 31
0.0
  0
LINE
  5
8422
330
841D
100
AcDbEntity
  8
03破線
  6
HIDDEN
 48
0.5
100
AcDbLine
 10
0.0
 20
0.0
 30
0.0
 11
0.0
 21
-40.0
 31
0.0
  0
LINE
  5
8423
330
841D
100
AcDbEntity
  8
03破線
  6
HIDDEN
 48
0.5
100
AcDbLine
 10
15.0
 20
0.0
 30
0.0
 11
0.0
 21
0.0
 31
0.0
  0
LINE
  5
8424
330
841D
100
AcDbEntity
  8
03破線
  6
HIDDEN
 48
0.5
100
AcDbLine
 10
3.199999999999818
 20
-40.0
 30
0.0
 11
0.0
 21
-40.0
 31
0.0
  0
ENDBLK
  5
8425
330
841D
100
AcDbEntity
  8
0
100
AcDbBlockEnd
  0
BLOCK
  5
842B
330
842A
100
AcDbEntity
  8
0
100
AcDbBlockBegin
  2
BH-端柱(L60)-500H-正面
 70
     0
 10
0.0
 20
0.0
 30
0.0
  3
BH-端柱(L60)-500H-正面
  1

  0
LWPOLYLINE
  5
842C
330
842A
100
AcDbEntity
  8
02実線
100
AcDbPolyline
 90
        4
 70
     1
 43
0.0
 10
0.0
 20
0.0
 10
0.0
 20
497.0000000000005
 10
60.0
 20
497.0000000000005
 10
60.0
 20
0.0
  0
LINE
  5
842D
330
842A
100
AcDbEntity
  8
03破線
100
AcDbLine
 10
3.200000000000728
 20
0.0
 30
0.0
 11
3.200000000000728
 21
497.0000000000005
 31
0.0
  0
ARC
  5
842E
330
842A
100
AcDbEntity
  8
02実線
100
AcDbCircle
 10
22.00000000000091
 20
30.0
 30
0.0
 40
7.0
100
AcDbArc
 50
90.0
 51
270.0
  0
LINE
  5
842F
330
842A
100
AcDbEntity
  8
02実線
100
AcDbLine
 10
22.00000000000091
 20
23.0
 30
0.0
 11
42.00000000000091
 21
23.0
 31
0.0
  0
LINE
  5
8430
330
842A
100
AcDbEntity
  8
02実線
100
AcDbLine
 10
22.00000000000091
 20
37.0
 30
0.0
 11
42.00000000000091
 21
37.0
 31
0.0
  0
ARC
  5
8431
330
842A
100
AcDbEntity
  8
02実線
100
AcDbCircle
 10
42.00000000000091
 20
30.0
 30
0.0
 40
7.0
100
AcDbArc
 50
270.0
 51
90.0
  0
CIRCLE
  5
8432
330
842A
100
AcDbEntity
  8
02実線
100
AcDbCircle
 10
30.00000000000091
 20
215.0000000000002
 30
0.0
 40
6.5
  0
CIRCLE
  5
8433
330
842A
100
AcDbEntity
  8
02実線
100
AcDbCircle
 10
30.00000000000091
 20
466.0000000000005
 30
0.0
 40
6.5
  0
LINE
  5
8434
330
842A
100
AcDbEntity
  8
04一点鎖線
 48
0.2
100
AcDbLine
 10
59.0
 20
30.0
 30
0.0
 11
-10.0
 21
30.0
 31
0.0
  0
LINE
  5
8435
330
842A
100
AcDbEntity
  8
04一点鎖線
 48
0.2
100
AcDbLine
 10
46.5
 20
466.0000000000005
 30
0.0
 11
13.50000000000091
 21
466.0000000000005
 31
0.0
  0
LINE
  5
8436
330
842A
100
AcDbEntity
  8
04一点鎖線
 48
0.2
100
AcDbLine
 10
32.00000000000091
 20
13.0
 30
0.0
 11
32.00000000000091
 21
47.0
 31
0.0
  0
LINE
  5
8437
330
842A
100
AcDbEntity
  8
04一点鎖線
 48
0.2
100
AcDbLine
 10
30.00000000000182
 20
198.5000000000002
 30
0.0
 11
30.0
 21
231.5000000000002
 31
0.0
  0
LINE
  5
8438
330
842A
100
AcDbEntity
  8
04一点鎖線
 48
0.2
100
AcDbLine
 10
30.00000000000182
 20
449.5000000000005
 30
0.0
 11
30.0
 21
482.5000000000005
 31
0.0
  0
LINE
  5
8439
330
842A
100
AcDbEntity
  8
04一点鎖線
 48
0.2
100
AcDbLine
 10
46.5
 20
215.0000000000002
 30
0.0
 11
13.50000000000091
 21
215.0000000000002
 31
0.0
  0
INSERT
  5
843A
330
842A
100
AcDbEntity
  8
03破線
100
AcDbBlockReference
  2
BH-端柱補強桟(L40x15xt3.2)
 10
3.200000000000728
 20
250.0
 30
0.0
  0
ENDBLK
  5
843B
330
842A
100
AcDbEntity
  8
0
100
AcDbBlockEnd
  0
BLOCK
  5
843E
330
843D
100
AcDbEntity
  8
0
100
AcDbBlockBegin
  2
BH-端柱(L60)-500H-側面
 70
     0
 10
0.0
 20
0.0
 30
0.0
  3
BH-端柱(L60)-500H-側面
  1

  0
ARC
  5
843F
330
843D
100
AcDbEntity
  8
02実線
100
AcDbCircle
 10
42.00000000000091
 20
29.99999999999886
 30
0.0
 40
7.0
100
AcDbArc
 50
270.0
 51
90.0
  0
LINE
  5
8440
330
843D
100
AcDbEntity
  8
02実線
100
AcDbLine
 10
22.00000000000091
 20
36.99999999999886
 30
0.0
 11
42.00000000000091
 21
36.99999999999886
 31
0.0
  0
LINE
  5
8441
330
843D
100
AcDbEntity
  8
02実線
100
AcDbLine
 10
22.00000000000091
 20
22.99999999999886
 30
0.0
 11
42.00000000000091
 21
22.99999999999886
 31
0.0
  0
ARC
  5
8442
330
843D
100
AcDbEntity
  8
02実線
100
AcDbCircle
 10
22.00000000000091
 20
29.99999999999886
 30
0.0
 40
7.0
100
AcDbArc
 50
90.0
 51
270.0
  0
LINE
  5
8443
330
843D
100
AcDbEntity
  8
03破線
100
AcDbLine
 10
3.200000000000728
 20
-0.0000000000011369
 30
0.0
 11
3.200000000000728
 21
496.9999999999993
 31
0.0
  0
LWPOLYLINE
  5
8444
330
843D
100
AcDbEntity
  8
02実線
100
AcDbPolyline
 90
        4
 70
     1
 43
0.0
 10
0.0
 20
0.0
 10
0.0
 20
497.0000000000002
 10
60.0
 20
497.0000000000002
 10
60.0
 20
0.0
  0
CIRCLE
  5
8445
330
843D
100
AcDbEntity
  8
02実線
100
AcDbCircle
 10
34.69999999999982
 20
469.9999999999993
 30
0.0
 40
6.5
  0
CIRCLE
  5
8446
330
843D
100
AcDbEntity
  8
02実線
100
AcDbCircle
 10
34.69999999999982
 20
399.9999999999991
 30
0.0
 40
6.5
  0
LINE
  5
8447
330
843D
100
AcDbEntity
  8
04一点鎖線
 48
0.2
100
AcDbLine
 10
59.00000000000091
 20
29.99999999999886
 30
0.0
 11
-10.0
 21
29.99999999999886
 31
0.0
  0
LINE
  5
8448
330
843D
100
AcDbEntity
  8
04一点鎖線
 48
0.2
100
AcDbLine
 10
32.00000000000091
 20
12.99999999999886
 30
0.0
 11
32.00000000000091
 21
46.99999999999886
 31
0.0
  0
LINE
  5
8449
330
843D
100
AcDbEntity
  8
04一点鎖線
 48
0.2
100
AcDbLine
 10
51.20000000000073
 20
469.9999999999989
 30
0.0
 11
18.20000000000073
 21
469.9999999999989
 31
0.0
  0
LINE
  5
844A
330
843D
100
AcDbEntity
  8
04一点鎖線
 48
0.2
100
AcDbLine
 10
51.19999999999982
 20
399.9999999999991
 30
0.0
 11
18.19999999999982
 21
399.9999999999991
 31
0.0
  0
LINE
  5
844B
330
843D
100
AcDbEntity
  8
04一点鎖線
 48
0.2
100
AcDbLine
 10
34.69999999999982
 20
383.4999999999991
 30
0.0
 11
34.69999999999982
 21
416.4999999999991
 31
0.0
  0
LINE
  5
844C
330
843D
100
AcDbEntity
  8
04一点鎖線
 48
0.2
100
AcDbLine
 10
34.70000000000073
 20
453.4999999999989
 30
0.0
 11
34.70000000000073
 21
486.4999999999989
 31
0.0
  0
ENDBLK
  5
844D
330
843D
100
AcDbEntity
  8
0
100
AcDbBlockEnd
  0
BLOCK
  5
8523
330
8522
100
AcDbEntity
  8
0
100
AcDbBlockBegin
  2
BH-anchor-L60-背面
 70
     0
 10
0.0
 20
0.0
 30
0.0
  3
BH-anchor-L60-背面
  1

  0
LINE
  5
8524
330
8522
100
AcDbEntity
  8
04一点鎖線
 48
0.2
100
AcDbLine
 10
0.0
 20
-15.0
 30
0.0
 11
0.0
 21
19.5
 31
0.0
  0
LINE
  5
8525
330
8522
100
AcDbEntity
  8
03破線
100
AcDbLine
 10
-28.5
 20
4.5
 30
0.0
 11
28.5
 21
4.5
 31
0.0
  0
LINE
  5
8526
330
8522
100
AcDbEntity
  8
03破線
100
AcDbLine
 10
-28.5
 20
0.0
 30
0.0
 11
28.5
 21
0.0
 31
0.0
  0
LINE
  5
8527
330
8522
100
AcDbEntity
  8
03破線
100
AcDbLine
 10
-15.82435206036507
 20
56.11709862642329
 30
0.0
 11
4.175647939634928
 21
26.11709862642329
 31
0.0
  0
LINE
  5
8528
330
8522
100
AcDbEntity
  8
03破線
100
AcDbLine
 10
-4.175647939634928
 20
63.88290137357671
 30
0.0
 11
15.82435206036507
 21
33.88290137357671
 31
0.0
  0
ARC
  5
8529
330
8522
100
AcDbEntity
  8
03破線
100
AcDbCircle
 10
10.0
 20
30.0
 30
0.0
 40
7.0
100
AcDbArc
 50
213.6900675259766
 51
33.69006752597669
  0
ARC
  5
852A
330
8522
100
AcDbEntity
  8
03破線
100
AcDbCircle
 10
-10.0
 20
60.0
 30
0.0
 40
7.0
100
AcDbArc
 50
33.69006752597669
 51
213.6900675259766
  0
LINE
  5
852B
330
8522
100
AcDbEntity
  8
03破線
100
AcDbLine
 10
-23.5
 20
80.0
 30
0.0
 11
-28.5
 21
75.0
 31
0.0
  0
LINE
  5
852C
330
8522
100
AcDbEntity
  8
03破線
100
AcDbLine
 10
-28.5
 20
0.0
 30
0.0
 11
-28.5
 21
75.0
 31
0.0
  0
LINE
  5
852D
330
8522
100
AcDbEntity
  8
03破線
100
AcDbLine
 10
28.5
 20
75.0
 30
0.0
 11
23.5
 21
80.0
 31
0.0
  0
LINE
  5
852E
330
8522
100
AcDbEntity
  8
03破線
100
AcDbLine
 10
-23.5
 20
80.0
 30
0.0
 11
23.5
 21
80.0
 31
0.0
  0
LINE
  5
852F
330
8522
100
AcDbEntity
  8
03破線
100
AcDbLine
 10
28.5
 20
0.0
 30
0.0
 11
28.5
 21
75.0
 31
0.0
  0
ENDBLK
  5
8530
330
8522
100
AcDbEntity
  8
0
100
AcDbBlockEnd
  0
BLOCK
  5
8549
330
8548
100
AcDbEntity
  8
0
100
AcDbBlockBegin
  2
BH-anchor-L60-立面
 70
     0
 10
0.0
 20
0.0
 30
0.0
  3
BH-anchor-L60-立面
  1

  0
LINE
  5
854A
330
8548
100
AcDbEntity
  8
04一点鎖線
 48
0.2
100
AcDbLine
 10
-22.5
 20
45.0
 30
0.0
 11
-47.0
 21
45.0
 31
0.0
  0
ARC
  5
854B
330
8548
100
AcDbEntity
  8
03破線
100
AcDbCircle
 10
-29.19999999999982
 20
7.799999999999727
 30
0.0
 40
3.300000000000002
100
AcDbArc
 50
180.0
 51
270.0
  0
ARC
  5
854C
330
8548
100
AcDbEntity
  8
03破線
100
AcDbCircle
 10
-29.19999999999982
 20
7.799999999999727
 30
0.0
 40
7.800000000000002
100
AcDbArc
 50
179.9999999999967
 51
270.0
  0
LINE
  5
854D
330
8548
100
AcDbEntity
  8
03破線
100
AcDbLine
 10
-37.0
 20
80.0
 30
0.0
 11
-32.5
 21
80.0
 31
0.0
  0
LINE
  5
854E
330
8548
100
AcDbEntity
  8
03破線
100
AcDbLine
 10
23.0
 20
4.5
 30
0.0
 11
23.0
 21
0.0
 31
0.0
  0
LINE
  5
854F
330
8548
100
AcDbEntity
  8
03破線
100
AcDbLine
 10
-32.5
 20
80.0
 30
0.0
 11
-32.5
 21
7.799999999999727
 31
0.0
  0
LINE
  5
8550
330
8548
100
AcDbEntity
  8
03破線
100
AcDbLine
 10
-29.19999999999982
 20
4.5
 30
0.0
 11
23.0
 21
4.5
 31
0.0
  0
LINE
  5
8551
330
8548
100
AcDbEntity
  8
03破線
100
AcDbLine
 10
-37.0
 20
80.0
 30
0.0
 11
-37.0
 21
7.799999999999727
 31
0.0
  0
LINE
  5
8552
330
8548
100
AcDbEntity
  8
03破線
100
AcDbLine
 10
-29.19999999999982
 20
0.0
 30
0.0
 11
23.0
 21
0.0
 31
0.0
  0
LINE
  5
8553
330
8548
100
AcDbEntity
  8
04一点鎖線
 48
0.2
100
AcDbLine
 10
0.0
 20
19.5
 30
0.0
 11
0.0
 21
-15.0
 31
0.0
  0
ENDBLK
  5
8554
330
8548
100
AcDbEntity
  8
0
100
AcDbBlockEnd
  0
BLOCK
  5
856E
330
856D
100
AcDbEntity
  8
0
100
AcDbBlockBegin
  2
BH-端柱(L60)-平面
 70
     0
 10
0.0
 20
0.0
 30
0.0
  3
BH-端柱(L60)-平面
  1

  0
LINE
  5
856F
330
856D
100
AcDbEntity
  8
02実線
100
AcDbLine
 10
60.0
 20
3.199999999999818
 30
0.0
 11
60.0
 21
0.0
 31
0.0
  0
LINE
  5
8570
330
856D
100
AcDbEntity
  8
02実線
100
AcDbLine
 10
3.200000000000728
 20
3.199999999999818
 30
0.0
 11
60.0
 21
3.199999999999818
 31
0.0
  0
LINE
  5
8571
330
856D
100
AcDbEntity
  8
02実線
100
AcDbLine
 10
0.0
 20
60.0
 30
0.0
 11
3.200000000000728
 21
60.0
 31
0.0
  0
LINE
  5
8572
330
856D
100
AcDbEntity
  8
02実線
100
AcDbLine
 10
0.0
 20
0.0
 30
0.0
 11
60.0
 21
0.0
 31
0.0
  0
LINE
  5
8573
330
856D
100
AcDbEntity
  8
02実線
100
AcDbLine
 10
0.0
 20
60.0
 30
0.0
 11
0.0
 21
0.0
 31
0.0
  0
LINE
  5
8574
330
856D
100
AcDbEntity
  8
02実線
100
AcDbLine
 10
3.200000000000728
 20
60.0
 30
0.0
 11
3.200000000000728
 21
3.199999999999818
 31
0.0
  0
LINE
  5
8575
330
856D
100
AcDbEntity
  8
08非表示
100
AcDbLine
 10
3.200000000000728
 20
4.699999999999818
 30
0.0
 11
60.0
 21
4.699999999999818
 31
0.0
  0
ENDBLK
  5
8576
330
856D
100
AcDbEntity
  8
0
100
AcDbBlockEnd
  0
BLOCK
  5
858D
330
858C
100
AcDbEntity
  8
0
100
AcDbBlockBegin
  2
BH-anchor-L60-平面(実線)
 70
     0
 10
0.0
 20
0.0
 30
0.0
  3
BH-anchor-L60-平面(実線)
  1

  0
LINE
  5
858E
330
858C
100
AcDbEntity
  8
02実線
100
AcDbLine
 10
-32.5
 20
-28.5
 30
0.0
 11
-32.5
 21
28.5
 31
0.0
  0
LINE
  5
858F
330
858C
100
AcDbEntity
  8
02実線
100
AcDbLine
 10
-37.0
 20
-28.5
 30
0.0
 11
-37.0
 21
28.5
 31
0.0
  0
CIRCLE
  5
8590
330
858C
100
AcDbEntity
  8
02実線
100
AcDbCircle
 10
0.0
 20
0.0
 30
0.0
 40
8.0
  0
LINE
  5
8591
330
858C
100
AcDbEntity
  8
02実線
100
AcDbLine
 10
23.0
 20
18.5
 30
0.0
 11
13.0
 21
28.5
 31
0.0
  0
LINE
  5
8592
330
858C
100
AcDbEntity
  8
02実線
100
AcDbLine
 10
23.0
 20
-18.5
 30
0.0
 11
13.0
 21
-28.5
 31
0.0
  0
LINE
  5
8593
330
858C
100
AcDbEntity
  8
02実線
100
AcDbLine
 10
-37.0
 20
28.5
 30
0.0
 11
13.0
 21
28.5
 31
0.0
  0
LINE
  5
8594
330
858C
100
AcDbEntity
  8
02実線
100
AcDbLine
 10
-37.0
 20
-28.5
 30
0.0
 11
13.0
 21
-28.5
 31
0.0
  0
LINE
  5
8595
330
858C
100
AcDbEntity
  8
02実線
100
AcDbLine
 10
23.0
 20
-18.5
 30
0.0
 11
23.0
 21
18.5
 31
0.0
  0
ARC
  5
A0C7
330
858C
100
AcDbEntity
  8
08非表示
100
AcDbCircle
 10
-5.0
 20
0.0
 30
0.0
 40
8.0
100
AcDbArc
 50
90.0
 51
270.0
  0
ARC
  5
A0C8
330
858C
100
AcDbEntity
  8
08非表示
100
AcDbCircle
 10
5.0
 20
0.0
 30
0.0
 40
8.0
100
AcDbArc
 50
270.0
 51
90.0
  0
LINE
  5
A0C9
330
858C
100
AcDbEntity
  8
08非表示
100
AcDbLine
 10
5.0
 20
-8.0
 30
0.0
 11
-5.0
 21
-8.0
 31
0.0
  0
LINE
  5
A0CA
330
858C
100
AcDbEntity
  8
08非表示
100
AcDbLine
 10
5.0
 20
8.0
 30
0.0
 11
-5.0
 21
8.0
 31
0.0
  0
ENDBLK
  5
8596
330
858C
100
AcDbEntity
  8
0
100
AcDbBlockEnd
  0
BLOCK
  5
85C6
330
85C5
100
AcDbEntity
  8
0
100
AcDbBlockBegin
  2
BH-レベル調整ボルト
 70
     0
 10
0.0
 20
0.0
 30
0.0
  3
BH-レベル調整ボルト
  1

  0
LINE
  5
85C7
330
85C5
100
AcDbEntity
  8
04一点鎖線
  6
CENTER
 48
0.2
100
AcDbLine
 10
-28.39999999999964
 20
0.0
 30
0.0
 11
13.00000001115222
 21
0.0
 31
0.0
  0
LINE
  5
85C8
330
85C5
100
AcDbEntity
  8
02実線
100
AcDbLine
 10
-23.39999999999964
 20
-4.0
 30
0.0
 11
-17.3000000111515
 21
-4.0
 31
0.0
  0
LINE
  5
85C9
330
85C5
100
AcDbEntity
  8
02実線
100
AcDbLine
 10
-23.39999999999964
 20
4.0
 30
0.0
 11
-17.3000000111515
 21
4.0
 31
0.0
  0
LINE
  5
85CA
330
85C5
100
AcDbEntity
  8
02実線
100
AcDbLine
 10
-23.39999999999964
 20
-4.0
 30
0.0
 11
-23.39999999999964
 21
4.0
 31
0.0
  0
LINE
  5
85CB
330
85C5
100
AcDbEntity
  8
02実線
100
AcDbLine
 10
-22.39999999999964
 20
5.0
 30
0.0
 11
-17.3000000111515
 21
5.0
 31
0.0
  0
LINE
  5
85CC
330
85C5
100
AcDbEntity
  8
02実線
100
AcDbLine
 10
-22.39999999999964
 20
-5.0
 30
0.0
 11
-22.39999999999964
 21
5.0
 31
0.0
  0
LINE
  5
85CD
330
85C5
100
AcDbEntity
  8
02実線
100
AcDbLine
 10
-22.39999999999964
 20
-5.0
 30
0.0
 11
-17.3000000111515
 21
-5.0
 31
0.0
  0
LINE
  5
85CE
330
85C5
100
AcDbEntity
  8
02実線
100
AcDbLine
 10
-23.39999999999964
 20
-4.0
 30
0.0
 11
-22.39999999999964
 21
-5.0
 31
0.0
  0
LINE
  5
85CF
330
85C5
100
AcDbEntity
  8
02実線
100
AcDbLine
 10
-22.39999999999964
 20
5.0
 30
0.0
 11
-23.39999999999964
 21
4.0
 31
0.0
  0
LINE
  5
85D0
330
85C5
100
AcDbEntity
  8
02実線
100
AcDbLine
 10
-7.700000000000728
 20
11.0
 30
0.0
 11
-7.700000000000728
 21
-11.0
 31
0.0
  0
LINE
  5
85D1
330
85C5
100
AcDbEntity
  8
02実線
100
AcDbLine
 10
-9.299999999999272
 20
11.0
 30
0.0
 11
-7.700000000000728
 21
11.0
 31
0.0
  0
LINE
  5
85D2
330
85C5
100
AcDbEntity
  8
02実線
100
AcDbLine
 10
-9.299999999999272
 20
-11.0
 30
0.0
 11
-7.700000000000728
 21
-11.0
 31
0.0
  0
LINE
  5
85D3
330
85C5
100
AcDbEntity
  8
02実線
100
AcDbLine
 10
-9.299999999999272
 20
11.0
 30
0.0
 11
-9.299999999999272
 21
-11.0
 31
0.0
  0
LINE
  5
85D4
330
85C5
100
AcDbEntity
  8
02実線
100
AcDbLine
 10
-9.299999999999272
 20
9.237604307033962
 30
0.0
 11
-9.299999999999272
 21
-9.237604307033962
 31
0.0
  0
ARC
  5
85D5
330
85C5
100
AcDbEntity
  8
02実線
100
AcDbCircle
 10
-12.68119784648297
 20
6.927925269031675
 30
0.0
 40
4.618802164669552
100
AcDbArc
 50
149.9960184984644
 51
209.9960184984832
  0
ARC
  5
85D6
330
85C5
100
AcDbEntity
  8
02実線
100
AcDbCircle
 10
-12.68119784648297
 20
-6.927925269031675
 30
0.0
 40
4.618802164669552
100
AcDbArc
 50
150.0039815015167
 51
210.0039815015356
  0
ARC
  5
85D7
330
85C5
100
AcDbEntity
  8
02実線
100
AcDbCircle
 10
0.2513967268932902
 20
0.0
 30
0.0
 40
17.55139672689282
100
AcDbArc
 50
164.7424308899368
 51
195.2575691100632
  0
LINE
  5
85D8
330
85C5
100
AcDbEntity
  8
02実線
100
AcDbLine
 10
-9.299999999999272
 20
4.618802153516754
 30
0.0
 11
-16.68135832748158
 21
4.618802153516754
 31
0.0
  0
LINE
  5
85D9
330
85C5
100
AcDbEntity
  8
02実線
100
AcDbLine
 10
-17.3000000111515
 20
6.927925269031675
 30
0.0
 11
-17.3000000111515
 21
-6.927925269031675
 31
0.0
  0
LINE
  5
85DA
330
85C5
100
AcDbEntity
  8
02実線
100
AcDbLine
 10
-9.299999999999272
 20
-4.618802153516754
 30
0.0
 11
-16.68135832748158
 21
-4.618802153516754
 31
0.0
  0
LINE
  5
85DB
330
85C5
100
AcDbEntity
  8
02実線
100
AcDbLine
 10
-9.299999999999272
 20
-9.237604307033962
 30
0.0
 11
-16.68103736548437
 21
-9.237604307033962
 31
0.0
  0
LINE
  5
85DC
330
85C5
100
AcDbEntity
  8
02実線
100
AcDbLine
 10
-9.299999999999272
 20
9.237604307033962
 30
0.0
 11
-16.68103736548437
 21
9.237604307033962
 31
0.0
  0
LINE
  5
85DD
330
85C5
100
AcDbEntity
  8
02実線
100
AcDbLine
 10
0.0
 20
-11.0
 30
0.0
 11
1.600000000000364
 21
-11.0
 31
0.0
  0
LINE
  5
85DE
330
85C5
100
AcDbEntity
  8
02実線
100
AcDbLine
 10
0.0
 20
11.0
 30
0.0
 11
1.600000000000364
 21
11.0
 31
0.0
  0
LINE
  5
85DF
330
85C5
100
AcDbEntity
  8
02実線
100
AcDbLine
 10
1.600000000000364
 20
11.0
 30
0.0
 11
1.600000000000364
 21
-11.0
 31
0.0
  0
LINE
  5
85E0
330
85C5
100
AcDbEntity
  8
02実線
100
AcDbLine
 10
0.0
 20
11.0
 30
0.0
 11
0.0
 21
-11.0
 31
0.0
  0
LINE
  5
85E1
330
85C5
100
AcDbEntity
  8
02実線
100
AcDbLine
 10
1.600000000000364
 20
-4.618802153516754
 30
0.0
 11
7.381358327482303
 21
-4.618802153516754
 31
0.0
  0
LINE
  5
85E2
330
85C5
100
AcDbEntity
  8
02実線
100
AcDbLine
 10
1.600000000000364
 20
-9.237604307033962
 30
0.0
 11
7.38103736548328
 21
-9.237604307033962
 31
0.0
  0
LINE
  5
85E3
330
85C5
100
AcDbEntity
  8
02実線
100
AcDbLine
 10
8.000000011152224
 20
6.927925269031675
 30
0.0
 11
8.000000011152224
 21
-6.927925269031675
 31
0.0
  0
LINE
  5
85E4
330
85C5
100
AcDbEntity
  8
02実線
100
AcDbLine
 10
1.600000000000364
 20
4.618802153516754
 30
0.0
 11
7.381358327482303
 21
4.618802153516754
 31
0.0
  0
LINE
  5
85E5
330
85C5
100
AcDbEntity
  8
02実線
100
AcDbLine
 10
1.600000000000364
 20
9.237604307033962
 30
0.0
 11
7.38103736548328
 21
9.237604307033962
 31
0.0
  0
ARC
  5
85E6
330
85C5
100
AcDbEntity
  8
02実線
100
AcDbCircle
 10
-9.551396726892563
 20
0.0
 30
0.0
 40
17.55139672689282
100
AcDbArc
 50
344.7424308899368
 51
15.25756911006317
  0
ARC
  5
85E7
330
85C5
100
AcDbEntity
  8
02実線
100
AcDbCircle
 10
3.381197846481882
 20
-6.927925269031675
 30
0.0
 40
4.618802164669552
100
AcDbArc
 50
329.9960184984644
 51
29.99601849845809
  0
ARC
  5
85E8
330
85C5
100
AcDbEntity
  8
02実線
100
AcDbCircle
 10
3.381197846481882
 20
6.927925269031675
 30
0.0
 40
4.618802164669552
100
AcDbArc
 50
330.0039815015419
 51
30.00398150153562
  0
LINE
  5
85E9
330
85C5
100
AcDbEntity
  8
02実線
100
AcDbLine
 10
1.600000000000364
 20
9.237604307033962
 30
0.0
 11
1.600000000000364
 21
-9.237604307033962
 31
0.0
  0
ENDBLK
  5
85EA
330
85C5
100
AcDbEntity
  8
0
100
AcDbBlockEnd
  0
BLOCK
  5
9929
330
9928
100
AcDbEntity
  8
0
100
AcDbBlockBegin
  2
BH-筋交(柱L60)-500H
 70
     0
 10
0.0
 20
0.0
 30
0.0
  3
BH-筋交(柱L60)-500H
  1

  0
CIRCLE
  5
992B
330
9928
100
AcDbEntity
  8
03破線
100
AcDbCircle
 10
312.2304049160912
 20
250.0243473062876
 30
0.0
 40
6.499999999999988
  0
LINE
  5
992C
330
9928
100
AcDbEntity
  8
03破線
100
AcDbLine
 10
316.5633268549091
 20
268.6110572752962
 30
0.0
 11
-19.0843584298882
 21
-0.1651160789606365
 31
0.0
  0
CIRCLE
  5
992D
330
9928
100
AcDbEntity
  8
03破線
100
AcDbCircle
 10
0.0
 20
0.0
 30
0.0
 40
6.499999999999988
  0
LINE
  5
992E
330
9928
100
AcDbEntity
  8
03破線
100
AcDbLine
 10
-5.458031501695586
 20
-17.18167314688799
 30
0.0
 11
-21.08455320833764
 21
2.332727160368449
 31
0.0
  0
LINE
  5
992F
330
9928
100
AcDbEntity
  8
03破線
100
AcDbLine
 10
314.5631320764578
 20
271.1089005146271
 30
0.0
 11
330.1896537831008
 21
251.5945002073715
 31
0.0
  0
LINE
  5
9930
330
9928
100
AcDbEntity
  8
03破線
100
AcDbLine
 10
330.1896537831008
 20
251.5945002073715
 30
0.0
 11
329.4120780629773
 21
244.5663158045902
 31
0.0
  0
LINE
  5
9931
330
9928
100
AcDbEntity
  8
03破線
100
AcDbLine
 10
1.570152901083929
 20
-17.9592488670105
 30
0.0
 11
-5.458031501695586
 21
-17.18167314688799
 31
0.0
  0
LINE
  5
9932
330
9928
100
AcDbEntity
  8
03破線
100
AcDbLine
 10
329.4120780629773
 20
244.5663158045902
 30
0.0
 11
304.9776628862055
 21
225.0000000000005
 31
0.0
  0
LINE
  5
9933
330
9928
100
AcDbEntity
  8
03破線
100
AcDbLine
 10
-21.08455320833764
 20
2.332727160368449
 30
0.0
 11
30.0
 21
43.23964036371416
 31
0.0
  0
LINE
  5
9934
330
9928
100
AcDbEntity
  8
03破線
100
AcDbLine
 10
256.9823371137927
 20
225.0000000000005
 30
0.0
 11
314.5631320764578
 21
271.1089005146271
 31
0.0
  0
LINE
  5
9935
330
9928
100
AcDbEntity
  8
02実線
100
AcDbLine
 10
304.9776628862055
 20
225.0000000000005
 30
0.0
 11
30.0
 21
4.806483915593844
 31
0.0
  0
LINE
  5
9936
330
9928
100
AcDbEntity
  8
02実線
100
AcDbLine
 10
30.0
 20
43.23964036371416
 30
0.0
 11
256.9823371137927
 21
225.0000000000005
 31
0.0
  0
LINE
  5
9937
330
9928
100
AcDbEntity
  8
03破線
100
AcDbLine
 10
30.0
 20
4.806483915593844
 30
0.0
 11
1.570152901083929
 21
-17.9592488670105
 31
0.0
  0
ENDBLK
  5
992A
330
9928
100
AcDbEntity
  8
0
100
AcDbBlockEnd
  0
BLOCK
  5
BE90
330
BE8F
100
AcDbEntity
  8
0
100
AcDbBlockBegin
  2
*D541
 70
     1
 10
0.0
 20
0.0
 30
0.0
  3
*D541
  1

  0
LINE
  5
BE92
330
BE8F
100
AcDbEntity
  8
08非表示
 62
     0
370
    -2
100
AcDbLine
 10
2165.0
 20
1614.999999999999
 30
0.0
 11
2165.0
 21
1709.999999999999
 31
0.0
  0
LINE
  5
BE93
330
BE8F
100
AcDbEntity
  8
08非表示
 62
     0
370
    -2
100
AcDbLine
 10
2575.0
 20
1614.999999999999
 30
0.0
 11
2575.0
 21
1709.999999999999
 31
0.0
  0
LINE
  5
BE94
330
BE8F
100
AcDbEntity
  8
08非表示
 62
     0
370
    -2
100
AcDbLine
 10
2195.0
 20
1699.999999999999
 30
0.0
 11
2545.0
 21
1699.999999999999
 31
0.0
  0
INSERT
  5
BE95
330
BE8F
100
AcDbEntity
  8
08非表示
 62
     0
370
    -2
100
AcDbBlockReference
  2
_Open
 10
2165.0
 20
1699.999999999999
 30
0.0
 41
30.0
 42
30.0
 43
30.0
 50
180.0
  0
INSERT
  5
BE96
330
BE8F
100
AcDbEntity
  8
08非表示
 62
     0
370
    -2
100
AcDbBlockReference
  2
_Open
 10
2575.0
 20
1699.999999999999
 30
0.0
 41
30.0
 42
30.0
 43
30.0
  0
MTEXT
  5
BE97
330
BE8F
100
AcDbEntity
  8
08非表示
 62
     0
100
AcDbMText
 10
2370.0
 20
1724.999999999999
 30
0.0
 40
30.0
 41
0.0
 71
     5
 72
     1
  1
410
 73
     1
 44
1.0
  0
POINT
  5
BE98
330
BE8F
100
AcDbEntity
  8
Defpoints
 62
     0
100
AcDbPoint
 10
2165.0
 20
1599.999999999999
 30
0.0
  0
POINT
  5
BE99
330
BE8F
100
AcDbEntity
  8
Defpoints
 62
     0
100
AcDbPoint
 10
2575.0
 20
1599.999999999999
 30
0.0
  0
POINT
  5
BE9A
330
BE8F
100
AcDbEntity
  8
Defpoints
 62
     0
100
AcDbPoint
 10
2575.0
 20
1699.999999999999
 30
0.0
  0
ENDBLK
  5
BE91
330
BE8F
100
AcDbEntity
  8
0
100
AcDbBlockEnd
  0
BLOCK
  5
BE9C
330
BE9B
100
AcDbEntity
  8
0
100
AcDbBlockBegin
  2
*D542
 70
     1
 10
0.0
 20
0.0
 30
0.0
  3
*D542
  1

  0
LINE
  5
BE9E
330
BE9B
100
AcDbEntity
  8
13製作用注記
 62
     0
370
    -2
100
AcDbLine
 10
851.7999999999993
 20
1346.499999999999
 30
0.0
 11
851.7999999999993
 21
1399.037128224682
 31
0.0
  0
LINE
  5
BE9F
330
BE9B
100
AcDbEntity
  8
13製作用注記
 62
     0
370
    -2
100
AcDbLine
 10
821.7999999999993
 20
1346.499999999999
 30
0.0
 11
821.7999999999993
 21
1399.037128224682
 31
0.0
  0
LINE
  5
BEA0
330
BE9B
100
AcDbEntity
  8
13製作用注記
 62
     0
370
    -2
100
AcDbLine
 10
791.7999999999993
 20
1389.037128224682
 30
0.0
 11
706.0099999999993
 21
1389.037128224682
 31
0.0
  0
LINE
  5
BEA1
330
BE9B
100
AcDbEntity
  8
13製作用注記
 62
     0
370
    -2
100
AcDbLine
 10
851.7999999999993
 20
1389.037128224682
 30
0.0
 11
821.7999999999993
 21
1389.037128224682
 31
0.0
  0
LINE
  5
BEA2
330
BE9B
100
AcDbEntity
  8
13製作用注記
 62
     0
370
    -2
100
AcDbLine
 10
881.7999999999993
 20
1389.037128224682
 30
0.0
 11
911.7999999999993
 21
1389.037128224682
 31
0.0
  0
INSERT
  5
BEA3
330
BE9B
100
AcDbEntity
  8
13製作用注記
 62
     0
370
    -2
100
AcDbBlockReference
  2
_Open
 10
851.7999999999993
 20
1389.037128224682
 30
0.0
 41
30.0
 42
30.0
 43
30.0
 50
180.0
  0
INSERT
  5
BEA4
330
BE9B
100
AcDbEntity
  8
13製作用注記
 62
     0
370
    -2
100
AcDbBlockReference
  2
_Open
 10
821.7999999999993
 20
1389.037128224682
 30
0.0
 41
30.0
 42
30.0
 43
30.0
  0
MTEXT
  5
BEA5
330
BE9B
100
AcDbEntity
  8
13製作用注記
 62
     0
100
AcDbMText
 10
733.9049999999993
 20
1414.037128224682
 30
0.0
 40
30.0
 41
0.0
 71
     5
 72
     1
  1
30
 73
     1
 44
1.0
  0
POINT
  5
BEA6
330
BE9B
100
AcDbEntity
  8
Defpoints
 62
     0
100
AcDbPoint
 10
851.7999999999993
 20
1331.499999999999
 30
0.0
  0
POINT
  5
BEA7
330
BE9B
100
AcDbEntity
  8
Defpoints
 62
     0
100
AcDbPoint
 10
821.7999999999993
 20
1331.499999999999
 30
0.0
  0
POINT
  5
BEA8
330
BE9B
100
AcDbEntity
  8
Defpoints
 62
     0
100
AcDbPoint
 10
821.7999999999993
 20
1389.037128224682
 30
0.0
  0
ENDBLK
  5
BE9D
330
BE9B
100
AcDbEntity
  8
0
100
AcDbBlockEnd
  0
BLOCK
  5
BEAA
330
BEA9
100
AcDbEntity
  8
0
100
AcDbBlockBegin
  2
*D543
 70
     1
 10
0.0
 20
0.0
 30
0.0
  3
*D543
  1

  0
LINE
  5
BEAC
330
BEA9
100
AcDbEntity
  8
13製作用注記
 62
     0
370
    -2
100
AcDbLine
 10
806.7999999999993
 20
1099.999999999999
 30
0.0
 11
711.7999999999993
 21
1099.999999999999
 31
0.0
  0
LINE
  5
BEAD
330
BEA9
100
AcDbEntity
  8
13製作用注記
 62
     0
370
    -2
100
AcDbLine
 10
820.2999999999993
 20
1314.999999999999
 30
0.0
 11
711.7999999999993
 21
1314.999999999999
 31
0.0
  0
LINE
  5
BEAE
330
BEA9
100
AcDbEntity
  8
13製作用注記
 62
     0
370
    -2
100
AcDbLine
 10
721.7999999999993
 20
1129.999999999999
 30
0.0
 11
721.7999999999993
 21
1284.999999999999
 31
0.0
  0
INSERT
  5
BEAF
330
BEA9
100
AcDbEntity
  8
13製作用注記
 62
     0
370
    -2
100
AcDbBlockReference
  2
_Open
 10
721.7999999999993
 20
1099.999999999999
 30
0.0
 41
30.0
 42
30.0
 43
30.0
 50
270.0
  0
INSERT
  5
BEB0
330
BEA9
100
AcDbEntity
  8
13製作用注記
 62
     0
370
    -2
100
AcDbBlockReference
  2
_Open
 10
721.7999999999993
 20
1314.999999999999
 30
0.0
 41
30.0
 42
30.0
 43
30.0
 50
90.0
  0
MTEXT
  5
BEB1
330
BEA9
100
AcDbEntity
  8
13製作用注記
 62
     0
100
AcDbMText
 10
696.7999999999993
 20
1207.499999999999
 30
0.0
 40
30.0
 41
0.0
 71
     5
 72
     1
  1
215
 11
0.0
 21
1.0
 31
0.0
 73
     1
 44
1.0
  0
POINT
  5
BEB2
330
BEA9
100
AcDbEntity
  8
Defpoints
 62
     0
100
AcDbPoint
 10
821.7999999999993
 20
1099.999999999999
 30
0.0
  0
POINT
  5
BEB3
330
BEA9
100
AcDbEntity
  8
Defpoints
 62
     0
100
AcDbPoint
 10
835.2999999999993
 20
1314.999999999999
 30
0.0
  0
POINT
  5
BEB4
330
BEA9
100
AcDbEntity
  8
Defpoints
 62
     0
100
AcDbPoint
 10
721.7999999999993
 20
1314.999999999999
 30
0.0
  0
ENDBLK
  5
BEAB
330
BEA9
100
AcDbEntity
  8
0
100
AcDbBlockEnd
  0
BLOCK
  5
BEB6
330
BEB5
100
AcDbEntity
  8
0
100
AcDbBlockBegin
  2
*D544
 70
     1
 10
0.0
 20
0.0
 30
0.0
  3
*D544
  1

  0
LINE
  5
BEB8
330
BEB5
100
AcDbEntity
  8
01注記寸法
 62
     0
370
    -2
100
AcDbLine
 10
806.7999999999993
 20
1099.999999999999
 30
0.0
 11
615.0
 21
1099.999999999999
 31
0.0
  0
LINE
  5
BEB9
330
BEB5
100
AcDbEntity
  8
01注記寸法
 62
     0
370
    -2
100
AcDbLine
 10
810.0
 20
1599.999999999999
 30
0.0
 11
615.0
 21
1599.999999999999
 31
0.0
  0
LINE
  5
BEBA
330
BEB5
100
AcDbEntity
  8
01注記寸法
 62
     0
370
    -2
100
AcDbLine
 10
625.0
 20
1129.999999999999
 30
0.0
 11
625.0
 21
1569.999999999999
 31
0.0
  0
INSERT
  5
BEBB
330
BEB5
100
AcDbEntity
  8
01注記寸法
 62
     0
370
    -2
100
AcDbBlockReference
  2
_Open
 10
625.0
 20
1099.999999999999
 30
0.0
 41
30.0
 42
30.0
 43
30.0
 50
270.0
  0
INSERT
  5
BEBC
330
BEB5
100
AcDbEntity
  8
01注記寸法
 62
     0
370
    -2
100
AcDbBlockReference
  2
_Open
 10
625.0
 20
1599.999999999999
 30
0.0
 41
30.0
 42
30.0
 43
30.0
 50
90.0
  0
MTEXT
  5
BEBD
330
BEB5
100
AcDbEntity
  8
01注記寸法
 62
     0
100
AcDbMText
 10
600.0
 20
1349.999999999999
 30
0.0
 40
30.0
 41
0.0
 71
     5
 72
     1
  1
500
 11
0.0
 21
1.0
 31
0.0
 73
     1
 44
1.0
  0
POINT
  5
BEBE
330
BEB5
100
AcDbEntity
  8
Defpoints
 62
     0
100
AcDbPoint
 10
821.7999999999993
 20
1099.999999999999
 30
0.0
  0
POINT
  5
BEBF
330
BEB5
100
AcDbEntity
  8
Defpoints
 62
     0
100
AcDbPoint
 10
825.0
 20
1599.999999999999
 30
0.0
  0
POINT
  5
BEC0
330
BEB5
100
AcDbEntity
  8
Defpoints
 62
     0
100
AcDbPoint
 10
625.0
 20
1599.999999999999
 30
0.0
  0
ENDBLK
  5
BEB7
330
BEB5
100
AcDbEntity
  8
0
100
AcDbBlockEnd
  0
BLOCK
  5
BEC2
330
BEC1
100
AcDbEntity
  8
0
100
AcDbBlockBegin
  2
*D545
 70
     1
 10
0.0
 20
0.0
 30
0.0
  3
*D545
  1

  0
LINE
  5
BEC4
330
BEC1
100
AcDbEntity
  8
13製作用注記
 62
     0
370
    -2
100
AcDbLine
 10
1195.5
 20
1564.999999999999
 30
0.0
 11
1214.341452661847
 21
1564.999999999999
 31
0.0
  0
LINE
  5
BEC5
330
BEC1
100
AcDbEntity
  8
13製作用注記
 62
     0
370
    -2
100
AcDbLine
 10
1195.5
 20
1599.999999999999
 30
0.0
 11
1214.341452661847
 21
1599.999999999999
 31
0.0
  0
LINE
  5
BEC6
330
BEC1
100
AcDbEntity
  8
13製作用注記
 62
     0
370
    -2
100
AcDbLine
 10
1204.341452661847
 20
1564.999999999999
 30
0.0
 11
1204.341452661847
 21
1449.989999999999
 31
0.0
  0
LINE
  5
BEC7
330
BEC1
100
AcDbEntity
  8
13製作用注記
 62
     0
370
    -2
100
AcDbLine
 10
1204.341452661847
 20
1564.999999999999
 30
0.0
 11
1204.341452661847
 21
1599.999999999999
 31
0.0
  0
LINE
  5
BEC8
330
BEC1
100
AcDbEntity
  8
13製作用注記
 62
     0
370
    -2
100
AcDbLine
 10
1204.341452661847
 20
1534.999999999999
 30
0.0
 11
1204.341452661847
 21
1504.999999999999
 31
0.0
  0
LINE
  5
BEC9
330
BEC1
100
AcDbEntity
  8
13製作用注記
 62
     0
370
    -2
100
AcDbLine
 10
1204.341452661847
 20
1629.999999999999
 30
0.0
 11
1204.341452661847
 21
1659.999999999999
 31
0.0
  0
INSERT
  5
BECA
330
BEC1
100
AcDbEntity
  8
13製作用注記
 62
     0
370
    -2
100
AcDbBlockReference
  2
_Open
 10
1204.341452661847
 20
1564.999999999999
 30
0.0
 41
30.0
 42
30.0
 43
30.0
 50
90.0
  0
INSERT
  5
BECB
330
BEC1
100
AcDbEntity
  8
13製作用注記
 62
     0
370
    -2
100
AcDbBlockReference
  2
_Open
 10
1204.341452661847
 20
1599.999999999999
 30
0.0
 41
30.0
 42
30.0
 43
30.0
 50
270.0
  0
MTEXT
  5
BECC
330
BEC1
100
AcDbEntity
  8
13製作用注記
 62
     0
100
AcDbMText
 10
1179.341452661847
 20
1477.494999999999
 30
0.0
 40
30.0
 41
0.0
 71
     5
 72
     1
  1
35
 11
0.0
 21
1.0
 31
0.0
 73
     1
 44
1.0
  0
POINT
  5
BECD
330
BEC1
100
AcDbEntity
  8
Defpoints
 62
     0
100
AcDbPoint
 10
1180.5
 20
1564.999999999999
 30
0.0
  0
POINT
  5
BECE
330
BEC1
100
AcDbEntity
  8
Defpoints
 62
     0
100
AcDbPoint
 10
1180.5
 20
1599.999999999999
 30
0.0
  0
POINT
  5
BECF
330
BEC1
100
AcDbEntity
  8
Defpoints
 62
     0
100
AcDbPoint
 10
1204.341452661847
 20
1599.999999999999
 30
0.0
  0
ENDBLK
  5
BEC3
330
BEC1
100
AcDbEntity
  8
0
100
AcDbBlockEnd
  0
BLOCK
  5
BEE0
330
BEDF
100
AcDbEntity
  8
0
100
AcDbBlockBegin
  2
*D547
 70
     1
 10
0.0
 20
0.0
 30
0.0
  3
*D547
  1

  0
LINE
  5
BEE2
330
BEDF
100
AcDbEntity
  8
13製作用注記
 62
     0
370
    -2
100
AcDbLine
 10
825.0
 20
1614.999999999999
 30
0.0
 11
825.0
 21
1679.999999999999
 31
0.0
  0
LINE
  5
BEE3
330
BEDF
100
AcDbEntity
  8
13製作用注記
 62
     0
370
    -2
100
AcDbLine
 10
1164.0
 20
1596.499999999999
 30
0.0
 11
1164.0
 21
1679.999999999999
 31
0.0
  0
LINE
  5
BEE4
330
BEDF
100
AcDbEntity
  8
13製作用注記
 62
     0
370
    -2
100
AcDbLine
 10
855.0
 20
1669.999999999999
 30
0.0
 11
1134.0
 21
1669.999999999999
 31
0.0
  0
INSERT
  5
BEE5
330
BEDF
100
AcDbEntity
  8
13製作用注記
 62
     0
370
    -2
100
AcDbBlockReference
  2
_Open
 10
825.0
 20
1669.999999999999
 30
0.0
 41
30.0
 42
30.0
 43
30.0
 50
180.0
  0
INSERT
  5
BEE6
330
BEDF
100
AcDbEntity
  8
13製作用注記
 62
     0
370
    -2
100
AcDbBlockReference
  2
_Open
 10
1164.0
 20
1669.999999999999
 30
0.0
 41
30.0
 42
30.0
 43
30.0
  0
MTEXT
  5
BEE7
330
BEDF
100
AcDbEntity
  8
13製作用注記
 62
     0
100
AcDbMText
 10
994.5
 20
1694.999999999999
 30
0.0
 40
30.0
 41
0.0
 71
     5
 72
     1
  1
339
 73
     1
 44
1.0
  0
POINT
  5
BEE8
330
BEDF
100
AcDbEntity
  8
Defpoints
 62
     0
100
AcDbPoint
 10
825.0
 20
1599.999999999999
 30
0.0
  0
POINT
  5
BEE9
330
BEDF
100
AcDbEntity
  8
Defpoints
 62
     0
100
AcDbPoint
 10
1164.0
 20
1581.499999999999
 30
0.0
  0
POINT
  5
BEEA
330
BEDF
100
AcDbEntity
  8
Defpoints
 62
     0
100
AcDbPoint
 10
1164.0
 20
1669.999999999999
 30
0.0
  0
ENDBLK
  5
BEE1
330
BEDF
100
AcDbEntity
  8
0
100
AcDbBlockEnd
  0
BLOCK
  5
BF04
330
BF03
100
AcDbEntity
  8
0
100
AcDbBlockBegin
  2
*D550
 70
     1
 10
0.0
 20
0.0
 30
0.0
  3
*D550
  1

  0
LINE
  5
BF06
330
BF03
100
AcDbEntity
  8
13製作用注記
 62
     0
370
    -2
100
AcDbLine
 10
1164.0
 20
1596.499999999999
 30
0.0
 11
1164.0
 21
1679.999999999999
 31
0.0
  0
LINE
  5
BF07
330
BF03
100
AcDbEntity
  8
13製作用注記
 62
     0
370
    -2
100
AcDbLine
 10
1336.0
 20
1596.499999999999
 30
0.0
 11
1336.0
 21
1679.999999999999
 31
0.0
  0
LINE
  5
BF08
330
BF03
100
AcDbEntity
  8
13製作用注記
 62
     0
370
    -2
100
AcDbLine
 10
1194.0
 20
1669.999999999999
 30
0.0
 11
1306.0
 21
1669.999999999999
 31
0.0
  0
INSERT
  5
BF09
330
BF03
100
AcDbEntity
  8
13製作用注記
 62
     0
370
    -2
100
AcDbBlockReference
  2
_Open
 10
1164.0
 20
1669.999999999999
 30
0.0
 41
30.0
 42
30.0
 43
30.0
 50
180.0
  0
INSERT
  5
BF0A
330
BF03
100
AcDbEntity
  8
13製作用注記
 62
     0
370
    -2
100
AcDbBlockReference
  2
_Open
 10
1336.0
 20
1669.999999999999
 30
0.0
 41
30.0
 42
30.0
 43
30.0
  0
MTEXT
  5
BF0B
330
BF03
100
AcDbEntity
  8
13製作用注記
 62
     0
100
AcDbMText
 10
1250.0
 20
1694.999999999999
 30
0.0
 40
30.0
 41
0.0
 71
     5
 72
     1
  1
172
 73
     1
 44
1.0
  0
POINT
  5
BF0C
330
BF03
100
AcDbEntity
  8
Defpoints
 62
     0
100
AcDbPoint
 10
1164.0
 20
1581.499999999999
 30
0.0
  0
POINT
  5
BF0D
330
BF03
100
AcDbEntity
  8
Defpoints
 62
     0
100
AcDbPoint
 10
1336.0
 20
1581.499999999999
 30
0.0
  0
POINT
  5
BF0E
330
BF03
100
AcDbEntity
  8
Defpoints
 62
     0
100
AcDbPoint
 10
1336.0
 20
1669.999999999999
 30
0.0
  0
ENDBLK
  5
BF05
330
BF03
100
AcDbEntity
  8
0
100
AcDbBlockEnd
  0
BLOCK
  5
BF10
330
BF0F
100
AcDbEntity
  8
0
100
AcDbBlockBegin
  2
*D551
 70
     1
 10
0.0
 20
0.0
 30
0.0
  3
*D551
  1

  0
LINE
  5
BF12
330
BF0F
100
AcDbEntity
  8
13製作用注記
 62
     0
370
    -2
100
AcDbLine
 10
1336.0
 20
1596.499999999999
 30
0.0
 11
1336.0
 21
1679.999999999999
 31
0.0
  0
LINE
  5
BF13
330
BF0F
100
AcDbEntity
  8
13製作用注記
 62
     0
370
    -2
100
AcDbLine
 10
1675.0
 20
1614.999999999999
 30
0.0
 11
1675.0
 21
1679.999999999999
 31
0.0
  0
LINE
  5
BF14
330
BF0F
100
AcDbEntity
  8
13製作用注記
 62
     0
370
    -2
100
AcDbLine
 10
1366.0
 20
1669.999999999999
 30
0.0
 11
1645.0
 21
1669.999999999999
 31
0.0
  0
INSERT
  5
BF15
330
BF0F
100
AcDbEntity
  8
13製作用注記
 62
     0
370
    -2
100
AcDbBlockReference
  2
_Open
 10
1336.0
 20
1669.999999999999
 30
0.0
 41
30.0
 42
30.0
 43
30.0
 50
180.0
  0
INSERT
  5
BF16
330
BF0F
100
AcDbEntity
  8
13製作用注記
 62
     0
370
    -2
100
AcDbBlockReference
  2
_Open
 10
1675.0
 20
1669.999999999999
 30
0.0
 41
30.0
 42
30.0
 43
30.0
  0
MTEXT
  5
BF17
330
BF0F
100
AcDbEntity
  8
13製作用注記
 62
     0
100
AcDbMText
 10
1505.5
 20
1694.999999999999
 30
0.0
 40
30.0
 41
0.0
 71
     5
 72
     1
  1
339
 73
     1
 44
1.0
  0
POINT
  5
BF18
330
BF0F
100
AcDbEntity
  8
Defpoints
 62
     0
100
AcDbPoint
 10
1336.0
 20
1581.499999999999
 30
0.0
  0
POINT
  5
BF19
330
BF0F
100
AcDbEntity
  8
Defpoints
 62
     0
100
AcDbPoint
 10
1675.0
 20
1599.999999999999
 30
0.0
  0
POINT
  5
BF1A
330
BF0F
100
AcDbEntity
  8
Defpoints
 62
     0
100
AcDbPoint
 10
1675.0
 20
1669.999999999999
 30
0.0
  0
ENDBLK
  5
BF11
330
BF0F
100
AcDbEntity
  8
0
100
AcDbBlockEnd
  0
BLOCK
  5
BF1C
330
BF1B
100
AcDbEntity
  8
0
100
AcDbBlockBegin
  2
*D552
 70
     1
 10
0.0
 20
0.0
 30
0.0
  3
*D552
  1

  0
LINE
  5
BF1E
330
BF1B
100
AcDbEntity
  8
01注記寸法
 62
     0
370
    -2
100
AcDbLine
 10
2145.299999999999
 20
1100.000000000001
 30
0.0
 11
2053.5
 21
1100.000000000001
 31
0.0
  0
LINE
  5
BF1F
330
BF1B
100
AcDbEntity
  8
01注記寸法
 62
     0
370
    -2
100
AcDbLine
 10
2156.000000000002
 20
1349.999999999999
 30
0.0
 11
2053.5
 21
1349.999999999999
 31
0.0
  0
LINE
  5
BF20
330
BF1B
100
AcDbEntity
  8
01注記寸法
 62
     0
370
    -2
100
AcDbLine
 10
2063.5
 20
1130.000000000001
 30
0.0
 11
2063.5
 21
1319.999999999999
 31
0.0
  0
INSERT
  5
BF21
330
BF1B
100
AcDbEntity
  8
01注記寸法
 62
     0
370
    -2
100
AcDbBlockReference
  2
_Open
 10
2063.5
 20
1100.000000000001
 30
0.0
 41
30.0
 42
30.0
 43
30.0
 50
270.0
  0
INSERT
  5
BF22
330
BF1B
100
AcDbEntity
  8
01注記寸法
 62
     0
370
    -2
100
AcDbBlockReference
  2
_Open
 10
2063.5
 20
1349.999999999999
 30
0.0
 41
30.0
 42
30.0
 43
30.0
 50
90.0
  0
MTEXT
  5
BF23
330
BF1B
100
AcDbEntity
  8
01注記寸法
 62
     0
100
AcDbMText
 10
2038.5
 20
1225.0
 30
0.0
 40
30.0
 41
0.0
 71
     5
 72
     1
  1
250
 11
0.0
 21
1.0
 31
0.0
 73
     1
 44
1.0
  0
POINT
  5
BF24
330
BF1B
100
AcDbEntity
  8
Defpoints
 62
     0
100
AcDbPoint
 10
2160.299999999999
 20
1100.000000000001
 30
0.0
  0
POINT
  5
BF25
330
BF1B
100
AcDbEntity
  8
Defpoints
 62
     0
100
AcDbPoint
 10
2171.000000000002
 20
1349.999999999999
 30
0.0
  0
POINT
  5
BF26
330
BF1B
100
AcDbEntity
  8
Defpoints
 62
     0
100
AcDbPoint
 10
2063.5
 20
1349.999999999999
 30
0.0
  0
ENDBLK
  5
BF1D
330
BF1B
100
AcDbEntity
  8
0
100
AcDbBlockEnd
  0
BLOCK
  5
D6F2
330
D6F1
100
AcDbEntity
  8
0
100
AcDbBlockBegin
  2
*D825
 70
     1
 10
0.0
 20
0.0
 30
0.0
  3
*D825
  1

  0
LINE
  5
D6F4
330
D6F1
100
AcDbEntity
  8
01注記寸法
 62
     0
370
    -2
100
AcDbLine
 10
2998.945876303434
 20
289.1336530409826
 30
0.0
 11
2918.353113124998
 21
289.1336530409826
 31
0.0
  0
LINE
  5
D6F5
330
D6F1
100
AcDbEntity
  8
01注記寸法
 62
     0
370
    -2
100
AcDbLine
 10
2998.945876303434
 20
199.1336530409799
 30
0.0
 11
2918.353113124998
 21
199.1336530409799
 31
0.0
  0
LINE
  5
D6F6
330
D6F1
100
AcDbEntity
  8
01注記寸法
 62
     0
370
    -2
100
AcDbLine
 10
2928.353113124998
 20
289.1336530409826
 30
0.0
 11
2928.353113124998
 21
492.5236530409834
 31
0.0
  0
LINE
  5
D6F7
330
D6F1
100
AcDbEntity
  8
01注記寸法
 62
     0
370
    -2
100
AcDbLine
 10
2928.353113124998
 20
259.1336530409826
 30
0.0
 11
2928.353113124998
 21
229.1336530409799
 31
0.0
  0
INSERT
  5
D6F8
330
D6F1
100
AcDbEntity
  8
01注記寸法
 62
     0
370
    -2
100
AcDbBlockReference
  2
_Open
 10
2928.353113124998
 20
289.1336530409826
 30
0.0
 41
30.0
 42
30.0
 43
30.0
 50
90.0
  0
INSERT
  5
D6F9
330
D6F1
100
AcDbEntity
  8
01注記寸法
 62
     0
370
    -2
100
AcDbBlockReference
  2
_Open
 10
2928.353113124998
 20
199.1336530409799
 30
0.0
 41
30.0
 42
30.0
 43
30.0
 50
270.0
  0
MTEXT
  5
D6FA
330
D6F1
100
AcDbEntity
  8
01注記寸法
 62
     0
100
AcDbMText
 10
2903.353113124998
 20
405.8286530409832
 30
0.0
 40
30.0
 41
0.0
 71
     5
 72
     1
  1
MAX 30mm
 11
0.0
 21
1.0
 31
0.0
 73
     1
 44
1.0
  0
POINT
  5
D6FB
330
D6F1
100
AcDbEntity
  8
Defpoints
 62
     0
100
AcDbPoint
 10
3013.945876303434
 20
289.1336530409826
 30
0.0
  0
POINT
  5
D6FC
330
D6F1
100
AcDbEntity
  8
Defpoints
 62
     0
100
AcDbPoint
 10
3013.945876303434
 20
199.1336530409799
 30
0.0
  0
POINT
  5
D6FD
330
D6F1
100
AcDbEntity
  8
Defpoints
 62
     0
100
AcDbPoint
 10
2928.353113124998
 20
199.1336530409799
 30
0.0
  0
ENDBLK
  5
D6F3
330
D6F1
100
AcDbEntity
  8
0
100
AcDbBlockEnd
  0
BLOCK
  5
F781
330
F776
100
AcDbEntity
  8
0
100
AcDbBlockBegin
  2
1-HTA183
 70
     0
 10
0.0
 20
0.0
 30
0.0
  3
1-HTA183
  1

  0
LWPOLYLINE
  5
F777
330
F776
100
AcDbEntity
  8
12防振架台
100
AcDbPolyline
 90
        4
 70
     1
 43
0.0
 10
-425.0
 20
0.0
 10
-425.0
 20
410.0
 10
425.0
 20
410.0
 10
425.0
 20
0.0
  0
LWPOLYLINE
  5
F778
330
F776
100
AcDbEntity
  8
12防振架台
100
AcDbPolyline
 90
        4
 70
     1
 43
0.0
 10
-365.0
 20
60.0
 10
-365.0
 20
350.0
 10
365.0
 20
350.0
 10
365.0
 20
60.0
  0
CIRCLE
  5
F779
330
F776
100
AcDbEntity
  8
12防振架台
100
AcDbCircle
 10
-325.0
 20
30.0
 30
0.0
 40
8.0
  0
CIRCLE
  5
F77A
330
F776
100
AcDbEntity
  8
12防振架台
100
AcDbCircle
 10
-250.0
 20
45.0
 30
0.0
 40
7.0
  0
CIRCLE
  5
F77B
330
F776
100
AcDbEntity
  8
12防振架台
100
AcDbCircle
 10
-325.0
 20
380.0
 30
0.0
 40
8.0
  0
CIRCLE
  5
F77C
330
F776
100
AcDbEntity
  8
12防振架台
100
AcDbCircle
 10
-250.0
 20
365.0
 30
0.0
 40
7.0
  0
CIRCLE
  5
F77D
330
F776
100
AcDbEntity
  8
12防振架台
100
AcDbCircle
 10
325.0
 20
30.0
 30
0.0
 40
8.0
  0
CIRCLE
  5
F77E
330
F776
100
AcDbEntity
  8
12防振架台
100
AcDbCircle
 10
250.0
 20
45.0
 30
0.0
 40
7.0
  0
CIRCLE
  5
F77F
330
F776
100
AcDbEntity
  8
12防振架台
100
AcDbCircle
 10
325.0
 20
380.0
 30
0.0
 40
8.0
  0
CIRCLE
  5
F780
330
F776
100
AcDbEntity
  8
12防振架台
100
AcDbCircle
 10
250.0
 20
365.0
 30
0.0
 40
7.0
  0
ENDBLK
  5
F782
330
F776
100
AcDbEntity
  8
0
100
AcDbBlockEnd
  0
BLOCK
  5
F7F3
330
F7F2
100
AcDbEntity
  8
0
100
AcDbBlockBegin
  2
*D1202
 70
     1
 10
0.0
 20
0.0
 30
0.0
  3
*D1202
  1

  0
LINE
  5
F7F5
330
F7F2
100
AcDbEntity
  8
01注記寸法
 62
     0
370
    -2
100
AcDbLine
 10
287.5333333333328
 20
599.666666666667
 30
0.0
 11
173.3333333333339
 21
599.666666666667
 31
0.0
  0
LINE
  5
F7F6
330
F7F2
100
AcDbEntity
  8
01注記寸法
 62
     0
370
    -2
100
AcDbLine
 10
287.5333333333328
 20
373.666666666667
 30
0.0
 11
173.3333333333339
 21
373.666666666667
 31
0.0
  0
LINE
  5
F7F7
330
F7F2
100
AcDbEntity
  8
01注記寸法
 62
     0
370
    -2
100
AcDbLine
 10
183.3333333333339
 20
569.666666666667
 30
0.0
 11
183.3333333333339
 21
403.666666666667
 31
0.0
  0
INSERT
  5
F7F8
330
F7F2
100
AcDbEntity
  8
01注記寸法
 62
     0
370
    -2
100
AcDbBlockReference
  2
_Open
 10
183.3333333333339
 20
599.666666666667
 30
0.0
 41
30.0
 42
30.0
 43
30.0
 50
90.0
  0
INSERT
  5
F7F9
330
F7F2
100
AcDbEntity
  8
01注記寸法
 62
     0
370
    -2
100
AcDbBlockReference
  2
_Open
 10
183.3333333333339
 20
373.666666666667
 30
0.0
 41
30.0
 42
30.0
 43
30.0
 50
270.0
  0
MTEXT
  5
F7FA
330
F7F2
100
AcDbEntity
  8
01注記寸法
 62
     0
100
AcDbMText
 10
158.3333333333339
 20
486.666666666667
 30
0.0
 40
30.0
 41
0.0
 71
     5
 72
     1
  1
339
 11
0.0
 21
1.0
 31
0.0
 73
     1
 44
1.0
  0
POINT
  5
F7FB
330
F7F2
100
AcDbEntity
  8
Defpoints
 62
     0
100
AcDbPoint
 10
302.5333333333328
 20
599.666666666667
 30
0.0
  0
POINT
  5
F7FC
330
F7F2
100
AcDbEntity
  8
Defpoints
 62
     0
100
AcDbPoint
 10
302.5333333333328
 20
373.666666666667
 30
0.0
  0
POINT
  5
F7FD
330
F7F2
100
AcDbEntity
  8
Defpoints
 62
     0
100
AcDbPoint
 10
183.3333333333339
 20
373.666666666667
 30
0.0
  0
ENDBLK
  5
F7F4
330
F7F2
100
AcDbEntity
  8
0
100
AcDbBlockEnd
  0
BLOCK
  5
F800
330
F7FF
100
AcDbEntity
  8
0
100
AcDbBlockBegin
  2
*D1203
 70
     1
 10
0.0
 20
0.0
 30
0.0
  3
*D1203
  1

  0
LINE
  5
F802
330
F7FF
100
AcDbEntity
  8
01注記寸法
 62
     0
370
    -2
100
AcDbLine
 10
302.5333333333328
 20
614.666666666667
 30
0.0
 11
302.5333333333328
 21
733.3333333333335
 31
0.0
  0
LINE
  5
F803
330
F7FF
100
AcDbEntity
  8
01注記寸法
 62
     0
370
    -2
100
AcDbLine
 10
830.8000000000011
 20
614.666666666667
 30
0.0
 11
830.8000000000011
 21
733.3333333333335
 31
0.0
  0
LINE
  5
F804
330
F7FF
100
AcDbEntity
  8
01注記寸法
 62
     0
370
    -2
100
AcDbLine
 10
332.5333333333328
 20
723.3333333333335
 30
0.0
 11
800.8000000000011
 21
723.3333333333335
 31
0.0
  0
INSERT
  5
F805
330
F7FF
100
AcDbEntity
  8
01注記寸法
 62
     0
370
    -2
100
AcDbBlockReference
  2
_Open
 10
302.5333333333328
 20
723.3333333333335
 30
0.0
 41
30.0
 42
30.0
 43
30.0
 50
180.0
  0
INSERT
  5
F806
330
F7FF
100
AcDbEntity
  8
01注記寸法
 62
     0
370
    -2
100
AcDbBlockReference
  2
_Open
 10
830.8000000000011
 20
723.3333333333335
 30
0.0
 41
30.0
 42
30.0
 43
30.0
  0
MTEXT
  5
F807
330
F7FF
100
AcDbEntity
  8
01注記寸法
 62
     0
100
AcDbMText
 10
566.666666666667
 20
748.3333333333335
 30
0.0
 40
30.0
 41
0.0
 71
     5
 72
     1
  1
792
 73
     1
 44
1.0
  0
POINT
  5
F808
330
F7FF
100
AcDbEntity
  8
Defpoints
 62
     0
100
AcDbPoint
 10
302.5333333333328
 20
599.666666666667
 30
0.0
  0
POINT
  5
F809
330
F7FF
100
AcDbEntity
  8
Defpoints
 62
     0
100
AcDbPoint
 10
830.8000000000011
 20
599.666666666667
 30
0.0
  0
POINT
  5
F80A
330
F7FF
100
AcDbEntity
  8
Defpoints
 62
     0
100
AcDbPoint
 10
830.8000000000011
 20
723.3333333333335
 30
0.0
  0
ENDBLK
  5
F801
330
F7FF
100
AcDbEntity
  8
0
100
AcDbBlockEnd
  0
BLOCK
  5
F820
330
F81F
100
AcDbEntity
  8
0
100
AcDbBlockBegin
  2
*D1204
 70
     1
 10
0.0
 20
0.0
 30
0.0
  3
*D1204
  1

  0
LINE
  5
F822
330
F81F
100
AcDbEntity
  8
01注記寸法
 62
     0
370
    -2
100
AcDbLine
 10
1056.533333333333
 20
620.1333333333341
 30
0.0
 11
1056.533333333333
 21
733.3333333333335
 31
0.0
  0
LINE
  5
F823
330
F81F
100
AcDbEntity
  8
01注記寸法
 62
     0
370
    -2
100
AcDbLine
 10
1676.800000000001
 20
620.1333333333341
 30
0.0
 11
1676.800000000001
 21
733.3333333333335
 31
0.0
  0
LINE
  5
F824
330
F81F
100
AcDbEntity
  8
01注記寸法
 62
     0
370
    -2
100
AcDbLine
 10
1086.533333333333
 20
723.3333333333335
 30
0.0
 11
1646.800000000001
 21
723.3333333333335
 31
0.0
  0
INSERT
  5
F825
330
F81F
100
AcDbEntity
  8
01注記寸法
 62
     0
370
    -2
100
AcDbBlockReference
  2
_Open
 10
1056.533333333333
 20
723.3333333333335
 30
0.0
 41
30.0
 42
30.0
 43
30.0
 50
180.0
  0
INSERT
  5
F826
330
F81F
100
AcDbEntity
  8
01注記寸法
 62
     0
370
    -2
100
AcDbBlockReference
  2
_Open
 10
1676.800000000001
 20
723.3333333333335
 30
0.0
 41
30.0
 42
30.0
 43
30.0
  0
MTEXT
  5
F827
330
F81F
100
AcDbEntity
  8
01注記寸法
 62
     0
100
AcDbMText
 10
1366.666666666667
 20
748.3333333333335
 30
0.0
 40
30.0
 41
0.0
 71
     5
 72
     1
  1
930
 73
     1
 44
1.0
  0
POINT
  5
F828
330
F81F
100
AcDbEntity
  8
Defpoints
 62
     0
100
AcDbPoint
 10
1056.533333333333
 20
605.1333333333341
 30
0.0
  0
POINT
  5
F829
330
F81F
100
AcDbEntity
  8
Defpoints
 62
     0
100
AcDbPoint
 10
1676.800000000001
 20
605.1333333333341
 30
0.0
  0
POINT
  5
F82A
330
F81F
100
AcDbEntity
  8
Defpoints
 62
     0
100
AcDbPoint
 10
1676.800000000001
 20
723.3333333333335
 30
0.0
  0
ENDBLK
  5
F821
330
F81F
100
AcDbEntity
  8
0
100
AcDbBlockEnd
  0
BLOCK
  5
F82C
330
F82B
100
AcDbEntity
  8
0
100
AcDbBlockBegin
  2
*D1205
 70
     1
 10
0.0
 20
0.0
 30
0.0
  3
*D1205
  1

  0
LINE
  5
F82E
330
F82B
100
AcDbEntity
  8
01注記寸法
 62
     0
370
    -2
100
AcDbLine
 10
1041.533333333333
 20
605.1333333333341
 30
0.0
 11
973.3333333333339
 21
605.1333333333341
 31
0.0
  0
LINE
  5
F82F
330
F82B
100
AcDbEntity
  8
01注記寸法
 62
     0
370
    -2
100
AcDbLine
 10
1041.533333333333
 20
368.2000000000007
 30
0.0
 11
973.3333333333339
 21
368.2000000000007
 31
0.0
  0
LINE
  5
F830
330
F82B
100
AcDbEntity
  8
01注記寸法
 62
     0
370
    -2
100
AcDbLine
 10
983.3333333333339
 20
575.1333333333341
 30
0.0
 11
983.3333333333339
 21
398.2000000000007
 31
0.0
  0
INSERT
  5
F831
330
F82B
100
AcDbEntity
  8
01注記寸法
 62
     0
370
    -2
100
AcDbBlockReference
  2
_Open
 10
983.3333333333339
 20
605.1333333333341
 30
0.0
 41
30.0
 42
30.0
 43
30.0
 50
90.0
  0
INSERT
  5
F832
330
F82B
100
AcDbEntity
  8
01注記寸法
 62
     0
370
    -2
100
AcDbBlockReference
  2
_Open
 10
983.3333333333339
 20
368.2000000000007
 30
0.0
 41
30.0
 42
30.0
 43
30.0
 50
270.0
  0
MTEXT
  5
F833
330
F82B
100
AcDbEntity
  8
01注記寸法
 62
     0
100
AcDbMText
 10
958.3333333333339
 20
486.6666666666674
 30
0.0
 40
30.0
 41
0.0
 71
     5
 72
     1
  1
355
 11
0.0
 21
1.0
 31
0.0
 73
     1
 44
1.0
  0
POINT
  5
F834
330
F82B
100
AcDbEntity
  8
Defpoints
 62
     0
100
AcDbPoint
 10
1056.533333333333
 20
605.1333333333341
 30
0.0
  0
POINT
  5
F835
330
F82B
100
AcDbEntity
  8
Defpoints
 62
     0
100
AcDbPoint
 10
1056.533333333333
 20
368.2000000000007
 30
0.0
  0
POINT
  5
F836
330
F82B
100
AcDbEntity
  8
Defpoints
 62
     0
100
AcDbPoint
 10
983.3333333333339
 20
368.2000000000007
 30
0.0
  0
ENDBLK
  5
F82D
330
F82B
100
AcDbEntity
  8
0
100
AcDbBlockEnd
  0
BLOCK
  5
F84C
330
F84B
100
AcDbEntity
  8
0
100
AcDbBlockBegin
  2
*D1206
 70
     1
 10
0.0
 20
0.0
 30
0.0
  3
*D1206
  1

  0
LINE
  5
F84E
330
F84B
100
AcDbEntity
  8
01注記寸法
 62
     0
370
    -2
100
AcDbLine
 10
1902.533333333333
 20
666.1333333333341
 30
0.0
 11
1902.533333333333
 21
733.3333333333335
 31
0.0
  0
LINE
  5
F84F
330
F84B
100
AcDbEntity
  8
01注記寸法
 62
     0
370
    -2
100
AcDbLine
 10
2430.800000000001
 20
666.1333333333341
 30
0.0
 11
2430.800000000001
 21
733.3333333333335
 31
0.0
  0
LINE
  5
F850
330
F84B
100
AcDbEntity
  8
01注記寸法
 62
     0
370
    -2
100
AcDbLine
 10
1932.533333333333
 20
723.3333333333335
 30
0.0
 11
2400.800000000001
 21
723.3333333333335
 31
0.0
  0
INSERT
  5
F851
330
F84B
100
AcDbEntity
  8
01注記寸法
 62
     0
370
    -2
100
AcDbBlockReference
  2
_Open
 10
1902.533333333333
 20
723.3333333333335
 30
0.0
 41
30.0
 42
30.0
 43
30.0
 50
180.0
  0
INSERT
  5
F852
330
F84B
100
AcDbEntity
  8
01注記寸法
 62
     0
370
    -2
100
AcDbBlockReference
  2
_Open
 10
2430.800000000001
 20
723.3333333333335
 30
0.0
 41
30.0
 42
30.0
 43
30.0
  0
MTEXT
  5
F853
330
F84B
100
AcDbEntity
  8
01注記寸法
 62
     0
100
AcDbMText
 10
2166.666666666667
 20
748.3333333333335
 30
0.0
 40
30.0
 41
0.0
 71
     5
 72
     1
  1
792
 73
     1
 44
1.0
  0
POINT
  5
F854
330
F84B
100
AcDbEntity
  8
Defpoints
 62
     0
100
AcDbPoint
 10
1902.533333333333
 20
651.1333333333341
 30
0.0
  0
POINT
  5
F855
330
F84B
100
AcDbEntity
  8
Defpoints
 62
     0
100
AcDbPoint
 10
2430.800000000001
 20
651.1333333333341
 30
0.0
  0
POINT
  5
F856
330
F84B
100
AcDbEntity
  8
Defpoints
 62
     0
100
AcDbPoint
 10
2430.800000000001
 20
723.3333333333335
 30
0.0
  0
ENDBLK
  5
F84D
330
F84B
100
AcDbEntity
  8
0
100
AcDbBlockEnd
  0
BLOCK
  5
F858
330
F857
100
AcDbEntity
  8
0
100
AcDbBlockBegin
  2
*D1207
 70
     1
 10
0.0
 20
0.0
 30
0.0
  3
*D1207
  1

  0
LINE
  5
F85A
330
F857
100
AcDbEntity
  8
01注記寸法
 62
     0
370
    -2
100
AcDbLine
 10
1887.533333333333
 20
651.1333333333341
 30
0.0
 11
1773.333333333334
 21
651.1333333333341
 31
0.0
  0
LINE
  5
F85B
330
F857
100
AcDbEntity
  8
01注記寸法
 62
     0
370
    -2
100
AcDbLine
 10
1887.533333333333
 20
322.2000000000007
 30
0.0
 11
1773.333333333334
 21
322.2000000000007
 31
0.0
  0
LINE
  5
F85C
330
F857
100
AcDbEntity
  8
01注記寸法
 62
     0
370
    -2
100
AcDbLine
 10
1783.333333333334
 20
621.1333333333341
 30
0.0
 11
1783.333333333334
 21
352.2000000000007
 31
0.0
  0
INSERT
  5
F85D
330
F857
100
AcDbEntity
  8
01注記寸法
 62
     0
370
    -2
100
AcDbBlockReference
  2
_Open
 10
1783.333333333334
 20
651.1333333333341
 30
0.0
 41
30.0
 42
30.0
 43
30.0
 50
90.0
  0
INSERT
  5
F85E
330
F857
100
AcDbEntity
  8
01注記寸法
 62
     0
370
    -2
100
AcDbBlockReference
  2
_Open
 10
1783.333333333334
 20
322.2000000000007
 30
0.0
 41
30.0
 42
30.0
 43
30.0
 50
270.0
  0
MTEXT
  5
F85F
330
F857
100
AcDbEntity
  8
01注記寸法
 62
     0
100
AcDbMText
 10
1758.333333333334
 20
486.6666666666674
 30
0.0
 40
30.0
 41
0.0
 71
     5
 72
     1
  1
493
 11
0.0
 21
1.0
 31
0.0
 73
     1
 44
1.0
  0
POINT
  5
F860
330
F857
100
AcDbEntity
  8
Defpoints
 62
     0
100
AcDbPoint
 10
1902.533333333333
 20
651.1333333333341
 30
0.0
  0
POINT
  5
F861
330
F857
100
AcDbEntity
  8
Defpoints
 62
     0
100
AcDbPoint
 10
1902.533333333333
 20
322.2000000000007
 30
0.0
  0
POINT
  5
F862
330
F857
100
AcDbEntity
  8
Defpoints
 62
     0
100
AcDbPoint
 10
1783.333333333334
 20
322.2000000000007
 30
0.0
  0
ENDBLK
  5
F859
330
F857
100
AcDbEntity
  8
0
100
AcDbBlockEnd
  0
BLOCK
  5
F985
330
F984
100
AcDbEntity
  8
0
100
AcDbBlockBegin
  2
*D1222
 70
     1
 10
0.0
 20
0.0
 30
0.0
  3
*D1222
  1

  0
LINE
  5
F987
330
F984
100
AcDbEntity
  8
01注記寸法
 62
     0
370
    -2
100
AcDbLine
 10
825.0
 20
2386.500000000001
 30
0.0
 11
825.0
 21
2679.999999999999
 31
0.0
  0
LINE
  5
F988
330
F984
100
AcDbEntity
  8
01注記寸法
 62
     0
370
    -2
100
AcDbLine
 10
1675.0
 20
2386.500000000001
 30
0.0
 11
1675.0
 21
2679.999999999999
 31
0.0
  0
LINE
  5
F989
330
F984
100
AcDbEntity
  8
01注記寸法
 62
     0
370
    -2
100
AcDbLine
 10
855.0
 20
2669.999999999999
 30
0.0
 11
1645.0
 21
2669.999999999999
 31
0.0
  0
INSERT
  5
F98A
330
F984
100
AcDbEntity
  8
01注記寸法
 62
     0
370
    -2
100
AcDbBlockReference
  2
_Open
 10
825.0
 20
2669.999999999999
 30
0.0
 41
30.0
 42
30.0
 43
30.0
 50
180.0
  0
INSERT
  5
F98B
330
F984
100
AcDbEntity
  8
01注記寸法
 62
     0
370
    -2
100
AcDbBlockReference
  2
_Open
 10
1675.0
 20
2669.999999999999
 30
0.0
 41
30.0
 42
30.0
 43
30.0
  0
MTEXT
  5
F98C
330
F984
100
AcDbEntity
  8
01注記寸法
 62
     0
100
AcDbMText
 10
1250.0
 20
2694.999999999999
 30
0.0
 40
30.0
 41
0.0
 71
     5
 72
     1
  1
850
 73
     1
 44
1.0
  0
POINT
  5
F98D
330
F984
100
AcDbEntity
  8
Defpoints
 62
     0
100
AcDbPoint
 10
825.0
 20
2371.500000000001
 30
0.0
  0
POINT
  5
F98E
330
F984
100
AcDbEntity
  8
Defpoints
 62
     0
100
AcDbPoint
 10
1675.0
 20
2371.500000000001
 30
0.0
  0
POINT
  5
F98F
330
F984
100
AcDbEntity
  8
Defpoints
 62
     0
100
AcDbPoint
 10
1675.0
 20
2669.999999999999
 30
0.0
  0
ENDBLK
  5
F986
330
F984
100
AcDbEntity
  8
0
100
AcDbBlockEnd
  0
BLOCK
  5
F991
330
F990
100
AcDbEntity
  8
0
100
AcDbBlockBegin
  2
*D1223
 70
     1
 10
0.0
 20
0.0
 30
0.0
  3
*D1223
  1

  0
LINE
  5
F993
330
F990
100
AcDbEntity
  8
01注記寸法
 62
     0
370
    -2
100
AcDbLine
 10
810.0
 20
2369.999999999999
 30
0.0
 11
565.0
 21
2369.999999999999
 31
0.0
  0
LINE
  5
F994
330
F990
100
AcDbEntity
  8
01注記寸法
 62
     0
370
    -2
100
AcDbLine
 10
810.0
 20
1959.999999999999
 30
0.0
 11
565.0
 21
1959.999999999999
 31
0.0
  0
LINE
  5
F995
330
F990
100
AcDbEntity
  8
01注記寸法
 62
     0
370
    -2
100
AcDbLine
 10
575.0
 20
2339.999999999999
 30
0.0
 11
575.0
 21
1989.999999999999
 31
0.0
  0
INSERT
  5
F996
330
F990
100
AcDbEntity
  8
01注記寸法
 62
     0
370
    -2
100
AcDbBlockReference
  2
_Open
 10
575.0
 20
2369.999999999999
 30
0.0
 41
30.0
 42
30.0
 43
30.0
 50
90.0
  0
INSERT
  5
F997
330
F990
100
AcDbEntity
  8
01注記寸法
 62
     0
370
    -2
100
AcDbBlockReference
  2
_Open
 10
575.0
 20
1959.999999999999
 30
0.0
 41
30.0
 42
30.0
 43
30.0
 50
270.0
  0
MTEXT
  5
F998
330
F990
100
AcDbEntity
  8
01注記寸法
 62
     0
100
AcDbMText
 10
550.0
 20
2164.999999999999
 30
0.0
 40
30.0
 41
0.0
 71
     5
 72
     1
  1
410
 11
0.0
 21
1.0
 31
0.0
 73
     1
 44
1.0
  0
POINT
  5
F999
330
F990
100
AcDbEntity
  8
Defpoints
 62
     0
100
AcDbPoint
 10
825.0
 20
2369.999999999999
 30
0.0
  0
POINT
  5
F99A
330
F990
100
AcDbEntity
  8
Defpoints
 62
     0
100
AcDbPoint
 10
825.0
 20
1959.999999999999
 30
0.0
  0
POINT
  5
F99B
330
F990
100
AcDbEntity
  8
Defpoints
 62
     0
100
AcDbPoint
 10
575.0
 20
1959.999999999999
 30
0.0
  0
ENDBLK
  5
F992
330
F990
100
AcDbEntity
  8
0
100
AcDbBlockEnd
  0
BLOCK
  5
F99D
330
F99C
100
AcDbEntity
  8
0
100
AcDbBlockBegin
  2
*D1224
 70
     1
 10
0.0
 20
0.0
 30
0.0
  3
*D1224
  1

  0
LINE
  5
F99F
330
F99C
100
AcDbEntity
  8
01注記寸法
 62
     0
370
    -2
100
AcDbLine
 10
810.0
 20
2369.999999999999
 30
0.0
 11
665.0
 21
2369.999999999999
 31
0.0
  0
LINE
  5
F9A0
330
F99C
100
AcDbEntity
  8
01注記寸法
 62
     0
370
    -2
100
AcDbLine
 10
968.0
 20
2324.999999999999
 30
0.0
 11
665.0
 21
2324.999999999999
 31
0.0
  0
LINE
  5
F9A1
330
F99C
100
AcDbEntity
  8
01注記寸法
 62
     0
370
    -2
100
AcDbLine
 10
675.0
 20
2369.999999999999
 30
0.0
 11
675.0
 21
2485.459999999999
 31
0.0
  0
LINE
  5
F9A2
330
F99C
100
AcDbEntity
  8
01注記寸法
 62
     0
370
    -2
100
AcDbLine
 10
675.0
 20
2369.999999999999
 30
0.0
 11
675.0
 21
2324.999999999999
 31
0.0
  0
LINE
  5
F9A3
330
F99C
100
AcDbEntity
  8
01注記寸法
 62
     0
370
    -2
100
AcDbLine
 10
675.0
 20
2399.999999999999
 30
0.0
 11
675.0
 21
2429.999999999999
 31
0.0
  0
LINE
  5
F9A4
330
F99C
100
AcDbEntity
  8
01注記寸法
 62
     0
370
    -2
100
AcDbLine
 10
675.0
 20
2294.999999999999
 30
0.0
 11
675.0
 21
2264.999999999999
 31
0.0
  0
INSERT
  5
F9A5
330
F99C
100
AcDbEntity
  8
01注記寸法
 62
     0
370
    -2
100
AcDbBlockReference
  2
_Open
 10
675.0
 20
2369.999999999999
 30
0.0
 41
30.0
 42
30.0
 43
30.0
 50
270.0
  0
INSERT
  5
F9A6
330
F99C
100
AcDbEntity
  8
01注記寸法
 62
     0
370
    -2
100
AcDbBlockReference
  2
_Open
 10
675.0
 20
2324.999999999999
 30
0.0
 41
30.0
 42
30.0
 43
30.0
 50
90.0
  0
MTEXT
  5
F9A7
330
F99C
100
AcDbEntity
  8
01注記寸法
 62
     0
100
AcDbMText
 10
650.0
 20
2457.729999999999
 30
0.0
 40
30.0
 41
0.0
 71
     5
 72
     1
  1
45
 11
0.0
 21
1.0
 31
0.0
 73
     1
 44
1.0
  0
POINT
  5
F9A8
330
F99C
100
AcDbEntity
  8
Defpoints
 62
     0
100
AcDbPoint
 10
825.0
 20
2369.999999999999
 30
0.0
  0
POINT
  5
F9A9
330
F99C
100
AcDbEntity
  8
Defpoints
 62
     0
100
AcDbPoint
 10
983.0
 20
2324.999999999999
 30
0.0
  0
POINT
  5
F9AA
330
F99C
100
AcDbEntity
  8
Defpoints
 62
     0
100
AcDbPoint
 10
675.0
 20
2324.999999999999
 30
0.0
  0
ENDBLK
  5
F99E
330
F99C
100
AcDbEntity
  8
0
100
AcDbBlockEnd
  0
BLOCK
  5
F9AC
330
F9AB
100
AcDbEntity
  8
0
100
AcDbBlockBegin
  2
*D1225
 70
     1
 10
0.0
 20
0.0
 30
0.0
  3
*D1225
  1

  0
LINE
  5
F9AE
330
F9AB
100
AcDbEntity
  8
01注記寸法
 62
     0
370
    -2
100
AcDbLine
 10
968.0
 20
2324.999999999999
 30
0.0
 11
665.0
 21
2324.999999999999
 31
0.0
  0
LINE
  5
F9AF
330
F9AB
100
AcDbEntity
  8
01注記寸法
 62
     0
370
    -2
100
AcDbLine
 10
968.0
 20
2004.999999999999
 30
0.0
 11
665.0
 21
2004.999999999999
 31
0.0
  0
LINE
  5
F9B0
330
F9AB
100
AcDbEntity
  8
01注記寸法
 62
     0
370
    -2
100
AcDbLine
 10
675.0
 20
2294.999999999999
 30
0.0
 11
675.0
 21
2034.999999999999
 31
0.0
  0
INSERT
  5
F9B1
330
F9AB
100
AcDbEntity
  8
01注記寸法
 62
     0
370
    -2
100
AcDbBlockReference
  2
_Open
 10
675.0
 20
2324.999999999999
 30
0.0
 41
30.0
 42
30.0
 43
30.0
 50
90.0
  0
INSERT
  5
F9B2
330
F9AB
100
AcDbEntity
  8
01注記寸法
 62
     0
370
    -2
100
AcDbBlockReference
  2
_Open
 10
675.0
 20
2004.999999999999
 30
0.0
 41
30.0
 42
30.0
 43
30.0
 50
270.0
  0
MTEXT
  5
F9B3
330
F9AB
100
AcDbEntity
  8
01注記寸法
 62
     0
100
AcDbMText
 10
650.0
 20
2164.999999999999
 30
0.0
 40
30.0
 41
0.0
 71
     5
 72
     1
  1
320
 11
0.0
 21
1.0
 31
0.0
 73
     1
 44
1.0
  0
POINT
  5
F9B4
330
F9AB
100
AcDbEntity
  8
Defpoints
 62
     0
100
AcDbPoint
 10
983.0
 20
2324.999999999999
 30
0.0
  0
POINT
  5
F9B5
330
F9AB
100
AcDbEntity
  8
Defpoints
 62
     0
100
AcDbPoint
 10
983.0
 20
2004.999999999999
 30
0.0
  0
POINT
  5
F9B6
330
F9AB
100
AcDbEntity
  8
Defpoints
 62
     0
100
AcDbPoint
 10
675.0
 20
2004.999999999999
 30
0.0
  0
ENDBLK
  5
F9AD
330
F9AB
100
AcDbEntity
  8
0
100
AcDbBlockEnd
  0
BLOCK
  5
F9B8
330
F9B7
100
AcDbEntity
  8
0
100
AcDbBlockBegin
  2
*D1226
 70
     1
 10
0.0
 20
0.0
 30
0.0
  3
*D1226
  1

  0
LINE
  5
F9BA
330
F9B7
100
AcDbEntity
  8
01注記寸法
 62
     0
370
    -2
100
AcDbLine
 10
968.0
 20
2004.999999999999
 30
0.0
 11
665.0
 21
2004.999999999999
 31
0.0
  0
LINE
  5
F9BB
330
F9B7
100
AcDbEntity
  8
01注記寸法
 62
     0
370
    -2
100
AcDbLine
 10
810.0
 20
1960.0
 30
0.0
 11
665.0
 21
1960.0
 31
0.0
  0
LINE
  5
F9BC
330
F9B7
100
AcDbEntity
  8
01注記寸法
 62
     0
370
    -2
100
AcDbLine
 10
675.0
 20
1930.0
 30
0.0
 11
675.0
 21
1844.54
 31
0.0
  0
LINE
  5
F9BD
330
F9B7
100
AcDbEntity
  8
01注記寸法
 62
     0
370
    -2
100
AcDbLine
 10
675.0
 20
2004.999999999999
 30
0.0
 11
675.0
 21
1960.0
 31
0.0
  0
LINE
  5
F9BE
330
F9B7
100
AcDbEntity
  8
01注記寸法
 62
     0
370
    -2
100
AcDbLine
 10
675.0
 20
2034.999999999999
 30
0.0
 11
675.0
 21
2064.999999999999
 31
0.0
  0
INSERT
  5
F9BF
330
F9B7
100
AcDbEntity
  8
01注記寸法
 62
     0
370
    -2
100
AcDbBlockReference
  2
_Open
 10
675.0
 20
2004.999999999999
 30
0.0
 41
30.0
 42
30.0
 43
30.0
 50
270.0
  0
INSERT
  5
F9C0
330
F9B7
100
AcDbEntity
  8
01注記寸法
 62
     0
370
    -2
100
AcDbBlockReference
  2
_Open
 10
675.0
 20
1960.0
 30
0.0
 41
30.0
 42
30.0
 43
30.0
 50
90.0
  0
MTEXT
  5
F9C1
330
F9B7
100
AcDbEntity
  8
01注記寸法
 62
     0
100
AcDbMText
 10
650.0
 20
1872.27
 30
0.0
 40
30.0
 41
0.0
 71
     5
 72
     1
  1
45
 11
0.0
 21
1.0
 31
0.0
 73
     1
 44
1.0
  0
POINT
  5
F9C2
330
F9B7
100
AcDbEntity
  8
Defpoints
 62
     0
100
AcDbPoint
 10
983.0
 20
2004.999999999999
 30
0.0
  0
POINT
  5
F9C3
330
F9B7
100
AcDbEntity
  8
Defpoints
 62
     0
100
AcDbPoint
 10
825.0
 20
1960.0
 30
0.0
  0
POINT
  5
F9C4
330
F9B7
100
AcDbEntity
  8
Defpoints
 62
     0
100
AcDbPoint
 10
675.0
 20
1960.0
 30
0.0
  0
ENDBLK
  5
F9B9
330
F9B7
100
AcDbEntity
  8
0
100
AcDbBlockEnd
  0
BLOCK
  5
F9C6
330
F9C5
100
AcDbEntity
  8
0
100
AcDbBlockBegin
  2
*D1227
 70
     1
 10
0.0
 20
0.0
 30
0.0
  3
*D1227
  1

  0
LINE
  5
F9C8
330
F9C5
100
AcDbEntity
  8
01注記寸法
 62
     0
370
    -2
100
AcDbLine
 10
950.0
 20
2172.663706128461
 30
0.0
 11
950.0
 21
2172.737600263216
 31
0.0
  0
LINE
  5
F9C9
330
F9C5
100
AcDbEntity
  8
01注記寸法
 62
     0
370
    -2
100
AcDbLine
 10
1050.0
 20
2172.663706128461
 30
0.0
 11
1050.0
 21
2172.737600263216
 31
0.0
  0
LINE
  5
F9CA
330
F9C5
100
AcDbEntity
  8
01注記寸法
 62
     0
370
    -2
100
AcDbLine
 10
980.0
 20
2162.737600263216
 30
0.0
 11
1020.0
 21
2162.737600263216
 31
0.0
  0
INSERT
  5
F9CB
330
F9C5
100
AcDbEntity
  8
01注記寸法
 62
     0
370
    -2
100
AcDbBlockReference
  2
_Open
 10
950.0
 20
2162.737600263216
 30
0.0
 41
30.0
 42
30.0
 43
30.0
 50
180.0
  0
INSERT
  5
F9CC
330
F9C5
100
AcDbEntity
  8
01注記寸法
 62
     0
370
    -2
100
AcDbBlockReference
  2
_Open
 10
1050.0
 20
2162.737600263216
 30
0.0
 41
30.0
 42
30.0
 43
30.0
  0
MTEXT
  5
F9CD
330
F9C5
100
AcDbEntity
  8
01注記寸法
 62
     0
100
AcDbMText
 10
1000.0
 20
2187.737600263216
 30
0.0
 40
30.0
 41
0.0
 71
     5
 72
     1
  1
100
 73
     1
 44
1.0
  0
POINT
  5
F9CE
330
F9C5
100
AcDbEntity
  8
Defpoints
 62
     0
100
AcDbPoint
 10
950.0
 20
2157.663706128461
 30
0.0
  0
POINT
  5
F9CF
330
F9C5
100
AcDbEntity
  8
Defpoints
 62
     0
100
AcDbPoint
 10
1050.0
 20
2157.663706128461
 30
0.0
  0
POINT
  5
F9D0
330
F9C5
100
AcDbEntity
  8
Defpoints
 62
     0
100
AcDbPoint
 10
1050.0
 20
2162.737600263216
 30
0.0
  0
ENDBLK
  5
F9C7
330
F9C5
100
AcDbEntity
  8
0
100
AcDbBlockEnd
  0
BLOCK
  5
F9D2
330
F9D1
100
AcDbEntity
  8
0
100
AcDbBlockBegin
  2
*D1228
 70
     1
 10
0.0
 20
0.0
 30
0.0
  3
*D1228
  1

  0
LINE
  5
F9D4
330
F9D1
100
AcDbEntity
  8
01注記寸法
 62
     0
370
    -2
100
AcDbLine
 10
1450.000000000001
 20
2172.663706128461
 30
0.0
 11
1450.000000000001
 21
2172.737600263216
 31
0.0
  0
LINE
  5
F9D5
330
F9D1
100
AcDbEntity
  8
01注記寸法
 62
     0
370
    -2
100
AcDbLine
 10
1550.000000000001
 20
2172.663706128461
 30
0.0
 11
1550.000000000001
 21
2172.737600263216
 31
0.0
  0
LINE
  5
F9D6
330
F9D1
100
AcDbEntity
  8
01注記寸法
 62
     0
370
    -2
100
AcDbLine
 10
1480.000000000001
 20
2162.737600263216
 30
0.0
 11
1520.000000000001
 21
2162.737600263216
 31
0.0
  0
INSERT
  5
F9D7
330
F9D1
100
AcDbEntity
  8
01注記寸法
 62
     0
370
    -2
100
AcDbBlockReference
  2
_Open
 10
1450.000000000001
 20
2162.737600263216
 30
0.0
 41
30.0
 42
30.0
 43
30.0
 50
180.0
  0
INSERT
  5
F9D8
330
F9D1
100
AcDbEntity
  8
01注記寸法
 62
     0
370
    -2
100
AcDbBlockReference
  2
_Open
 10
1550.000000000001
 20
2162.737600263216
 30
0.0
 41
30.0
 42
30.0
 43
30.0
  0
MTEXT
  5
F9D9
330
F9D1
100
AcDbEntity
  8
01注記寸法
 62
     0
100
AcDbMText
 10
1500.000000000001
 20
2187.737600263216
 30
0.0
 40
30.0
 41
0.0
 71
     5
 72
     1
  1
100
 73
     1
 44
1.0
  0
POINT
  5
F9DA
330
F9D1
100
AcDbEntity
  8
Defpoints
 62
     0
100
AcDbPoint
 10
1450.000000000001
 20
2157.663706128461
 30
0.0
  0
POINT
  5
F9DB
330
F9D1
100
AcDbEntity
  8
Defpoints
 62
     0
100
AcDbPoint
 10
1550.000000000001
 20
2157.663706128461
 30
0.0
  0
POINT
  5
F9DC
330
F9D1
100
AcDbEntity
  8
Defpoints
 62
     0
100
AcDbPoint
 10
1550.000000000001
 20
2162.737600263216
 30
0.0
  0
ENDBLK
  5
F9D3
330
F9D1
100
AcDbEntity
  8
0
100
AcDbBlockEnd
  0
BLOCK
  5
F9DE
330
F9DD
100
AcDbEntity
  8
0
100
AcDbBlockBegin
  2
*D1229
 70
     1
 10
0.0
 20
0.0
 30
0.0
  3
*D1229
  1

  0
LINE
  5
F9E0
330
F9DD
100
AcDbEntity
  8
01注記寸法
 62
     0
370
    -2
100
AcDbLine
 10
825.0
 20
2386.5
 30
0.0
 11
825.0
 21
2579.999999999999
 31
0.0
  0
LINE
  5
F9E1
330
F9DD
100
AcDbEntity
  8
01注記寸法
 62
     0
370
    -2
100
AcDbLine
 10
1000.0
 20
2356.999999999999
 30
0.0
 11
1000.0
 21
2579.999999999999
 31
0.0
  0
LINE
  5
F9E2
330
F9DD
100
AcDbEntity
  8
01注記寸法
 62
     0
370
    -2
100
AcDbLine
 10
855.0
 20
2569.999999999999
 30
0.0
 11
970.0
 21
2569.999999999999
 31
0.0
  0
INSERT
  5
F9E3
330
F9DD
100
AcDbEntity
  8
01注記寸法
 62
     0
370
    -2
100
AcDbBlockReference
  2
_Open
 10
825.0
 20
2569.999999999999
 30
0.0
 41
30.0
 42
30.0
 43
30.0
 50
180.0
  0
INSERT
  5
F9E4
330
F9DD
100
AcDbEntity
  8
01注記寸法
 62
     0
370
    -2
100
AcDbBlockReference
  2
_Open
 10
1000.0
 20
2569.999999999999
 30
0.0
 41
30.0
 42
30.0
 43
30.0
  0
MTEXT
  5
F9E5
330
F9DD
100
AcDbEntity
  8
01注記寸法
 62
     0
100
AcDbMText
 10
912.5
 20
2594.999999999999
 30
0.0
 40
30.0
 41
0.0
 71
     5
 72
     1
  1
175
 73
     1
 44
1.0
  0
POINT
  5
F9E6
330
F9DD
100
AcDbEntity
  8
Defpoints
 62
     0
100
AcDbPoint
 10
825.0
 20
2371.5
 30
0.0
  0
POINT
  5
F9E7
330
F9DD
100
AcDbEntity
  8
Defpoints
 62
     0
100
AcDbPoint
 10
1000.0
 20
2341.999999999999
 30
0.0
  0
POINT
  5
F9E8
330
F9DD
100
AcDbEntity
  8
Defpoints
 62
     0
100
AcDbPoint
 10
1000.0
 20
2569.999999999999
 30
0.0
  0
ENDBLK
  5
F9DF
330
F9DD
100
AcDbEntity
  8
0
100
AcDbBlockEnd
  0
BLOCK
  5
F9EA
330
F9E9
100
AcDbEntity
  8
0
100
AcDbBlockBegin
  2
*D1230
 70
     1
 10
0.0
 20
0.0
 30
0.0
  3
*D1230
  1

  0
LINE
  5
F9EC
330
F9E9
100
AcDbEntity
  8
01注記寸法
 62
     0
370
    -2
100
AcDbLine
 10
1000.0
 20
2356.999999999999
 30
0.0
 11
1000.0
 21
2579.999999999999
 31
0.0
  0
LINE
  5
F9ED
330
F9E9
100
AcDbEntity
  8
01注記寸法
 62
     0
370
    -2
100
AcDbLine
 10
1500.0
 20
2356.999999999999
 30
0.0
 11
1500.0
 21
2579.999999999999
 31
0.0
  0
LINE
  5
F9EE
330
F9E9
100
AcDbEntity
  8
01注記寸法
 62
     0
370
    -2
100
AcDbLine
 10
1030.0
 20
2569.999999999999
 30
0.0
 11
1470.0
 21
2569.999999999999
 31
0.0
  0
INSERT
  5
F9EF
330
F9E9
100
AcDbEntity
  8
01注記寸法
 62
     0
370
    -2
100
AcDbBlockReference
  2
_Open
 10
1000.0
 20
2569.999999999999
 30
0.0
 41
30.0
 42
30.0
 43
30.0
 50
180.0
  0
INSERT
  5
F9F0
330
F9E9
100
AcDbEntity
  8
01注記寸法
 62
     0
370
    -2
100
AcDbBlockReference
  2
_Open
 10
1500.0
 20
2569.999999999999
 30
0.0
 41
30.0
 42
30.0
 43
30.0
  0
MTEXT
  5
F9F1
330
F9E9
100
AcDbEntity
  8
01注記寸法
 62
     0
100
AcDbMText
 10
1250.0
 20
2594.999999999999
 30
0.0
 40
30.0
 41
0.0
 71
     5
 72
     1
  1
500
 73
     1
 44
1.0
  0
POINT
  5
F9F2
330
F9E9
100
AcDbEntity
  8
Defpoints
 62
     0
100
AcDbPoint
 10
1000.0
 20
2341.999999999999
 30
0.0
  0
POINT
  5
F9F3
330
F9E9
100
AcDbEntity
  8
Defpoints
 62
     0
100
AcDbPoint
 10
1500.0
 20
2341.999999999999
 30
0.0
  0
POINT
  5
F9F4
330
F9E9
100
AcDbEntity
  8
Defpoints
 62
     0
100
AcDbPoint
 10
1500.0
 20
2569.999999999999
 30
0.0
  0
ENDBLK
  5
F9EB
330
F9E9
100
AcDbEntity
  8
0
100
AcDbBlockEnd
  0
BLOCK
  5
F9F6
330
F9F5
100
AcDbEntity
  8
0
100
AcDbBlockBegin
  2
*D1231
 70
     1
 10
0.0
 20
0.0
 30
0.0
  3
*D1231
  1

  0
LINE
  5
F9F8
330
F9F5
100
AcDbEntity
  8
01注記寸法
 62
     0
370
    -2
100
AcDbLine
 10
1500.0
 20
2356.999999999999
 30
0.0
 11
1500.0
 21
2579.999999999999
 31
0.0
  0
LINE
  5
F9F9
330
F9F5
100
AcDbEntity
  8
01注記寸法
 62
     0
370
    -2
100
AcDbLine
 10
1675.0
 20
2386.5
 30
0.0
 11
1675.0
 21
2579.999999999999
 31
0.0
  0
LINE
  5
F9FA
330
F9F5
100
AcDbEntity
  8
01注記寸法
 62
     0
370
    -2
100
AcDbLine
 10
1530.0
 20
2569.999999999999
 30
0.0
 11
1645.0
 21
2569.999999999999
 31
0.0
  0
INSERT
  5
F9FB
330
F9F5
100
AcDbEntity
  8
01注記寸法
 62
     0
370
    -2
100
AcDbBlockReference
  2
_Open
 10
1500.0
 20
2569.999999999999
 30
0.0
 41
30.0
 42
30.0
 43
30.0
 50
180.0
  0
INSERT
  5
F9FC
330
F9F5
100
AcDbEntity
  8
01注記寸法
 62
     0
370
    -2
100
AcDbBlockReference
  2
_Open
 10
1675.0
 20
2569.999999999999
 30
0.0
 41
30.0
 42
30.0
 43
30.0
  0
MTEXT
  5
F9FD
330
F9F5
100
AcDbEntity
  8
01注記寸法
 62
     0
100
AcDbMText
 10
1587.5
 20
2594.999999999999
 30
0.0
 40
30.0
 41
0.0
 71
     5
 72
     1
  1
175
 73
     1
 44
1.0
  0
POINT
  5
F9FE
330
F9F5
100
AcDbEntity
  8
Defpoints
 62
     0
100
AcDbPoint
 10
1500.0
 20
2341.999999999999
 30
0.0
  0
POINT
  5
F9FF
330
F9F5
100
AcDbEntity
  8
Defpoints
 62
     0
100
AcDbPoint
 10
1675.0
 20
2371.5
 30
0.0
  0
POINT
  5
FA00
330
F9F5
100
AcDbEntity
  8
Defpoints
 62
     0
100
AcDbPoint
 10
1675.0
 20
2569.999999999999
 30
0.0
  0
ENDBLK
  5
F9F7
330
F9F5
100
AcDbEntity
  8
0
100
AcDbBlockEnd
  0
BLOCK
  5
FA02
330
FA01
100
AcDbEntity
  8
0
100
AcDbBlockBegin
  2
*D1232
 70
     1
 10
0.0
 20
0.0
 30
0.0
  3
*D1232
  1

  0
LINE
  5
FA04
330
FA01
100
AcDbEntity
  8
01注記寸法
 62
     0
370
    -2
100
AcDbLine
 10
825.0
 20
1943.5
 30
0.0
 11
825.0
 21
1749.999999999999
 31
0.0
  0
LINE
  5
FA05
330
FA01
100
AcDbEntity
  8
01注記寸法
 62
     0
370
    -2
100
AcDbLine
 10
925.0
 20
1956.999999999999
 30
0.0
 11
925.0
 21
1749.999999999999
 31
0.0
  0
LINE
  5
FA06
330
FA01
100
AcDbEntity
  8
01注記寸法
 62
     0
370
    -2
100
AcDbLine
 10
855.0
 20
1759.999999999999
 30
0.0
 11
895.0
 21
1759.999999999999
 31
0.0
  0
INSERT
  5
FA07
330
FA01
100
AcDbEntity
  8
01注記寸法
 62
     0
370
    -2
100
AcDbBlockReference
  2
_Open
 10
825.0
 20
1759.999999999999
 30
0.0
 41
30.0
 42
30.0
 43
30.0
 50
180.0
  0
INSERT
  5
FA08
330
FA01
100
AcDbEntity
  8
01注記寸法
 62
     0
370
    -2
100
AcDbBlockReference
  2
_Open
 10
925.0
 20
1759.999999999999
 30
0.0
 41
30.0
 42
30.0
 43
30.0
  0
MTEXT
  5
FA09
330
FA01
100
AcDbEntity
  8
01注記寸法
 62
     0
100
AcDbMText
 10
875.0
 20
1784.999999999999
 30
0.0
 40
30.0
 41
0.0
 71
     5
 72
     1
  1
100
 73
     1
 44
1.0
  0
POINT
  5
FA0A
330
FA01
100
AcDbEntity
  8
Defpoints
 62
     0
100
AcDbPoint
 10
825.0
 20
1958.5
 30
0.0
  0
POINT
  5
FA0B
330
FA01
100
AcDbEntity
  8
Defpoints
 62
     0
100
AcDbPoint
 10
925.0
 20
1971.999999999999
 30
0.0
  0
POINT
  5
FA0C
330
FA01
100
AcDbEntity
  8
Defpoints
 62
     0
100
AcDbPoint
 10
925.0
 20
1759.999999999999
 30
0.0
  0
ENDBLK
  5
FA03
330
FA01
100
AcDbEntity
  8
0
100
AcDbBlockEnd
  0
BLOCK
  5
FA0E
330
FA0D
100
AcDbEntity
  8
0
100
AcDbBlockBegin
  2
*D1233
 70
     1
 10
0.0
 20
0.0
 30
0.0
  3
*D1233
  1

  0
LINE
  5
FA10
330
FA0D
100
AcDbEntity
  8
01注記寸法
 62
     0
370
    -2
100
AcDbLine
 10
925.0
 20
1956.999999999999
 30
0.0
 11
925.0
 21
1749.999999999999
 31
0.0
  0
LINE
  5
FA11
330
FA0D
100
AcDbEntity
  8
01注記寸法
 62
     0
370
    -2
100
AcDbLine
 10
1575.0
 20
1956.999999999999
 30
0.0
 11
1575.0
 21
1749.999999999999
 31
0.0
  0
LINE
  5
FA12
330
FA0D
100
AcDbEntity
  8
01注記寸法
 62
     0
370
    -2
100
AcDbLine
 10
955.0
 20
1759.999999999999
 30
0.0
 11
1545.0
 21
1759.999999999999
 31
0.0
  0
INSERT
  5
FA13
330
FA0D
100
AcDbEntity
  8
01注記寸法
 62
     0
370
    -2
100
AcDbBlockReference
  2
_Open
 10
925.0
 20
1759.999999999999
 30
0.0
 41
30.0
 42
30.0
 43
30.0
 50
180.0
  0
INSERT
  5
FA14
330
FA0D
100
AcDbEntity
  8
01注記寸法
 62
     0
370
    -2
100
AcDbBlockReference
  2
_Open
 10
1575.0
 20
1759.999999999999
 30
0.0
 41
30.0
 42
30.0
 43
30.0
  0
MTEXT
  5
FA15
330
FA0D
100
AcDbEntity
  8
01注記寸法
 62
     0
100
AcDbMText
 10
1250.0
 20
1785.989999999999
 30
0.0
 40
30.0
 41
0.0
 71
     5
 72
     1
  1
※ 650
 73
     1
 44
1.0
  0
POINT
  5
FA16
330
FA0D
100
AcDbEntity
  8
Defpoints
 62
     0
100
AcDbPoint
 10
925.0
 20
1971.999999999999
 30
0.0
  0
POINT
  5
FA17
330
FA0D
100
AcDbEntity
  8
Defpoints
 62
     0
100
AcDbPoint
 10
1575.0
 20
1971.999999999999
 30
0.0
  0
POINT
  5
FA18
330
FA0D
100
AcDbEntity
  8
Defpoints
 62
     0
100
AcDbPoint
 10
1575.0
 20
1759.999999999999
 30
0.0
  0
ENDBLK
  5
FA0F
330
FA0D
100
AcDbEntity
  8
0
100
AcDbBlockEnd
  0
BLOCK
  5
FA1A
330
FA19
100
AcDbEntity
  8
0
100
AcDbBlockBegin
  2
*D1234
 70
     1
 10
0.0
 20
0.0
 30
0.0
  3
*D1234
  1

  0
LINE
  5
FA1C
330
FA19
100
AcDbEntity
  8
01注記寸法
 62
     0
370
    -2
100
AcDbLine
 10
1575.0
 20
1956.999999999999
 30
0.0
 11
1575.0
 21
1749.999999999999
 31
0.0
  0
LINE
  5
FA1D
330
FA19
100
AcDbEntity
  8
01注記寸法
 62
     0
370
    -2
100
AcDbLine
 10
1675.0
 20
1943.5
 30
0.0
 11
1675.0
 21
1749.999999999999
 31
0.0
  0
LINE
  5
FA1E
330
FA19
100
AcDbEntity
  8
01注記寸法
 62
     0
370
    -2
100
AcDbLine
 10
1605.0
 20
1759.999999999999
 30
0.0
 11
1645.0
 21
1759.999999999999
 31
0.0
  0
INSERT
  5
FA1F
330
FA19
100
AcDbEntity
  8
01注記寸法
 62
     0
370
    -2
100
AcDbBlockReference
  2
_Open
 10
1575.0
 20
1759.999999999999
 30
0.0
 41
30.0
 42
30.0
 43
30.0
 50
180.0
  0
INSERT
  5
FA20
330
FA19
100
AcDbEntity
  8
01注記寸法
 62
     0
370
    -2
100
AcDbBlockReference
  2
_Open
 10
1675.0
 20
1759.999999999999
 30
0.0
 41
30.0
 42
30.0
 43
30.0
  0
MTEXT
  5
FA21
330
FA19
100
AcDbEntity
  8
01注記寸法
 62
     0
100
AcDbMText
 10
1625.0
 20
1784.999999999999
 30
0.0
 40
30.0
 41
0.0
 71
     5
 72
     1
  1
100
 73
     1
 44
1.0
  0
POINT
  5
FA22
330
FA19
100
AcDbEntity
  8
Defpoints
 62
     0
100
AcDbPoint
 10
1575.0
 20
1971.999999999999
 30
0.0
  0
POINT
  5
FA23
330
FA19
100
AcDbEntity
  8
Defpoints
 62
     0
100
AcDbPoint
 10
1675.0
 20
1958.5
 30
0.0
  0
POINT
  5
FA24
330
FA19
100
AcDbEntity
  8
Defpoints
 62
     0
100
AcDbPoint
 10
1675.0
 20
1759.999999999999
 30
0.0
  0
ENDBLK
  5
FA1B
330
FA19
100
AcDbEntity
  8
0
100
AcDbBlockEnd
  0
BLOCK
  5
FA26
330
FA25
100
AcDbEntity
  8
0
100
AcDbBlockBegin
  2
*D1235
 70
     1
 10
0.0
 20
0.0
 30
0.0
  3
*D1235
  1

  0
LINE
  5
FA28
330
FA25
100
AcDbEntity
  8
01注記寸法
 62
     0
370
    -2
100
AcDbLine
 10
1690.0
 20
1960.0
 30
0.0
 11
1885.0
 21
1960.0
 31
0.0
  0
LINE
  5
FA29
330
FA25
100
AcDbEntity
  8
01注記寸法
 62
     0
370
    -2
100
AcDbLine
 10
1608.0
 20
1989.999999999999
 30
0.0
 11
1885.0
 21
1989.999999999999
 31
0.0
  0
LINE
  5
FA2A
330
FA25
100
AcDbEntity
  8
01注記寸法
 62
     0
370
    -2
100
AcDbLine
 10
1875.0
 20
1960.0
 30
0.0
 11
1875.0
 21
1844.070413524263
 31
0.0
  0
LINE
  5
FA2B
330
FA25
100
AcDbEntity
  8
01注記寸法
 62
     0
370
    -2
100
AcDbLine
 10
1875.0
 20
1960.0
 30
0.0
 11
1875.0
 21
1989.999999999999
 31
0.0
  0
LINE
  5
FA2C
330
FA25
100
AcDbEntity
  8
01注記寸法
 62
     0
370
    -2
100
AcDbLine
 10
1875.0
 20
1930.0
 30
0.0
 11
1875.0
 21
1900.0
 31
0.0
  0
LINE
  5
FA2D
330
FA25
100
AcDbEntity
  8
01注記寸法
 62
     0
370
    -2
100
AcDbLine
 10
1875.0
 20
2019.999999999999
 30
0.0
 11
1875.0
 21
2049.999999999999
 31
0.0
  0
INSERT
  5
FA2E
330
FA25
100
AcDbEntity
  8
01注記寸法
 62
     0
370
    -2
100
AcDbBlockReference
  2
_Open
 10
1875.0
 20
1960.0
 30
0.0
 41
30.0
 42
30.0
 43
30.0
 50
90.0
  0
INSERT
  5
FA2F
330
FA25
100
AcDbEntity
  8
01注記寸法
 62
     0
370
    -2
100
AcDbBlockReference
  2
_Open
 10
1875.0
 20
1989.999999999999
 30
0.0
 41
30.0
 42
30.0
 43
30.0
 50
270.0
  0
MTEXT
  5
FA30
330
FA25
100
AcDbEntity
  8
01注記寸法
 62
     0
100
AcDbMText
 10
1850.0
 20
1871.965413524263
 30
0.0
 40
30.0
 41
0.0
 71
     5
 72
     1
  1
30
 11
0.0
 21
1.0
 31
0.0
 73
     1
 44
1.0
  0
POINT
  5
FA31
330
FA25
100
AcDbEntity
  8
Defpoints
 62
     0
100
AcDbPoint
 10
1675.0
 20
1960.0
 30
0.0
  0
POINT
  5
FA32
330
FA25
100
AcDbEntity
  8
Defpoints
 62
     0
100
AcDbPoint
 10
1593.0
 20
1989.999999999999
 30
0.0
  0
POINT
  5
FA33
330
FA25
100
AcDbEntity
  8
Defpoints
 62
     0
100
AcDbPoint
 10
1875.0
 20
1989.999999999999
 30
0.0
  0
ENDBLK
  5
FA27
330
FA25
100
AcDbEntity
  8
0
100
AcDbBlockEnd
  0
BLOCK
  5
FA35
330
FA34
100
AcDbEntity
  8
0
100
AcDbBlockBegin
  2
*D1236
 70
     1
 10
0.0
 20
0.0
 30
0.0
  3
*D1236
  1

  0
LINE
  5
FA37
330
FA34
100
AcDbEntity
  8
01注記寸法
 62
     0
370
    -2
100
AcDbLine
 10
1608.0
 20
1989.999999999999
 30
0.0
 11
1885.0
 21
1989.999999999999
 31
0.0
  0
LINE
  5
FA38
330
FA34
100
AcDbEntity
  8
01注記寸法
 62
     0
370
    -2
100
AcDbLine
 10
1608.0
 20
2339.999999999999
 30
0.0
 11
1885.0
 21
2339.999999999999
 31
0.0
  0
LINE
  5
FA39
330
FA34
100
AcDbEntity
  8
01注記寸法
 62
     0
370
    -2
100
AcDbLine
 10
1875.0
 20
2019.999999999999
 30
0.0
 11
1875.0
 21
2309.999999999999
 31
0.0
  0
INSERT
  5
FA3A
330
FA34
100
AcDbEntity
  8
01注記寸法
 62
     0
370
    -2
100
AcDbBlockReference
  2
_Open
 10
1875.0
 20
1989.999999999999
 30
0.0
 41
30.0
 42
30.0
 43
30.0
 50
270.0
  0
INSERT
  5
FA3B
330
FA34
100
AcDbEntity
  8
01注記寸法
 62
     0
370
    -2
100
AcDbBlockReference
  2
_Open
 10
1875.0
 20
2339.999999999999
 30
0.0
 41
30.0
 42
30.0
 43
30.0
 50
90.0
  0
MTEXT
  5
FA3C
330
FA34
100
AcDbEntity
  8
01注記寸法
 62
     0
100
AcDbMText
 10
1849.01
 20
2164.999999999999
 30
0.0
 40
30.0
 41
0.0
 71
     5
 72
     1
  1
※ 350
 11
0.0
 21
1.0
 31
0.0
 73
     1
 44
1.0
  0
POINT
  5
FA3D
330
FA34
100
AcDbEntity
  8
Defpoints
 62
     0
100
AcDbPoint
 10
1593.0
 20
1989.999999999999
 30
0.0
  0
POINT
  5
FA3E
330
FA34
100
AcDbEntity
  8
Defpoints
 62
     0
100
AcDbPoint
 10
1593.0
 20
2339.999999999999
 30
0.0
  0
POINT
  5
FA3F
330
FA34
100
AcDbEntity
  8
Defpoints
 62
     0
100
AcDbPoint
 10
1875.0
 20
2339.999999999999
 30
0.0
  0
ENDBLK
  5
FA36
330
FA34
100
AcDbEntity
  8
0
100
AcDbBlockEnd
  0
BLOCK
  5
FA41
330
FA40
100
AcDbEntity
  8
0
100
AcDbBlockBegin
  2
*D1237
 70
     1
 10
0.0
 20
0.0
 30
0.0
  3
*D1237
  1

  0
LINE
  5
FA43
330
FA40
100
AcDbEntity
  8
01注記寸法
 62
     0
370
    -2
100
AcDbLine
 10
1608.0
 20
2339.999999999999
 30
0.0
 11
1885.0
 21
2339.999999999999
 31
0.0
  0
LINE
  5
FA44
330
FA40
100
AcDbEntity
  8
01注記寸法
 62
     0
370
    -2
100
AcDbLine
 10
1690.0
 20
2369.999999999999
 30
0.0
 11
1885.0
 21
2369.999999999999
 31
0.0
  0
LINE
  5
FA45
330
FA40
100
AcDbEntity
  8
01注記寸法
 62
     0
370
    -2
100
AcDbLine
 10
1875.0
 20
2399.999999999999
 30
0.0
 11
1875.0
 21
2485.789999999999
 31
0.0
  0
LINE
  5
FA46
330
FA40
100
AcDbEntity
  8
01注記寸法
 62
     0
370
    -2
100
AcDbLine
 10
1875.0
 20
2339.999999999999
 30
0.0
 11
1875.0
 21
2369.999999999999
 31
0.0
  0
LINE
  5
FA47
330
FA40
100
AcDbEntity
  8
01注記寸法
 62
     0
370
    -2
100
AcDbLine
 10
1875.0
 20
2309.999999999999
 30
0.0
 11
1875.0
 21
2279.999999999999
 31
0.0
  0
INSERT
  5
FA48
330
FA40
100
AcDbEntity
  8
01注記寸法
 62
     0
370
    -2
100
AcDbBlockReference
  2
_Open
 10
1875.0
 20
2339.999999999999
 30
0.0
 41
30.0
 42
30.0
 43
30.0
 50
90.0
  0
INSERT
  5
FA49
330
FA40
100
AcDbEntity
  8
01注記寸法
 62
     0
370
    -2
100
AcDbBlockReference
  2
_Open
 10
1875.0
 20
2369.999999999999
 30
0.0
 41
30.0
 42
30.0
 43
30.0
 50
270.0
  0
MTEXT
  5
FA4A
330
FA40
100
AcDbEntity
  8
01注記寸法
 62
     0
100
AcDbMText
 10
1850.0
 20
2457.894999999999
 30
0.0
 40
30.0
 41
0.0
 71
     5
 72
     1
  1
30
 11
0.0
 21
1.0
 31
0.0
 73
     1
 44
1.0
  0
POINT
  5
FA4B
330
FA40
100
AcDbEntity
  8
Defpoints
 62
     0
100
AcDbPoint
 10
1593.0
 20
2339.999999999999
 30
0.0
  0
POINT
  5
FA4C
330
FA40
100
AcDbEntity
  8
Defpoints
 62
     0
100
AcDbPoint
 10
1675.0
 20
2369.999999999999
 30
0.0
  0
POINT
  5
FA4D
330
FA40
100
AcDbEntity
  8
Defpoints
 62
     0
100
AcDbPoint
 10
1875.0
 20
2369.999999999999
 30
0.0
  0
ENDBLK
  5
FA42
330
FA40
100
AcDbEntity
  8
0
100
AcDbBlockEnd
  0
ENDSEC
  0
SECTION
  2
ENTITIES
  0
LWPOLYLINE
  5
7E6F
330
1F
100
AcDbEntity
  8
08非表示
  6
PHANTOM
100
AcDbPolyline
 90
        4
 70
     1
 43
0.0
 10
0.0
 20
0.0
 10
0.0
 20
2970.0
 10
4200.0
 20
2970.0
 10
4200.0
 20
0.0
  0
LWPOLYLINE
  5
7E74
330
1F
100
AcDbEntity
  8
09図枠
100
AcDbPolyline
 90
        4
 70
     1
 43
0.0
 10
100.0
 20
100.0
 10
100.0
 20
2870.0
 10
4100.0
 20
2870.0
 10
4100.0
 20
100.0
  0
LWPOLYLINE
  5
7E7B
330
1F
100
AcDbEntity
  8
09図枠
100
AcDbPolyline
 90
        4
 70
     1
 43
0.0
 10
3300.0
 20
2710.0
 10
3300.0
 20
2870.0
 10
4100.0
 20
2870.0
 10
4100.0
 20
2710.0
  0
TEXT
  5
7E7E
330
1F
100
AcDbEntity
  8
01注記寸法
100
AcDbText
 10
2409.999751016778
 20
2809.999765708526
 30
0.0
 40
40.0
  1
機器本体・防振架台取付共用仕様
 72
     1
 11
2799.999751016778
 21
2829.999765708526
 31
0.0
100
AcDbText
 73
     2
  0
LWPOLYLINE
  5
7E7F
330
1F
100
AcDbEntity
  8
09図枠
100
AcDbPolyline
 90
        4
 70
     1
 43
0.0
 10
2300.0
 20
2790.0
 10
2300.0
 20
2870.0
 10
3300.0
 20
2870.0
 10
3300.0
 20
2790.0
  0
LWPOLYLINE
  5
7E88
330
1F
100
AcDbEntity
  8
09図枠
100
AcDbPolyline
 90
        4
 70
     1
 43
0.0
 10
3460.0
 20
2630.0
 10
3460.0
 20
2710.0
 10
4100.0
 20
2710.0
 10
4100.0
 20
2630.0
  0
LWPOLYLINE
  5
7E89
330
1F
100
AcDbEntity
  8
09図枠
100
AcDbPolyline
 90
        4
 70
     1
 43
0.0
 10
3300.0
 20
2630.0
 10
3300.0
 20
2710.0
 10
3460.0
 20
2710.0
 10
3460.0
 20
2630.0
  0
TEXT
  5
7E8A
330
1F
100
AcDbEntity
  8
01注記寸法
100
AcDbText
 10
3328.0
 20
2650.0
 30
0.0
 40
40.0
  1
型式
 72
     1
 11
3380.0
 21
2670.0
 31
0.0
100
AcDbText
 73
     2
  0
LWPOLYLINE
  5
7E8C
330
1F
100
AcDbEntity
  8
09図枠
100
AcDbPolyline
 90
        4
 70
     1
 43
0.0
 10
3300.0
 20
2430.0
 10
3300.0
 20
2630.0
 10
4100.0
 20
2630.0
 10
4100.0
 20
2430.0
  0
LINE
  5
7E8D
330
1F
100
AcDbEntity
  8
01注記寸法
  6
HIDDEN
100
AcDbLine
 10
3300.0
 20
2510.0
 30
0.0
 11
4100.0
 21
2510.0
 31
0.0
  0
TEXT
  5
7E8F
330
1F
100
AcDbEntity
  8
01注記寸法
100
AcDbText
 10
3330.0
 20
2555.0
 30
0.0
 40
30.0
  1
機器
 11
3330.0
 21
2570.0
 31
0.0
100
AcDbText
 73
     2
  0
TEXT
  5
7E90
330
1F
100
AcDbEntity
  8
01注記寸法
100
AcDbText
 10
3330.0
 20
2455.0
 30
0.0
 40
30.0
  1
機器質量
 11
3330.0
 21
2470.0
 31
0.0
100
AcDbText
 73
     2
  0
LWPOLYLINE
  5
7E94
330
1F
100
AcDbEntity
  8
09図枠
100
AcDbPolyline
 90
        4
 70
     1
 43
0.0
 10
3300.0
 20
2250.0
 10
3300.0
 20
2430.0
 10
4100.0
 20
2430.0
 10
4100.0
 20
2250.0
  0
TEXT
  5
7E95
330
1F
100
AcDbEntity
  8
01注記寸法
100
AcDbText
 10
3330.0
 20
2355.0
 30
0.0
 40
30.0
  1
現場名
 11
3330.0
 21
2370.0
 31
0.0
100
AcDbText
 73
     2
  0
LINE
  5
7E97
330
1F
100
AcDbEntity
  8
01注記寸法
  6
HIDDEN
100
AcDbLine
 10
3300.0
 20
2310.0
 30
0.0
 11
4100.0
 21
2310.0
 31
0.0
  0
TEXT
  5
7E98
330
1F
100
AcDbEntity
  8
01注記寸法
100
AcDbText
 10
3330.0
 20
2265.0
 30
0.0
 40
30.0
  1
系統名
 11
3330.0
 21
2280.0
 31
0.0
100
AcDbText
 73
     2
  0
LWPOLYLINE
  5
7EA4
330
1F
100
AcDbEntity
  8
09図枠
100
AcDbPolyline
 90
        4
 70
     1
 43
0.0
 10
3460.0
 20
100.0
 10
3460.0
 20
180.0
 10
4100.0
 20
180.0
 10
4100.0
 20
100.0
  0
LWPOLYLINE
  5
7EA5
330
1F
100
AcDbEntity
  8
09図枠
100
AcDbPolyline
 90
        4
 70
     1
 43
0.0
 10
3300.0
 20
100.0
 10
3300.0
 20
180.0
 10
3460.0
 20
180.0
 10
3460.0
 20
100.0
  0
TEXT
  5
7EA6
330
1F
100
AcDbEntity
  8
01注記寸法
100
AcDbText
 10
3328.0
 20
120.0
 30
0.0
 40
40.0
  1
図番
 72
     1
 11
3380.0
 21
140.0
 31
0.0
100
AcDbText
 73
     2
  0
TEXT
  5
7EA7
330
1F
100
AcDbEntity
  8
01注記寸法
100
AcDbText
 10
3475.8
 20
120.0
 30
0.0
 40
40.0
  1
３－ＨＴＲ１０４＃Ｂ１－５
 41
0.9
 72
     1
 11
3780.0
 21
140.0
 31
0.0
100
AcDbText
 73
     2
  0
LWPOLYLINE
  5
7EB6
330
1F
100
AcDbEntity
  8
09図枠
100
AcDbPolyline
 90
        4
 70
     1
 43
0.0
 10
3300.0
 20
180.0
 10
3300.0
 20
280.0
 10
4100.0
 20
280.0
 10
4100.0
 20
180.0
  0
LWPOLYLINE
  5
7EB9
330
1F
100
AcDbEntity
  8
09図枠
100
AcDbPolyline
 90
        4
 70
     1
 43
0.0
 10
3300.0
 20
280.0
 10
3300.0
 20
420.0
 10
4100.0
 20
420.0
 10
4100.0
 20
280.0
  0
TEXT
  5
7EBE
330
1F
100
AcDbEntity
  8
01注記寸法
100
AcDbText
 10
3371.5
 20
375.0
 30
0.0
 40
30.0
  1
承認日
 72
     1
 11
3430.0
 21
390.0
 31
0.0
100
AcDbText
 73
     2
  0
TEXT
  5
7EBF
330
1F
100
AcDbEntity
  8
01注記寸法
100
AcDbText
 10
3611.0
 20
375.0
 30
0.0
 40
30.0
  1
承認
 72
     1
 11
3650.0
 21
390.0
 31
0.0
100
AcDbText
 73
     2
  0
TEXT
  5
7EC0
330
1F
100
AcDbEntity
  8
01注記寸法
100
AcDbText
 10
3791.0
 20
375.0
 30
0.0
 40
30.0
  1
設計
 72
     1
 11
3830.0
 21
390.0
 31
0.0
100
AcDbText
 73
     2
  0
TEXT
  5
7EC1
330
1F
100
AcDbEntity
  8
01注記寸法
100
AcDbText
 10
3971.0
 20
375.0
 30
0.0
 40
30.0
  1
作図
 72
     1
 11
4010.0
 21
390.0
 31
0.0
100
AcDbText
 73
     2
  0
TEXT
  5
7EC2
330
1F
100
AcDbEntity
  8
01注記寸法
100
AcDbText
 10
3342.25
 20
305.0
 30
0.0
 40
30.0
  1
'11.06.24
 72
     1
 11
3430.0
 21
320.0
 31
0.0
100
AcDbText
 73
     2
  0
TEXT
  5
7EC3
330
1F
100
AcDbEntity
  8
01注記寸法
100
AcDbText
 10
3611.0
 20
305.0
 30
0.0
 40
30.0
  1
小林
 72
     1
 11
3650.0
 21
320.0
 31
0.0
100
AcDbText
 73
     2
  0
TEXT
  5
7EC4
330
1F
100
AcDbEntity
  8
01注記寸法
100
AcDbText
 10
3791.0
 20
305.0
 30
0.0
 40
30.0
  1
小林
 72
     1
 11
3830.0
 21
320.0
 31
0.0
100
AcDbText
 73
     2
  0
TEXT
  5
7EC5
330
1F
100
AcDbEntity
  8
01注記寸法
100
AcDbText
 10
3971.0
 20
305.0
 30
0.0
 40
30.0
  1
倉持
 72
     1
 11
4010.0
 21
320.0
 31
0.0
100
AcDbText
 73
     2
  0
LWPOLYLINE
  5
7EC6
330
1F
100
AcDbEntity
  8
01注記寸法
100
AcDbPolyline
 90
        4
 70
     1
 43
0.0
 10
3300.0
 20
720.0
 10
3300.0
 20
780.0
 10
3400.0
 20
780.0
 10
3400.0
 20
720.0
  0
LWPOLYLINE
  5
7EC7
330
1F
100
AcDbEntity
  8
01注記寸法
100
AcDbPolyline
 90
        4
 70
     1
 43
0.0
 10
4250.0
 20
720.0
 10
4250.0
 20
780.0
 10
4350.0
 20
780.0
 10
4350.0
 20
720.0
  0
LWPOLYLINE
  5
7EC8
330
1F
100
AcDbEntity
  8
01注記寸法
100
AcDbPolyline
 90
        4
 70
     1
 43
0.0
 10
3400.0
 20
720.0
 10
3400.0
 20
780.0
 10
3600.0
 20
780.0
 10
3600.0
 20
720.0
  0
LWPOLYLINE
  5
7EC9
330
1F
100
AcDbEntity
  8
01注記寸法
100
AcDbPolyline
 90
        4
 70
     1
 43
0.0
 10
3600.0
 20
720.0
 10
3600.0
 20
780.0
 10
4100.0
 20
780.0
 10
4100.0
 20
720.0
  0
TEXT
  5
7ECA
330
1F
100
AcDbEntity
  8
01注記寸法
100
AcDbText
 10
3311.0
 20
735.0
 30
0.0
 40
30.0
  1
番号
 72
     1
 11
3350.0
 21
750.0
 31
0.0
100
AcDbText
 73
     2
  0
TEXT
  5
7ECB
330
1F
100
AcDbEntity
  8
01注記寸法
100
AcDbText
 10
4261.0
 20
735.0
 30
0.0
 40
30.0
  1
担当
 72
     1
 11
4300.0
 21
750.0
 31
0.0
100
AcDbText
 73
     2
  0
TEXT
  5
7ECC
330
1F
100
AcDbEntity
  8
01注記寸法
100
AcDbText
 10
3461.0
 20
735.0
 30
0.0
 40
30.0
  1
日付
 72
     1
 11
3500.0
 21
750.0
 31
0.0
100
AcDbText
 73
     2
  0
TEXT
  5
7ECD
330
1F
100
AcDbEntity
  8
01注記寸法
100
AcDbText
 10
3772.0
 20
735.0
 30
0.0
 40
30.0
  1
改訂記事
 72
     1
 11
3850.0
 21
750.0
 31
0.0
100
AcDbText
 73
     2
  0
LWPOLYLINE
  5
7ECE
330
1F
100
AcDbEntity
  8
01注記寸法
100
AcDbPolyline
 90
        4
 70
     1
 43
0.0
 10
3300.0
 20
660.0
 10
3300.0
 20
720.0
 10
3400.0
 20
720.0
 10
3400.0
 20
660.0
  0
LWPOLYLINE
  5
7ECF
330
1F
100
AcDbEntity
  8
01注記寸法
100
AcDbPolyline
 90
        4
 70
     1
 43
0.0
 10
4250.0
 20
660.0
 10
4250.0
 20
720.0
 10
4350.0
 20
720.0
 10
4350.0
 20
660.0
  0
LWPOLYLINE
  5
7ED0
330
1F
100
AcDbEntity
  8
01注記寸法
100
AcDbPolyline
 90
        4
 70
     1
 43
0.0
 10
3400.0
 20
660.0
 10
3400.0
 20
720.0
 10
3600.0
 20
720.0
 10
3600.0
 20
660.0
  0
LWPOLYLINE
  5
7ED1
330
1F
100
AcDbEntity
  8
01注記寸法
100
AcDbPolyline
 90
        4
 70
     1
 43
0.0
 10
3600.0
 20
660.0
 10
3600.0
 20
720.0
 10
4100.0
 20
720.0
 10
4100.0
 20
660.0
  0
TEXT
  5
7ED2
330
1F
100
AcDbEntity
  8
01注記寸法
100
AcDbText
 10
4261.0
 20
675.0
 30
0.0
 40
30.0
  1
内野
 72
     1
 11
4300.0
 21
690.0
 31
0.0
100
AcDbText
 73
     2
  0
TEXT
  5
7ED4
330
1F
100
AcDbEntity
  8
01注記寸法
100
AcDbText
 10
3412.25
 20
675.0001
 30
0.0
 40
30.0
  1
'16.02.12
 72
     1
 11
3500.0
 21
690.0001
 31
0.0
100
AcDbText
 73
     2
  0
TEXT
  5
7ED5
330
1F
100
AcDbEntity
  8
01注記寸法
100
AcDbText
 10
3635.5
 20
675.000075415428
 30
0.0
 40
30.0
  1
機器取付追加・全面改訂
 72
     1
 11
3850.0
 21
690.000075415428
 31
0.0
100
AcDbText
 73
     2
  0
TEXT
  5
7ED6
330
1F
100
AcDbEntity
  8
01注記寸法
100
AcDbText
 10
3340.250000000002
 20
668.1365675940957
 30
0.0
 40
30.0
  1
1
 72
     4
 11
3350.000000000002
 21
683.2865675940957
 31
0.0
100
AcDbText
  0
LWPOLYLINE
  5
7EDA
330
1F
100
AcDbEntity
  8
09図枠
100
AcDbPolyline
 90
        4
 70
     1
 43
0.0
 10
3300.0
 20
780.0
 10
3300.0
 20
2250.0
 10
4100.0
 20
2250.0
 10
4100.0
 20
780.0
  0
LWPOLYLINE
  5
7EDB
330
1F
100
AcDbEntity
  8
09図枠
100
AcDbPolyline
 90
        4
 70
     1
 43
0.0
 10
3300.0
 20
420.0
 10
3300.0
 20
780.0
 10
4100.0
 20
780.0
 10
4100.0
 20
420.0
  0
LWPOLYLINE
  5
7EE7
330
1F
100
AcDbEntity
  8
01注記寸法
100
AcDbPolyline
 90
        4
 70
     1
 43
0.0
 10
3300.0
 20
540.0
 10
3300.0
 20
600.0
 10
3400.0
 20
600.0
 10
3400.0
 20
540.0
  0
LWPOLYLINE
  5
7EE8
330
1F
100
AcDbEntity
  8
01注記寸法
100
AcDbPolyline
 90
        4
 70
     1
 43
0.0
 10
4250.0
 20
540.0
 10
4250.0
 20
600.0
 10
4350.0
 20
600.0
 10
4350.0
 20
540.0
  0
LWPOLYLINE
  5
7EE9
330
1F
100
AcDbEntity
  8
01注記寸法
100
AcDbPolyline
 90
        4
 70
     1
 43
0.0
 10
3400.0
 20
540.0
 10
3400.0
 20
600.0
 10
3600.0
 20
600.0
 10
3600.0
 20
540.0
  0
LWPOLYLINE
  5
7EEA
330
1F
100
AcDbEntity
  8
01注記寸法
100
AcDbPolyline
 90
        4
 70
     1
 43
0.0
 10
3600.0
 20
540.0
 10
3600.0
 20
600.0
 10
4100.0
 20
600.0
 10
4100.0
 20
540.0
  0
TEXT
  5
7EEB
330
1F
100
AcDbEntity
  8
01注記寸法
100
AcDbText
 10
4261.0
 20
555.0
 30
0.0
 40
30.0
  1
内野
 72
     1
 11
4300.0
 21
570.0
 31
0.0
100
AcDbText
 73
     2
  0
TEXT
  5
7EED
330
1F
100
AcDbEntity
  8
01注記寸法
100
AcDbText
 10
3772.0
 20
555.000075415428
 30
0.0
 40
30.0
  1
寸法訂正
 72
     1
 11
3850.0
 21
570.000075415428
 31
0.0
100
AcDbText
 73
     2
  0
TEXT
  5
7EEE
330
1F
100
AcDbEntity
  8
01注記寸法
100
AcDbText
 10
3340.25
 20
548.1370000000003
 30
0.0
 40
30.0
  1
3
 72
     4
 11
3350.0
 21
563.2870000000003
 31
0.0
100
AcDbText
  0
LWPOLYLINE
  5
7EF2
330
1F
100
AcDbEntity
  8
01注記寸法
100
AcDbPolyline
 90
        4
 70
     1
 43
0.0
 10
3300.0
 20
480.0
 10
3300.0
 20
540.0
 10
3400.0
 20
540.0
 10
3400.0
 20
480.0
  0
LWPOLYLINE
  5
7EF3
330
1F
100
AcDbEntity
  8
01注記寸法
100
AcDbPolyline
 90
        4
 70
     1
 43
0.0
 10
4250.0
 20
480.0
 10
4250.0
 20
540.0
 10
4350.0
 20
540.0
 10
4350.0
 20
480.0
  0
LWPOLYLINE
  5
7EF4
330
1F
100
AcDbEntity
  8
01注記寸法
100
AcDbPolyline
 90
        4
 70
     1
 43
0.0
 10
3400.0
 20
480.0
 10
3400.0
 20
540.0
 10
3600.0
 20
540.0
 10
3600.0
 20
480.0
  0
LWPOLYLINE
  5
7EF5
330
1F
100
AcDbEntity
  8
01注記寸法
100
AcDbPolyline
 90
        4
 70
     1
 43
0.0
 10
3600.0
 20
480.0
 10
3600.0
 20
540.0
 10
4100.0
 20
540.0
 10
4100.0
 20
480.0
  0
TEXT
  5
7EF6
330
1F
100
AcDbEntity
  8
01注記寸法
100
AcDbText
 10
4261.0
 20
495.0
 30
0.0
 40
30.0
  1
小西
 72
     1
 11
4300.0
 21
510.0
 31
0.0
100
AcDbText
 73
     2
  0
TEXT
  5
7EF8
330
1F
100
AcDbEntity
  8
01注記寸法
100
AcDbText
 10
3645.25
 20
495.000075415428
 30
0.0
 40
30.0
  1
型式/適用防振架台追記
 72
     1
 11
3850.0
 21
510.000075415428
 31
0.0
100
AcDbText
 73
     2
  0
TEXT
  5
7EF9
330
1F
100
AcDbEntity
  8
01注記寸法
100
AcDbText
 10
3340.25
 20
488.1370000000003
 30
0.0
 40
30.0
  1
4
 72
     4
 11
3350.0
 21
503.2870000000003
 31
0.0
100
AcDbText
  0
LWPOLYLINE
  5
7EFD
330
1F
100
AcDbEntity
  8
01注記寸法
100
AcDbPolyline
 90
        4
 70
     1
 43
0.0
 10
3300.0
 20
420.0
 10
3300.0
 20
480.0
 10
3400.0
 20
480.0
 10
3400.0
 20
420.0
  0
LWPOLYLINE
  5
7EFE
330
1F
100
AcDbEntity
  8
01注記寸法
100
AcDbPolyline
 90
        4
 70
     1
 43
0.0
 10
4250.0
 20
420.0
 10
4250.0
 20
480.0
 10
4350.0
 20
480.0
 10
4350.0
 20
420.0
  0
LWPOLYLINE
  5
7EFF
330
1F
100
AcDbEntity
  8
01注記寸法
100
AcDbPolyline
 90
        4
 70
     1
 43
0.0
 10
3400.0
 20
420.0
 10
3400.0
 20
480.0
 10
3600.0
 20
480.0
 10
3600.0
 20
420.0
  0
LWPOLYLINE
  5
7F00
330
1F
100
AcDbEntity
  8
01注記寸法
100
AcDbPolyline
 90
        4
 70
     1
 43
0.0
 10
3600.0
 20
420.0
 10
3600.0
 20
480.0
 10
4100.0
 20
480.0
 10
4100.0
 20
420.0
  0
TEXT
  5
7F01
330
1F
100
AcDbEntity
  8
01注記寸法
100
AcDbText
 10
4261.0
 20
435.0
 30
0.0
 40
30.0
  1
担当
 72
     1
 11
4300.0
 21
450.0
 31
0.0
100
AcDbText
 73
     2
  0
TEXT
  5
7F03
330
1F
100
AcDbEntity
  8
08非表示
100
AcDbText
 10
3801.25
 20
435.000075415428
 30
0.0
 40
30.0
  1
*****
 72
     1
 11
3850.0
 21
450.000075415428
 31
0.0
100
AcDbText
 73
     2
  0
TEXT
  5
7F04
330
1F
100
AcDbEntity
  8
08非表示
100
AcDbText
 10
3340.25
 20
428.1370000000003
 30
0.0
 40
30.0
  1
5
 72
     4
 11
3350.0
 21
443.2870000000003
 31
0.0
100
AcDbText
  0
ARC
  5
7F08
330
1F
100
AcDbEntity
  8
09図枠
100
AcDbCircle
 10
3340.0
 20
2210.0
 30
0.0
 40
30.0
100
AcDbArc
 50
90.0
 51
270.0
  0
ARC
  5
7F09
330
1F
100
AcDbEntity
  8
09図枠
100
AcDbCircle
 10
3480.0
 20
2210.0
 30
0.0
 40
30.0
100
AcDbArc
 50
270.0
 51
90.0
  0
LINE
  5
7F0A
330
1F
100
AcDbEntity
  8
09図枠
100
AcDbLine
 10
3340.0
 20
2240.0
 30
0.0
 11
3480.0
 21
2240.0
 31
0.0
  0
LINE
  5
7F0B
330
1F
100
AcDbEntity
  8
09図枠
100
AcDbLine
 10
3340.0
 20
2180.0
 30
0.0
 11
3480.0
 21
2180.0
 31
0.0
  0
TEXT
  5
7F0C
330
1F
100
AcDbEntity
  8
01注記寸法
100
AcDbText
 10
3371.0
 20
2195.0
 30
0.0
 40
30.0
  1
仕様
 72
     1
 11
3410.0
 21
2210.0
 31
0.0
100
AcDbText
 73
     2
  0
TEXT
  5
7F0D
330
1F
100
AcDbEntity
  8
01注記寸法
100
AcDbText
 10
3330.0
 20
2135.0
 30
0.0
 40
30.0
  1
架台質量
 11
3330.0
 21
2150.0
 31
0.0
100
AcDbText
 73
     2
  0
TEXT
  5
7F12
330
1F
100
AcDbEntity
  8
01注記寸法
100
AcDbText
 10
4041.0
 20
2135.0
 30
0.0
 40
30.0
  1
kg
 72
     2
 11
4080.0
 21
2150.0
 31
0.0
100
AcDbText
 73
     2
  0
TEXT
  5
7F13
330
1F
100
AcDbEntity
  8
01注記寸法
100
AcDbText
 10
3981.0
 20
2135.0
 30
0.0
 40
30.0
  1
20
 72
     2
 11
4020.0
 21
2150.0
 31
0.0
100
AcDbText
 73
     2
  0
LINE
  5
7F19
330
1F
100
AcDbEntity
  8
01注記寸法
100
AcDbLine
 10
4100.0
 20
2120.0
 30
0.0
 11
3300.0
 21
2120.0
 31
0.0
  0
TEXT
  5
7F1B
330
1F
100
AcDbEntity
  8
01注記寸法
100
AcDbText
 10
3330.0
 20
2075.0
 30
0.0
 40
30.0
  1
材質
 11
3330.0
 21
2090.0
 31
0.0
100
AcDbText
 73
     2
  0
TEXT
  5
7F1C
330
1F
100
AcDbEntity
  8
01注記寸法
100
AcDbText
 10
3982.5
 20
2075.0
 30
0.0
 40
30.0
  1
SS400
 72
     2
 11
4080.0
 21
2090.0
 31
0.0
100
AcDbText
 73
     2
  0
LINE
  5
7F47
330
1F
100
AcDbEntity
  8
09図枠
100
AcDbLine
 10
4100.0
 20
1450.0
 30
0.0
 11
3300.0
 21
1450.0
 31
0.0
  0
LINE
  5
7F48
330
1F
100
AcDbEntity
  8
09図枠
100
AcDbLine
 10
3340.0
 20
1440.0
 30
0.0
 11
3480.0
 21
1440.0
 31
0.0
  0
ARC
  5
7F49
330
1F
100
AcDbEntity
  8
09図枠
100
AcDbCircle
 10
3480.0
 20
1410.0
 30
0.0
 40
30.0
100
AcDbArc
 50
270.0
 51
90.0
  0
TEXT
  5
7F4A
330
1F
100
AcDbEntity
  8
01注記寸法
100
AcDbText
 10
3351.500198931677
 20
1395.0
 30
0.0
 40
30.0
  1
その他
 72
     1
 11
3410.000198931677
 21
1410.0
 31
0.0
100
AcDbText
 73
     2
  0
LINE
  5
7F4B
330
1F
100
AcDbEntity
  8
09図枠
100
AcDbLine
 10
3340.0
 20
1380.0
 30
0.0
 11
3480.0
 21
1380.0
 31
0.0
  0
ARC
  5
7F4C
330
1F
100
AcDbEntity
  8
09図枠
100
AcDbCircle
 10
3340.0
 20
1410.0
 30
0.0
 40
30.0
100
AcDbArc
 50
90.0
 51
270.0
  0
LWPOLYLINE
  5
7F4E
330
1F
100
AcDbEntity
  8
01注記寸法
100
AcDbPolyline
 90
        4
 70
     1
 43
0.0
 10
3900.0
 20
-110.0
 10
3900.0
 20
-50.0
 10
4000.0
 20
-50.0
 10
4000.0
 20
-110.0
  0
LWPOLYLINE
  5
7F4F
330
1F
100
AcDbEntity
  8
01注記寸法
100
AcDbPolyline
 90
        4
 70
     1
 43
0.0
 10
3200.0
 20
-110.0
 10
3200.0
 20
-50.0
 10
3400.0
 20
-50.0
 10
3400.0
 20
-110.0
  0
LWPOLYLINE
  5
7F50
330
1F
100
AcDbEntity
  8
01注記寸法
100
AcDbPolyline
 90
        4
 70
     1
 43
0.0
 10
3400.0
 20
-110.0
 10
3400.0
 20
-50.0
 10
3900.0
 20
-50.0
 10
3900.0
 20
-110.0
  0
TEXT
  5
7F51
330
1F
100
AcDbEntity
  8
01注記寸法
100
AcDbText
 10
3911.0
 20
-95.0
 30
0.0
 40
30.0
  1
担当
 72
     1
 11
3950.0
 21
-80.0
 31
0.0
100
AcDbText
 73
     2
  0
TEXT
  5
7F52
330
1F
100
AcDbEntity
  8
01注記寸法
100
AcDbText
 10
3261.0
 20
-95.0
 30
0.0
 40
30.0
  1
日付
 72
     1
 11
3300.0
 21
-80.0
 31
0.0
100
AcDbText
 73
     2
  0
TEXT
  5
7F53
330
1F
100
AcDbEntity
  8
01注記寸法
100
AcDbText
 10
3474.5
 20
-95.0
 30
0.0
 40
30.0
  1
社内都合による改訂
 72
     1
 11
3650.0
 21
-80.0
 31
0.0
100
AcDbText
 73
     2
  0
LWPOLYLINE
  5
7F54
330
1F
100
AcDbEntity
  8
01注記寸法
100
AcDbPolyline
 90
        4
 70
     1
 43
0.0
 10
3900.0
 20
-170.0
 10
3900.0
 20
-110.0
 10
4000.0
 20
-110.0
 10
4000.0
 20
-170.0
  0
LWPOLYLINE
  5
7F55
330
1F
100
AcDbEntity
  8
01注記寸法
100
AcDbPolyline
 90
        4
 70
     1
 43
0.0
 10
3200.0
 20
-170.0
 10
3200.0
 20
-110.0
 10
3400.0
 20
-110.0
 10
3400.0
 20
-170.0
  0
LWPOLYLINE
  5
7F56
330
1F
100
AcDbEntity
  8
01注記寸法
100
AcDbPolyline
 90
        4
 70
     1
 43
0.0
 10
3400.0
 20
-170.0
 10
3400.0
 20
-110.0
 10
3900.0
 20
-110.0
 10
3900.0
 20
-170.0
  0
TEXT
  5
7F57
330
1F
100
AcDbEntity
  8
01注記寸法
100
AcDbText
 10
3911.0
 20
-155.0
 30
0.0
 40
30.0
  1
担当
 72
     1
 11
3950.0
 21
-140.0
 31
0.0
100
AcDbText
 73
     2
  0
TEXT
  5
7F58
330
1F
100
AcDbEntity
  8
01注記寸法
100
AcDbText
 10
3212.25
 20
-154.9998953774398
 30
0.0
 40
30.0
  1
'16.**.**
 72
     1
 11
3300.0
 21
-139.9998953774398
 31
0.0
100
AcDbText
 73
     2
  0
TEXT
  5
7F59
330
1F
100
AcDbEntity
  8
01注記寸法
100
AcDbText
 10
3601.25
 20
-154.999924584572
 30
0.0
 40
30.0
  1
*****
 72
     1
 11
3650.0
 21
-139.999924584572
 31
0.0
100
AcDbText
 73
     2
  0
LWPOLYLINE
  5
7F8D
330
1F
100
AcDbEntity
  8
01注記寸法
100
AcDbPolyline
 90
        4
 70
     1
 43
0.0
 10
4350.0
 20
720.0
 10
4350.0
 20
780.0
 10
4550.0
 20
780.0
 10
4550.0
 20
720.0
  0
TEXT
  5
7F8E
330
1F
100
AcDbEntity
  8
01注記寸法
100
AcDbText
 10
4391.5
 20
735.000328543565
 30
0.0
 40
30.0
  1
依頼書
 72
     1
 11
4450.0
 21
750.000328543565
 31
0.0
100
AcDbText
 73
     2
  0
LWPOLYLINE
  5
7F8F
330
1F
100
AcDbEntity
  8
01注記寸法
100
AcDbPolyline
 90
        4
 70
     1
 43
0.0
 10
4350.0
 20
660.0
 10
4350.0
 20
720.0
 10
4550.0
 20
720.0
 10
4550.0
 20
660.0
  0
TEXT
  5
7F90
330
1F
100
AcDbEntity
  8
01注記寸法
100
AcDbText
 10
4391.5
 20
675.000328543565
 30
0.0
 40
30.0
  1
017541
 72
     1
 11
4450.0
 21
690.000328543565
 31
0.0
100
AcDbText
 73
     2
  0
TEXT
  5
7F93
330
1F
100
AcDbEntity
  8
01注記寸法
100
AcDbText
 10
4411.0
 20
555.000075415428
 30
0.0
 40
30.0
  1
無し
 72
     1
 11
4450.0
 21
570.000075415428
 31
0.0
100
AcDbText
 73
     2
  0
LWPOLYLINE
  5
7F94
330
1F
100
AcDbEntity
  8
01注記寸法
100
AcDbPolyline
 90
        4
 70
     1
 43
0.0
 10
4350.0
 20
540.0
 10
4350.0
 20
600.0
 10
4550.0
 20
600.0
 10
4550.0
 20
540.0
  0
TEXT
  5
7F95
330
1F
100
AcDbEntity
  8
01注記寸法
100
AcDbText
 10
4372.0
 20
495.000075415428
 30
0.0
 40
30.0
  1
T1905159
 72
     1
 11
4450.0
 21
510.000075415428
 31
0.0
100
AcDbText
 73
     2
  0
LWPOLYLINE
  5
7F96
330
1F
100
AcDbEntity
  8
01注記寸法
100
AcDbPolyline
 90
        4
 70
     1
 43
0.0
 10
4350.0
 20
480.0
 10
4350.0
 20
540.0
 10
4550.0
 20
540.0
 10
4550.0
 20
480.0
  0
TEXT
  5
7F97
330
1F
100
AcDbEntity
  8
01注記寸法
100
AcDbText
 10
4391.5
 20
435.000075415428
 30
0.0
 40
30.0
  1
******
 72
     1
 11
4450.0
 21
450.000075415428
 31
0.0
100
AcDbText
 73
     2
  0
LWPOLYLINE
  5
7F98
330
1F
100
AcDbEntity
  8
01注記寸法
100
AcDbPolyline
 90
        4
 70
     1
 43
0.0
 10
4350.0
 20
420.0
 10
4350.0
 20
480.0
 10
4550.0
 20
480.0
 10
4550.0
 20
420.0
  0
TEXT
  5
7FC3
330
1F
100
AcDbEntity
  8
01注記寸法
100
AcDbText
 10
3330.0
 20
1275.0
 30
0.0
 40
30.0
  1
　底面全体で水平面に設置してください。
 11
3330.0
 21
1290.0
 31
0.0
100
AcDbText
 73
     2
  0
TEXT
  5
7FC9
330
1F
100
AcDbEntity
  8
01注記寸法
100
AcDbText
 10
130.0
 20
55.0
 30
0.0
 40
30.0
  1
A3
 11
130.0
 21
70.0
 31
0.0
100
AcDbText
 73
     2
  0
TEXT
  5
7FCA
330
1F
100
AcDbEntity
  8
01注記寸法
100
AcDbText
 10
230.0
 20
55.0
 30
0.0
 40
30.0
  1
SCALE=
 11
230.0
 21
70.0
 31
0.0
100
AcDbText
 73
     2
  0
TEXT
  5
7FCB
330
1F
100
AcDbEntity
  8
01注記寸法
100
AcDbText
 10
360.0
 20
55.0
 30
0.0
 40
30.0
  1
1:10
 11
360.0
 21
70.0
 31
0.0
100
AcDbText
 73
     2
  0
LWPOLYLINE
  5
807F
330
1F
100
AcDbEntity
  8
01注記寸法
100
AcDbPolyline
 90
        4
 70
     1
 43
0.0
 10
4000.0
 20
-110.0
 10
4000.0
 20
-50.0
 10
4200.0
 20
-50.0
 10
4200.0
 20
-110.0
  0
TEXT
  5
8080
330
1F
100
AcDbEntity
  8
01注記寸法
100
AcDbText
 10
4041.5
 20
-94.99967145643495
 30
0.0
 40
30.0
  1
依頼書
 72
     1
 11
4100.0
 21
-79.99967145643495
 31
0.0
100
AcDbText
 73
     2
  0
LWPOLYLINE
  5
8081
330
1F
100
AcDbEntity
  8
01注記寸法
100
AcDbPolyline
 90
        4
 70
     1
 43
0.0
 10
4000.0
 20
-170.0
 10
4000.0
 20
-110.0
 10
4200.0
 20
-110.0
 10
4200.0
 20
-170.0
  0
TEXT
  5
8082
330
1F
100
AcDbEntity
  8
01注記寸法
100
AcDbText
 10
4041.5
 20
-154.999671456435
 30
0.0
 40
30.0
  1
******
 72
     1
 11
4100.0
 21
-139.999671456435
 31
0.0
100
AcDbText
 73
     2
  0
TEXT
  5
818F
330
1F
100
AcDbEntity
  8
01注記寸法
100
AcDbText
 10
3330.000198931677
 20
2015.0
 30
0.0
 40
30.0
  1
表面処理
 11
3330.000198931677
 21
2030.0
 31
0.0
100
AcDbText
 73
     2
  0
LINE
  5
8191
330
1F
100
AcDbEntity
  8
09図枠
100
AcDbLine
 10
4100.0
 20
1880.0
 30
0.0
 11
3300.0
 21
1880.0
 31
0.0
  0
TEXT
  5
8192
330
1F
100
AcDbEntity
  8
01注記寸法
100
AcDbText
 10
3807.000198931677
 20
2015.0
 30
0.0
 40
30.0
  1
溶融亜鉛めっき
 72
     2
 11
4080.000198931677
 21
2030.0
 31
0.0
100
AcDbText
 73
     2
  0
TEXT
  5
8193
330
1F
100
AcDbEntity
  8
01注記寸法
100
AcDbText
 10
3885.000198931677
 20
1955.0
 30
0.0
 40
30.0
  1
2種・HDZ45
 72
     2
 11
4080.000198931677
 21
1970.0
 31
0.0
100
AcDbText
 73
     2
  0
LINE
  5
8194
330
1F
100
AcDbEntity
  8
09図枠
100
AcDbLine
 10
3340.0
 20
1810.0
 30
0.0
 11
3480.0
 21
1810.0
 31
0.0
  0
ARC
  5
8195
330
1F
100
AcDbEntity
  8
09図枠
100
AcDbCircle
 10
3480.0
 20
1840.0
 30
0.0
 40
30.0
100
AcDbArc
 50
270.0
 51
90.0
  0
LINE
  5
8196
330
1F
100
AcDbEntity
  8
09図枠
100
AcDbLine
 10
3340.0
 20
1870.0
 30
0.0
 11
3480.0
 21
1870.0
 31
0.0
  0
TEXT
  5
8197
330
1F
100
AcDbEntity
  8
01注記寸法
100
AcDbText
 10
3351.500198931677
 20
1825.0
 30
0.0
 40
30.0
  1
付属品
 72
     1
 11
3410.000198931677
 21
1840.0
 31
0.0
100
AcDbText
 73
     2
  0
ARC
  5
8199
330
1F
100
AcDbEntity
  8
09図枠
100
AcDbCircle
 10
3340.0
 20
1840.0
 30
0.0
 40
30.0
100
AcDbArc
 50
90.0
 51
270.0
  0
TEXT
  5
819A
330
1F
100
AcDbEntity
  8
01注記寸法
100
AcDbText
 10
3330.000198931677
 20
1765.0
 30
0.0
 40
30.0
  1
機器固定ボルト
 11
3330.000198931677
 21
1780.0
 31
0.0
100
AcDbText
 73
     2
  0
TEXT
  5
819C
330
1F
100
AcDbEntity
  8
01注記寸法
100
AcDbText
 10
3807.000198931677
 20
1765.0
 30
0.0
 40
30.0
  1
溶融亜鉛めっき
 72
     2
 11
4080.000198931677
 21
1780.0
 31
0.0
100
AcDbText
 73
     2
  0
TEXT
  5
819D
330
1F
100
AcDbEntity
  8
01注記寸法
100
AcDbText
 10
3963.000198931677
 20
1705.0
 30
0.0
 40
30.0
  1
セット
 72
     2
 11
4080.000198931677
 21
1720.0
 31
0.0
100
AcDbText
 73
     2
  0
TEXT
  5
819F
330
1F
100
AcDbEntity
  8
01注記寸法
100
AcDbText
 10
3360.0
 20
1705.0
 30
0.0
 40
30.0
  1
M10×40L
 11
3360.0
 21
1720.0
 31
0.0
100
AcDbText
 73
     2
  0
TEXT
  5
81A1
330
1F
100
AcDbEntity
  8
01注記寸法
100
AcDbText
 10
3935.5002
 20
1705.0
 30
0.0
 40
30.0
  1
4
 72
     2
 11
3955.0002
 21
1720.0
 31
0.0
100
AcDbText
 73
     2
  0
TEXT
  5
81A4
330
1F
100
AcDbEntity
  8
01注記寸法
100
AcDbText
 10
3540.0
 20
1705.0
 30
0.0
 40
30.0
  1
(平W×2,NT×2付)
 11
3540.0
 21
1720.0
 31
0.0
100
AcDbText
 73
     2
  0
TEXT
  5
81A5
330
1F
100
AcDbEntity
  8
01注記寸法
100
AcDbText
 10
3935.500198931677
 20
1585.0
 30
0.0
 40
30.0
  1
4
 72
     2
 11
3955.000198931677
 21
1600.0
 31
0.0
100
AcDbText
 73
     2
  0
TEXT
  5
81A6
330
1F
100
AcDbEntity
  8
01注記寸法
100
AcDbText
 10
3963.000198931677
 20
1585.0
 30
0.0
 40
30.0
  1
セット
 72
     2
 11
4080.000198931677
 21
1600.0
 31
0.0
100
AcDbText
 73
     2
  0
TEXT
  5
81A7
330
1F
100
AcDbEntity
  8
01注記寸法
100
AcDbText
 10
3807.000198931677
 20
1645.0
 30
0.0
 40
30.0
  1
溶融亜鉛めっき
 72
     2
 11
4080.000198931677
 21
1660.0
 31
0.0
100
AcDbText
 73
     2
  0
TEXT
  5
81AA
330
1F
100
AcDbEntity
  8
01注記寸法
100
AcDbText
 10
3540.0
 20
1585.0
 30
0.0
 40
30.0
  1
(平W,角W,NT×2付)
 11
3540.0
 21
1600.0
 31
0.0
100
AcDbText
 73
     2
  0
TEXT
  5
81AB
330
1F
100
AcDbEntity
  8
01注記寸法
100
AcDbText
 10
3360.0
 20
1585.0
 30
0.0
 40
30.0
  1
M12×70L
 11
3360.0
 21
1600.0
 31
0.0
100
AcDbText
 73
     2
  0
TEXT
  5
81AC
330
1F
100
AcDbEntity
  8
01注記寸法
100
AcDbText
 10
3330.000198931677
 20
1645.0
 30
0.0
 40
30.0
  1
防振架台固定ボルト
 11
3330.000198931677
 21
1660.0
 31
0.0
100
AcDbText
 73
     2
  0
TEXT
  5
81AD
330
1F
100
AcDbEntity
  8
08非表示
100
AcDbText
 10
3330.000198931677
 20
1525.0
 30
0.0
 40
30.0
  1
架台連結ボルト
 11
3330.000198931677
 21
1540.0
 31
0.0
100
AcDbText
 73
     2
  0
TEXT
  5
81AE
330
1F
100
AcDbEntity
  8
08非表示
100
AcDbText
 10
3360.0
 20
1465.0
 30
0.0
 40
30.0
  1
M16×40L
 11
3360.0
 21
1480.0
 31
0.0
100
AcDbText
 73
     2
  0
TEXT
  5
81AF
330
1F
100
AcDbEntity
  8
08非表示
100
AcDbText
 10
3540.0
 20
1465.0
 30
0.0
 40
30.0
  1
(平W×2,NT×2付)
 11
3540.0
 21
1480.0
 31
0.0
100
AcDbText
 73
     2
  0
TEXT
  5
81B0
330
1F
100
AcDbEntity
  8
08非表示
100
AcDbText
 10
3807.000198931677
 20
1525.0
 30
0.0
 40
30.0
  1
溶融亜鉛めっき
 72
     2
 11
4080.000198931677
 21
1540.0
 31
0.0
100
AcDbText
 73
     2
  0
TEXT
  5
81B1
330
1F
100
AcDbEntity
  8
08非表示
100
AcDbText
 10
3935.500198931677
 20
1465.0
 30
0.0
 40
30.0
  1
4
 72
     2
 11
3955.000198931677
 21
1480.0
 31
0.0
100
AcDbText
 73
     2
  0
TEXT
  5
81B2
330
1F
100
AcDbEntity
  8
08非表示
100
AcDbText
 10
3963.000198931677
 20
1465.0
 30
0.0
 40
30.0
  1
セット
 72
     2
 11
4080.000198931677
 21
1480.0
 31
0.0
100
AcDbText
 73
     2
  0
TEXT
  5
81BB
330
1F
100
AcDbEntity
  8
01注記寸法
100
AcDbText
 10
3330.0
 20
1895.0
 30
0.0
 40
30.0
  1
耐震基準
 11
3330.0
 21
1910.0
 31
0.0
100
AcDbText
 73
     2
  0
TEXT
  5
81BC
330
1F
100
AcDbEntity
  8
01注記寸法
100
AcDbText
 10
4002.0
 20
1895.0
 30
0.0
 40
30.0
  1
2.0G
 72
     2
 11
4080.0
 21
1910.0
 31
0.0
100
AcDbText
 73
     2
  0
CIRCLE
  5
81BD
330
1F
100
AcDbEntity
  8
08非表示
100
AcDbCircle
 10
3565.0
 20
1840.0
 30
0.0
 40
25.0
  0
TEXT
  5
81BE
330
1F
100
AcDbEntity
  8
08非表示
100
AcDbText
 10
3555.25
 20
1825.0
 30
0.0
 40
30.0
  1
A
 72
     1
 11
3565.0
 21
1840.0
 31
0.0
100
AcDbText
 73
     2
  0
CIRCLE
  5
81BF
330
1F
100
AcDbEntity
  8
08非表示
100
AcDbCircle
 10
3615.0
 20
1840.0
 30
0.0
 40
25.0
  0
TEXT
  5
81C0
330
1F
100
AcDbEntity
  8
08非表示
100
AcDbText
 10
3605.25
 20
1825.0
 30
0.0
 40
30.0
  1
B
 72
     1
 11
3615.0
 21
1840.0
 31
0.0
100
AcDbText
 73
     2
  0
CIRCLE
  5
81C1
330
1F
100
AcDbEntity
  8
08非表示
100
AcDbCircle
 10
3665.0
 20
1840.0
 30
0.0
 40
25.0
  0
TEXT
  5
81C2
330
1F
100
AcDbEntity
  8
08非表示
100
AcDbText
 10
3655.25
 20
1825.0
 30
0.0
 40
30.0
  1
C
 72
     1
 11
3665.0
 21
1840.0
 31
0.0
100
AcDbText
 73
     2
  0
CIRCLE
  5
81C3
330
1F
100
AcDbEntity
  8
08非表示
100
AcDbCircle
 10
3715.0
 20
1840.0
 30
0.0
 40
25.0
  0
TEXT
  5
81C4
330
1F
100
AcDbEntity
  8
08非表示
100
AcDbText
 10
3705.25
 20
1825.0
 30
0.0
 40
30.0
  1
1
 72
     1
 11
3715.0
 21
1840.0
 31
0.0
100
AcDbText
 73
     2
  0
TEXT
  5
81C5
330
1F
100
AcDbEntity
  8
08非表示
100
AcDbText
 10
3755.25
 20
1825.0
 30
0.0
 40
30.0
  1
2
 72
     1
 11
3765.0
 21
1840.0
 31
0.0
100
AcDbText
 73
     2
  0
CIRCLE
  5
81C6
330
1F
100
AcDbEntity
  8
08非表示
100
AcDbCircle
 10
3765.0
 20
1840.0
 30
0.0
 40
25.0
  0
TEXT
  5
81C7
330
1F
100
AcDbEntity
  8
08非表示
100
AcDbText
 10
3805.25
 20
1825.0
 30
0.0
 40
30.0
  1
3
 72
     1
 11
3815.0
 21
1840.0
 31
0.0
100
AcDbText
 73
     2
  0
CIRCLE
  5
81C8
330
1F
100
AcDbEntity
  8
08非表示
100
AcDbCircle
 10
3815.0
 20
1840.0
 30
0.0
 40
25.0
  0
LINE
  5
81CD
330
1F
100
AcDbEntity
  8
01注記寸法
100
AcDbLine
 10
4100.0
 20
1940.0
 30
0.0
 11
3300.0
 21
1940.0
 31
0.0
  0
TEXT
  5
81E7
330
1F
100
AcDbEntity
  8
01注記寸法
100
AcDbText
 10
3330.0
 20
1215.0
 30
0.0
 40
30.0
  1
2.アンカーボルトは含まれておりません。
 11
3330.0
 21
1230.0
 31
0.0
100
AcDbText
 73
     2
  0
TEXT
  5
81E8
330
1F
100
AcDbEntity
  8
01注記寸法
100
AcDbText
 10
3330.0
 20
1155.0
 30
0.0
 40
30.0
  1
　先様にてご用意ください。
 11
3330.0
 21
1170.0
 31
0.0
100
AcDbText
 73
     2
  0
TEXT
  5
81F8
330
1F
100
AcDbEntity
  8
01注記寸法
100
AcDbText
 10
3330.0
 20
1335.0
 30
0.0
 40
30.0
  1
1.架台の据付
 11
3330.0
 21
1350.0
 31
0.0
100
AcDbText
 73
     2
  0
LINE
  5
86AE
330
1F
100
AcDbEntity
  8
08非表示
100
AcDbLine
 10
4100.0
 20
2060.0
 30
0.0
 11
3300.0
 21
2060.0
 31
0.0
  0
LINE
  5
86AF
330
1F
100
AcDbEntity
  8
08非表示
100
AcDbLine
 10
4250.0
 20
690.0
 30
0.0
 11
4100.0
 21
690.0
 31
0.0
  0
LINE
  5
86B0
330
1F
100
AcDbEntity
  8
08非表示
100
AcDbLine
 10
4250.0
 20
630.0
 30
0.0
 11
4100.0
 21
630.0
 31
0.0
  0
LINE
  5
86B1
330
1F
100
AcDbEntity
  8
08非表示
100
AcDbLine
 10
4250.0
 20
570.0
 30
0.0
 11
4100.0
 21
570.0
 31
0.0
  0
LINE
  5
86B2
330
1F
100
AcDbEntity
  8
08非表示
100
AcDbLine
 10
4250.0
 20
510.0
 30
0.0
 11
4100.0
 21
510.0
 31
0.0
  0
LINE
  5
86B3
330
1F
100
AcDbEntity
  8
08非表示
100
AcDbLine
 10
4250.0
 20
450.0
 30
0.0
 11
4100.0
 21
450.0
 31
0.0
  0
TEXT
  5
86B5
330
1F
100
AcDbEntity
  8
01注記寸法
100
AcDbText
 10
3412.25
 20
555.0001
 30
0.0
 40
30.0
  1
'16.06.21
 72
     1
 11
3500.0
 21
570.0001
 31
0.0
100
AcDbText
 73
     2
  0
TEXT
  5
86B6
330
1F
100
AcDbEntity
  8
01注記寸法
100
AcDbText
 10
3412.25
 20
495.0001
 30
0.0
 40
30.0
  1
'19.05.15
 72
     1
 11
3500.0
 21
510.0001
 31
0.0
100
AcDbText
 73
     2
  0
TEXT
  5
86B7
330
1F
100
AcDbEntity
  8
08非表示
100
AcDbText
 10
3412.25
 20
435.0001
 30
0.0
 40
30.0
  1
'16.**.**
 72
     1
 11
3500.0
 21
450.0001
 31
0.0
100
AcDbText
 73
     2
  0
LWPOLYLINE
  5
86F1
330
1F
100
AcDbEntity
  8
01注記寸法
100
AcDbPolyline
 90
        4
 70
     1
 43
0.0
 10
0.0
 20
-110.0
 10
0.0
 20
-50.0
 10
500.0
 20
-50.0
 10
500.0
 20
-110.0
  0
TEXT
  5
86F2
330
1F
100
AcDbEntity
  8
01注記寸法
100
AcDbText
 10
172.0
 20
-95.0
 30
0.0
 40
30.0
  1
適用機種
 72
     1
 11
250.0
 21
-80.0
 31
0.0
100
AcDbText
 73
     2
  0
TEXT
  5
885B
330
1F
100
AcDbEntity
  8
01注記寸法
100
AcDbText
 10
3407.5
 20
2765.0
 30
0.0
 40
50.0
  1
高置ＢＨ架台仕様書
 72
     1
 11
3700.0
 21
2790.0
 31
0.0
100
AcDbText
 73
     2
  0
TEXT
  5
8864
330
1F
100
AcDbEntity
  8
08非表示
100
AcDbText
 10
3676.0
 20
2580.0
 30
0.0
 40
40.0
  1
メーカー
 72
     1
 11
3780.0
 21
2600.0
 31
0.0
100
AcDbText
 73
     2
  0
TEXT
  5
8865
330
1F
100
AcDbEntity
  8
08非表示
100
AcDbText
 10
3702.0
 20
2520.0
 30
0.0
 40
40.0
  1
機種名
 72
     1
 11
3780.0
 21
2540.0
 31
0.0
100
AcDbText
 73
     2
  0
TEXT
  5
8867
330
1F
100
AcDbEntity
  8
08非表示
100
AcDbText
 10
3721.5
 20
2455.0
 30
0.0
 40
30.0
  1
*** kg
 72
     1
 11
3780.0
 21
2470.0
 31
0.0
100
AcDbText
 73
     2
  0
TEXT
  5
8869
330
1F
100
AcDbEntity
  8
08非表示
100
AcDbText
 10
3731.25
 20
2265.0
 30
0.0
 40
30.0
  1
*****
 72
     1
 11
3780.0
 21
2280.0
 31
0.0
100
AcDbText
 73
     2
  0
TEXT
  5
886D
330
1F
100
AcDbEntity
  8
08非表示
100
AcDbText
 10
3672.75
 20
2355.0
 30
0.0
 40
30.0
  1
現場名(1行)
 72
     1
 11
3780.0
 21
2370.0
 31
0.0
100
AcDbText
 73
     2
  0
TEXT
  5
886E
330
1F
100
AcDbEntity
  8
08非表示
100
AcDbText
 10
3653.25
 20
2385.0
 30
0.0
 40
30.0
  1
現場名(1/2行)
 72
     1
 11
3780.0
 21
2400.0
 31
0.0
100
AcDbText
 73
     2
  0
TEXT
  5
886F
330
1F
100
AcDbEntity
  8
08非表示
100
AcDbText
 10
3653.25
 20
2325.0
 30
0.0
 40
30.0
  1
現場名(2/2行)
 72
     1
 11
3780.0
 21
2340.0
 31
0.0
100
AcDbText
 73
     2
  0
LWPOLYLINE
  5
8C2C
330
1F
100
AcDbEntity
  8
01注記寸法
100
AcDbPolyline
 90
        4
 70
     1
 43
0.0
 10
4250.0
 20
290.0
 10
4250.0
 20
350.0
 10
4350.0
 20
350.0
 10
4350.0
 20
290.0
  0
TEXT
  5
8C2E
330
1F
100
AcDbEntity
  8
01注記寸法
100
AcDbText
 10
4411.0
 20
305.000075415428
 30
0.0
 40
30.0
  1
無し
 72
     1
 11
4450.0
 21
320.000075415428
 31
0.0
100
AcDbText
 73
     2
  0
LWPOLYLINE
  5
8C2F
330
1F
100
AcDbEntity
  8
01注記寸法
100
AcDbPolyline
 90
        4
 70
     1
 43
0.0
 10
4350.0
 20
290.0
 10
4350.0
 20
350.0
 10
4550.0
 20
350.0
 10
4550.0
 20
290.0
  0
LINE
  5
8C30
330
1F
100
AcDbEntity
  8
08非表示
100
AcDbLine
 10
4250.0
 20
320.0
 30
0.0
 11
4100.0
 21
320.0
 31
0.0
  0
LINE
  5
8C31
330
1F
100
AcDbEntity
  8
01注記寸法
100
AcDbLine
 10
4250.0
 20
290.0
 30
0.0
 11
4350.0
 21
350.0
 31
0.0
  0
LWPOLYLINE
  5
969D
330
1F
100
AcDbEntity
  8
01注記寸法
100
AcDbPolyline
 90
        4
 70
     0
 43
0.0
 10
3350.000000000002
 20
710.7667907562245
 10
3323.576531036949
 20
665.0
 10
3376.423468963051
 20
665.0
 10
3350.000000000002
 20
710.7667907562245
  0
LWPOLYLINE
  5
96A1
330
1F
100
AcDbEntity
  8
01注記寸法
100
AcDbPolyline
 90
        4
 70
     0
 43
0.0
 10
3350.000000000002
 20
590.7667907562245
 10
3323.576531036949
 20
545.0
 10
3376.423468963051
 20
545.0
 10
3350.000000000002
 20
590.7667907562245
  0
LWPOLYLINE
  5
96A2
330
1F
100
AcDbEntity
  8
01注記寸法
100
AcDbPolyline
 90
        4
 70
     0
 43
0.0
 10
3350.000000000002
 20
530.7667907562245
 10
3323.576531036949
 20
485.0
 10
3376.423468963051
 20
485.0
 10
3350.000000000002
 20
530.7667907562245
  0
LWPOLYLINE
  5
96A3
330
1F
100
AcDbEntity
  8
08非表示
100
AcDbPolyline
 90
        4
 70
     0
 43
0.0
 10
3350.000000000002
 20
470.7667907562245
 10
3323.576531036949
 20
425.0
 10
3376.423468963051
 20
425.0
 10
3350.000000000002
 20
470.7667907562245
  0
LINE
  5
9A59
330
1F
100
AcDbEntity
  8
08非表示
100
AcDbLine
 10
4080.0
 20
2120.0
 30
0.0
 11
4080.0
 21
2180.0
 31
0.0
  0
LINE
  5
9A5A
330
1F
100
AcDbEntity
  8
08非表示
100
AcDbLine
 10
3300.0
 20
2150.0
 30
0.0
 11
4100.0
 21
2150.0
 31
0.0
  0
LINE
  5
9A5B
330
1F
100
AcDbEntity
  8
08非表示
100
AcDbLine
 10
3330.0
 20
2180.0
 30
0.0
 11
3330.0
 21
2120.0
 31
0.0
  0
LINE
  5
9A5C
330
1F
100
AcDbEntity
  8
08非表示
100
AcDbLine
 10
4020.0
 20
2120.0
 30
0.0
 11
4020.0
 21
2180.0
 31
0.0
  0
LINE
  5
9A60
330
1F
100
AcDbEntity
  8
08非表示
100
AcDbLine
 10
4080.0
 20
2060.0
 30
0.0
 11
4080.0
 21
2120.0
 31
0.0
  0
LINE
  5
9A61
330
1F
100
AcDbEntity
  8
08非表示
100
AcDbLine
 10
3300.0
 20
2090.0
 30
0.0
 11
4100.0
 21
2090.0
 31
0.0
  0
LINE
  5
9A62
330
1F
100
AcDbEntity
  8
08非表示
100
AcDbLine
 10
3330.0
 20
2120.0
 30
0.0
 11
3330.0
 21
2060.0
 31
0.0
  0
LINE
  5
9A63
330
1F
100
AcDbEntity
  8
08非表示
100
AcDbLine
 10
3330.0
 20
2000.0
 30
0.0
 11
3330.0
 21
1940.0
 31
0.0
  0
LINE
  5
9A64
330
1F
100
AcDbEntity
  8
08非表示
100
AcDbLine
 10
3300.0
 20
1970.0
 30
0.0
 11
4100.0
 21
1970.0
 31
0.0
  0
LINE
  5
9A65
330
1F
100
AcDbEntity
  8
08非表示
100
AcDbLine
 10
4080.0
 20
1940.0
 30
0.0
 11
4080.0
 21
2000.0
 31
0.0
  0
LINE
  5
9A69
330
1F
100
AcDbEntity
  8
08非表示
100
AcDbLine
 10
3330.0
 20
1940.0
 30
0.0
 11
3330.0
 21
1880.0
 31
0.0
  0
LINE
  5
9A6A
330
1F
100
AcDbEntity
  8
08非表示
100
AcDbLine
 10
3300.0
 20
1910.0
 30
0.0
 11
4100.0
 21
1910.0
 31
0.0
  0
LINE
  5
9A6B
330
1F
100
AcDbEntity
  8
08非表示
100
AcDbLine
 10
4080.0
 20
1880.0
 30
0.0
 11
4080.0
 21
1940.0
 31
0.0
  0
LINE
  5
9A6C
330
1F
100
AcDbEntity
  8
08非表示
100
AcDbLine
 10
4080.0
 20
2000.0
 30
0.0
 11
4080.0
 21
2060.0
 31
0.0
  0
LINE
  5
9A6D
330
1F
100
AcDbEntity
  8
08非表示
100
AcDbLine
 10
3300.0
 20
2030.0
 30
0.0
 11
4100.0
 21
2030.0
 31
0.0
  0
LINE
  5
9A6E
330
1F
100
AcDbEntity
  8
08非表示
100
AcDbLine
 10
3330.0
 20
2060.0
 30
0.0
 11
3330.0
 21
2000.0
 31
0.0
  0
LINE
  5
9A6F
330
1F
100
AcDbEntity
  8
08非表示
100
AcDbLine
 10
4100.0
 20
2180.0
 30
0.0
 11
3300.0
 21
2180.0
 31
0.0
  0
LINE
  5
9A71
330
1F
100
AcDbEntity
  8
08非表示
100
AcDbLine
 10
3300.0
 20
1480.0
 30
0.0
 11
4100.0
 21
1480.0
 31
0.0
  0
LINE
  5
9A72
330
1F
100
AcDbEntity
  8
08非表示
100
AcDbLine
 10
3540.0
 20
1450.0
 30
0.0
 11
3540.0
 21
1510.0
 31
0.0
  0
LINE
  5
9A73
330
1F
100
AcDbEntity
  8
08非表示
100
AcDbLine
 10
4080.0
 20
1450.0
 30
0.0
 11
4080.0
 21
1510.0
 31
0.0
  0
LINE
  5
9A75
330
1F
100
AcDbEntity
  8
08非表示
100
AcDbLine
 10
3955.0
 20
1450.0
 30
0.0
 11
3955.0
 21
1510.0
 31
0.0
  0
LINE
  5
9A76
330
1F
100
AcDbEntity
  8
08非表示
100
AcDbLine
 10
3360.0
 20
1510.0
 30
0.0
 11
3360.0
 21
1450.0
 31
0.0
  0
LINE
  5
9A77
330
1F
100
AcDbEntity
  8
08非表示
100
AcDbLine
 10
3330.0
 20
1570.0
 30
0.0
 11
3330.0
 21
1510.0
 31
0.0
  0
LINE
  5
9A78
330
1F
100
AcDbEntity
  8
08非表示
100
AcDbLine
 10
3300.0
 20
1540.0
 30
0.0
 11
4100.0
 21
1540.0
 31
0.0
  0
LINE
  5
9A7A
330
1F
100
AcDbEntity
  8
08非表示
100
AcDbLine
 10
4080.0
 20
1510.0
 30
0.0
 11
4080.0
 21
1570.0
 31
0.0
  0
LINE
  5
9A7C
330
1F
100
AcDbEntity
  8
08非表示
100
AcDbLine
 10
3300.0
 20
2000.0
 30
0.0
 11
4100.0
 21
2000.0
 31
0.0
  0
LINE
  5
9A7D
330
1F
100
AcDbEntity
  8
08非表示
100
AcDbLine
 10
3300.0
 20
1510.0
 30
0.0
 11
4100.0
 21
1510.0
 31
0.0
  0
LINE
  5
9A7E
330
1F
100
AcDbEntity
  8
08非表示
100
AcDbLine
 10
3300.0
 20
1570.0
 30
0.0
 11
4100.0
 21
1570.0
 31
0.0
  0
LINE
  5
9A7F
330
1F
100
AcDbEntity
  8
08非表示
100
AcDbLine
 10
3330.0
 20
1690.0
 30
0.0
 11
3330.0
 21
1630.0
 31
0.0
  0
LINE
  5
9A80
330
1F
100
AcDbEntity
  8
08非表示
100
AcDbLine
 10
3300.0
 20
1690.0
 30
0.0
 11
4100.0
 21
1690.0
 31
0.0
  0
LINE
  5
9A81
330
1F
100
AcDbEntity
  8
08非表示
100
AcDbLine
 10
3300.0
 20
1660.0
 30
0.0
 11
4100.0
 21
1660.0
 31
0.0
  0
LINE
  5
9A82
330
1F
100
AcDbEntity
  8
08非表示
100
AcDbLine
 10
3300.0
 20
1600.0
 30
0.0
 11
4100.0
 21
1600.0
 31
0.0
  0
LINE
  5
9A83
330
1F
100
AcDbEntity
  8
08非表示
100
AcDbLine
 10
3300.0
 20
1630.0
 30
0.0
 11
4100.0
 21
1630.0
 31
0.0
  0
LINE
  5
9A84
330
1F
100
AcDbEntity
  8
08非表示
100
AcDbLine
 10
3360.0
 20
1630.0
 30
0.0
 11
3360.0
 21
1570.0
 31
0.0
  0
LINE
  5
9A85
330
1F
100
AcDbEntity
  8
08非表示
100
AcDbLine
 10
3540.0
 20
1570.0
 30
0.0
 11
3540.0
 21
1630.0
 31
0.0
  0
LINE
  5
9A86
330
1F
100
AcDbEntity
  8
08非表示
100
AcDbLine
 10
3955.0
 20
1570.0
 30
0.0
 11
3955.0
 21
1630.0
 31
0.0
  0
LINE
  5
9A87
330
1F
100
AcDbEntity
  8
08非表示
100
AcDbLine
 10
4080.0
 20
1570.0
 30
0.0
 11
4080.0
 21
1630.0
 31
0.0
  0
LINE
  5
9A88
330
1F
100
AcDbEntity
  8
08非表示
100
AcDbLine
 10
4080.0
 20
1630.0
 30
0.0
 11
4080.0
 21
1690.0
 31
0.0
  0
LINE
  5
9A89
330
1F
100
AcDbEntity
  8
08非表示
100
AcDbLine
 10
3330.0
 20
1810.0
 30
0.0
 11
3330.0
 21
1750.0
 31
0.0
  0
LINE
  5
9A8A
330
1F
100
AcDbEntity
  8
08非表示
100
AcDbLine
 10
3300.0
 20
1810.0
 30
0.0
 11
4100.0
 21
1810.0
 31
0.0
  0
LINE
  5
9A8B
330
1F
100
AcDbEntity
  8
08非表示
100
AcDbLine
 10
3300.0
 20
1780.0
 30
0.0
 11
4100.0
 21
1780.0
 31
0.0
  0
LINE
  5
9A8C
330
1F
100
AcDbEntity
  8
08非表示
100
AcDbLine
 10
3300.0
 20
1720.0
 30
0.0
 11
4100.0
 21
1720.0
 31
0.0
  0
LINE
  5
9A8D
330
1F
100
AcDbEntity
  8
08非表示
100
AcDbLine
 10
3300.0
 20
1750.0
 30
0.0
 11
4100.0
 21
1750.0
 31
0.0
  0
LINE
  5
9A8E
330
1F
100
AcDbEntity
  8
08非表示
100
AcDbLine
 10
3360.0
 20
1750.0
 30
0.0
 11
3360.0
 21
1690.0
 31
0.0
  0
LINE
  5
9A8F
330
1F
100
AcDbEntity
  8
08非表示
100
AcDbLine
 10
3540.0
 20
1690.0
 30
0.0
 11
3540.0
 21
1750.0
 31
0.0
  0
LINE
  5
9A90
330
1F
100
AcDbEntity
  8
08非表示
100
AcDbLine
 10
3955.0
 20
1690.0
 30
0.0
 11
3955.0
 21
1750.0
 31
0.0
  0
LINE
  5
9A91
330
1F
100
AcDbEntity
  8
08非表示
100
AcDbLine
 10
4080.0
 20
1690.0
 30
0.0
 11
4080.0
 21
1750.0
 31
0.0
  0
LINE
  5
9A92
330
1F
100
AcDbEntity
  8
08非表示
100
AcDbLine
 10
4080.0
 20
1750.0
 30
0.0
 11
4080.0
 21
1810.0
 31
0.0
  0
LINE
  5
9A93
330
1F
100
AcDbEntity
  8
08非表示
100
AcDbLine
 10
3300.0
 20
1840.0
 30
0.0
 11
4100.0
 21
1840.0
 31
0.0
  0
LINE
  5
9A94
330
1F
100
AcDbEntity
  8
08非表示
100
AcDbLine
 10
4100.0
 20
2210.0
 30
0.0
 11
3300.0
 21
2210.0
 31
0.0
  0
LINE
  5
9A9C
330
1F
100
AcDbEntity
  8
08非表示
100
AcDbLine
 10
3300.0
 20
1380.0
 30
0.0
 11
4100.0
 21
1380.0
 31
0.0
  0
LINE
  5
9A9D
330
1F
100
AcDbEntity
  8
08非表示
100
AcDbLine
 10
3300.0
 20
1350.0
 30
0.0
 11
4100.0
 21
1350.0
 31
0.0
  0
LINE
  5
9A9E
330
1F
100
AcDbEntity
  8
08非表示
100
AcDbLine
 10
3300.0
 20
1320.0
 30
0.0
 11
4100.0
 21
1320.0
 31
0.0
  0
LINE
  5
9A9F
330
1F
100
AcDbEntity
  8
08非表示
100
AcDbLine
 10
3300.0
 20
1290.0
 30
0.0
 11
4100.0
 21
1290.0
 31
0.0
  0
LINE
  5
9AA0
330
1F
100
AcDbEntity
  8
08非表示
100
AcDbLine
 10
3300.0
 20
1260.0
 30
0.0
 11
4100.0
 21
1260.0
 31
0.0
  0
LINE
  5
9AA1
330
1F
100
AcDbEntity
  8
08非表示
100
AcDbLine
 10
3300.0
 20
1230.0
 30
0.0
 11
4100.0
 21
1230.0
 31
0.0
  0
LINE
  5
9AA2
330
1F
100
AcDbEntity
  8
08非表示
100
AcDbLine
 10
3300.0
 20
1200.0
 30
0.0
 11
4100.0
 21
1200.0
 31
0.0
  0
LINE
  5
9AA3
330
1F
100
AcDbEntity
  8
08非表示
100
AcDbLine
 10
3300.0
 20
1170.0
 30
0.0
 11
4100.0
 21
1170.0
 31
0.0
  0
LINE
  5
9AA4
330
1F
100
AcDbEntity
  8
08非表示
100
AcDbLine
 10
3300.0
 20
1140.0
 30
0.0
 11
4100.0
 21
1140.0
 31
0.0
  0
LINE
  5
9AA5
330
1F
100
AcDbEntity
  8
08非表示
100
AcDbLine
 10
3330.0
 20
1380.0
 30
0.0
 11
3330.0
 21
1320.0
 31
0.0
  0
LINE
  5
9AA6
330
1F
100
AcDbEntity
  8
08非表示
100
AcDbLine
 10
3330.0
 20
1320.0
 30
0.0
 11
3330.0
 21
1260.0
 31
0.0
  0
LINE
  5
9AA7
330
1F
100
AcDbEntity
  8
08非表示
100
AcDbLine
 10
3330.0
 20
1260.0
 30
0.0
 11
3330.0
 21
1200.0
 31
0.0
  0
LINE
  5
9AA8
330
1F
100
AcDbEntity
  8
08非表示
100
AcDbLine
 10
3330.0
 20
1200.0
 30
0.0
 11
3330.0
 21
1140.0
 31
0.0
  0
LINE
  5
9AAB
330
1F
100
AcDbEntity
  8
08非表示
100
AcDbLine
 10
3330.0
 20
2310.0
 30
0.0
 11
3330.0
 21
2250.0
 31
0.0
  0
LINE
  5
9AAC
330
1F
100
AcDbEntity
  8
08非表示
100
AcDbLine
 10
3300.0
 20
2280.0
 30
0.0
 11
4100.0
 21
2280.0
 31
0.0
  0
LINE
  5
9AAD
330
1F
100
AcDbEntity
  8
08非表示
100
AcDbLine
 10
3330.0
 20
2510.0
 30
0.0
 11
3330.0
 21
2430.0
 31
0.0
  0
LINE
  5
9AAE
330
1F
100
AcDbEntity
  8
08非表示
100
AcDbLine
 10
3300.0
 20
2470.0
 30
0.0
 11
4100.0
 21
2470.0
 31
0.0
  0
LINE
  5
9AAF
330
1F
100
AcDbEntity
  8
08非表示
100
AcDbLine
 10
3330.0
 20
2570.0
 30
0.0
 11
3330.0
 21
2510.0
 31
0.0
  0
LINE
  5
9AB0
330
1F
100
AcDbEntity
  8
08非表示
100
AcDbLine
 10
3300.0
 20
2540.0
 30
0.0
 11
4100.0
 21
2540.0
 31
0.0
  0
LINE
  5
9AB1
330
1F
100
AcDbEntity
  8
08非表示
100
AcDbLine
 10
3300.0
 20
2570.0
 30
0.0
 11
4100.0
 21
2570.0
 31
0.0
  0
LINE
  5
9AB2
330
1F
100
AcDbEntity
  8
08非表示
100
AcDbLine
 10
3330.0
 20
2600.0
 30
0.0
 11
3330.0
 21
2540.0
 31
0.0
  0
LINE
  5
9AB3
330
1F
100
AcDbEntity
  8
08非表示
100
AcDbLine
 10
3300.0
 20
2600.0
 30
0.0
 11
4100.0
 21
2600.0
 31
0.0
  0
LINE
  5
9AB4
330
1F
100
AcDbEntity
  8
08非表示
100
AcDbLine
 10
3330.0
 20
2630.0
 30
0.0
 11
3330.0
 21
2570.0
 31
0.0
  0
LINE
  5
9AB5
330
1F
100
AcDbEntity
  8
08非表示
100
AcDbLine
 10
3300.0
 20
2370.0
 30
0.0
 11
4100.0
 21
2370.0
 31
0.0
  0
LINE
  5
9AB6
330
1F
100
AcDbEntity
  8
08非表示
100
AcDbLine
 10
3330.0
 20
2400.0
 30
0.0
 11
3330.0
 21
2340.0
 31
0.0
  0
LINE
  5
9AB7
330
1F
100
AcDbEntity
  8
08非表示
100
AcDbLine
 10
3300.0
 20
2400.0
 30
0.0
 11
4100.0
 21
2400.0
 31
0.0
  0
LINE
  5
9AB8
330
1F
100
AcDbEntity
  8
08非表示
100
AcDbLine
 10
3300.0
 20
2340.0
 30
0.0
 11
4100.0
 21
2340.0
 31
0.0
  0
LINE
  5
9AB9
330
1F
100
AcDbEntity
  8
08非表示
100
AcDbLine
 10
3460.0
 20
2670.0
 30
0.0
 11
4100.0
 21
2670.0
 31
0.0
  0
LINE
  5
9ABA
330
1F
100
AcDbEntity
  8
08非表示
100
AcDbLine
 10
3780.0
 20
2710.0
 30
0.0
 11
3780.0
 21
2630.0
 31
0.0
  0
LINE
  5
9ABB
330
1F
100
AcDbEntity
  8
08非表示
100
AcDbLine
 10
3780.0
 20
2630.0
 30
0.0
 11
3780.0
 21
2430.0
 31
0.0
  0
LINE
  5
9ABC
330
1F
100
AcDbEntity
  8
08非表示
100
AcDbLine
 10
3780.0
 20
2430.0
 30
0.0
 11
3780.0
 21
2250.0
 31
0.0
  0
LINE
  5
A00E
330
1F
100
AcDbEntity
  8
08非表示
100
AcDbLine
 10
500.0
 20
-50.0
 30
0.0
 11
550.0
 21
-50.0
 31
0.0
  0
TEXT
  5
A162
330
1F
100
AcDbEntity
  8
13製作用注記
100
AcDbText
 10
154.9996887709727
 20
2894.999707135657
 30
0.0
 40
50.0
  1
製作用詳細図
 72
     1
 11
349.9996887709727
 21
2919.999707135657
 31
0.0
100
AcDbText
 73
     2
  0
LWPOLYLINE
  5
A163
330
1F
100
AcDbEntity
  8
13製作用注記
370
    30
100
AcDbPolyline
 90
        4
 70
     1
 43
0.0
 10
100.0
 20
2870.0
 10
100.0
 20
2970.0
 10
600.0000000000002
 20
2970.0
 10
600.0000000000002
 20
2870.0
  0
TEXT
  5
A3F3
330
1F
100
AcDbEntity
  8
08非表示
100
AcDbText
 10
3615.0
 20
5.48015625
 30
0.0
 40
30.0
  1
仕様書フォーム：2016年01月28日
 72
     2
 11
4200.0
 21
0.0
 31
0.0
100
AcDbText
 73
     1
  0
LWPOLYLINE
  5
A948
330
1F
100
AcDbEntity
  8
01注記寸法
100
AcDbPolyline
 90
        4
 70
     1
 43
0.0
 10
4250.0
 20
2910.0
 10
4250.0
 20
2970.0
 10
4600.0
 20
2970.0
 10
4600.0
 20
2910.0
  0
TEXT
  5
A94D
330
1F
100
AcDbEntity
  8
01注記寸法
100
AcDbText
 10
4270.0
 20
2925.0
 30
0.0
 40
30.0
  1
機器脚   t=
 11
4270.0
 21
2940.0
 31
0.0
100
AcDbText
 73
     2
  0
LINE
  5
A94E
330
1F
100
AcDbEntity
  8
08非表示
100
AcDbLine
 10
4500.0
 20
2910.0
 30
0.0
 11
4500.0
 21
2970.0
 31
0.0
  0
LWPOLYLINE
  5
A972
330
1F
100
AcDbEntity
  8
01注記寸法
100
AcDbPolyline
 90
        4
 70
     1
 43
0.0
 10
4250.0
 20
2850.0
 10
4250.0
 20
2910.0
 10
4600.0
 20
2910.0
 10
4600.0
 20
2850.0
  0
TEXT
  5
A974
330
1F
100
AcDbEntity
  8
01注記寸法
100
AcDbText
 10
4270.0
 20
2865.0
 30
0.0
 40
30.0
  1
アンカー M=
 11
4270.0
 21
2880.0
 31
0.0
100
AcDbText
 73
     2
  0
LINE
  5
A975
330
1F
100
AcDbEntity
  8
08非表示
100
AcDbLine
 10
4500.0
 20
2850.0
 30
0.0
 11
4500.0
 21
2910.0
 31
0.0
  0
TEXT
  5
A9E7
330
1F
100
AcDbEntity
  8
01注記寸法
100
AcDbText
 10
4520.75
 20
2925.0
 30
0.0
 40
30.0
  1
1.0
 72
     1
 11
4550.0
 21
2940.0
 31
0.0
100
AcDbText
 73
     2
  0
TEXT
  5
A9E8
330
1F
100
AcDbEntity
  8
01注記寸法
100
AcDbText
 10
4530.5
 20
2865.0
 30
0.0
 40
30.0
  1
12
 72
     1
 11
4550.0
 21
2880.0
 31
0.0
100
AcDbText
 73
     2
  0
LWPOLYLINE
  5
B716
330
1F
100
AcDbEntity
  8
01注記寸法
100
AcDbPolyline
 90
        4
 70
     1
 43
0.0
 10
3100.0
 20
-170.0
 10
3100.0
 20
-110.0
 10
3200.0
 20
-110.0
 10
3200.0
 20
-170.0
  0
TEXT
  5
B719
330
1F
100
AcDbEntity
  8
01注記寸法
100
AcDbText
 10
3111.0
 20
-95.0
 30
0.0
 40
30.0
  1
番号
 72
     1
 11
3150.0
 21
-80.0
 31
0.0
100
AcDbText
 73
     2
  0
LWPOLYLINE
  5
B71A
330
1F
100
AcDbEntity
  8
01注記寸法
100
AcDbPolyline
 90
        4
 70
     1
 43
0.0
 10
3100.0
 20
-110.0
 10
3100.0
 20
-50.0
 10
3200.0
 20
-50.0
 10
3200.0
 20
-110.0
  0
LWPOLYLINE
  5
B71B
330
1F
100
AcDbEntity
  8
01注記寸法
100
AcDbPolyline
 90
        4
 70
     1
 43
0.0
 10
3130.0
 20
-160.0
 10
3130.0
 20
-120.0
 10
3170.0
 20
-120.0
 10
3170.0
 20
-160.0
  0
TEXT
  5
B71D
330
1F
100
AcDbEntity
  8
01注記寸法
100
AcDbText
 10
3140.25
 20
-155.0
 30
0.0
 40
30.0
  1
1
 72
     1
 11
3150.0
 21
-140.0
 31
0.0
100
AcDbText
 73
     2
  0
INSERT
  5
BDFC
330
1F
100
AcDbEntity
  8
02実線
100
AcDbBlockReference
  2
BH-筋交(柱L60)-500H
 10
851.7999999999993
 20
1315.000000000001
 30
0.0
  0
INSERT
  5
BDFD
330
1F
100
AcDbEntity
  8
02実線
100
AcDbBlockReference
  2
BH-端柱(L60)-500H-正面
 10
821.7999999999993
 20
1099.999999999999
 30
0.0
  0
INSERT
  5
BDFE
330
1F
100
AcDbEntity
  8
02実線
100
AcDbBlockReference
  2
BH-端柱(L60)-500H-側面
 10
2160.299999999999
 20
1100.000000000001
 30
0.0
  0
INSERT
  5
BDFF
330
1F
100
AcDbEntity
  8
02実線
100
AcDbBlockReference
  2
BH-端柱(L60)-500H-正面
 10
1678.200000000001
 20
1099.999999999999
 30
0.0
 41
-1.0
  0
INSERT
  5
BE00
330
1F
100
AcDbEntity
  8
02実線
100
AcDbBlockReference
  2
BH-端柱(L60)-500H-側面
 10
2579.700000000001
 20
1100.000000000001
 30
0.0
 41
-1.0
  0
LWPOLYLINE
  5
BE01
102
{ACAD_REACTORS
330
BE74
102
}
330
1F
100
AcDbEntity
  8
08非表示
100
AcDbPolyline
 90
        4
 70
     1
 43
0.0
 10
2569.000000000002
 20
1309.999999999999
 10
2569.000000000002
 20
1349.999999999999
 10
2579.700000000003
 20
1349.999999999999
 10
2579.700000000003
 20
1309.999999999999
  0
LWPOLYLINE
  5
BE02
102
{ACAD_REACTORS
330
BE74
102
}
330
1F
100
AcDbEntity
  8
08非表示
100
AcDbPolyline
 90
        4
 70
     1
 43
0.0
 10
2171.000000000002
 20
1309.999999999999
 10
2171.000000000002
 20
1349.999999999999
 10
2160.299999999999
 20
1349.999999999999
 10
2160.299999999999
 20
1309.999999999999
  0
LINE
  5
BE03
102
{ACAD_REACTORS
330
BE74
102
}
330
1F
100
AcDbEntity
  8
03破線
100
AcDbLine
 10
2171.000000000002
 20
1309.999999999999
 30
0.0
 11
2220.300000000001
 21
1309.999999999999
 31
0.0
  0
LINE
  5
BE04
102
{ACAD_REACTORS
330
BE74
102
}
330
1F
100
AcDbEntity
  8
03破線
100
AcDbLine
 10
2171.000000000002
 20
1349.999999999999
 30
0.0
 11
2220.300000000001
 21
1349.999999999999
 31
0.0
  0
LINE
  5
BE05
102
{ACAD_REACTORS
330
BE74
102
}
330
1F
100
AcDbEntity
  8
03破線
100
AcDbLine
 10
2171.000000000002
 20
1309.999999999999
 30
0.0
 11
2171.000000000002
 21
1349.999999999999
 31
0.0
  0
LINE
  5
BE06
102
{ACAD_REACTORS
330
BE74
102
}
330
1F
100
AcDbEntity
  8
03破線
100
AcDbLine
 10
2569.000000000002
 20
1309.999999999999
 30
0.0
 11
2519.700000000003
 21
1309.999999999999
 31
0.0
  0
LINE
  5
BE07
102
{ACAD_REACTORS
330
BE74
102
}
330
1F
100
AcDbEntity
  8
03破線
100
AcDbLine
 10
2569.000000000002
 20
1349.999999999999
 30
0.0
 11
2519.700000000003
 21
1349.999999999999
 31
0.0
  0
LINE
  5
BE08
102
{ACAD_REACTORS
330
BE74
102
}
330
1F
100
AcDbEntity
  8
03破線
100
AcDbLine
 10
2569.000000000002
 20
1309.999999999999
 30
0.0
 11
2569.000000000002
 21
1349.999999999999
 31
0.0
  0
LINE
  5
BE09
102
{ACAD_REACTORS
330
BE74
102
}
330
1F
100
AcDbEntity
  8
02実線
100
AcDbLine
 10
2519.700000000003
 20
1349.999999999999
 30
0.0
 11
2220.300000000001
 21
1349.999999999999
 31
0.0
  0
LINE
  5
BE0A
102
{ACAD_REACTORS
330
BE74
102
}
330
1F
100
AcDbEntity
  8
03破線
100
AcDbLine
 10
2569.000000000002
 20
1346.8
 30
0.0
 11
2171.000000000002
 21
1346.8
 31
0.0
  0
LINE
  5
BE0B
102
{ACAD_REACTORS
330
BE74
102
}
330
1F
100
AcDbEntity
  8
02実線
100
AcDbLine
 10
2519.700000000003
 20
1309.999999999999
 30
0.0
 11
2220.300000000001
 21
1309.999999999999
 31
0.0
  0
INSERT
  5
BE0C
330
1F
100
AcDbEntity
  8
03破線
100
AcDbBlockReference
  2
BH-anchor-L60-背面
 10
1646.200000000001
 20
1099.999999999999
 30
0.0
  0
INSERT
  5
BE0D
330
1F
100
AcDbEntity
  8
03破線
100
AcDbBlockReference
  2
BH-anchor-L60-背面
 10
853.7999999999993
 20
1099.999999999999
 30
0.0
  0
INSERT
  5
BE0E
330
1F
100
AcDbEntity
  8
03破線
100
AcDbBlockReference
  2
BH-anchor-L60-立面
 10
2539.5
 20
1100.000000000001
 30
0.0
 41
-1.0
  0
INSERT
  5
BE0F
330
1F
100
AcDbEntity
  8
03破線
100
AcDbBlockReference
  2
BH-anchor-L60-立面
 10
2200.5
 20
1100.000000000001
 30
0.0
  0
INSERT
  5
BE10
330
1F
100
AcDbEntity
  8
02実線
100
AcDbBlockReference
  2
BH-筋交(柱L60)-500H
 10
1648.200000000001
 20
1315.000000000001
 30
0.0
 41
-1.0
  0
LWPOLYLINE
  5
BE11
102
{ACAD_REACTORS
330
BE76
102
}
330
1F
100
AcDbEntity
  8
03破線
100
AcDbPolyline
 90
        4
 70
     0
 43
0.0
 10
828.1999999999971
 20
1549.999999999999
 10
828.1999999999971
 20
1596.8
 10
1671.799999999999
 20
1596.8
 10
1671.799999999999
 20
1549.999999999999
  0
LINE
  5
BE12
102
{ACAD_REACTORS
330
BE76
102
}
330
1F
100
AcDbEntity
  8
03破線
100
AcDbLine
 10
828.1999999999971
 20
1549.999999999999
 30
0.0
 11
845.0
 21
1539.999999999999
 31
0.0
  0
LINE
  5
BE13
102
{ACAD_REACTORS
330
BE76
102
}
330
1F
100
AcDbEntity
  8
03破線
100
AcDbLine
 10
1671.799999999999
 20
1549.999999999999
 30
0.0
 11
1655.0
 21
1539.999999999999
 31
0.0
  0
LINE
  5
BE14
102
{ACAD_REACTORS
330
BE76
102
}
330
1F
100
AcDbEntity
  8
03破線
100
AcDbLine
 10
825.0
 20
1596.999999999999
 30
0.0
 11
825.0
 21
1549.999999999999
 31
0.0
  0
LINE
  5
BE15
102
{ACAD_REACTORS
330
BE76
102
}
330
1F
100
AcDbEntity
  8
03破線
100
AcDbLine
 10
1671.799999999999
 20
1549.999999999999
 30
0.0
 11
1675.0
 21
1549.999999999999
 31
0.0
  0
LINE
  5
BE16
102
{ACAD_REACTORS
330
BE76
102
}
330
1F
100
AcDbEntity
  8
03破線
100
AcDbLine
 10
828.1999999999971
 20
1549.999999999999
 30
0.0
 11
825.0
 21
1549.999999999999
 31
0.0
  0
LINE
  5
BE17
102
{ACAD_REACTORS
330
BE76
102
}
330
1F
100
AcDbEntity
  8
03破線
100
AcDbLine
 10
863.5
 20
1559.499999999999
 30
0.0
 11
846.5
 21
1559.499999999999
 31
0.0
  0
LINE
  5
BE18
102
{ACAD_REACTORS
330
BE76
102
}
330
1F
100
AcDbEntity
  8
03破線
100
AcDbLine
 10
863.5
 20
1572.499999999999
 30
0.0
 11
846.5
 21
1572.499999999999
 31
0.0
  0
ARC
  5
BE19
102
{ACAD_REACTORS
330
BE76
102
}
330
1F
100
AcDbEntity
  8
03破線
100
AcDbCircle
 10
863.5
 20
1565.999999999999
 30
0.0
 40
6.5
100
AcDbArc
 50
270.0
 51
90.0
  0
ARC
  5
BE1A
102
{ACAD_REACTORS
330
BE76
102
}
330
1F
100
AcDbEntity
  8
03破線
100
AcDbCircle
 10
846.5
 20
1565.999999999999
 30
0.0
 40
6.5
100
AcDbArc
 50
90.0
 51
270.0
  0
CIRCLE
  5
BE1B
102
{ACAD_REACTORS
330
BE76
102
}
330
1F
100
AcDbEntity
  8
02実線
100
AcDbCircle
 10
1164.0
 20
1564.999999999999
 30
0.0
 40
6.5
  0
CIRCLE
  5
BE1C
102
{ACAD_REACTORS
330
BE76
102
}
330
1F
100
AcDbEntity
  8
02実線
100
AcDbCircle
 10
1336.0
 20
1564.999999999999
 30
0.0
 40
6.5
  0
ARC
  5
BE1D
102
{ACAD_REACTORS
330
BE76
102
}
330
1F
100
AcDbEntity
  8
03破線
100
AcDbCircle
 10
1653.5
 20
1565.999999999999
 30
0.0
 40
6.5
100
AcDbArc
 50
270.0
 51
90.0
  0
ARC
  5
BE1E
102
{ACAD_REACTORS
330
BE76
102
}
330
1F
100
AcDbEntity
  8
03破線
100
AcDbCircle
 10
1636.5
 20
1565.999999999999
 30
0.0
 40
6.5
100
AcDbArc
 50
90.0
 51
270.0
  0
LINE
  5
BE1F
102
{ACAD_REACTORS
330
BE76
102
}
330
1F
100
AcDbEntity
  8
03破線
100
AcDbLine
 10
1636.5
 20
1572.499999999999
 30
0.0
 11
1653.5
 21
1572.499999999999
 31
0.0
  0
LINE
  5
BE20
102
{ACAD_REACTORS
330
BE76
102
}
330
1F
100
AcDbEntity
  8
03破線
100
AcDbLine
 10
1636.5
 20
1559.499999999999
 30
0.0
 11
1653.5
 21
1559.499999999999
 31
0.0
  0
LWPOLYLINE
  5
BE21
102
{ACAD_REACTORS
330
BE76
102
}
330
1F
100
AcDbEntity
  8
03破線
100
AcDbPolyline
 90
        2
 70
   128
 43
0.0
 10
881.7999999999993
 20
1539.999999999999
 10
845.0
 20
1539.999999999999
  0
LWPOLYLINE
  5
BE22
102
{ACAD_REACTORS
330
BE76
102
}
330
1F
100
AcDbEntity
  8
03破線
100
AcDbPolyline
 90
        2
 70
     0
 43
0.0
 10
1655.0
 20
1539.999999999999
 10
1618.200000000001
 20
1539.999999999999
  0
LWPOLYLINE
  5
BE23
102
{ACAD_REACTORS
330
BE76
102
}
330
1F
100
AcDbEntity
  8
02実線
100
AcDbPolyline
 90
        2
 70
     0
 43
0.0
 10
1618.200000000001
 20
1539.999999999999
 10
881.7999999999993
 20
1539.999999999999
  0
LWPOLYLINE
  5
BE24
102
{ACAD_REACTORS
330
BE76
102
}
330
1F
100
AcDbEntity
  8
03破線
100
AcDbPolyline
 90
        2
 70
     0
 43
0.0
 10
1675.0
 20
1596.999999999999
 10
1675.0
 20
1549.999999999999
  0
LWPOLYLINE
  5
BE25
102
{ACAD_REACTORS
330
BE76
102
}
330
1F
100
AcDbEntity
  8
02実線
100
AcDbPolyline
 90
        4
 70
     0
 43
0.0
 10
825.0
 20
1596.999999999999
 10
825.0
 20
1599.999999999999
 10
1675.0
 20
1599.999999999999
 10
1675.0
 20
1596.999999999999
  0
LINE
  5
BE26
102
{ACAD_REACTORS
330
BE76
102
}
330
1F
100
AcDbEntity
  8
04一点鎖線
 48
0.2
100
AcDbLine
 10
1164.0
 20
1581.499999999999
 30
0.0
 11
1164.0
 21
1548.499999999999
 31
0.0
  0
LINE
  5
BE27
102
{ACAD_REACTORS
330
BE76
102
}
330
1F
100
AcDbEntity
  8
04一点鎖線
 48
0.2
100
AcDbLine
 10
1180.5
 20
1564.999999999999
 30
0.0
 11
1147.5
 21
1564.999999999999
 31
0.0
  0
LINE
  5
BE28
102
{ACAD_REACTORS
330
BE76
102
}
330
1F
100
AcDbEntity
  8
04一点鎖線
 48
0.2
100
AcDbLine
 10
1336.0
 20
1581.499999999999
 30
0.0
 11
1336.0
 21
1548.499999999999
 31
0.0
  0
LINE
  5
BE29
102
{ACAD_REACTORS
330
BE76
102
}
330
1F
100
AcDbEntity
  8
04一点鎖線
 48
0.2
100
AcDbLine
 10
1352.5
 20
1564.999999999999
 30
0.0
 11
1319.5
 21
1564.999999999999
 31
0.0
  0
LWPOLYLINE
  5
BE2A
102
{ACAD_REACTORS
330
BE75
102
}
330
1F
100
AcDbEntity
  8
03破線
  6
HIDDEN
100
AcDbPolyline
 90
        4
 70
     0
 43
0.0
 10
2168.200000000001
 20
1549.999999999999
 10
2168.200000000001
 20
1596.8
 10
2571.799999999999
 20
1596.8
 10
2571.799999999999
 20
1549.999999999999
  0
LWPOLYLINE
  5
BE2B
102
{ACAD_REACTORS
330
BE75
102
}
330
1F
100
AcDbEntity
  8
02実線
100
AcDbPolyline
 90
        2
 70
     0
 43
0.0
 10
2515.0
 20
1539.999999999999
 10
2225.0
 20
1539.999999999999
  0
LINE
  5
BE2C
102
{ACAD_REACTORS
330
BE75
102
}
330
1F
100
AcDbEntity
  8
02実線
100
AcDbLine
 10
2225.0
 20
1539.999999999999
 30
0.0
 11
2225.0
 21
1549.999999999999
 31
0.0
  0
LINE
  5
BE2D
102
{ACAD_REACTORS
330
BE75
102
}
330
1F
100
AcDbEntity
  8
02実線
100
AcDbLine
 10
2515.0
 20
1539.999999999999
 30
0.0
 11
2515.0
 21
1549.999999999999
 31
0.0
  0
CIRCLE
  5
BE2E
102
{ACAD_REACTORS
330
BE75
102
}
330
1F
100
AcDbEntity
  8
02実線
100
AcDbCircle
 10
2265.0
 20
1569.999999999999
 30
0.0
 40
6.5
  0
CIRCLE
  5
BE2F
102
{ACAD_REACTORS
330
BE75
102
}
330
1F
100
AcDbEntity
  8
02実線
100
AcDbCircle
 10
2195.0
 20
1569.999999999999
 30
0.0
 40
6.5
  0
CIRCLE
  5
BE30
102
{ACAD_REACTORS
330
BE75
102
}
330
1F
100
AcDbEntity
  8
02実線
100
AcDbCircle
 10
2545.0
 20
1569.999999999999
 30
0.0
 40
6.5
  0
CIRCLE
  5
BE31
102
{ACAD_REACTORS
330
BE75
102
}
330
1F
100
AcDbEntity
  8
02実線
100
AcDbCircle
 10
2475.0
 20
1569.999999999999
 30
0.0
 40
6.5
  0
LINE
  5
BE32
102
{ACAD_REACTORS
330
BE75
102
}
330
1F
100
AcDbEntity
  8
02実線
100
AcDbLine
 10
2225.0
 20
1549.999999999999
 30
0.0
 11
2220.299999999999
 21
1549.999999999999
 31
0.0
  0
LWPOLYLINE
  5
BE33
102
{ACAD_REACTORS
330
BE75
102
}
330
1F
100
AcDbEntity
  8
03破線
  6
HIDDEN
100
AcDbPolyline
 90
        2
 70
     0
 43
0.0
 10
2165.0
 20
1549.999999999999
 10
2165.0
 20
1597.000000000001
  0
LINE
  5
BE34
102
{ACAD_REACTORS
330
BE75
102
}
330
1F
100
AcDbEntity
  8
03破線
  6
HIDDEN
100
AcDbLine
 10
2220.299999999999
 20
1549.999999999999
 30
0.0
 11
2165.0
 21
1549.999999999999
 31
0.0
  0
LWPOLYLINE
  5
BE35
102
{ACAD_REACTORS
330
BE75
102
}
330
1F
100
AcDbEntity
  8
02実線
100
AcDbPolyline
 90
        4
 70
     0
 43
0.0
 10
2165.0
 20
1597.000000000001
 10
2165.0
 20
1599.999999999999
 10
2575.0
 20
1599.999999999999
 10
2575.0
 20
1597.000000000001
  0
LINE
  5
BE36
102
{ACAD_REACTORS
330
BE75
102
}
330
1F
100
AcDbEntity
  8
02実線
100
AcDbLine
 10
2515.0
 20
1549.999999999999
 30
0.0
 11
2519.700000000001
 21
1549.999999999999
 31
0.0
  0
LWPOLYLINE
  5
BE37
102
{ACAD_REACTORS
330
BE75
102
}
330
1F
100
AcDbEntity
  8
03破線
  6
HIDDEN
100
AcDbPolyline
 90
        2
 70
     0
 43
0.0
 10
2575.0
 20
1597.000000000001
 10
2575.0
 20
1549.999999999999
  0
LINE
  5
BE38
102
{ACAD_REACTORS
330
BE75
102
}
330
1F
100
AcDbEntity
  8
03破線
  6
HIDDEN
100
AcDbLine
 10
2519.700000000001
 20
1549.999999999999
 30
0.0
 11
2575.0
 21
1549.999999999999
 31
0.0
  0
LINE
  5
BE39
102
{ACAD_REACTORS
330
BE75
102
}
330
1F
100
AcDbEntity
  8
04一点鎖線
 48
0.2
100
AcDbLine
 10
2491.5
 20
1569.999999999999
 30
0.0
 11
2458.5
 21
1569.999999999999
 31
0.0
  0
LINE
  5
BE3A
102
{ACAD_REACTORS
330
BE75
102
}
330
1F
100
AcDbEntity
  8
04一点鎖線
 48
0.2
100
AcDbLine
 10
2475.0
 20
1553.499999999999
 30
0.0
 11
2475.0
 21
1586.499999999999
 31
0.0
  0
LINE
  5
BE3B
102
{ACAD_REACTORS
330
BE75
102
}
330
1F
100
AcDbEntity
  8
04一点鎖線
 48
0.2
100
AcDbLine
 10
2281.5
 20
1569.999999999999
 30
0.0
 11
2248.5
 21
1569.999999999999
 31
0.0
  0
LINE
  5
BE3C
102
{ACAD_REACTORS
330
BE75
102
}
330
1F
100
AcDbEntity
  8
04一点鎖線
 48
0.2
100
AcDbLine
 10
2265.0
 20
1553.499999999999
 30
0.0
 11
2265.0
 21
1586.499999999999
 31
0.0
  0
DIMENSION
  5
BE5D
330
1F
100
AcDbEntity
  8
08非表示
100
AcDbDimension
  2
*D541
 10
2575.0
 20
1699.999999999999
 30
0.0
 11
2370.0
 21
1724.999999999999
 31
0.0
 70
    32
 71
     5
 42
410.0
  3
NEMY-10
100
AcDbAlignedDimension
 13
2165.0
 23
1599.999999999999
 33
0.0
 14
2575.0
 24
1599.999999999999
 34
0.0
100
AcDbRotatedDimension
  0
DIMENSION
  5
BE62
330
1F
100
AcDbEntity
  8
13製作用注記
100
AcDbDimension
  2
*D542
 10
821.7999999999993
 20
1389.037128224682
 30
0.0
 11
733.9049999999993
 21
1414.037128224682
 31
0.0
 70
    32
 71
     5
 42
30.0
  3
NEMY-10
100
AcDbAlignedDimension
 13
851.7999999999993
 23
1331.499999999999
 33
0.0
 14
821.7999999999993
 24
1331.499999999999
 34
0.0
100
AcDbRotatedDimension
  0
DIMENSION
  5
BE63
330
1F
100
AcDbEntity
  8
13製作用注記
100
AcDbDimension
  2
*D543
 10
721.7999999999993
 20
1314.999999999999
 30
0.0
 11
696.7999999999993
 21
1207.499999999999
 31
0.0
 70
    32
 71
     5
 42
215.0
  3
NEMY-10
100
AcDbAlignedDimension
 13
821.7999999999993
 23
1099.999999999999
 33
0.0
 14
835.2999999999993
 24
1314.999999999999
 34
0.0
 50
90.0
100
AcDbRotatedDimension
  0
DIMENSION
  5
BE64
330
1F
100
AcDbEntity
  8
01注記寸法
100
AcDbDimension
  2
*D544
 10
625.0
 20
1599.999999999999
 30
0.0
 11
600.0
 21
1349.999999999999
 31
0.0
 70
    32
 71
     5
 42
500.0
  3
NEMY-10
100
AcDbAlignedDimension
 13
821.7999999999993
 23
1099.999999999999
 33
0.0
 14
825.0
 24
1599.999999999999
 34
0.0
 50
90.0
100
AcDbRotatedDimension
  0
DIMENSION
  5
BE65
330
1F
100
AcDbEntity
  8
13製作用注記
100
AcDbDimension
  2
*D545
 10
1204.341452661847
 20
1599.999999999999
 30
0.0
 11
1204.341452661847
 21
1477.494999999999
 31
0.0
 70
   160
 71
     5
 42
35.0
  3
NEMY-10
100
AcDbAlignedDimension
 13
1180.5
 23
1564.999999999999
 33
0.0
 14
1180.5
 24
1599.999999999999
 34
0.0
 50
90.0
100
AcDbRotatedDimension
  0
DIMENSION
  5
BE67
330
1F
100
AcDbEntity
  8
13製作用注記
100
AcDbDimension
  2
*D547
 10
1164.0
 20
1669.999999999999
 30
0.0
 11
994.5
 21
1694.999999999999
 31
0.0
 70
    32
 71
     5
 42
339.0
  3
NEMY-10
100
AcDbAlignedDimension
 13
825.0
 23
1599.999999999999
 33
0.0
 14
1164.0
 24
1581.499999999999
 34
0.0
100
AcDbRotatedDimension
  0
DIMENSION
  5
BE6A
330
1F
100
AcDbEntity
  8
13製作用注記
100
AcDbDimension
  2
*D550
 10
1336.0
 20
1669.999999999999
 30
0.0
 11
1250.0
 21
1694.999999999999
 31
0.0
 70
    32
 71
     5
 42
172.0
  3
NEMY-10
100
AcDbAlignedDimension
 13
1164.0
 23
1581.499999999999
 33
0.0
 14
1336.0
 24
1581.499999999999
 34
0.0
100
AcDbRotatedDimension
  0
DIMENSION
  5
BE6B
330
1F
100
AcDbEntity
  8
13製作用注記
100
AcDbDimension
  2
*D551
 10
1675.0
 20
1669.999999999999
 30
0.0
 11
1505.5
 21
1694.999999999999
 31
0.0
 70
    32
 71
     5
 42
339.0
  3
NEMY-10
100
AcDbAlignedDimension
 13
1336.0
 23
1581.499999999999
 33
0.0
 14
1675.0
 24
1599.999999999999
 34
0.0
100
AcDbRotatedDimension
  0
DIMENSION
  5
BE72
330
1F
100
AcDbEntity
  8
01注記寸法
100
AcDbDimension
  2
*D552
 10
2063.5
 20
1349.999999999999
 30
0.0
 11
2038.5
 21
1225.0
 31
0.0
 70
    32
 71
     5
 42
249.9999999999982
  3
NEMY-10
100
AcDbAlignedDimension
 13
2160.299999999999
 23
1100.000000000001
 33
0.0
 14
2171.000000000002
 24
1349.999999999999
 34
0.0
 50
90.0
100
AcDbRotatedDimension
  0
TEXT
  5
C4B5
330
1F
100
AcDbEntity
  8
01注記寸法
100
AcDbText
 10
360.2683602522957
 20
512.166666666667
 30
0.0
 40
30.0
  1
アンカーボルト孔
100
AcDbText
  0
TEXT
  5
C4B7
330
1F
100
AcDbEntity
  8
01注記寸法
100
AcDbText
 10
360.2683602522957
 20
462.166666666667
 30
0.0
 40
30.0
  1
(4-φ16)
100
AcDbText
  0
TEXT
  5
D023
330
1F
100
AcDbEntity
  8
01注記寸法
100
AcDbText
 10
3330.0
 20
1095.0
 30
0.0
 40
30.0
  1
3.品質改善のため製品の仕様は予告無く
 11
3330.0
 21
1110.0
 31
0.0
100
AcDbText
 73
     2
  0
TEXT
  5
D024
330
1F
100
AcDbEntity
  8
01注記寸法
100
AcDbText
 10
3330.0
 20
1035.0
 30
0.0
 40
30.0
  1
　変更する場合があります。
 11
3330.0
 21
1050.0
 31
0.0
100
AcDbText
 73
     2
  0
LINE
  5
D025
330
1F
100
AcDbEntity
  8
08非表示
100
AcDbLine
 10
3300.0
 20
1110.0
 30
0.0
 11
4100.0
 21
1110.0
 31
0.0
  0
LINE
  5
D026
330
1F
100
AcDbEntity
  8
08非表示
100
AcDbLine
 10
3300.0
 20
1080.0
 30
0.0
 11
4100.0
 21
1080.0
 31
0.0
  0
LINE
  5
D027
330
1F
100
AcDbEntity
  8
08非表示
100
AcDbLine
 10
3300.0
 20
1050.0
 30
0.0
 11
4100.0
 21
1050.0
 31
0.0
  0
LINE
  5
D028
330
1F
100
AcDbEntity
  8
08非表示
100
AcDbLine
 10
3300.0
 20
1020.0
 30
0.0
 11
4100.0
 21
1020.0
 31
0.0
  0
LINE
  5
D029
330
1F
100
AcDbEntity
  8
08非表示
100
AcDbLine
 10
3330.0
 20
1140.0
 30
0.0
 11
3330.0
 21
1080.0
 31
0.0
  0
LINE
  5
D02A
330
1F
100
AcDbEntity
  8
08非表示
100
AcDbLine
 10
3330.0
 20
1080.0
 30
0.0
 11
3330.0
 21
1020.0
 31
0.0
  0
LWPOLYLINE
  5
D5F5
330
1F
100
AcDbEntity
  8
09図枠
100
AcDbPolyline
 90
        4
 70
     1
 43
0.0
 10
100.0
 20
100.0
 10
100.0
 20
1000.000000000001
 10
3300.0
 20
1000.000000000001
 10
3300.0
 20
100.0
  0
LWPOLYLINE
  5
D62C
330
1F
100
AcDbEntity
  8
09図枠
100
AcDbPolyline
 90
        4
 70
     1
 43
0.0
 10
100.0
 20
1000.000000000001
 10
100.0
 20
2869.999999999999
 10
3300.0
 20
2869.999999999999
 10
3300.0
 20
1000.000000000001
  0
LWPOLYLINE
  5
D62E
330
1F
100
AcDbEntity
  8
01注記寸法
100
AcDbPolyline
 90
        4
 70
     1
 43
0.0
 10
3300.0
 20
280.0
 10
3300.0
 20
359.9999999999999
 10
3560.0
 20
359.9999999999999
 10
3560.0
 20
280.0
  0
LWPOLYLINE
  5
D62F
330
1F
100
AcDbEntity
  8
01注記寸法
100
AcDbPolyline
 90
        4
 70
     1
 43
0.0
 10
3560.0
 20
280.0
 10
3560.0
 20
360.0
 10
3740.0
 20
360.0
 10
3740.0
 20
280.0
  0
LWPOLYLINE
  5
D630
330
1F
100
AcDbEntity
  8
01注記寸法
100
AcDbPolyline
 90
        4
 70
     1
 43
0.0
 10
3740.0
 20
280.0
 10
3740.0
 20
360.0
 10
3920.0
 20
360.0
 10
3920.0
 20
280.0
  0
LWPOLYLINE
  5
D631
330
1F
100
AcDbEntity
  8
01注記寸法
100
AcDbPolyline
 90
        4
 70
     1
 43
0.0
 10
3920.0
 20
280.0
 10
3920.0
 20
360.0
 10
4100.0
 20
360.0
 10
4100.0
 20
280.0
  0
LWPOLYLINE
  5
D632
330
1F
100
AcDbEntity
  8
01注記寸法
100
AcDbPolyline
 90
        4
 70
     1
 43
0.0
 10
3300.0
 20
360.0
 10
3300.0
 20
419.9999999999998
 10
3560.0
 20
419.9999999999998
 10
3560.0
 20
360.0
  0
LWPOLYLINE
  5
D633
330
1F
100
AcDbEntity
  8
01注記寸法
100
AcDbPolyline
 90
        4
 70
     1
 43
0.0
 10
3560.0
 20
359.9999999999999
 10
3560.0
 20
419.9999999999999
 10
3740.0
 20
419.9999999999999
 10
3740.0
 20
359.9999999999999
  0
LWPOLYLINE
  5
D634
330
1F
100
AcDbEntity
  8
01注記寸法
100
AcDbPolyline
 90
        4
 70
     1
 43
0.0
 10
3740.0
 20
359.9999999999999
 10
3740.0
 20
419.9999999999999
 10
3920.0
 20
419.9999999999999
 10
3920.0
 20
359.9999999999999
  0
LWPOLYLINE
  5
D635
330
1F
100
AcDbEntity
  8
01注記寸法
100
AcDbPolyline
 90
        4
 70
     1
 43
0.0
 10
3920.0
 20
360.0
 10
3920.0
 20
419.9999999999999
 10
4100.0
 20
419.9999999999999
 10
4100.0
 20
360.0
  0
LWPOLYLINE
  5
D6C7
330
1F
100
AcDbEntity
  8
09図枠
100
AcDbPolyline
 90
        4
 70
     1
 43
0.0
 10
100.0
 20
100.0
 10
100.0
 20
1000.000000000001
 10
3300.0
 20
1000.000000000001
 10
3300.0
 20
100.0
  0
LINE
  5
D6D6
330
1F
100
AcDbEntity
  8
04一点鎖線
  6
CENTER
 48
0.2
100
AcDbLine
 10
3082.945876303434
 20
220.1336530409799
 30
0.0
 11
3082.945876303434
 21
191.6336530409799
 31
0.0
  0
DIMENSION
  5
D6DC
330
1F
100
AcDbEntity
  8
01注記寸法
100
AcDbDimension
  2
*D825
 10
2928.353113124998
 20
199.1336530409799
 30
0.0
 11
2928.353113124998
 21
405.8286530409832
 31
0.0
 70
   160
  1
MAX 30mm
 71
     5
 42
90.00000000000273
  3
NEMY-10
100
AcDbAlignedDimension
 13
3013.945876303434
 23
289.1336530409826
 33
0.0
 14
3013.945876303434
 24
199.1336530409799
 34
0.0
 50
90.0
100
AcDbRotatedDimension
  0
LINE
  5
D6DD
330
1F
100
AcDbEntity
  8
04一点鎖線
  6
CENTER
 48
0.2
100
AcDbLine
 10
2710.621565635247
 20
220.1336530409799
 30
0.0
 11
2710.621565635247
 21
191.6336530409799
 31
0.0
  0
TEXT
  5
D6DE
330
1F
100
AcDbEntity
  8
01注記寸法
100
AcDbText
 10
2530.0
 20
905.0
 30
0.0
 40
30.0
  1
<レベル調整>
 11
2530.0
 21
920.0
 31
0.0
100
AcDbText
 73
     2
  0
TEXT
  5
D6DF
330
1F
100
AcDbEntity
  8
01注記寸法
100
AcDbText
 10
2530.0
 20
845.0
 30
0.0
 40
30.0
  1
アンカー金具を上下にスライドさせて
 11
2530.0
 21
860.0
 31
0.0
100
AcDbText
 73
     2
  0
LWPOLYLINE
  5
D6E0
330
1F
100
AcDbEntity
  8
09図枠
100
AcDbPolyline
 90
        4
 70
     1
 43
0.0
 10
2500.0
 20
100.0
 10
2500.0
 20
1000.0
 10
3300.0
 20
1000.0
 10
3300.0
 20
100.0
  0
TEXT
  5
D6E1
330
1F
100
AcDbEntity
  8
01注記寸法
100
AcDbText
 10
2530.0
 20
785.0
 30
0.0
 40
30.0
  1
レベルを調整します。
 11
2530.0
 21
800.0
 31
0.0
100
AcDbText
 73
     2
  0
TEXT
  5
D6E2
330
1F
100
AcDbEntity
  8
01注記寸法
100
AcDbText
 10
2530.0
 20
725.0
 30
0.0
 40
30.0
  1
架台全体の嵩上げには使用しないで
 11
2530.0
 21
740.0
 31
0.0
100
AcDbText
 73
     2
  0
TEXT
  5
D6E3
330
1F
100
AcDbEntity
  8
01注記寸法
100
AcDbText
 10
930.0
 20
905.0
 30
0.0
 40
30.0
  1
アンカー金具取付（Ｂ）
 11
930.0
 21
920.0
 31
0.0
100
AcDbText
 73
     2
  0
TEXT
  5
D6E4
330
1F
100
AcDbEntity
  8
01注記寸法
100
AcDbText
 10
1730.0
 20
905.0
 30
0.0
 40
30.0
  1
アンカー金具取付（Ｃ）
 11
1730.0
 21
920.0
 31
0.0
100
AcDbText
 73
     2
  0
LINE
  5
D6E5
330
1F
100
AcDbEntity
  8
01注記寸法
100
AcDbLine
 10
900.0
 20
100.0
 30
0.0
 11
900.0
 21
1000.0
 31
0.0
  0
LINE
  5
D6E6
330
1F
100
AcDbEntity
  8
01注記寸法
100
AcDbLine
 10
1700.0
 20
100.0
 30
0.0
 11
1700.0
 21
1000.0
 31
0.0
  0
TEXT
  5
D6E7
330
1F
100
AcDbEntity
  8
01注記寸法
100
AcDbText
 10
130.0
 20
905.0
 30
0.0
 40
30.0
  1
アンカー金具取付（Ａ）
 11
130.0
 21
920.0
 31
0.0
100
AcDbText
 73
     2
  0
TEXT
  5
D6E8
330
1F
100
AcDbEntity
  8
01注記寸法
100
AcDbText
 10
130.0
 20
955.0
 30
0.0
 40
30.0
  1
<アンカー寸法図>
 11
130.0
 21
970.0
 31
0.0
100
AcDbText
 73
     2
  0
TEXT
  5
D6E9
330
1F
100
AcDbEntity
  8
01注記寸法
100
AcDbText
 10
480.0
 20
955.0
 30
0.0
 40
30.0
  1
SCALE=
 11
480.0
 21
970.0
 31
0.0
100
AcDbText
 73
     2
  0
TEXT
  5
D6EA
330
1F
100
AcDbEntity
  8
01注記寸法
100
AcDbText
 10
610.0
 20
955.0
 30
0.0
 40
30.0
  1
1:15
 11
610.0
 21
970.0
 31
0.0
100
AcDbText
 73
     2
  0
TEXT
  5
D6EB
330
1F
100
AcDbEntity
  8
01注記寸法
100
AcDbText
 10
2530.0
 20
665.0
 30
0.0
 40
30.0
  1
ください。
 11
2530.0
 21
680.0
 31
0.0
100
AcDbText
 73
     2
  0
LWPOLYLINE
  5
D793
330
1F
100
AcDbEntity
  8
13製作用注記
100
AcDbPolyline
 90
        4
 70
     1
 43
0.0
 10
2600.0
 20
2190.0
 10
2600.0
 20
2250.0
 10
2800.0
 20
2250.0
 10
2800.0
 20
2190.0
  0
LWPOLYLINE
  5
D794
330
1F
100
AcDbEntity
  8
13製作用注記
100
AcDbPolyline
 90
        4
 70
     1
 43
0.0
 10
2540.0
 20
2190.0
 10
2540.0
 20
2250.0
 10
2600.0
 20
2250.0
 10
2600.0
 20
2190.0
  0
TEXT
  5
D795
330
1F
100
AcDbEntity
  8
13製作用注記
100
AcDbText
 10
2560.25
 20
2205.0
 30
0.0
 40
30.0
  1
1
 72
     1
 11
2570.0
 21
2220.0
 31
0.0
100
AcDbText
 73
     2
  0
TEXT
  5
D796
330
1F
100
AcDbEntity
  8
13製作用注記
100
AcDbText
 10
2641.5
 20
2205.0
 30
0.0
 40
30.0
  1
梁長手
 72
     1
 11
2700.0
 21
2220.0
 31
0.0
100
AcDbText
 73
     2
  0
LWPOLYLINE
  5
D797
330
1F
100
AcDbEntity
  8
13製作用注記
100
AcDbPolyline
 90
        4
 70
     1
 43
0.0
 10
2600.0
 20
2130.0
 10
2600.0
 20
2190.0
 10
2800.0
 20
2190.0
 10
2800.0
 20
2130.0
  0
LWPOLYLINE
  5
D798
330
1F
100
AcDbEntity
  8
13製作用注記
100
AcDbPolyline
 90
        4
 70
     1
 43
0.0
 10
2540.0
 20
2130.0
 10
2540.0
 20
2190.0
 10
2600.0
 20
2190.0
 10
2600.0
 20
2130.0
  0
TEXT
  5
D799
330
1F
100
AcDbEntity
  8
13製作用注記
100
AcDbText
 10
2560.25
 20
2145.0
 30
0.0
 40
30.0
  1
2
 72
     1
 11
2570.0
 21
2160.0
 31
0.0
100
AcDbText
 73
     2
  0
TEXT
  5
D79A
330
1F
100
AcDbEntity
  8
13製作用注記
100
AcDbText
 10
2641.5
 20
2145.0
 30
0.0
 40
30.0
  1
梁短手
 72
     1
 11
2700.0
 21
2160.0
 31
0.0
100
AcDbText
 73
     2
  0
LWPOLYLINE
  5
D79B
330
1F
100
AcDbEntity
  8
13製作用注記
100
AcDbPolyline
 90
        4
 70
     1
 43
0.0
 10
2600.0
 20
2070.0
 10
2600.0
 20
2130.0
 10
2800.0
 20
2130.0
 10
2800.0
 20
2070.0
  0
LWPOLYLINE
  5
D79C
330
1F
100
AcDbEntity
  8
13製作用注記
100
AcDbPolyline
 90
        4
 70
     1
 43
0.0
 10
2540.0
 20
2070.0
 10
2540.0
 20
2130.0
 10
2600.0
 20
2130.0
 10
2600.0
 20
2070.0
  0
TEXT
  5
D79D
330
1F
100
AcDbEntity
  8
13製作用注記
100
AcDbText
 10
2560.25
 20
2085.0
 30
0.0
 40
30.0
  1
3
 72
     1
 11
2570.0
 21
2100.0
 31
0.0
100
AcDbText
 73
     2
  0
TEXT
  5
D79E
330
1F
100
AcDbEntity
  8
13製作用注記
100
AcDbText
 10
2661.0
 20
2085.0
 30
0.0
 40
30.0
  1
中桟
 72
     1
 11
2700.0
 21
2100.0
 31
0.0
100
AcDbText
 73
     2
  0
LWPOLYLINE
  5
D79F
330
1F
100
AcDbEntity
  8
13製作用注記
100
AcDbPolyline
 90
        4
 70
     1
 43
0.0
 10
2600.0
 20
2010.0
 10
2600.0
 20
2070.0
 10
2800.0
 20
2070.0
 10
2800.0
 20
2010.0
  0
LWPOLYLINE
  5
D7A0
330
1F
100
AcDbEntity
  8
13製作用注記
100
AcDbPolyline
 90
        4
 70
     1
 43
0.0
 10
2540.0
 20
2010.0
 10
2540.0
 20
2070.0
 10
2600.0
 20
2070.0
 10
2600.0
 20
2010.0
  0
TEXT
  5
D7A1
330
1F
100
AcDbEntity
  8
13製作用注記
100
AcDbText
 10
2560.25
 20
2025.0
 30
0.0
 40
30.0
  1
4
 72
     1
 11
2570.0
 21
2040.0
 31
0.0
100
AcDbText
 73
     2
  0
TEXT
  5
D7A2
330
1F
100
AcDbEntity
  8
13製作用注記
100
AcDbText
 10
2661.0
 20
2025.0
 30
0.0
 40
30.0
  1
端柱
 72
     1
 11
2700.0
 21
2040.0
 31
0.0
100
AcDbText
 73
     2
  0
LWPOLYLINE
  5
D7A7
330
1F
100
AcDbEntity
  8
13製作用注記
100
AcDbPolyline
 90
        4
 70
     1
 43
0.0
 10
2600.0
 20
1950.0
 10
2600.0
 20
2010.0
 10
2800.0
 20
2010.0
 10
2800.0
 20
1950.0
  0
LWPOLYLINE
  5
D7A8
330
1F
100
AcDbEntity
  8
13製作用注記
100
AcDbPolyline
 90
        4
 70
     1
 43
0.0
 10
2540.0
 20
1950.0
 10
2540.0
 20
2010.0
 10
2600.0
 20
2010.0
 10
2600.0
 20
1950.0
  0
TEXT
  5
D7A9
330
1F
100
AcDbEntity
  8
13製作用注記
100
AcDbText
 10
2560.25
 20
1965.0
 30
0.0
 40
30.0
  1
5
 72
     1
 11
2570.0
 21
1980.0
 31
0.0
100
AcDbText
 73
     2
  0
TEXT
  5
D7AA
330
1F
100
AcDbEntity
  8
13製作用注記
100
AcDbText
 10
2661.0
 20
1965.0
 30
0.0
 40
30.0
  1
筋交
 72
     1
 11
2700.0
 21
1980.0
 31
0.0
100
AcDbText
 73
     2
  0
LWPOLYLINE
  5
D7AB
330
1F
100
AcDbEntity
  8
13製作用注記
100
AcDbPolyline
 90
        4
 70
     1
 43
0.0
 10
2800.0
 20
2190.0
 10
2800.0
 20
2250.0
 10
3200.0
 20
2250.0
 10
3200.0
 20
2190.0
  0
TEXT
  5
D7AC
330
1F
100
AcDbEntity
  8
13製作用注記
100
AcDbText
 10
2873.25
 20
2205.0
 30
0.0
 40
30.0
  1
L80×60×t3.2
 72
     1
 11
3000.0
 21
2220.0
 31
0.0
100
AcDbText
 73
     2
  0
LWPOLYLINE
  5
D7AD
330
1F
100
AcDbEntity
  8
13製作用注記
100
AcDbPolyline
 90
        4
 70
     1
 43
0.0
 10
2800.0
 20
2130.0
 10
2800.0
 20
2190.0
 10
3200.0
 20
2190.0
 10
3200.0
 20
2130.0
  0
TEXT
  5
D7AE
330
1F
100
AcDbEntity
  8
13製作用注記
100
AcDbText
 10
2873.25
 20
2145.0
 30
0.0
 40
30.0
  1
L60×60×t3.2
 72
     1
 11
3000.0
 21
2160.0
 31
0.0
100
AcDbText
 73
     2
  0
LWPOLYLINE
  5
D7AF
330
1F
100
AcDbEntity
  8
13製作用注記
100
AcDbPolyline
 90
        4
 70
     1
 43
0.0
 10
2800.0
 20
2070.0
 10
2800.0
 20
2130.0
 10
3200.0
 20
2130.0
 10
3200.0
 20
2070.0
  0
TEXT
  5
D7B0
330
1F
100
AcDbEntity
  8
13製作用注記
100
AcDbText
 10
2863.5
 20
2085.0
 30
0.0
 40
30.0
  1
L100×60×t3.2
 72
     1
 11
3000.0
 21
2100.0
 31
0.0
100
AcDbText
 73
     2
  0
LWPOLYLINE
  5
D7B1
330
1F
100
AcDbEntity
  8
13製作用注記
100
AcDbPolyline
 90
        4
 70
     1
 43
0.0
 10
2800.0
 20
2010.0
 10
2800.0
 20
2070.0
 10
3200.0
 20
2070.0
 10
3200.0
 20
2010.0
  0
TEXT
  5
D7B2
330
1F
100
AcDbEntity
  8
13製作用注記
100
AcDbText
 10
2873.25
 20
2025.0
 30
0.0
 40
30.0
  1
L60×60×t3.2
 72
     1
 11
3000.0
 21
2040.0
 31
0.0
100
AcDbText
 73
     2
  0
LWPOLYLINE
  5
D7B5
330
1F
100
AcDbEntity
  8
13製作用注記
100
AcDbPolyline
 90
        4
 70
     1
 43
0.0
 10
2800.0
 20
1950.0
 10
2800.0
 20
2010.0
 10
3200.0
 20
2010.0
 10
3200.0
 20
1950.0
  0
TEXT
  5
D7B6
330
1F
100
AcDbEntity
  8
13製作用注記
100
AcDbText
 10
2941.5
 20
1965.0
 30
0.0
 40
30.0
  1
500H用
 72
     1
 11
3000.0
 21
1980.0
 31
0.0
100
AcDbText
 73
     2
  0
LWPOLYLINE
  5
D7B7
330
1F
100
AcDbEntity
  8
13製作用注記
100
AcDbPolyline
 90
        4
 70
     1
 43
0.0
 10
2540.0
 20
2250.0
 10
2540.0
 20
2310.0
 10
3200.0
 20
2310.0
 10
3200.0
 20
2250.0
  0
TEXT
  5
D7B8
330
1F
100
AcDbEntity
  8
13製作用注記
100
AcDbText
 10
2733.5
 20
2265.0
 30
0.0
 40
30.0
  1
部　材　一　覧
 72
     1
 11
2870.0
 21
2280.0
 31
0.0
100
AcDbText
 73
     2
  0
CIRCLE
  5
D886
330
1F
100
AcDbEntity
  8
13製作用注記
100
AcDbCircle
 10
961.889580959456
 20
1125.655768967817
 30
0.0
 40
25.0
  0
TEXT
  5
D887
330
1F
100
AcDbEntity
  8
13製作用注記
100
AcDbText
 10
952.139580959456
 20
1110.655768967817
 30
0.0
 40
30.0
  1
4
 72
     1
 11
961.889580959456
 21
1125.655768967817
 31
0.0
100
AcDbText
 73
     2
  0
LEADER
  5
D888
330
1F
100
AcDbEntity
  8
13製作用注記
100
AcDbLeader
  3
NEMY-10
 76
     2
 10
881.7999999999993
 20
1199.999999999999
 30
0.0
 10
943.5669301920261
 20
1142.664016051359
 30
0.0
  0
CIRCLE
  5
D889
330
1F
100
AcDbEntity
  8
13製作用注記
100
AcDbCircle
 10
1099.378412402559
 20
1355.559010925615
 30
0.0
 40
25.0
  0
TEXT
  5
D88A
330
1F
100
AcDbEntity
  8
13製作用注記
100
AcDbText
 10
1089.628412402559
 20
1340.559010925615
 30
0.0
 40
30.0
  1
5
 72
     1
 11
1099.378412402559
 21
1355.559010925615
 31
0.0
100
AcDbText
 73
     2
  0
LEADER
  5
D88B
330
1F
100
AcDbEntity
  8
13製作用注記
100
AcDbLeader
  3
NEMY-10
 76
     2
 10
1019.288831443102
 20
1429.903241957798
 30
0.0
 10
1081.055761635129
 20
1372.567258009158
 30
0.0
  0
CIRCLE
  5
D88F
330
1F
100
AcDbEntity
  8
13製作用注記
100
AcDbCircle
 10
1538.110419040544
 20
1125.655768967817
 30
0.0
 40
25.0
  0
TEXT
  5
D890
330
1F
100
AcDbEntity
  8
13製作用注記
100
AcDbText
 10
1528.360419040544
 20
1110.655768967817
 30
0.0
 40
30.0
  1
4
 72
     1
 11
1538.110419040544
 21
1125.655768967817
 31
0.0
100
AcDbText
 73
     2
  0
LEADER
  5
D891
330
1F
100
AcDbEntity
  8
13製作用注記
100
AcDbLeader
  3
NEMY-10
 76
     2
 10
1618.200000000001
 20
1199.999999999999
 30
0.0
 10
1556.433069807974
 20
1142.664016051359
 30
0.0
211
-1.0
221
0.0
231
0.0
  0
CIRCLE
  5
D8A2
330
1F
100
AcDbEntity
  8
13製作用注記
100
AcDbCircle
 10
1400.621587597441
 20
1355.559010925615
 30
0.0
 40
25.0
  0
TEXT
  5
D8A3
330
1F
100
AcDbEntity
  8
13製作用注記
100
AcDbText
 10
1390.871587597441
 20
1340.559010925615
 30
0.0
 40
30.0
  1
5
 72
     1
 11
1400.621587597441
 21
1355.559010925615
 31
0.0
100
AcDbText
 73
     2
  0
LEADER
  5
D8A4
330
1F
100
AcDbEntity
  8
13製作用注記
100
AcDbLeader
  3
NEMY-10
 76
     2
 10
1480.711168556898
 20
1429.903241957798
 30
0.0
 10
1418.944238364871
 20
1372.567258009158
 30
0.0
211
-1.0
221
0.0
231
0.0
  0
LEADER
  5
D9A1
330
1F
100
AcDbEntity
  8
01注記寸法
100
AcDbLeader
  3
NEMY-10
 76
     2
 10
2564.621565635247
 20
289.1336530409781
 30
0.0
 10
2564.621565635247
 20
199.1336530409799
 30
0.0
  0
LEADER
  5
D9A2
330
1F
100
AcDbEntity
  8
01注記寸法
100
AcDbLeader
  3
NEMY-10
 76
     2
 10
2564.621565635247
 20
199.1336530409799
 30
0.0
 10
2564.621565635247
 20
289.1336530409781
 30
0.0
  0
TEXT
  5
EC96
330
1F
100
AcDbEntity
  8
01注記寸法
100
AcDbText
 10
3518.0
 20
210.0
 30
0.0
 40
40.0
  1
ネミー株式会社
 72
     1
 11
3700.0
 21
230.0
 31
0.0
100
AcDbText
 73
     2
  0
LEADER
  5
F274
330
1F
100
AcDbEntity
  8
01注記寸法
100
AcDbLeader
  3
NEMY-10
 76
     3
 10
302.5333333333328
 20
599.666666666667
 30
0.0
 10
360.2683602522957
 20
499.666666666667
 30
0.0
 10
680.2683602522957
 20
499.666666666667
 30
0.0
  0
LWPOLYLINE
  5
F407
330
1F
100
AcDbEntity
  8
08非表示
100
AcDbPolyline
 90
        4
 70
     1
 43
0.0
 10
200.0
 20
1099.999999999995
 10
200.0
 20
2769.999999999998
 10
3200.0
 20
2769.999999999998
 10
3200.0
 20
1099.999999999995
  0
LWPOLYLINE
  5
F769
330
1F
100
AcDbEntity
  8
01注記寸法
100
AcDbPolyline
 90
        4
 70
     0
 43
0.0
 10
2250.000000000002
 20
2852.866790756224
 10
2223.576531036949
 20
2807.1
 10
2276.423468963051
 20
2807.1
 10
2250.000000000002
 20
2852.866790756224
  0
TEXT
  5
F76A
330
1F
100
AcDbEntity
  8
01注記寸法
100
AcDbText
 10
2240.250000000002
 20
2810.236567594096
 30
0.0
 40
30.0
  1
1
 72
     4
 11
2250.000000000002
 21
2825.386567594096
 31
0.0
100
AcDbText
  0
DIMENSION
  5
F7F1
330
1F
100
AcDbEntity
  8
01注記寸法
100
AcDbDimension
  2
*D1202
 10
183.3333333333339
 20
373.666666666667
 30
0.0
 11
158.3333333333339
 21
486.666666666667
 31
0.0
 70
    32
 71
     5
 42
339.0
  3
NEMY-10
100
AcDbAlignedDimension
 13
302.5333333333328
 23
599.666666666667
 33
0.0
 14
302.5333333333328
 24
373.666666666667
 34
0.0
 50
90.0
100
AcDbRotatedDimension
1001
ACAD
1000
DSTYLE
1002
{
1070
   271
1070
     0
1070
   144
1040
1.5
1002
}
  0
DIMENSION
  5
F7FE
330
1F
100
AcDbEntity
  8
01注記寸法
100
AcDbDimension
  2
*D1203
 10
830.8000000000011
 20
723.3333333333335
 30
0.0
 11
566.666666666667
 21
748.3333333333335
 31
0.0
 70
    32
 71
     5
 42
792.4000000000024
  3
NEMY-10
100
AcDbAlignedDimension
 13
302.5333333333328
 23
599.666666666667
 33
0.0
 14
830.8000000000011
 24
599.666666666667
 34
0.0
100
AcDbRotatedDimension
1001
ACAD
1000
DSTYLE
1002
{
1070
   271
1070
     0
1070
   144
1040
1.5
1002
}
  0
DIMENSION
  5
F81D
330
1F
100
AcDbEntity
  8
01注記寸法
100
AcDbDimension
  2
*D1204
 10
1676.800000000001
 20
723.3333333333335
 30
0.0
 11
1366.666666666667
 21
748.3333333333335
 31
0.0
 70
    32
 71
     5
 42
930.4000000000024
  3
NEMY-10
100
AcDbAlignedDimension
 13
1056.533333333333
 23
605.1333333333341
 33
0.0
 14
1676.800000000001
 24
605.1333333333341
 34
0.0
100
AcDbRotatedDimension
1001
ACAD
1000
DSTYLE
1002
{
1070
   271
1070
     0
1070
   144
1040
1.5
1002
}
  0
DIMENSION
  5
F81E
330
1F
100
AcDbEntity
  8
01注記寸法
100
AcDbDimension
  2
*D1205
 10
983.3333333333339
 20
368.2000000000007
 30
0.0
 11
958.3333333333339
 21
486.6666666666674
 31
0.0
 70
    32
 71
     5
 42
355.4000000000001
  3
NEMY-10
100
AcDbAlignedDimension
 13
1056.533333333333
 23
605.1333333333341
 33
0.0
 14
1056.533333333333
 24
368.2000000000007
 34
0.0
 50
90.0
100
AcDbRotatedDimension
1001
ACAD
1000
DSTYLE
1002
{
1070
   271
1070
     0
1070
   144
1040
1.5
1002
}
  0
DIMENSION
  5
F849
330
1F
100
AcDbEntity
  8
01注記寸法
100
AcDbDimension
  2
*D1206
 10
2430.800000000001
 20
723.3333333333335
 30
0.0
 11
2166.666666666667
 21
748.3333333333335
 31
0.0
 70
    32
 71
     5
 42
792.4000000000024
  3
NEMY-10
100
AcDbAlignedDimension
 13
1902.533333333333
 23
651.1333333333341
 33
0.0
 14
2430.800000000001
 24
651.1333333333341
 34
0.0
100
AcDbRotatedDimension
1001
ACAD
1000
DSTYLE
1002
{
1070
   271
1070
     0
1070
   144
1040
1.5
1002
}
  0
DIMENSION
  5
F84A
330
1F
100
AcDbEntity
  8
01注記寸法
100
AcDbDimension
  2
*D1207
 10
1783.333333333334
 20
322.2000000000007
 30
0.0
 11
1758.333333333334
 21
486.6666666666674
 31
0.0
 70
    32
 71
     5
 42
493.4000000000001
  3
NEMY-10
100
AcDbAlignedDimension
 13
1902.533333333333
 23
651.1333333333341
 33
0.0
 14
1902.533333333333
 24
322.2000000000007
 34
0.0
 50
90.0
100
AcDbRotatedDimension
1001
ACAD
1000
DSTYLE
1002
{
1070
   271
1070
     0
1070
   144
1040
1.5
1002
}
  0
TEXT
  5
F863
330
1F
100
AcDbEntity
  8
01注記寸法
100
AcDbText
 10
1160.268360252296
 20
512.166666666667
 30
0.0
 40
30.0
  1
アンカーボルト孔
100
AcDbText
  0
LEADER
  5
F864
330
1F
100
AcDbEntity
  8
01注記寸法
100
AcDbLeader
  3
NEMY-10
 76
     3
 10
1056.533333333333
 20
605.1333333333341
 30
0.0
 10
1160.268360252296
 20
499.666666666667
 30
0.0
 10
1480.268360252296
 20
499.666666666667
 30
0.0
  0
TEXT
  5
F865
330
1F
100
AcDbEntity
  8
01注記寸法
100
AcDbText
 10
1160.268360252296
 20
462.166666666667
 30
0.0
 40
30.0
  1
(4-φ16)
100
AcDbText
  0
TEXT
  5
F866
330
1F
100
AcDbEntity
  8
01注記寸法
100
AcDbText
 10
1960.268360252296
 20
512.166666666667
 30
0.0
 40
30.0
  1
アンカーボルト孔
100
AcDbText
  0
LEADER
  5
F867
330
1F
100
AcDbEntity
  8
01注記寸法
100
AcDbLeader
  3
NEMY-10
 76
     3
 10
1902.533333333333
 20
651.1333333333341
 30
0.0
 10
1960.268360252296
 20
499.666666666667
 30
0.0
 10
2280.268360252296
 20
499.666666666667
 30
0.0
  0
TEXT
  5
F868
330
1F
100
AcDbEntity
  8
01注記寸法
100
AcDbText
 10
1960.268360252296
 20
462.166666666667
 30
0.0
 40
30.0
  1
(4-φ16)
100
AcDbText
  0
LWPOLYLINE
  5
F86E
330
1F
100
AcDbEntity
  8
03破線
100
AcDbPolyline
 90
        7
 70
     0
 43
0.0
 10
1050.0
 20
1599.999999999999
 10
950.0
 20
1599.999999999999
 10
950.0
 20
1539.999999999999
 10
953.1999999999989
 20
1539.999999999999
 10
953.1999999999989
 20
1596.799999999999
 10
1050.0
 20
1596.799999999999
 10
1050.0
 20
1599.999999999999
  0
LINE
  5
F86F
330
1F
100
AcDbEntity
  8
04一点鎖線
100
AcDbLine
 10
1000.0
 20
1586.799999999999
 30
0.0
 11
1000.0
 21
1609.999999999999
 31
0.0
  0
LINE
  5
F870
330
1F
100
AcDbEntity
  8
04一点鎖線
100
AcDbLine
 10
925.0
 20
1586.799999999999
 30
0.0
 11
925.0
 21
1609.999999999999
 31
0.0
  0
LWPOLYLINE
  5
F871
330
1F
100
AcDbEntity
  8
03破線
100
AcDbPolyline
 90
        7
 70
     0
 43
0.0
 10
1450.0
 20
1599.999999999999
 10
1550.0
 20
1599.999999999999
 10
1550.0
 20
1539.999999999999
 10
1546.800000000001
 20
1539.999999999999
 10
1546.800000000001
 20
1596.799999999999
 10
1450.0
 20
1596.799999999999
 10
1450.0
 20
1599.999999999999
  0
LINE
  5
F872
330
1F
100
AcDbEntity
  8
04一点鎖線
100
AcDbLine
 10
1500.0
 20
1586.799999999999
 30
0.0
 11
1500.0
 21
1609.999999999999
 31
0.0
  0
LINE
  5
F873
330
1F
100
AcDbEntity
  8
04一点鎖線
100
AcDbLine
 10
1575.0
 20
1586.799999999999
 30
0.0
 11
1575.0
 21
1609.999999999999
 31
0.0
  0
LINE
  5
F874
330
1F
100
AcDbEntity
  8
04一点鎖線
100
AcDbLine
 10
2195.0
 20
1586.799999999999
 30
0.0
 11
2195.0
 21
1609.999999999999
 31
0.0
  0
LINE
  5
F875
330
1F
100
AcDbEntity
  8
04一点鎖線
100
AcDbLine
 10
2210.0
 20
1586.799999999999
 30
0.0
 11
2210.0
 21
1609.999999999999
 31
0.0
  0
LINE
  5
F876
330
1F
100
AcDbEntity
  8
04一点鎖線
100
AcDbLine
 10
2545.0
 20
1586.799999999999
 30
0.0
 11
2545.0
 21
1609.999999999999
 31
0.0
  0
LINE
  5
F877
330
1F
100
AcDbEntity
  8
04一点鎖線
100
AcDbLine
 10
2530.0
 20
1586.799999999999
 30
0.0
 11
2530.0
 21
1609.999999999999
 31
0.0
  0
LWPOLYLINE
  5
F93E
330
1F
100
AcDbEntity
  8
02実線
100
AcDbPolyline
 90
        4
 70
     1
 43
0.0
 10
825.0
 20
1959.999999999999
 10
825.0
 20
2369.999999999999
 10
1675.0
 20
2369.999999999999
 10
1675.0
 20
1959.999999999999
  0
LWPOLYLINE
  5
F93F
330
1F
100
AcDbEntity
  8
02実線
100
AcDbPolyline
 90
        4
 70
     1
 43
0.0
 10
885.0
 20
2039.999999999999
 10
885.0
 20
2289.999999999999
 10
1615.0
 20
2289.999999999999
 10
1615.0
 20
2039.999999999999
  0
LWPOLYLINE
  5
F940
330
1F
100
AcDbEntity
  8
03破線
100
AcDbPolyline
 90
        4
 70
     1
 43
0.0
 10
828.2000000000007
 20
1963.2
 10
828.2000000000007
 20
2366.8
 10
1671.799999999999
 20
2366.8
 10
1671.799999999999
 20
1963.2
  0
INSERT
  5
F941
330
1F
100
AcDbEntity
  8
02実線
100
AcDbBlockReference
  2
BH-端柱(L60)-平面
 10
821.7999999999993
 20
1955.3
 30
0.0
  0
INSERT
  5
F942
330
1F
100
AcDbEntity
  8
02実線
100
AcDbBlockReference
  2
BH-端柱(L60)-平面
 10
821.7999999999993
 20
2374.7
 30
0.0
 41
-1.0
 50
180.0
  0
INSERT
  5
F943
330
1F
100
AcDbEntity
  8
02実線
100
AcDbBlockReference
  2
BH-端柱(L60)-平面
 10
1678.200000000001
 20
2374.7
 30
0.0
 50
180.0
  0
INSERT
  5
F944
330
1F
100
AcDbEntity
  8
02実線
100
AcDbBlockReference
  2
BH-端柱(L60)-平面
 10
1678.200000000001
 20
1955.3
 30
0.0
 41
-1.0
  0
LINE
  5
F945
102
{ACAD_REACTORS
330
F982
102
}
330
1F
100
AcDbEntity
  8
03破線
100
AcDbLine
 10
953.1999999999989
 20
2366.799999999999
 30
0.0
 11
953.1999999999989
 21
1959.999999999999
 31
0.0
  0
LINE
  5
F946
102
{ACAD_REACTORS
330
F982
102
}
330
1F
100
AcDbEntity
  8
03破線
100
AcDbLine
 10
950.0
 20
2289.999999999999
 30
0.0
 11
950.0
 21
2366.8
 31
0.0
  0
LINE
  5
F947
102
{ACAD_REACTORS
330
F982
102
}
330
1F
100
AcDbEntity
  8
03破線
100
AcDbLine
 10
950.0
 20
2039.999999999999
 30
0.0
 11
950.0
 21
1963.2
 31
0.0
  0
DIMENSION
  5
F948
330
1F
100
AcDbEntity
  8
01注記寸法
100
AcDbDimension
  2
*D1222
 10
1675.0
 20
2669.999999999999
 30
0.0
 11
1250.0
 21
2694.999999999999
 31
0.0
 70
    32
 71
     5
 42
850.0
  3
NEMY-10
100
AcDbAlignedDimension
 13
825.0
 23
2371.500000000001
 33
0.0
 14
1675.0
 24
2371.500000000001
 34
0.0
100
AcDbRotatedDimension
  0
DIMENSION
  5
F949
330
1F
100
AcDbEntity
  8
01注記寸法
100
AcDbDimension
  2
*D1223
 10
575.0
 20
1959.999999999999
 30
0.0
 11
550.0
 21
2164.999999999999
 31
0.0
 70
    32
 71
     5
 42
410.0
  3
NEMY-10
100
AcDbAlignedDimension
 13
825.0
 23
2369.999999999999
 33
0.0
 14
825.0
 24
1959.999999999999
 34
0.0
 50
90.0
100
AcDbRotatedDimension
  0
TEXT
  5
F94A
330
1F
100
AcDbEntity
  8
01注記寸法
100
AcDbText
 10
1055.205702424271
 20
1822.499999999999
 30
0.0
 40
30.0
  1
(4-φ16)
100
AcDbText
  0
TEXT
  5
F94B
330
1F
100
AcDbEntity
  8
01注記寸法
100
AcDbText
 10
1055.205702424271
 20
1872.499999999999
 30
0.0
 40
30.0
  1
※防振架台固定ボルト孔
100
AcDbText
  0
LWPOLYLINE
  5
F94C
330
1F
100
AcDbEntity
  8
08非表示
100
AcDbPolyline
 90
        4
 70
     1
 43
0.0
 10
675.0
 20
1859.999999999999
 10
675.0
 20
2469.999999999999
 10
1775.0
 20
2469.999999999999
 10
1775.0
 20
1859.999999999999
  0
LWPOLYLINE
  5
F94D
330
1F
100
AcDbEntity
  8
08非表示
100
AcDbPolyline
 90
        4
 70
     1
 43
0.0
 10
575.0
 20
1759.999999999999
 10
575.0
 20
2569.999999999999
 10
1875.0
 20
2569.999999999999
 10
1875.0
 20
1759.999999999999
  0
LWPOLYLINE
  5
F94E
102
{ACAD_REACTORS
330
F982
102
}
330
1F
100
AcDbEntity
  8
02実線
100
AcDbPolyline
 90
        4
 70
     1
 43
0.0
 10
950.0
 20
2039.999999999999
 10
950.0
 20
2289.999999999999
 10
1050.0
 20
2289.999999999999
 10
1050.0
 20
2039.999999999999
  0
CIRCLE
  5
F94F
330
1F
100
AcDbEntity
  8
13製作用注記
100
AcDbCircle
 10
1254.89134734116
 20
2215.655768967817
 30
0.0
 40
25.0
  0
TEXT
  5
F950
330
1F
100
AcDbEntity
  8
13製作用注記
100
AcDbText
 10
1245.14134734116
 20
2200.655768967817
 30
0.0
 40
30.0
  1
1
 72
     1
 11
1254.89134734116
 21
2215.655768967817
 31
0.0
100
AcDbText
 73
     2
  0
LEADER
  5
F951
330
1F
100
AcDbEntity
  8
13製作用注記
100
AcDbLeader
  3
NEMY-10
 76
     2
 10
1174.801766381704
 20
2289.999999999999
 30
0.0
 10
1236.56869657373
 20
2232.664016051359
 30
0.0
  0
CIRCLE
  5
F952
330
1F
100
AcDbEntity
  8
13製作用注記
100
AcDbCircle
 10
1254.89134734116
 20
2114.344231032182
 30
0.0
 40
25.0
  0
TEXT
  5
F953
330
1F
100
AcDbEntity
  8
13製作用注記
100
AcDbText
 10
1245.14134734116
 20
2099.344231032182
 30
0.0
 40
30.0
  1
1
 72
     1
 11
1254.89134734116
 21
2114.344231032182
 31
0.0
100
AcDbText
 73
     2
  0
LEADER
  5
F954
330
1F
100
AcDbEntity
  8
13製作用注記
100
AcDbLeader
  3
NEMY-10
 76
     2
 10
1174.801766381704
 20
2039.999999999999
 30
0.0
 10
1236.56869657373
 20
2097.335983948639
 30
0.0
  0
CIRCLE
  5
F955
330
1F
100
AcDbEntity
  8
13製作用注記
100
AcDbCircle
 10
1755.089580959457
 20
2194.344231032182
 30
0.0
 40
25.0
  0
TEXT
  5
F956
330
1F
100
AcDbEntity
  8
13製作用注記
100
AcDbText
 10
1745.339580959457
 20
2179.344231032182
 30
0.0
 40
30.0
  1
2
 72
     1
 11
1755.089580959457
 21
2194.344231032182
 31
0.0
100
AcDbText
 73
     2
  0
LEADER
  5
F957
330
1F
100
AcDbEntity
  8
13製作用注記
100
AcDbLeader
  3
NEMY-10
 76
     2
 10
1675.0
 20
2119.999999999999
 30
0.0
 10
1736.766930192027
 20
2177.335983948639
 30
0.0
  0
CIRCLE
  5
F958
330
1F
100
AcDbEntity
  8
13製作用注記
100
AcDbCircle
 10
744.9104190405433
 20
2194.344231032182
 30
0.0
 40
25.0
  0
TEXT
  5
F959
330
1F
100
AcDbEntity
  8
13製作用注記
100
AcDbText
 10
735.1604190405433
 20
2179.344231032182
 30
0.0
 40
30.0
  1
2
 72
     1
 11
744.9104190405433
 21
2194.344231032182
 31
0.0
100
AcDbText
 73
     2
  0
LEADER
  5
F95A
330
1F
100
AcDbEntity
  8
13製作用注記
100
AcDbLeader
  3
NEMY-10
 76
     2
 10
825.0
 20
2119.999999999999
 30
0.0
 10
763.2330698079732
 20
2177.335983948639
 30
0.0
211
-1.0
221
0.0
231
0.0
  0
CIRCLE
  5
F95B
330
1F
100
AcDbEntity
  8
13製作用注記
100
AcDbCircle
 10
1130.089580959457
 20
2194.344231032182
 30
0.0
 40
25.0
  0
TEXT
  5
F95C
330
1F
100
AcDbEntity
  8
13製作用注記
100
AcDbText
 10
1120.339580959457
 20
2179.344231032182
 30
0.0
 40
30.0
  1
3
 72
     1
 11
1130.089580959457
 21
2194.344231032182
 31
0.0
100
AcDbText
 73
     2
  0
LEADER
  5
F95D
330
1F
100
AcDbEntity
  8
13製作用注記
100
AcDbLeader
  3
NEMY-10
 76
     2
 10
1050.0
 20
2119.999999999999
 30
0.0
 10
1111.766930192027
 20
2177.335983948639
 30
0.0
  0
LEADER
  5
F95E
330
1F
100
AcDbEntity
  8
01注記寸法
100
AcDbLeader
  3
NEMY-10
 76
     3
 10
1575.0
 20
1989.999999999999
 30
0.0
 10
1495.205702424271
 20
1859.999999999999
 30
0.0
 10
1055.205702424271
 20
1859.999999999999
 30
0.0
211
-1.0
221
0.0
231
0.0
  0
INSERT
  5
F95F
330
1F
100
AcDbEntity
  8
12防振架台
100
AcDbBlockReference
  2
1-HTA183
 10
1250.0
 20
1959.999999999999
 30
0.0
  0
INSERT
  5
F960
330
1F
100
AcDbEntity
  8
02実線
100
AcDbBlockReference
  2
hole-φ16
 10
925.0
 20
1989.999999999999
 30
0.0
  0
INSERT
  5
F961
330
1F
100
AcDbEntity
  8
10副資材
100
AcDbBlockReference
  2
平W-M12
 10
925.0
 20
1989.999999999999
 30
0.0
  0
INSERT
  5
F962
330
1F
100
AcDbEntity
  8
10副資材
100
AcDbBlockReference
  2
平W-M10
 10
1000.0
 20
2004.999999999999
 30
0.0
  0
INSERT
  5
F963
330
1F
100
AcDbEntity
  8
02実線
100
AcDbBlockReference
  2
hole-φ14
 10
1000.0
 20
2004.999999999999
 30
0.0
  0
INSERT
  5
F964
330
1F
100
AcDbEntity
  8
02実線
100
AcDbBlockReference
  2
hole-φ16
 10
1575.0
 20
1989.999999999999
 30
0.0
  0
INSERT
  5
F965
330
1F
100
AcDbEntity
  8
02実線
100
AcDbBlockReference
  2
hole-φ16
 10
1575.0
 20
2339.999999999999
 30
0.0
  0
INSERT
  5
F966
330
1F
100
AcDbEntity
  8
02実線
100
AcDbBlockReference
  2
hole-φ16
 10
925.0
 20
2339.999999999999
 30
0.0
  0
INSERT
  5
F967
330
1F
100
AcDbEntity
  8
02実線
100
AcDbBlockReference
  2
hole-φ14
 10
1500.0
 20
2004.999999999999
 30
0.0
  0
INSERT
  5
F968
330
1F
100
AcDbEntity
  8
02実線
100
AcDbBlockReference
  2
hole-φ14
 10
1500.0
 20
2324.999999999999
 30
0.0
  0
INSERT
  5
F969
330
1F
100
AcDbEntity
  8
02実線
100
AcDbBlockReference
  2
hole-φ14
 10
1000.0
 20
2324.999999999999
 30
0.0
  0
LINE
  5
F96A
102
{ACAD_REACTORS
330
F983
102
}
330
1F
100
AcDbEntity
  8
03破線
100
AcDbLine
 10
1546.800000000001
 20
2366.799999999999
 30
0.0
 11
1546.800000000001
 21
1959.999999999999
 31
0.0
  0
LINE
  5
F96B
102
{ACAD_REACTORS
330
F983
102
}
330
1F
100
AcDbEntity
  8
03破線
100
AcDbLine
 10
1550.0
 20
2289.999999999999
 30
0.0
 11
1550.0
 21
2366.8
 31
0.0
  0
LINE
  5
F96C
102
{ACAD_REACTORS
330
F983
102
}
330
1F
100
AcDbEntity
  8
03破線
100
AcDbLine
 10
1550.0
 20
2039.999999999999
 30
0.0
 11
1550.0
 21
1963.2
 31
0.0
  0
LWPOLYLINE
  5
F96D
102
{ACAD_REACTORS
330
F983
102
}
330
1F
100
AcDbEntity
  8
02実線
100
AcDbPolyline
 90
        4
 70
     1
 43
0.0
 10
1550.0
 20
2039.999999999999
 10
1550.0
 20
2289.999999999999
 10
1450.0
 20
2289.999999999999
 10
1450.0
 20
2039.999999999999
  0
DIMENSION
  5
F96E
330
1F
100
AcDbEntity
  8
01注記寸法
100
AcDbDimension
  2
*D1224
 10
675.0
 20
2324.999999999999
 30
0.0
 11
675.0
 21
2457.729999999999
 31
0.0
 70
   160
 71
     5
 42
44.99999999999999
  3
NEMY-10
100
AcDbAlignedDimension
 13
825.0
 23
2369.999999999999
 33
0.0
 14
983.0
 24
2324.999999999999
 34
0.0
 50
90.0
100
AcDbRotatedDimension
  0
DIMENSION
  5
F96F
330
1F
100
AcDbEntity
  8
01注記寸法
100
AcDbDimension
  2
*D1225
 10
675.0
 20
2004.999999999999
 30
0.0
 11
650.0
 21
2164.999999999999
 31
0.0
 70
    32
 71
     5
 42
320.0
  3
NEMY-10
100
AcDbAlignedDimension
 13
983.0
 23
2324.999999999999
 33
0.0
 14
983.0
 24
2004.999999999999
 34
0.0
 50
90.0
100
AcDbRotatedDimension
  0
DIMENSION
  5
F970
330
1F
100
AcDbEntity
  8
01注記寸法
100
AcDbDimension
  2
*D1226
 10
675.0
 20
1960.0
 30
0.0
 11
650.0
 21
1872.27
 31
0.0
 70
    32
 71
     5
 42
44.9999999999991
  3
NEMY-10
100
AcDbAlignedDimension
 13
983.0
 23
2004.999999999999
 33
0.0
 14
825.0
 24
1960.0
 34
0.0
 50
90.0
100
AcDbRotatedDimension
  0
DIMENSION
  5
F971
330
1F
100
AcDbEntity
  8
01注記寸法
100
AcDbDimension
  2
*D1227
 10
1050.0
 20
2162.737600263216
 30
0.0
 11
1000.0
 21
2187.737600263216
 31
0.0
 70
    32
 71
     5
 42
100.0
  3
NEMY-10
100
AcDbAlignedDimension
 13
950.0
 23
2157.663706128461
 33
0.0
 14
1050.0
 24
2157.663706128461
 34
0.0
100
AcDbRotatedDimension
  0
DIMENSION
  5
F972
330
1F
100
AcDbEntity
  8
01注記寸法
100
AcDbDimension
  2
*D1228
 10
1550.000000000001
 20
2162.737600263216
 30
0.0
 11
1500.000000000001
 21
2187.737600263216
 31
0.0
 70
    32
 71
     5
 42
100.0
  3
NEMY-10
100
AcDbAlignedDimension
 13
1450.000000000001
 23
2157.663706128461
 33
0.0
 14
1550.000000000001
 24
2157.663706128461
 34
0.0
100
AcDbRotatedDimension
  0
CIRCLE
  5
F973
330
1F
100
AcDbEntity
  8
13製作用注記
100
AcDbCircle
 10
1369.910419040543
 20
2194.344231032182
 30
0.0
 40
25.0
  0
TEXT
  5
F974
330
1F
100
AcDbEntity
  8
13製作用注記
100
AcDbText
 10
1360.160419040543
 20
2179.344231032182
 30
0.0
 40
30.0
  1
3
 72
     1
 11
1369.910419040543
 21
2194.344231032182
 31
0.0
100
AcDbText
 73
     2
  0
LEADER
  5
F975
330
1F
100
AcDbEntity
  8
13製作用注記
100
AcDbLeader
  3
NEMY-10
 76
     2
 10
1450.0
 20
2119.999999999999
 30
0.0
 10
1388.233069807973
 20
2177.335983948639
 30
0.0
211
-1.0
221
0.0
231
0.0
  0
DIMENSION
  5
F976
330
1F
100
AcDbEntity
  8
01注記寸法
100
AcDbDimension
  2
*D1229
 10
1000.0
 20
2569.999999999999
 30
0.0
 11
912.5
 21
2594.999999999999
 31
0.0
 70
    32
 71
     5
 42
175.0
  3
NEMY-10
100
AcDbAlignedDimension
 13
825.0
 23
2371.5
 33
0.0
 14
1000.0
 24
2341.999999999999
 34
0.0
100
AcDbRotatedDimension
  0
DIMENSION
  5
F977
330
1F
100
AcDbEntity
  8
01注記寸法
100
AcDbDimension
  2
*D1230
 10
1500.0
 20
2569.999999999999
 30
0.0
 11
1250.0
 21
2594.999999999999
 31
0.0
 70
    32
 71
     5
 42
500.0
  3
NEMY-10
100
AcDbAlignedDimension
 13
1000.0
 23
2341.999999999999
 33
0.0
 14
1500.0
 24
2341.999999999999
 34
0.0
100
AcDbRotatedDimension
  0
DIMENSION
  5
F978
330
1F
100
AcDbEntity
  8
01注記寸法
100
AcDbDimension
  2
*D1231
 10
1675.0
 20
2569.999999999999
 30
0.0
 11
1587.5
 21
2594.999999999999
 31
0.0
 70
    32
 71
     5
 42
175.0
  3
NEMY-10
100
AcDbAlignedDimension
 13
1500.0
 23
2341.999999999999
 33
0.0
 14
1675.0
 24
2371.5
 34
0.0
100
AcDbRotatedDimension
  0
DIMENSION
  5
F979
330
1F
100
AcDbEntity
  8
01注記寸法
100
AcDbDimension
  2
*D1232
 10
925.0
 20
1759.999999999999
 30
0.0
 11
875.0
 21
1784.999999999999
 31
0.0
 70
    32
 71
     5
 42
100.0
  3
NEMY-10
100
AcDbAlignedDimension
 13
825.0
 23
1958.5
 33
0.0
 14
925.0
 24
1971.999999999999
 34
0.0
100
AcDbRotatedDimension
  0
DIMENSION
  5
F97A
330
1F
100
AcDbEntity
  8
01注記寸法
100
AcDbDimension
  2
*D1233
 10
1575.0
 20
1759.999999999999
 30
0.0
 11
1250.0
 21
1785.989999999999
 31
0.0
 70
    32
  1
※ <>
 71
     5
 42
650.0
  3
NEMY-10
100
AcDbAlignedDimension
 13
925.0
 23
1971.999999999999
 33
0.0
 14
1575.0
 24
1971.999999999999
 34
0.0
100
AcDbRotatedDimension
  0
DIMENSION
  5
F97B
330
1F
100
AcDbEntity
  8
01注記寸法
100
AcDbDimension
  2
*D1234
 10
1675.0
 20
1759.999999999999
 30
0.0
 11
1625.0
 21
1784.999999999999
 31
0.0
 70
    32
 71
     5
 42
100.0
  3
NEMY-10
100
AcDbAlignedDimension
 13
1575.0
 23
1971.999999999999
 33
0.0
 14
1675.0
 24
1958.5
 34
0.0
100
AcDbRotatedDimension
  0
DIMENSION
  5
F97C
330
1F
100
AcDbEntity
  8
01注記寸法
100
AcDbDimension
  2
*D1235
 10
1875.0
 20
1989.999999999999
 30
0.0
 11
1875.0
 21
1871.965413524263
 31
0.0
 70
   160
 71
     5
 42
29.99999999999909
  3
NEMY-10
100
AcDbAlignedDimension
 13
1675.0
 23
1960.0
 33
0.0
 14
1593.0
 24
1989.999999999999
 34
0.0
 50
90.0
100
AcDbRotatedDimension
  0
DIMENSION
  5
F97D
330
1F
100
AcDbEntity
  8
01注記寸法
100
AcDbDimension
  2
*D1236
 10
1875.0
 20
2339.999999999999
 30
0.0
 11
1849.01
 21
2164.999999999999
 31
0.0
 70
    32
  1
※ <>
 71
     5
 42
350.0
  3
NEMY-10
100
AcDbAlignedDimension
 13
1593.0
 23
1989.999999999999
 33
0.0
 14
1593.0
 24
2339.999999999999
 34
0.0
 50
90.0
100
AcDbRotatedDimension
  0
DIMENSION
  5
F97E
330
1F
100
AcDbEntity
  8
01注記寸法
100
AcDbDimension
  2
*D1237
 10
1875.0
 20
2369.999999999999
 30
0.0
 11
1850.0
 21
2457.894999999999
 31
0.0
 70
    32
 71
     5
 42
30.0
  3
NEMY-10
100
AcDbAlignedDimension
 13
1593.0
 23
2339.999999999999
 33
0.0
 14
1675.0
 24
2369.999999999999
 34
0.0
 50
90.0
100
AcDbRotatedDimension
  0
LEADER
  5
F97F
330
1F
100
AcDbEntity
  8
01注記寸法
100
AcDbLeader
  3
NEMY-10
 76
     3
 10
1000.0
 20
2324.999999999999
 30
0.0
 10
1082.965065790615
 20
2469.999999999999
 30
0.0
 10
1402.965065790615
 20
2469.999999999999
 30
0.0
  0
TEXT
  5
F980
330
1F
100
AcDbEntity
  8
01注記寸法
100
AcDbText
 10
1082.965065790615
 20
2432.499999999999
 30
0.0
 40
30.0
  1
(4-φ14)
100
AcDbText
  0
TEXT
  5
F981
330
1F
100
AcDbEntity
  8
01注記寸法
100
AcDbText
 10
1082.965065790615
 20
2482.499999999999
 30
0.0
 40
30.0
  1
機器固定ボルト孔
100
AcDbText
  0
LWPOLYLINE
  5
FAD2
330
1F
100
AcDbEntity
  8
09図枠
100
AcDbPolyline
 90
        4
 70
     1
 43
0.0
 10
2450.0
 20
2590.0
 10
2450.0
 20
2650.0
 10
2800.0
 20
2650.0
 10
2800.0
 20
2590.0
  0
LWPOLYLINE
  5
FAD3
330
1F
100
AcDbEntity
  8
09図枠
100
AcDbPolyline
 90
        4
 70
     1
 43
0.0
 10
2800.0
 20
2590.0
 10
2800.0
 20
2650.0
 10
3300.0
 20
2650.0
 10
3300.0
 20
2590.0
  0
TEXT
  5
FAD4
330
1F
100
AcDbEntity
  8
01注記寸法
100
AcDbText
 10
2527.5
 20
2605.0
 30
0.0
 40
30.0
  1
仕　様　書
 72
     1
 11
2625.0
 21
2620.0
 31
0.0
100
AcDbText
 73
     2
  0
TEXT
  5
FAD5
330
1F
100
AcDbEntity
  8
01注記寸法
100
AcDbText
 10
2952.5
 20
2605.0
 30
0.0
 40
30.0
  1
型　　　式
 72
     1
 11
3050.0
 21
2620.0
 31
0.0
100
AcDbText
 73
     2
  0
LWPOLYLINE
  5
FAD6
330
1F
100
AcDbEntity
  8
09図枠
100
AcDbPolyline
 90
        4
 70
     1
 43
0.0
 10
2450.0
 20
2650.0
 10
2450.0
 20
2710.0
 10
3300.0
 20
2710.0
 10
3300.0
 20
2650.0
  0
TEXT
  5
FAD7
330
1F
100
AcDbEntity
  8
01注記寸法
100
AcDbText
 10
2660.5
 20
2665.0
 30
0.0
 40
30.0
  1
適　用　防　振　架　台
 72
     1
 11
2875.0
 21
2680.0
 31
0.0
100
AcDbText
 73
     2
  0
LWPOLYLINE
  5
FAD8
330
1F
100
AcDbEntity
  8
09図枠
100
AcDbPolyline
 90
        4
 70
     1
 43
0.0
 10
2450.0
 20
2530.0
 10
2450.0
 20
2590.0
 10
2800.0
 20
2590.0
 10
2800.0
 20
2530.0
  0
LWPOLYLINE
  5
FAD9
330
1F
100
AcDbEntity
  8
09図枠
100
AcDbPolyline
 90
        4
 70
     1
 43
0.0
 10
2800.0
 20
2530.0
 10
2800.0
 20
2590.0
 10
3300.0
 20
2590.0
 10
3300.0
 20
2530.0
  0
TEXT
  5
FADA
330
1F
100
AcDbEntity
  8
01注記寸法
100
AcDbText
 10
2469.0
 20
2545.0
 30
0.0
 40
30.0
  1
１－ＨＴＡ１７３
 72
     1
 11
2625.0
 21
2560.0
 31
0.0
100
AcDbText
 73
     2
  0
TEXT
  5
FADB
330
1F
100
AcDbEntity
  8
01注記寸法
100
AcDbText
 10
2816.0
 20
2545.0
 30
0.0
 40
30.0
  1
Ｎ－ＳＰＨ８５０ＳＴＡＺ
 72
     1
 11
3050.0
 21
2560.0
 31
0.0
100
AcDbText
 73
     2
  0
LWPOLYLINE
  5
FADC
330
1F
100
AcDbEntity
  8
09図枠
100
AcDbPolyline
 90
        4
 70
     1
 43
0.0
 10
2450.0
 20
2470.0
 10
2450.0
 20
2530.0
 10
2800.0
 20
2530.0
 10
2800.0
 20
2470.0
  0
LWPOLYLINE
  5
FADD
330
1F
100
AcDbEntity
  8
09図枠
100
AcDbPolyline
 90
        4
 70
     1
 43
0.0
 10
2800.0
 20
2470.0
 10
2800.0
 20
2530.0
 10
3300.0
 20
2530.0
 10
3300.0
 20
2470.0
  0
TEXT
  5
FADE
330
1F
100
AcDbEntity
  8
01注記寸法
100
AcDbText
 10
2469.0
 20
2485.0
 30
0.0
 40
30.0
  1
１－ＨＴＡ１８３
 72
     1
 11
2625.0
 21
2500.0
 31
0.0
100
AcDbText
 73
     2
  0
TEXT
  5
FADF
330
1F
100
AcDbEntity
  8
01注記寸法
100
AcDbText
 10
2816.0
 20
2485.0
 30
0.0
 40
30.0
  1
Ｎ－ＳＰＨ８５０ＳＴＢＺ
 72
     1
 11
3050.0
 21
2500.0
 31
0.0
100
AcDbText
 73
     2
  0
TEXT
  5
FAE0
330
1F
100
AcDbEntity
  8
01注記寸法
100
AcDbText
 10
2390.25
 20
2658.137
 30
0.0
 40
30.0
  1
2
 72
     4
 11
2400.0
 21
2673.287
 31
0.0
100
AcDbText
  0
LWPOLYLINE
  5
FAE1
330
1F
100
AcDbEntity
  8
01注記寸法
100
AcDbPolyline
 90
        4
 70
     0
 43
0.0
 10
2400.000000000002
 20
2700.766790756225
 10
2373.576531036949
 20
2655.0
 10
2426.423468963051
 20
2655.0
 10
2400.000000000002
 20
2700.766790756225
  0
TEXT
  5
FAE2
330
1F
100
AcDbEntity
  8
01注記寸法
100
AcDbText
 10
3551.2
 20
2650.0
 30
0.0
 40
40.0
  1
Ｎ－ＢＨＨ８５０Ｓ－５
 41
0.8
 72
     1
 11
3780.0
 21
2670.0
 31
0.0
100
AcDbText
 73
     2
  0
TEXT
  5
FAE3
330
1F
100
AcDbEntity
  8
01注記寸法
100
AcDbText
 10
3500.25
 20
2648.137
 30
0.0
 40
30.0
  1
2
 72
     4
 11
3510.0
 21
2663.287
 31
0.0
100
AcDbText
  0
LWPOLYLINE
  5
FAE4
330
1F
100
AcDbEntity
  8
01注記寸法
100
AcDbPolyline
 90
        4
 70
     0
 43
0.0
 10
3510.000000000002
 20
2690.766790756225
 10
3483.576531036949
 20
2645.0
 10
3536.423468963051
 20
2645.0
 10
3510.000000000002
 20
2690.766790756225
  0
LWPOLYLINE
  5
FB1D
330
1F
100
AcDbEntity
  8
01注記寸法
100
AcDbPolyline
 90
        4
 70
     1
 43
0.0
 10
4250.0
 20
600.0
 10
4250.0
 20
660.0
 10
4350.0
 20
660.0
 10
4350.0
 20
600.0
  0
TEXT
  5
FB1E
330
1F
100
AcDbEntity
  8
01注記寸法
100
AcDbText
 10
4261.0
 20
615.0
 30
0.0
 40
30.0
  1
内野
 72
     1
 11
4300.0
 21
630.0
 31
0.0
100
AcDbText
 73
     2
  0
TEXT
  5
FB1F
330
1F
100
AcDbEntity
  8
01注記寸法
100
AcDbText
 10
4372.0
 20
615.000075415428
 30
0.0
 40
30.0
  1
N1605017
 72
     1
 11
4450.0
 21
630.000075415428
 31
0.0
100
AcDbText
 73
     2
  0
LWPOLYLINE
  5
FB20
330
1F
100
AcDbEntity
  8
01注記寸法
100
AcDbPolyline
 90
        4
 70
     1
 43
0.0
 10
4350.0
 20
600.0
 10
4350.0
 20
660.0
 10
4550.0
 20
660.0
 10
4550.0
 20
600.0
  0
LWPOLYLINE
  5
FB21
330
1F
100
AcDbEntity
  8
01注記寸法
100
AcDbPolyline
 90
        4
 70
     1
 43
0.0
 10
3300.0
 20
600.0
 10
3300.0
 20
660.0
 10
3400.0
 20
660.0
 10
3400.0
 20
600.0
  0
LWPOLYLINE
  5
FB22
330
1F
100
AcDbEntity
  8
01注記寸法
100
AcDbPolyline
 90
        4
 70
     1
 43
0.0
 10
3400.0
 20
600.0
 10
3400.0
 20
660.0
 10
3600.0
 20
660.0
 10
3600.0
 20
600.0
  0
LWPOLYLINE
  5
FB23
330
1F
100
AcDbEntity
  8
01注記寸法
100
AcDbPolyline
 90
        4
 70
     1
 43
0.0
 10
3600.0
 20
600.0
 10
3600.0
 20
660.0
 10
4100.0
 20
660.0
 10
4100.0
 20
600.0
  0
TEXT
  5
FB25
330
1F
100
AcDbEntity
  8
01注記寸法
100
AcDbText
 10
3340.25
 20
608.1370000000003
 30
0.0
 40
30.0
  1
2
 72
     4
 11
3350.0
 21
623.2870000000003
 31
0.0
100
AcDbText
  0
TEXT
  5
FB26
330
1F
100
AcDbEntity
  8
01注記寸法
100
AcDbText
 10
3412.25
 20
615.0001
 30
0.0
 40
30.0
  1
'16.05.25
 72
     1
 11
3500.0
 21
630.0001
 31
0.0
100
AcDbText
 73
     2
  0
LWPOLYLINE
  5
FB27
330
1F
100
AcDbEntity
  8
01注記寸法
100
AcDbPolyline
 90
        4
 70
     0
 43
0.0
 10
3350.000000000002
 20
650.7667907562245
 10
3323.576531036949
 20
605.0
 10
3376.423468963051
 20
605.0
 10
3350.000000000002
 20
650.7667907562245
  0
TEXT
  5
FBE8
330
1F
100
AcDbEntity
  8
01注記寸法
100
AcDbText
 10
3830.250335695877
 20
1948.137
 30
0.0
 40
30.0
  1
2
 72
     4
 11
3840.000335695877
 21
1963.287
 31
0.0
100
AcDbText
  0
LWPOLYLINE
  5
FBE9
330
1F
100
AcDbEntity
  8
01注記寸法
100
AcDbPolyline
 90
        4
 70
     0
 43
0.0
 10
3840.00033569588
 20
1990.766790756225
 10
3813.576866732827
 20
1945.0
 10
3866.423804658928
 20
1945.0
 10
3840.00033569588
 20
1990.766790756225
  0
LWPOLYLINE
  5
FBEA
330
1F
100
AcDbEntity
  8
09図枠
100
AcDbPolyline
 90
        4
 70
     1
 43
0.0
 10
2300.0
 20
2709.999999999999
 10
2300.0
 20
2789.999999999999
 10
3300.0
 20
2789.999999999999
 10
3300.0
 20
2709.999999999999
  0
TEXT
  5
FBEB
330
1F
100
AcDbEntity
  8
01注記寸法
100
AcDbText
 10
2240.25
 20
2728.136999999999
 30
0.0
 40
30.0
  1
2
 72
     4
 11
2250.0
 21
2743.286999999999
 31
0.0
100
AcDbText
  0
LWPOLYLINE
  5
FBEC
330
1F
100
AcDbEntity
  8
01注記寸法
100
AcDbPolyline
 90
        4
 70
     0
 43
0.0
 10
2250.000000000002
 20
2770.766790756223
 10
2223.576531036949
 20
2724.999999999999
 10
2276.423468963051
 20
2724.999999999999
 10
2250.000000000002
 20
2770.766790756223
  0
TEXT
  5
FBED
330
1F
100
AcDbEntity
  8
01注記寸法
100
AcDbText
 10
2487.999751016778
 20
2729.999765708525
 30
0.0
 40
40.0
  1
標準/耐塩/耐重塩共用仕様
 72
     1
 11
2799.999751016778
 21
2749.999765708525
 31
0.0
100
AcDbText
 73
     2
  0
TEXT
  5
FC1D
330
1F
100
AcDbEntity
  8
01注記寸法
100
AcDbText
 10
3608.6875
 20
615.000075415428
 30
0.0
 40
30.0
  1
型式/適用防振架台追記・耐重塩共用
 41
0.75
 72
     1
 11
3850.0
 21
630.000075415428
 31
0.0
100
AcDbText
 73
     2
  0
TEXT
  5
FC6F
330
1F
100
AcDbEntity
  8
01注記寸法
100
AcDbText
 10
1320.103618690162
 20
2580.461315152842
 30
0.0
 40
30.0
  1
3
 72
     4
 11
1329.853618690162
 21
2595.611315152842
 31
0.0
100
AcDbText
  0
LWPOLYLINE
  5
FC70
330
1F
100
AcDbEntity
  8
01注記寸法
100
AcDbPolyline
 90
        4
 70
     0
 43
0.0
 10
1329.853618690164
 20
2623.091105909066
 10
1303.430149727111
 20
2577.324315152842
 10
1356.277087653213
 20
2577.324315152842
 10
1329.853618690164
 20
2623.091105909066
  0
LWPOLYLINE
  5
FCC8
330
1F
100
AcDbEntity
  8
09図枠
100
AcDbPolyline
 90
        4
 70
     1
 43
0.0
 10
2450.0
 20
2410.0
 10
2450.0
 20
2470.0
 10
2800.0
 20
2470.0
 10
2800.0
 20
2410.0
  0
LWPOLYLINE
  5
FCC9
330
1F
100
AcDbEntity
  8
09図枠
100
AcDbPolyline
 90
        4
 70
     1
 43
0.0
 10
2800.0
 20
2410.0
 10
2800.0
 20
2470.0
 10
3300.0
 20
2470.0
 10
3300.0
 20
2410.0
  0
TEXT
  5
FCCA
330
1F
100
AcDbEntity
  8
01注記寸法
100
AcDbText
 10
2469.0
 20
2425.0
 30
0.0
 40
30.0
  1
１－ＨＴＡ１９７
 72
     1
 11
2625.0
 21
2440.0
 31
0.0
100
AcDbText
 73
     2
  0
TEXT
  5
FCCB
330
1F
100
AcDbEntity
  8
01注記寸法
100
AcDbText
 10
2816.0
 20
2425.0
 30
0.0
 40
30.0
  1
Ｎ－ＳＰＨ８５０ＳＲＢＺ
 72
     1
 11
3050.0
 21
2440.0
 31
0.0
100
AcDbText
 73
     2
  0
TEXT
  5
FCCC
330
1F
100
AcDbEntity
  8
01注記寸法
100
AcDbText
 10
2390.25
 20
2418.137
 30
0.0
 40
30.0
  1
4
 72
     4
 11
2400.0
 21
2433.287
 31
0.0
100
AcDbText
  0
LWPOLYLINE
  5
FCCD
330
1F
100
AcDbEntity
  8
01注記寸法
100
AcDbPolyline
 90
        4
 70
     0
 43
0.0
 10
2400.000000000002
 20
2460.766790756225
 10
2373.576531036949
 20
2415.0
 10
2426.423468963051
 20
2415.0
 10
2400.000000000002
 20
2460.766790756225
  0
LINE
  5
FCCF
330
1F
100
AcDbEntity
  8
08非表示
100
AcDbLine
 10
4450.0
 20
-169.9999999999998
 30
0.0
 11
4550.0
 21
-169.9999999999997
 31
0.0
  0
LINE
  5
FCD0
330
1F
100
AcDbEntity
  8
08非表示
100
AcDbLine
 10
4550.0
 20
-69.99999999999972
 30
0.0
 11
4550.0
 21
-169.9999999999997
 31
0.0
  0
VIEWPORT
  5
9F0D
330
1B
100
AcDbEntity
 67
     1
  8
0
100
AcDbViewport
 10
202.5
 20
128.5
 30
0.0
 40
486.0
 41
308.4
 68
     1
 69
     1
 12
202.5
 22
128.5
 13
0.0
 23
0.0
 14
0.5
 24
0.5
 15
0.0
 25
0.0
 16
0.0
 26
0.0
 36
1.0
 17
0.0
 27
0.0
 37
0.0
 42
50.0
 43
0.0
 44
0.0
 45
308.4
 50
0.0
 51
0.0
 72
   100
 90
   557152
  1

281
     0
 71
     1
 74
     0
110
0.0
120
0.0
130
0.0
111
1.0
121
0.0
131
0.0
112
0.0
122
1.0
132
0.0
 79
     0
146
0.0
  0
VIEWPORT
  5
9F0E
330
1B
100
AcDbEntity
 67
     1
  8
0
100
AcDbViewport
 10
202.5
 20
128.5
 30
0.0
 40
324.0
 41
205.6
 68
     2
 69
     2
 12
-3224.9849078482
 22
3553.815758143106
 13
0.0
 23
0.0
 14
0.5
 24
0.5
 15
0.0
 25
0.0
 16
0.0
 26
0.0
 36
1.0
 17
0.0
 27
0.0
 37
0.0
 42
50.0
 43
0.0
 44
0.0
 45
10712.16027781073
 50
0.0
 51
0.0
 72
   100
 90
   557152
  1

281
     0
 71
     1
 74
     0
110
0.0
120
0.0
130
0.0
111
1.0
121
0.0
131
0.0
112
0.0
122
1.0
132
0.0
 79
     0
146
0.0
  0
ENDSEC
  0
SECTION
  2
OBJECTS
  0
DICTIONARY
  5
C
330
0
100
AcDbDictionary
281
     1
  3
ACAD_DETAILVIEWSTYLE
350
FCD6
  3
ACAD_GROUP
350
D
  3
ACAD_IMAGE_VARS
350
6A88
  3
ACAD_LAYOUT
350
1A
  3
ACAD_MLINESTYLE
350
17
  3
ACAD_PLOTSETTINGS
350
19
  3
ACAD_PLOTSTYLENAME
350
E
  3
ACAD_SCALELIST
350
6A4E
  3
ACAD_SECTIONVIEWSTYLE
350
FCD7
  3
AcadDim
350
C4B1
  3
AcDbVariableDictionary
350
79E
  3
APPDATA
350
6A87
  3
DWGPROPS
350
FCEE
  0
DICTIONARY
  5
7A6F
330
2
100
AcDbDictionary
280
     1
281
     1
  3
ACAD_LAYERSTATES
360
7A70
  3
ACLYDICTIONARY
360
FCDE
  0
DICTIONARY
  5
969E
330
1F
100
AcDbDictionary
280
     1
281
     1
  3
ACAD_SORTENTS
360
969F
  0
DICTIONARY
  5
FCD6
102
{ACAD_REACTORS
330
C
102
}
330
C
100
AcDbDictionary
281
     1
  0
DICTIONARY
  5
D
102
{ACAD_REACTORS
330
C
102
}
330
C
100
AcDbDictionary
281
     1
  3
*A1
350
BE74
  3
*A10
350
F983
  3
*A2
350
BE75
  3
*A3
350
BE76
  3
*A4
350
D6EC
  3
*A5
350
D6ED
  3
*A6
350
D6EE
  3
*A7
350
D6EF
  3
*A8
350
D6F0
  3
*A9
350
F982
  0
RASTERVARIABLES
  5
6A88
102
{ACAD_REACTORS
330
C
102
}
330
C
100
AcDbRasterVariables
 90
        0
 70
     1
 71
     1
 72
     1
  0
DICTIONARY
  5
1A
102
{ACAD_REACTORS
330
C
102
}
330
C
100
AcDbDictionary
281
     1
  3
Layout1
350
1E
  3
Model
350
22
  0
DICTIONARY
  5
17
102
{ACAD_REACTORS
330
C
102
}
330
C
100
AcDbDictionary
281
     1
  3
Standard
350
18
  0
DICTIONARY
  5
19
102
{ACAD_REACTORS
330
C
102
}
330
C
100
AcDbDictionary
281
     1
  0
ACDBDICTIONARYWDFLT
  5
E
102
{ACAD_REACTORS
330
C
102
}
330
C
100
AcDbDictionary
281
     1
  3
Normal
350
F
100
AcDbDictionaryWithDefault
340
F
  0
DICTIONARY
  5
6A4E
102
{ACAD_REACTORS
330
C
102
}
330
C
100
AcDbDictionary
281
     1
  3
A0
350
6A4F
  3
A1
350
6A50
  3
A2
350
6A51
  3
A3
350
6A52
  3
A4
350
6A53
  3
A5
350
6A54
  3
A6
350
6A55
  3
A7
350
6A56
  3
A8
350
6A57
  3
A9
350
6A58
  3
B0
350
6A59
  3
B1
350
6A5A
  3
B2
350
6A5B
  3
B3
350
6A5C
  3
B4
350
6A5D
  3
B5
350
6A5E
  3
B6
350
6A5F
  3
B7
350
6A60
  3
B8
350
6A61
  3
B9
350
6A62
  3
C0
350
6A63
  3
C1
350
6A64
  3
C2
350
6A65
  3
C3
350
6A66
  3
C4
350
6A67
  3
C5
350
6A68
  3
C6
350
6A69
  3
C7
350
6A6A
  3
C8
350
6A6B
  3
C9
350
6A6C
  3
D0
350
6A6D
  3
D1
350
6A6E
  3
D2
350
6A6F
  0
DICTIONARY
  5
FCD7
102
{ACAD_REACTORS
330
C
102
}
330
C
100
AcDbDictionary
281
     1
  0
XRECORD
  5
C4B1
102
{ACAD_REACTORS
330
C
102
}
330
C
100
AcDbXrecord
280
     1
340
0
 72
     0
 71
     0
 70
     0
 69
     0
 68
     1
 67
     3
 66
     0
 65
     0
 64
     0
 63
     3
 62
     1
 61
     0
 60
     0
 40
0.0
  0
DICTIONARY
  5
79E
102
{ACAD_REACTORS
330
C
102
}
330
C
100
AcDbDictionary
281
     1
  3
DIMASSOC
350
79F
  3
SORTENTS
350
264F
  0
DICTIONARY
  5
6A87
102
{ACAD_REACTORS
330
C
102
}
330
C
100
AcDbDictionary
281
     1
  0
XRECORD
  5
FCEE
102
{ACAD_REACTORS
330
C
102
}
330
C
100
AcDbXrecord
280
     1
  1
DWGPROPS COOKIE
  2

  3

  4

  6

  7

  8
Sales
  9

300
=
301
=
302
=
303
=
304
=
305
=
306
=
307
=
308
=
309
=
 40
0.0
 41
2455859.030048461
 42
2459010.032974711
  1

 90
        0
  0
DICTIONARY
  5
7A70
102
{ACAD_REACTORS
330
7A6F
102
}
330
7A6F
100
AcDbDictionary
281
     1
  0
DICTIONARY
  5
FCDE
102
{ACAD_REACTORS
330
7A6F
102
}
330
7A6F
100
AcDbDictionary
281
     1
1001
ACAD
1000
<All
  0
SORTENTSTABLE
  5
969F
102
{ACAD_REACTORS
330
969E
102
}
330
969E
100
AcDbSortentsTable
330
1F
331
0
  5
7EAE
331
7E6F
  5
7E90
331
7E74
  5
7E94
331
7E7B
  5
7EA4
331
7E7E
  5
7EA7
331
7E7F
  5
7EA8
331
7E88
  5
7EAB
331
7E89
  5
7EAC
331
7E8A
  5
7EAD
331
7E8C
  5
7EAF
331
7E8D
  5
7EB0
331
7E8F
  5
7EB1
331
7E90
  5
7EB2
331
7E94
  5
7EB3
331
7E95
  5
7EB4
331
7E97
  5
7EB5
331
7E98
  5
7EB6
331
7EA4
  5
7EB9
331
7EA5
  5
7EBA
331
7EA6
  5
7EBB
331
7EA7
  5
7EBC
331
7EB6
  5
7ECB
331
7EB9
  5
7E6F
331
7EBE
  5
7E74
331
7EBF
  5
7E76
331
7EC0
  5
7E78
331
7EC1
  5
7E79
331
7EC2
  5
7E7B
331
7EC3
  5
7E7C
331
7EC4
  5
7E7D
331
7EC5
  5
7E7E
331
7EC6
  5
7ED0
331
7EC7
  5
7ED1
331
7EC8
  5
7ED2
331
7EC9
  5
7ED4
331
7ECA
  5
7ED5
331
7ECB
  5
7ED6
331
7ECC
  5
7ED7
331
7ECD
  5
7EDB
331
7ECE
  5
7EDC
331
7ECF
  5
7EDD
331
7ED0
  5
7EDE
331
7ED1
  5
7EDF
331
7ED2
  5
7EE0
331
7ED4
  5
7EE2
331
7ED5
  5
7EE3
331
7ED6
  5
7EE4
331
7EDA
  5
7EE8
331
7EDB
  5
FB27
331
7EE7
  5
7EF4
331
7EE8
  5
7EF5
331
7EE9
  5
7EF6
331
7EEA
  5
7EF8
331
7EEB
  5
7EF9
331
7EED
  5
7EFA
331
7EEE
  5
7EFE
331
7EF2
  5
7EFF
331
7EF3
  5
7F00
331
7EF4
  5
7F01
331
7EF5
  5
7F03
331
7EF6
  5
7F04
331
7EF8
  5
7F05
331
7EF9
  5
7F09
331
7EFD
  5
7F0A
331
7EFE
  5
7F0B
331
7EFF
  5
7F0C
331
7F00
  5
7F0D
331
7F01
  5
7F12
331
7F03
  5
7F13
331
7F04
  5
7F16
331
7F08
  5
7F17
331
7F09
  5
7F1C
331
7F0A
  5
7F1E
331
7F0B
  5
7F47
331
7F0C
  5
7F49
331
7F0D
  5
7F4A
331
7F12
  5
7F4B
331
7F13
  5
7F4C
331
7F19
  5
7F4D
331
7F1B
  5
7F4E
331
7F1C
  5
7F50
331
7F47
  5
7F51
331
7F48
  5
7F52
331
7F49
  5
7F53
331
7F4A
  5
7F54
331
7F4B
  5
7F55
331
7F4C
  5
7F56
331
7F4E
  5
7F57
331
7F4F
  5
7F58
331
7F50
  5
7F59
331
7F51
  5
7F5A
331
7F52
  5
7F5C
331
7F53
  5
7F8F
331
7F54
  5
7F90
331
7F55
  5
7F91
331
7F56
  5
7F92
331
7F57
  5
7F93
331
7F58
  5
7F94
331
7F59
  5
7F95
331
7F8D
  5
7F96
331
7F8E
  5
7F97
331
7F8F
  5
7F98
331
7F90
  5
7FC2
331
7F93
  5
7FCB
331
7F94
  5
7FDE
331
7F95
  5
7FDF
331
7F96
  5
8081
331
7F97
  5
8082
331
7F98
  5
8083
331
7FC3
  5
8084
331
7FC9
  5
8192
331
7FCA
  5
8193
331
7FCB
  5
8194
331
807F
  5
8195
331
8080
  5
8196
331
8081
  5
8197
331
8082
  5
8198
331
818F
  5
819A
331
8191
  5
819C
331
8192
  5
819D
331
8193
  5
819F
331
8194
  5
81A1
331
8195
  5
81A4
331
8196
  5
81A5
331
8197
  5
81A6
331
8199
  5
81A7
331
819A
  5
81AA
331
819C
  5
81AB
331
819D
  5
81AC
331
819F
  5
81AD
331
81A1
  5
81AE
331
81A4
  5
81AF
331
81A5
  5
81B0
331
81A6
  5
81B1
331
81A7
  5
81B2
331
81AA
  5
81BA
331
81AB
  5
81BB
331
81AC
  5
81BD
331
81AD
  5
81BE
331
81AE
  5
81BF
331
81AF
  5
81C0
331
81B0
  5
81C1
331
81B1
  5
81C2
331
81B2
  5
81C3
331
81BB
  5
81C4
331
81BC
  5
81C5
331
81BD
  5
81C6
331
81BE
  5
81C7
331
81BF
  5
81C8
331
81C0
  5
81CA
331
81C1
  5
81CB
331
81C2
  5
81E8
331
81C3
  5
81F8
331
81C4
  5
821A
331
81C5
  5
821C
331
81C6
  5
86AE
331
81C7
  5
86AF
331
81C8
  5
86B0
331
81CD
  5
86B1
331
81E7
  5
86B2
331
81E8
  5
86B3
331
81F8
  5
86B4
331
86AE
  5
86B5
331
86AF
  5
86B8
331
86B0
  5
86B9
331
86B1
  5
86C4
331
86B2
  5
86C5
331
86B3
  5
86F1
331
86B5
  5
86F3
331
86B6
  5
86F4
331
86B7
  5
86F5
331
86F1
  5
86FF
331
86F2
  5
8864
331
885B
  5
8869
331
8864
  5
886E
331
8865
  5
8879
331
8867
  5
887A
331
8869
  5
887B
331
886D
  5
887C
331
886E
  5
896C
331
886F
  5
896D
331
8C2C
  5
896E
331
8C2E
  5
8C5E
331
8C2F
  5
8C5F
331
8C30
  5
8C61
331
8C31
  5
8C63
331
969D
  5
7E8F
331
96A1
  5
9719
331
96A2
  5
971A
331
96A3
  5
971B
331
9A59
  5
971C
331
9A5A
  5
9A64
331
9A5B
  5
9A65
331
9A5C
  5
9A69
331
9A60
  5
9A6A
331
9A61
  5
9A6B
331
9A62
  5
9A6C
331
9A63
  5
9A6D
331
9A64
  5
9A6E
331
9A65
  5
9A6F
331
9A69
  5
9A71
331
9A6A
  5
9A72
331
9A6B
  5
9A73
331
9A6C
  5
9A75
331
9A6D
  5
9A76
331
9A6E
  5
9A77
331
9A6F
  5
9A78
331
9A71
  5
9A7A
331
9A72
  5
9A7C
331
9A73
  5
9A7D
331
9A75
  5
9A7E
331
9A76
  5
9A7F
331
9A77
  5
9A80
331
9A78
  5
9A81
331
9A7A
  5
9A82
331
9A7C
  5
9A83
331
9A7D
  5
9A84
331
9A7E
  5
9A85
331
9A7F
  5
9A86
331
9A80
  5
9A87
331
9A81
  5
9A88
331
9A82
  5
9A89
331
9A83
  5
9A8A
331
9A84
  5
9A8B
331
9A85
  5
9A8C
331
9A86
  5
9A8D
331
9A87
  5
9A8E
331
9A88
  5
9A8F
331
9A89
  5
9A90
331
9A8A
  5
9A91
331
9A8B
  5
9A92
331
9A8C
  5
9A93
331
9A8D
  5
9A94
331
9A8E
  5
9A95
331
9A8F
  5
9A96
331
9A90
  5
9A97
331
9A91
  5
9A98
331
9A92
  5
9A99
331
9A93
  5
9A9A
331
9A94
  5
9A9B
331
9A9D
  5
9AA4
331
9A9E
  5
9AA5
331
9A9F
  5
9AA6
331
9AA0
  5
9AA7
331
9AA1
  5
9AA8
331
9AA2
  5
9AAB
331
9AA3
  5
9AAC
331
9AA4
  5
9AAD
331
9AA5
  5
9AAE
331
9AA6
  5
9AAF
331
9AA7
  5
9AB0
331
9AA8
  5
9AB1
331
9AAB
  5
9AB2
331
9AAC
  5
9AB3
331
9AAD
  5
9AB4
331
9AAE
  5
9AB5
331
9AAF
  5
9AB6
331
9AB0
  5
9AB7
331
9AB1
  5
9AB8
331
9AB2
  5
9AB9
331
9AB3
  5
9ABA
331
9AB4
  5
9ABB
331
9AB5
  5
9ABC
331
9AB6
  5
9AD7
331
9AB7
  5
9AD8
331
9AB8
  5
9AD9
331
9AB9
  5
9ADA
331
9ABA
  5
9ADB
331
9ABB
  5
9ADC
331
9ABC
  5
9ADD
331
A00E
  5
9ADE
331
A162
  5
A028
331
A163
  5
A40B
331
A3F3
  5
A40C
331
A948
  5
A40F
331
A94D
  5
A9BF
331
A94E
  5
A9C1
331
A972
  5
A9C2
331
A974
  5
A9C3
331
A975
  5
A9E5
331
A9E7
  5
AA23
331
A9E8
  5
AA27
331
B716
  5
AA28
331
B719
  5
B87A
331
B71A
  5
B87B
331
B71B
  5
B87C
331
B71D
  5
B87D
331
BDFC
  5
B87E
331
BDFD
  5
BE04
331
BDFE
  5
BE05
331
BDFF
  5
BE06
331
BE00
  5
BE07
331
BE01
  5
BE08
331
BE02
  5
BE09
331
BE03
  5
BE0A
331
BE04
  5
BE0B
331
BE05
  5
BE0C
331
BE06
  5
BE0D
331
BE07
  5
BE0E
331
BE08
  5
BE0F
331
BE09
  5
BE10
331
BE0A
  5
BE11
331
BE0B
  5
BE12
331
BE0C
  5
BE13
331
BE0D
  5
BE14
331
BE0E
  5
BE15
331
BE0F
  5
BE16
331
BE10
  5
BE17
331
BE11
  5
BE18
331
BE12
  5
BE19
331
BE13
  5
BE1A
331
BE14
  5
BE1B
331
BE15
  5
BE1C
331
BE16
  5
BE1D
331
BE17
  5
BE1E
331
BE18
  5
BE1F
331
BE19
  5
BE20
331
BE1A
  5
BE21
331
BE1B
  5
BE22
331
BE1C
  5
BE23
331
BE1D
  5
BE24
331
BE1E
  5
BE25
331
BE1F
  5
BE26
331
BE20
  5
BE27
331
BE21
  5
BE28
331
BE22
  5
BE29
331
BE23
  5
BE2A
331
BE24
  5
BE2B
331
BE25
  5
BE2C
331
BE26
  5
BE2D
331
BE27
  5
BE2E
331
BE28
  5
BE2F
331
BE29
  5
BE30
331
BE2A
  5
BE31
331
BE2B
  5
BE32
331
BE2C
  5
BE33
331
BE2D
  5
BE34
331
BE2E
  5
BE35
331
BE2F
  5
BE36
331
BE30
  5
BE37
331
BE31
  5
BE38
331
BE32
  5
BE39
331
BE33
  5
BE3A
331
BE34
  5
BE3B
331
BE35
  5
BE3C
331
BE36
  5
BE3D
331
BE37
  5
BE3E
331
BE38
  5
BE3F
331
BE39
  5
BE40
331
BE3A
  5
BE41
331
BE3B
  5
BE42
331
BE3C
  5
BE43
331
BE5D
  5
BE44
331
BE62
  5
BE65
331
BE63
  5
BE6A
331
BE64
  5
BE6B
331
BE65
  5
BE6C
331
BE67
  5
BE6D
331
BE6A
  5
BE6F
331
BE6B
  5
BE72
331
BE72
  5
BF35
331
C4B5
  5
BF3E
331
C4B7
  5
C4BD
331
D023
  5
C4C1
331
D024
  5
D033
331
D025
  5
D035
331
D026
  5
D039
331
D027
  5
D061
331
D028
  5
D062
331
D029
  5
D063
331
D02A
  5
D064
331
D5F5
  5
D065
331
D62C
  5
D5FD
331
D62E
  5
7E7F
331
D62F
  5
7E84
331
D630
  5
7E85
331
D631
  5
7E86
331
D632
  5
7E87
331
D633
  5
7E8A
331
D634
  5
7E8B
331
D635
  5
7E8C
331
D6C7
  5
D635
331
0
  5
D6C7
331
0
  5
D6C8
331
0
  5
D6C9
331
0
  5
D6CA
331
0
  5
D6CB
331
0
  5
D6CC
331
0
  5
D6CD
331
0
  5
D6CE
331
0
  5
D6CF
331
0
  5
D6D0
331
0
  5
D6D1
331
0
  5
D6D2
331
0
  5
D6D3
331
0
  5
D6D4
331
D6D6
  5
D6D5
331
0
  5
D6D6
331
0
  5
D6D7
331
0
  5
D6D8
331
0
  5
D6D9
331
0
  5
D6DA
331
D6DC
  5
D6DB
331
D6DD
  5
D6DC
331
D6DE
  5
D6DD
331
D6DF
  5
D6DE
331
D6E0
  5
D6DF
331
D6E1
  5
D6E0
331
D6E2
  5
D6E1
331
D6E3
  5
D6E2
331
D6E4
  5
D6E3
331
D6E5
  5
D6E4
331
D6E6
  5
D6E5
331
D6E7
  5
D6E6
331
D6E8
  5
D6E7
331
D6E9
  5
D6E8
331
D6EA
  5
D6E9
331
D6EB
  5
D6EA
331
D793
  5
D6EB
331
D794
  5
D793
331
D795
  5
D794
331
D796
  5
D795
331
D797
  5
D796
331
D798
  5
D797
331
D799
  5
D798
331
D79A
  5
D799
331
D79B
  5
D79A
331
D79C
  5
D79B
331
D79D
  5
D79C
331
D79E
  5
D79D
331
D79F
  5
D79E
331
D7A0
  5
D79F
331
D7A1
  5
D7A0
331
D7A2
  5
D7A1
331
D7A7
  5
D7A2
331
D7A8
  5
D7A7
331
D7A9
  5
D7A8
331
D7AA
  5
D7A9
331
D7AB
  5
D7AA
331
D7AC
  5
D7AB
331
D7AD
  5
D7AC
331
D7AE
  5
D7AD
331
D7AF
  5
D7AE
331
D7B0
  5
D7AF
331
D7B1
  5
D7B0
331
D7B2
  5
D7B1
331
D7B5
  5
D7B2
331
D7B6
  5
D7B5
331
D7B7
  5
D7B6
331
D7B8
  5
D7B7
331
D886
  5
D7B8
331
D887
  5
D886
331
D888
  5
D887
331
D889
  5
D888
331
D88A
  5
D889
331
D88B
  5
D88A
331
D88F
  5
D88B
331
D890
  5
D88F
331
D891
  5
D890
331
D8A2
  5
D891
331
D8A3
  5
D8A2
331
D8A4
  5
D8A3
331
D9A1
  5
D8A4
331
D9A2
  5
D9A1
331
EC96
  5
D9A2
331
F274
  5
EC96
331
F407
  5
F274
331
F769
  5
F407
331
F76A
  5
F769
331
0
  5
F76A
331
0
  5
F7BC
331
0
  5
F7BD
331
0
  5
F7BF
331
0
  5
F7C0
331
0
  5
F7C1
331
0
  5
F7C2
331
0
  5
F7CB
331
0
  5
F7CC
331
0
  5
F7CD
331
F7F1
  5
F7CE
331
F7FE
  5
F7F1
331
0
  5
F7FE
331
0
  5
F80B
331
0
  5
F80C
331
0
  5
F80D
331
0
  5
F80E
331
0
  5
F80F
331
0
  5
F810
331
0
  5
F811
331
0
  5
F812
331
0
  5
F813
331
F81D
  5
F814
331
F81E
  5
F81D
331
0
  5
F81E
331
0
  5
F837
331
0
  5
F838
331
0
  5
F839
331
0
  5
F83A
331
0
  5
F83B
331
0
  5
F83C
331
0
  5
F841
331
0
  5
F842
331
0
  5
F843
331
F849
  5
F844
331
F84A
  5
F849
331
F863
  5
F84A
331
F864
  5
F863
331
F865
  5
F864
331
F866
  5
F865
331
F867
  5
F866
331
F868
  5
F867
331
F86E
  5
F868
331
F86F
  5
F86E
331
F870
  5
F86F
331
F871
  5
F870
331
F872
  5
F871
331
F873
  5
F872
331
F874
  5
F873
331
F875
  5
F874
331
F876
  5
F875
331
F877
  5
F876
331
F93E
  5
F877
331
F93F
  5
F93E
331
F940
  5
F93F
331
F941
  5
F940
331
F942
  5
F941
331
F943
  5
F942
331
F944
  5
F943
331
F945
  5
F944
331
F946
  5
F945
331
F947
  5
F946
331
F948
  5
F947
331
F949
  5
F948
331
F94A
  5
F949
331
F94B
  5
F94A
331
F94C
  5
F94B
331
F94D
  5
F94C
331
F94E
  5
F94D
331
F94F
  5
F94E
331
F950
  5
F94F
331
F951
  5
F950
331
F952
  5
F951
331
F953
  5
F952
331
F954
  5
F953
331
F955
  5
F954
331
F956
  5
F955
331
F957
  5
F956
331
F958
  5
F957
331
F959
  5
F958
331
F95A
  5
F959
331
F95B
  5
F95A
331
F95C
  5
F95B
331
F95D
  5
F95C
331
F95E
  5
F95D
331
F95F
  5
F95E
331
F960
  5
F95F
331
F961
  5
F960
331
F962
  5
F961
331
F963
  5
F962
331
F964
  5
F963
331
F965
  5
F964
331
F966
  5
F965
331
F967
  5
F966
331
F968
  5
F967
331
F969
  5
F968
331
F96A
  5
F969
331
F96B
  5
F96A
331
F96C
  5
F96B
331
F96D
  5
F96C
331
F96E
  5
F96D
331
F96F
  5
F96E
331
F970
  5
F96F
331
F971
  5
F970
331
F972
  5
F971
331
F973
  5
F972
331
F974
  5
F973
331
F975
  5
F974
331
F976
  5
F975
331
F977
  5
F976
331
F978
  5
F977
331
F979
  5
F978
331
F97A
  5
F979
331
F97B
  5
F97A
331
F97C
  5
F97B
331
F97D
  5
F97C
331
F97E
  5
F97D
331
F97F
  5
F97E
331
F980
  5
F97F
331
F981
  5
F980
331
FAD2
  5
FAD1
331
FAD3
  5
FAD2
331
FAD4
  5
FAD3
331
FAD5
  5
FAD4
331
FAD6
  5
FAD5
331
FAD7
  5
FAD6
331
FAD8
  5
FAD7
331
FAD9
  5
FAD8
331
FADA
  5
FAD9
331
FADB
  5
FADA
331
FADC
  5
FADB
331
FADD
  5
FADC
331
FADE
  5
FADD
331
FADF
  5
FADE
331
FAE0
  5
FADF
331
FAE1
  5
FAE0
331
FAE2
  5
FAE1
331
FAE3
  5
FAE2
331
FAE4
  5
FAE3
331
FB1D
  5
FB1C
331
FB1E
  5
FB1D
331
FB1F
  5
FB1E
331
FB20
  5
FB1F
331
FB21
  5
FB20
331
FB22
  5
FB21
331
FB23
  5
FB22
331
FB25
  5
FB24
331
FB26
  5
FB25
331
FB27
  5
FB26
  0
GROUP
  5
BE74
102
{ACAD_REACTORS
330
D
102
}
330
D
100
AcDbGroup
300

 70
     1
 71
     1
340
BE01
340
BE02
340
BE03
340
BE04
340
BE05
340
BE06
340
BE07
340
BE08
340
BE09
340
BE0A
340
BE0B
  0
GROUP
  5
F983
102
{ACAD_REACTORS
330
D
102
}
330
D
100
AcDbGroup
300

 70
     1
 71
     1
340
F96A
340
F96B
340
F96C
340
F96D
  0
GROUP
  5
BE75
102
{ACAD_REACTORS
330
D
102
}
330
D
100
AcDbGroup
300

 70
     1
 71
     1
340
BE2A
340
BE2B
340
BE2C
340
BE2D
340
BE2E
340
BE2F
340
BE30
340
BE31
340
BE32
340
BE33
340
BE34
340
BE35
340
BE36
340
BE37
340
BE38
340
BE39
340
BE3A
340
BE3B
340
BE3C
  0
GROUP
  5
BE76
102
{ACAD_REACTORS
330
D
102
}
330
D
100
AcDbGroup
300

 70
     1
 71
     1
340
BE11
340
BE12
340
BE13
340
BE14
340
BE15
340
BE16
340
BE17
340
BE18
340
BE19
340
BE1A
340
BE1B
340
BE1C
340
BE1D
340
BE1E
340
BE1F
340
BE20
340
BE21
340
BE22
340
BE23
340
BE24
340
BE25
340
BE26
340
BE27
340
BE28
340
BE29
  0
GROUP
  5
D6EC
102
{ACAD_REACTORS
330
D
102
}
330
D
100
AcDbGroup
300

 70
     1
 71
     1
  0
GROUP
  5
D6ED
102
{ACAD_REACTORS
330
D
102
}
330
D
100
AcDbGroup
300

 70
     1
 71
     1
  0
GROUP
  5
D6EE
102
{ACAD_REACTORS
330
D
102
}
330
D
100
AcDbGroup
300

 70
     1
 71
     1
  0
GROUP
  5
D6EF
102
{ACAD_REACTORS
330
D
102
}
330
D
100
AcDbGroup
300

 70
     1
 71
     1
  0
GROUP
  5
D6F0
102
{ACAD_REACTORS
330
D
102
}
330
D
100
AcDbGroup
300

 70
     1
 71
     1
  0
GROUP
  5
F982
102
{ACAD_REACTORS
330
D
102
}
330
D
100
AcDbGroup
300

 70
     1
 71
     1
340
F945
340
F946
340
F947
340
F94E
  0
LAYOUT
  5
1E
102
{ACAD_REACTORS
330
1A
102
}
330
1A
100
AcDbPlotSettings
  1

  2
none_device
  4
ISO_A3_(420.00_x_297.00_MM)
  6

 40
7.5
 41
20.0
 42
7.5
 43
20.0
 44
420.0
 45
297.0
 46
0.0
 47
0.0
 48
0.0
 49
0.0
140
0.0
141
0.0
142
1.0
143
1.0
 70
   688
 72
     1
 73
     0
 74
     5
  7

 75
    16
147
1.0
148
0.0
149
0.0
100
AcDbLayout
  1
Layout1
 70
     1
 71
     1
 10
0.0
 20
0.0
 11
412.5
 21
277.0
 12
0.0
 22
0.0
 32
0.0
 14
1.000000000000000E+20
 24
1.000000000000000E+20
 34
1.000000000000000E+20
 15
-1.000000000000000E+20
 25
-1.000000000000000E+20
 35
-1.000000000000000E+20
146
0.0
 13
0.0
 23
0.0
 33
0.0
 16
1.0
 26
0.0
 36
0.0
 17
0.0
 27
1.0
 37
0.0
 76
     0
330
1B
331
9F0D
  0
LAYOUT
  5
22
102
{ACAD_REACTORS
330
1A
102
}
330
1A
100
AcDbPlotSettings
  1

  2
none_device
  4
A3
  6

 40
3.174999952316284
 41
3.174999952316284
 42
3.17498779296875
 43
3.17498779296875
 44
297.0318298339844
 45
420.1583251953125
 46
-3.16
 47
-3.1
 48
-90.0
 49
-90.0
140
329.9999999999998
141
207.0
142
1.0
143
1.0
 70
 11940
 72
     1
 73
     1
 74
     4
  7
monochrome.ctb
 75
     0
147
1.0
148
90.0
149
90.0
100
AcDbLayout
  1
Model
 70
     1
 71
     0
 10
0.0
 20
0.0
 11
4200.0
 21
2970.0
 12
0.0
 22
0.0
 32
0.0
 14
0.0
 24
-170.0
 34
0.0
 15
4600.0
 25
2970.0
 35
0.0
146
0.0
 13
0.0
 23
0.0
 33
0.0
 16
1.0
 26
0.0
 36
0.0
 17
0.0
 27
1.0
 37
0.0
 76
     0
330
1F
331
7A57
  0
MLINESTYLE
  5
18
102
{ACAD_REACTORS
330
17
102
}
330
17
100
AcDbMlineStyle
  2
STANDARD
 70
     0
  3

 62
   256
 51
90.0
 52
90.0
 71
     2
 49
0.5
 62
   256
  6
BYLAYER
 49
-0.5
 62
   256
  6
BYLAYER
  0
ACDBPLACEHOLDER
  5
F
102
{ACAD_REACTORS
330
E
102
}
330
E
  0
SCALE
  5
6A4F
102
{ACAD_REACTORS
330
6A4E
102
}
330
6A4E
100
AcDbScale
 70
     0
300
1:1
140
1.0
141
1.0
290
     1
  0
SCALE
  5
6A50
102
{ACAD_REACTORS
330
6A4E
102
}
330
6A4E
100
AcDbScale
 70
     0
300
1:2
140
1.0
141
2.0
290
     0
  0
SCALE
  5
6A51
102
{ACAD_REACTORS
330
6A4E
102
}
330
6A4E
100
AcDbScale
 70
     0
300
1:4
140
1.0
141
4.0
290
     0
  0
SCALE
  5
6A52
102
{ACAD_REACTORS
330
6A4E
102
}
330
6A4E
100
AcDbScale
 70
     0
300
1:5
140
1.0
141
5.0
290
     0
  0
SCALE
  5
6A53
102
{ACAD_REACTORS
330
6A4E
102
}
330
6A4E
100
AcDbScale
 70
     0
300
1:8
140
1.0
141
8.0
290
     0
  0
SCALE
  5
6A54
102
{ACAD_REACTORS
330
6A4E
102
}
330
6A4E
100
AcDbScale
 70
     0
300
1:10
140
1.0
141
10.0
290
     0
  0
SCALE
  5
6A55
102
{ACAD_REACTORS
330
6A4E
102
}
330
6A4E
100
AcDbScale
 70
     0
300
1:16
140
1.0
141
16.0
290
     0
  0
SCALE
  5
6A56
102
{ACAD_REACTORS
330
6A4E
102
}
330
6A4E
100
AcDbScale
 70
     0
300
1:20
140
1.0
141
20.0
290
     0
  0
SCALE
  5
6A57
102
{ACAD_REACTORS
330
6A4E
102
}
330
6A4E
100
AcDbScale
 70
     0
300
1:30
140
1.0
141
30.0
290
     0
  0
SCALE
  5
6A58
102
{ACAD_REACTORS
330
6A4E
102
}
330
6A4E
100
AcDbScale
 70
     0
300
1:40
140
1.0
141
40.0
290
     0
  0
SCALE
  5
6A59
102
{ACAD_REACTORS
330
6A4E
102
}
330
6A4E
100
AcDbScale
 70
     0
300
1:50
140
1.0
141
50.0
290
     0
  0
SCALE
  5
6A5A
102
{ACAD_REACTORS
330
6A4E
102
}
330
6A4E
100
AcDbScale
 70
     0
300
1:100
140
1.0
141
100.0
290
     0
  0
SCALE
  5
6A5B
102
{ACAD_REACTORS
330
6A4E
102
}
330
6A4E
100
AcDbScale
 70
     0
300
2:1
140
2.0
141
1.0
290
     0
  0
SCALE
  5
6A5C
102
{ACAD_REACTORS
330
6A4E
102
}
330
6A4E
100
AcDbScale
 70
     0
300
4:1
140
4.0
141
1.0
290
     0
  0
SCALE
  5
6A5D
102
{ACAD_REACTORS
330
6A4E
102
}
330
6A4E
100
AcDbScale
 70
     0
300
8:1
140
8.0
141
1.0
290
     0
  0
SCALE
  5
6A5E
102
{ACAD_REACTORS
330
6A4E
102
}
330
6A4E
100
AcDbScale
 70
     0
300
10:1
140
10.0
141
1.0
290
     0
  0
SCALE
  5
6A5F
102
{ACAD_REACTORS
330
6A4E
102
}
330
6A4E
100
AcDbScale
 70
     0
300
100:1
140
100.0
141
1.0
290
     0
  0
SCALE
  5
6A60
102
{ACAD_REACTORS
330
6A4E
102
}
330
6A4E
100
AcDbScale
 70
     0
300
1/128" = 1'-0"
140
0.0078125
141
12.0
290
     0
  0
SCALE
  5
6A61
102
{ACAD_REACTORS
330
6A4E
102
}
330
6A4E
100
AcDbScale
 70
     0
300
1/64" = 1'-0"
140
0.015625
141
12.0
290
     0
  0
SCALE
  5
6A62
102
{ACAD_REACTORS
330
6A4E
102
}
330
6A4E
100
AcDbScale
 70
     0
300
1/32" = 1'-0"
140
0.03125
141
12.0
290
     0
  0
SCALE
  5
6A63
102
{ACAD_REACTORS
330
6A4E
102
}
330
6A4E
100
AcDbScale
 70
     0
300
1/16" = 1'-0"
140
0.0625
141
12.0
290
     0
  0
SCALE
  5
6A64
102
{ACAD_REACTORS
330
6A4E
102
}
330
6A4E
100
AcDbScale
 70
     0
300
3/32" = 1'-0"
140
0.09375
141
12.0
290
     0
  0
SCALE
  5
6A65
102
{ACAD_REACTORS
330
6A4E
102
}
330
6A4E
100
AcDbScale
 70
     0
300
1/8" = 1'-0"
140
0.125
141
12.0
290
     0
  0
SCALE
  5
6A66
102
{ACAD_REACTORS
330
6A4E
102
}
330
6A4E
100
AcDbScale
 70
     0
300
3/16" = 1'-0"
140
0.1875
141
12.0
290
     0
  0
SCALE
  5
6A67
102
{ACAD_REACTORS
330
6A4E
102
}
330
6A4E
100
AcDbScale
 70
     0
300
1/4" = 1'-0"
140
0.25
141
12.0
290
     0
  0
SCALE
  5
6A68
102
{ACAD_REACTORS
330
6A4E
102
}
330
6A4E
100
AcDbScale
 70
     0
300
3/8" = 1'-0"
140
0.375
141
12.0
290
     0
  0
SCALE
  5
6A69
102
{ACAD_REACTORS
330
6A4E
102
}
330
6A4E
100
AcDbScale
 70
     0
300
1/2" = 1'-0"
140
0.5
141
12.0
290
     0
  0
SCALE
  5
6A6A
102
{ACAD_REACTORS
330
6A4E
102
}
330
6A4E
100
AcDbScale
 70
     0
300
3/4" = 1'-0"
140
0.75
141
12.0
290
     0
  0
SCALE
  5
6A6B
102
{ACAD_REACTORS
330
6A4E
102
}
330
6A4E
100
AcDbScale
 70
     0
300
1" = 1'-0"
140
1.0
141
12.0
290
     0
  0
SCALE
  5
6A6C
102
{ACAD_REACTORS
330
6A4E
102
}
330
6A4E
100
AcDbScale
 70
     0
300
1-1/2" = 1'-0"
140
1.5
141
12.0
290
     0
  0
SCALE
  5
6A6D
102
{ACAD_REACTORS
330
6A4E
102
}
330
6A4E
100
AcDbScale
 70
     0
300
3" = 1'-0"
140
3.0
141
12.0
290
     0
  0
SCALE
  5
6A6E
102
{ACAD_REACTORS
330
6A4E
102
}
330
6A4E
100
AcDbScale
 70
     0
300
6" = 1'-0"
140
6.0
141
12.0
290
     0
  0
SCALE
  5
6A6F
102
{ACAD_REACTORS
330
6A4E
102
}
330
6A4E
100
AcDbScale
 70
     0
300
1'-0" = 1'-0"
140
12.0
141
12.0
290
     0
  0
DICTIONARYVAR
  5
79F
102
{ACAD_REACTORS
330
79E
102
}
330
79E
100
DictionaryVariables
280
     0
  1
1
  0
DICTIONARYVAR
  5
264F
102
{ACAD_REACTORS
330
79E
102
}
330
79E
100
DictionaryVariables
280
     0
  1
96
  0
ENDSEC
  0
EOF
