  0
SECTION
  2
HEADER
  9
$ACADVER
  1
AC1015
  9
$ACADMAINTVER
 70
     6
  9
$DWGCODEPAGE
  3
ANSI_932
  9
$INSBASE
 10
0.0
 20
0.0
 30
0.0
  9
$EXTMIN
 10
0.0
 20
-255.0
 30
0.0
  9
$EXTMAX
 10
6900.0
 20
4455.0
 30
0.0
  9
$LIMMIN
 10
0.0
 20
0.0
  9
$LIMMAX
 10
6300.0
 20
4455.0
  9
$ORTHOMODE
 70
     1
  9
$REGENMODE
 70
     1
  9
$FILLMODE
 70
     1
  9
$QTEXTMODE
 70
     0
  9
$MIRRTEXT
 70
     1
  9
$LTSCALE
 40
4.5
  9
$ATTMODE
 70
     1
  9
$TEXTSIZE
 40
45.0
  9
$TRACEWID
 40
1.0
  9
$TEXTSTYLE
  7
Standard
  9
$CLAYER
  8
13製作用注記
  9
$CELTYPE
  6
ByLayer
  9
$CECOLOR
 62
   256
  9
$CELTSCALE
 40
1.0
  9
$DISPSILH
 70
     0
  9
$DIMSCALE
 40
15.0
  9
$DIMASZ
 40
3.0
  9
$DIMEXO
 40
1.5
  9
$DIMDLI
 40
10.0
  9
$DIMRND
 40
0.0
  9
$DIMDLE
 40
0.0
  9
$DIMEXE
 40
1.0
  9
$DIMTP
 40
0.0
  9
$DIMTM
 40
0.0
  9
$DIMTXT
 40
3.0
  9
$DIMCEN
 40
1.5
  9
$DIMTSZ
 40
0.0
  9
$DIMTOL
 70
     0
  9
$DIMLIM
 70
     0
  9
$DIMTIH
 70
     0
  9
$DIMTOH
 70
     0
  9
$DIMSE1
 70
     0
  9
$DIMSE2
 70
     0
  9
$DIMTAD
 70
     1
  9
$DIMZIN
 70
     8
  9
$DIMBLK
  1
Open
  9
$DIMASO
 70
     1
  9
$DIMSHO
 70
     1
  9
$DIMPOST
  1

  9
$DIMAPOST
  1

  9
$DIMALT
 70
     0
  9
$DIMALTD
 70
     3
  9
$DIMALTF
 40
0.03937007874016
  9
$DIMLFAC
 40
1.0
  9
$DIMTOFL
 70
     1
  9
$DIMTVP
 40
0.0
  9
$DIMTIX
 70
     0
  9
$DIMSOXD
 70
     0
  9
$DIMSAH
 70
     0
  9
$DIMBLK1
  1

  9
$DIMBLK2
  1

  9
$DIMSTYLE
  2
NEMY-15
  9
$DIMCLRD
 70
     0
  9
$DIMCLRE
 70
     0
  9
$DIMCLRT
 70
     0
  9
$DIMTFAC
 40
1.0
  9
$DIMGAP
 40
1.0
  9
$DIMJUST
 70
     0
  9
$DIMSD1
 70
     0
  9
$DIMSD2
 70
     0
  9
$DIMTOLJ
 70
     0
  9
$DIMTZIN
 70
     8
  9
$DIMALTZ
 70
     0
  9
$DIMALTTZ
 70
     0
  9
$DIMUPT
 70
     0
  9
$DIMDEC
 70
     1
  9
$DIMTDEC
 70
     1
  9
$DIMALTU
 70
     2
  9
$DIMALTTD
 70
     3
  9
$DIMTXSTY
  7
Standard
  9
$DIMAUNIT
 70
     0
  9
$DIMADEC
 70
     0
  9
$DIMALTRND
 40
0.0
  9
$DIMAZIN
 70
     0
  9
$DIMDSEP
 70
    46
  9
$DIMATFIT
 70
     3
  9
$DIMFRAC
 70
     0
  9
$DIMLDRBLK
  1
Open
  9
$DIMLUNIT
 70
     2
  9
$DIMLWD
 70
    -2
  9
$DIMLWE
 70
    -2
  9
$DIMTMOVE
 70
     0
  9
$LUNITS
 70
     2
  9
$LUPREC
 70
     4
  9
$SKETCHINC
 40
1.0
  9
$FILLETRAD
 40
8.0
  9
$AUNITS
 70
     0
  9
$AUPREC
 70
     0
  9
$MENU
  1
.
  9
$ELEVATION
 40
0.0
  9
$PELEVATION
 40
0.0
  9
$THICKNESS
 40
0.0
  9
$LIMCHECK
 70
     0
  9
$CHAMFERA
 40
1.0
  9
$CHAMFERB
 40
1.0
  9
$CHAMFERC
 40
20.0
  9
$CHAMFERD
 40
0.0
  9
$SKPOLY
 70
     0
  9
$TDCREATE
 40
2455859.405048461
  9
$TDUCREATE
 40
2455859.030048461
  9
$TDUPDATE
 40
2459010.396825845
  9
$TDUUPDATE
 40
2459010.021825845
  9
$TDINDWG
 40
1.1765666782
  9
$TDUSRTIMER
 40
0.0005606366
  9
$USRTIMER
 70
     1
  9
$ANGBASE
 50
0.0
  9
$ANGDIR
 70
     0
  9
$PDMODE
 70
     0
  9
$PDSIZE
 40
0.0
  9
$PLINEWID
 40
0.0
  9
$SPLFRAME
 70
     0
  9
$SPLINETYPE
 70
     6
  9
$SPLINESEGS
 70
     8
  9
$HANDSEED
  5
FE35
  9
$SURFTAB1
 70
     6
  9
$SURFTAB2
 70
     6
  9
$SURFTYPE
 70
     6
  9
$SURFU
 70
     6
  9
$SURFV
 70
     6
  9
$UCSBASE
  2

  9
$UCSNAME
  2

  9
$UCSORG
 10
0.0
 20
0.0
 30
0.0
  9
$UCSXDIR
 10
1.0
 20
0.0
 30
0.0
  9
$UCSYDIR
 10
0.0
 20
1.0
 30
0.0
  9
$UCSORTHOREF
  2

  9
$UCSORTHOVIEW
 70
     0
  9
$UCSORGTOP
 10
0.0
 20
0.0
 30
0.0
  9
$UCSORGBOTTOM
 10
0.0
 20
0.0
 30
0.0
  9
$UCSORGLEFT
 10
0.0
 20
0.0
 30
0.0
  9
$UCSORGRIGHT
 10
0.0
 20
0.0
 30
0.0
  9
$UCSORGFRONT
 10
0.0
 20
0.0
 30
0.0
  9
$UCSORGBACK
 10
0.0
 20
0.0
 30
0.0
  9
$PUCSBASE
  2

  9
$PUCSNAME
  2

  9
$PUCSORG
 10
0.0
 20
0.0
 30
0.0
  9
$PUCSXDIR
 10
1.0
 20
0.0
 30
0.0
  9
$PUCSYDIR
 10
0.0
 20
1.0
 30
0.0
  9
$PUCSORTHOREF
  2

  9
$PUCSORTHOVIEW
 70
     0
  9
$PUCSORGTOP
 10
0.0
 20
0.0
 30
0.0
  9
$PUCSORGBOTTOM
 10
0.0
 20
0.0
 30
0.0
  9
$PUCSORGLEFT
 10
0.0
 20
0.0
 30
0.0
  9
$PUCSORGRIGHT
 10
0.0
 20
0.0
 30
0.0
  9
$PUCSORGFRONT
 10
0.0
 20
0.0
 30
0.0
  9
$PUCSORGBACK
 10
0.0
 20
0.0
 30
0.0
  9
$USERI1
 70
     0
  9
$USERI2
 70
     0
  9
$USERI3
 70
     0
  9
$USERI4
 70
     0
  9
$USERI5
 70
     0
  9
$USERR1
 40
0.0
  9
$USERR2
 40
0.0
  9
$USERR3
 40
0.0
  9
$USERR4
 40
0.0
  9
$USERR5
 40
0.0
  9
$WORLDVIEW
 70
     1
  9
$SHADEDGE
 70
     3
  9
$SHADEDIF
 70
    70
  9
$TILEMODE
 70
     1
  9
$MAXACTVP
 70
    64
  9
$PINSBASE
 10
0.0
 20
0.0
 30
0.0
  9
$PLIMCHECK
 70
     0
  9
$PEXTMIN
 10
1.000000000000000E+20
 20
1.000000000000000E+20
 30
1.000000000000000E+20
  9
$PEXTMAX
 10
-1.000000000000000E+20
 20
-1.000000000000000E+20
 30
-1.000000000000000E+20
  9
$PLIMMIN
 10
-7.5
 20
-20.0
  9
$PLIMMAX
 10
412.5
 20
277.0
  9
$UNITMODE
 70
     0
  9
$VISRETAIN
 70
     1
  9
$PLINEGEN
 70
     0
  9
$PSLTSCALE
 70
     1
  9
$TREEDEPTH
 70
  3020
  9
$CMLSTYLE
  2
Standard
  9
$CMLJUST
 70
     0
  9
$CMLSCALE
 40
20.0
  9
$PROXYGRAPHICS
 70
     1
  9
$MEASUREMENT
 70
     1
  9
$CELWEIGHT
370
    -1
  9
$ENDCAPS
280
     0
  9
$JOINSTYLE
280
     0
  9
$LWDISPLAY
290
     0
  9
$INSUNITS
 70
     4
  9
$HYPERLINKBASE
  1

  9
$STYLESHEET
  1
monochrome.ctb
  9
$XEDIT
290
     1
  9
$CEPSNTYPE
380
     0
  9
$PSTYLEMODE
290
     1
  9
$FINGERPRINTGUID
  2
{FDEAD578-A652-11D2-9A35-0060089B3A3F}
  9
$VERSIONGUID
  2
{11DB8456-EC16-47A0-BA21-BBDA07550E8A}
  9
$EXTNAMES
290
     1
  9
$PSVPSCALE
 40
0.0
  9
$OLESTARTUP
290
     0
  0
ENDSEC
  0
SECTION
  2
CLASSES
  0
CLASS
  1
ACDBDICTIONARYWDFLT
  2
AcDbDictionaryWithDefault
  3
ObjectDBX Classes
 90
        0
280
     0
281
     0
  0
CLASS
  1
ACDBPLACEHOLDER
  2
AcDbPlaceHolder
  3
ObjectDBX Classes
 90
        0
280
     0
281
     0
  0
CLASS
  1
LAYOUT
  2
AcDbLayout
  3
ObjectDBX Classes
 90
        0
280
     0
281
     0
  0
CLASS
  1
DICTIONARYVAR
  2
AcDbDictionaryVar
  3
ObjectDBX Classes
 90
        0
280
     0
281
     0
  0
CLASS
  1
SCALE
  2
AcDbScale
  3
ObjectDBX Classes
 90
     1153
280
     0
281
     0
  0
CLASS
  1
MATERIAL
  2
AcDbMaterial
  3
ObjectDBX Classes
 90
     1153
280
     0
281
     0
  0
CLASS
  1
VISUALSTYLE
  2
AcDbVisualStyle
  3
ObjectDBX Classes
 90
     4095
280
     0
281
     0
  0
CLASS
  1
TABLESTYLE
  2
AcDbTableStyle
  3
ObjectDBX Classes
 90
     4095
280
     0
281
     0
  0
CLASS
  1
RASTERVARIABLES
  2
AcDbRasterVariables
  3
ISM
 90
        0
280
     0
281
     0
  0
CLASS
  1
SORTENTSTABLE
  2
AcDbSortentsTable
  3
ObjectDBX Classes
 90
        0
280
     0
281
     0
  0
CLASS
  1
SUN
  2
AcDbSun
  3
SCENEOE
 90
     1153
280
     0
281
     0
  0
CLASS
  1
MLEADERSTYLE
  2
AcDbMLeaderStyle
  3
ACDB_MLEADERSTYLE_CLASS
 90
     4095
280
     0
281
     0
  0
ENDSEC
  0
SECTION
  2
TABLES
  0
TABLE
  2
VPORT
  5
8
330
0
100
AcDbSymbolTable
 70
     1
  0
VPORT
  5
7A57
330
8
100
AcDbSymbolTableRecord
100
AcDbViewportTableRecord
  2
*Active
 70
     0
 10
0.0
 20
0.0
 11
1.0
 21
1.0
 12
2746.777476923075
 22
2668.995230769231
 13
0.0
 23
0.0
 14
10.0
 24
10.0
 15
10.0
 25
10.0
 16
0.0
 26
0.0
 36
1.0
 17
0.0
 27
0.0
 37
0.0
 40
2487.000615384615
 41
1.448916408668731
 42
50.0
 43
0.0
 44
0.0
 50
0.0
 51
0.0
 71
    16
 72
   100
 73
     1
 74
     2
 75
     0
 76
     0
 77
     0
 78
     0
281
     0
 65
     1
110
0.0
120
0.0
130
0.0
111
1.0
121
0.0
131
0.0
112
0.0
122
1.0
132
0.0
 79
     0
146
0.0
  0
ENDTAB
  0
TABLE
  2
LTYPE
  5
5
330
0
100
AcDbSymbolTable
 70
     5
  0
LTYPE
  5
14
330
5
100
AcDbSymbolTableRecord
100
AcDbLinetypeTableRecord
  2
ByBlock
 70
     0
  3

 72
    65
 73
     0
 40
0.0
  0
LTYPE
  5
15
330
5
100
AcDbSymbolTableRecord
100
AcDbLinetypeTableRecord
  2
ByLayer
 70
     0
  3

 72
    65
 73
     0
 40
0.0
  0
LTYPE
  5
16
330
5
100
AcDbSymbolTableRecord
100
AcDbLinetypeTableRecord
  2
Continuous
 70
     0
  3
Solid line
 72
    65
 73
     0
 40
0.0
  0
LTYPE
  5
BA
330
5
100
AcDbSymbolTableRecord
100
AcDbLinetypeTableRecord
  2
HIDDEN
 70
     0
  3
Hidden __ __ __ __ __ __ __ __ __ __ __ __ __ _
 72
    65
 73
     2
 40
9.524999999999999
 49
6.35
 74
     0
 49
-3.175
 74
     0
  0
LTYPE
  5
BB
330
5
100
AcDbSymbolTableRecord
100
AcDbLinetypeTableRecord
  2
PHANTOM
 70
     0
  3
Phantom ______  __  __  ______  __  __  ______
 72
    65
 73
     6
 40
63.5
 49
31.75
 74
     0
 49
-6.35
 74
     0
 49
6.35
 74
     0
 49
-6.35
 74
     0
 49
6.35
 74
     0
 49
-6.35
 74
     0
  0
LTYPE
  5
BC
330
5
100
AcDbSymbolTableRecord
100
AcDbLinetypeTableRecord
  2
CENTER
 70
     0
  3
Center ____ _ ____ _ ____ _ ____ _ ____ _ ____
 72
    65
 73
     4
 40
50.8
 49
31.75
 74
     0
 49
-6.35
 74
     0
 49
6.35
 74
     0
 49
-6.35
 74
     0
  0
LTYPE
  5
47C
330
5
100
AcDbSymbolTableRecord
100
AcDbLinetypeTableRecord
  2
DOT
 70
     0
  3
Dot . . . . . . . . . . . . . . . . . . . . . .
 72
    65
 73
     2
 40
6.35
 49
0.0
 74
     0
 49
-6.35
 74
     0
  0
ENDTAB
  0
TABLE
  2
LAYER
  5
2
102
{ACAD_XDICTIONARY
360
7A6F
102
}
330
0
100
AcDbSymbolTable
 70
    15
  0
LAYER
  5
10
330
2
100
AcDbSymbolTableRecord
100
AcDbLayerTableRecord
  2
0
 70
     0
 62
    -7
  6
Continuous
370
    -3
390
F
  0
LAYER
  5
45
330
2
100
AcDbSymbolTableRecord
100
AcDbLayerTableRecord
  2
01注記寸法
 70
     0
 62
    -7
  6
Continuous
370
     9
390
F
  0
LAYER
  5
46
330
2
100
AcDbSymbolTableRecord
100
AcDbLayerTableRecord
  2
02実線
 70
     0
 62
     2
  6
Continuous
370
    15
390
F
  0
LAYER
  5
5F
330
2
100
AcDbSymbolTableRecord
100
AcDbLayerTableRecord
  2
Defpoints
 70
     0
 62
    -7
  6
Continuous
290
     0
370
    -3
390
F
  0
LAYER
  5
7E52
330
2
100
AcDbSymbolTableRecord
100
AcDbLayerTableRecord
  2
03破線
 70
     0
 62
    -3
  6
HIDDEN
370
     9
390
F
  0
LAYER
  5
7E55
330
2
100
AcDbSymbolTableRecord
100
AcDbLayerTableRecord
  2
04一点鎖線
 70
     0
 62
   -70
  6
CENTER
370
     9
390
F
  0
LAYER
  5
7E58
330
2
100
AcDbSymbolTableRecord
100
AcDbLayerTableRecord
  2
05二点鎖線
 70
     0
 62
  -110
  6
PHANTOM
370
     9
390
F
  0
LAYER
  5
7E5B
330
2
100
AcDbSymbolTableRecord
100
AcDbLayerTableRecord
  2
06点線
 70
     0
 62
   -96
  6
DOT
370
     9
390
F
  0
LAYER
  5
7E5E
330
2
100
AcDbSymbolTableRecord
100
AcDbLayerTableRecord
  2
07その他
 70
     0
 62
    -6
  6
Continuous
370
     5
390
F
  0
LAYER
  5
7E60
330
2
100
AcDbSymbolTableRecord
100
AcDbLayerTableRecord
  2
08非表示
 70
     0
 62
    -4
  6
Continuous
290
     0
370
     0
390
F
  0
LAYER
  5
7E62
330
2
100
AcDbSymbolTableRecord
100
AcDbLayerTableRecord
  2
09図枠
 70
     0
 62
    -1
  6
Continuous
370
    30
390
F
  0
LAYER
  5
835A
330
2
100
AcDbSymbolTableRecord
100
AcDbLayerTableRecord
  2
10副資材
 70
     0
 62
   -51
  6
Continuous
290
     0
370
    -3
390
F
1001
AcAecLayerStandard
1000

1000

  0
LAYER
  5
8CAC
330
2
100
AcDbSymbolTableRecord
100
AcDbLayerTableRecord
  2
11機器
 70
     0
 62
   -11
  6
Continuous
290
     0
370
    -3
390
F
1001
AcAecLayerStandard
1000

1000

  0
LAYER
  5
8CB1
330
2
100
AcDbSymbolTableRecord
100
AcDbLayerTableRecord
  2
12防振架台
 70
     0
 62
  -190
  6
Continuous
290
     0
370
    -3
390
F
1001
AcAecLayerStandard
1000

1000

  0
LAYER
  5
A15B
330
2
100
AcDbSymbolTableRecord
100
AcDbLayerTableRecord
  2
13製作用注記
 70
     0
 62
    -5
  6
Continuous
290
     0
370
     9
390
F
1001
AcAecLayerStandard
1000

1000

  0
ENDTAB
  0
TABLE
  2
STYLE
  5
3
330
0
100
AcDbSymbolTable
 70
     2
  0
STYLE
  5
11
330
3
100
AcDbSymbolTableRecord
100
AcDbTextStyleTableRecord
  2
Standard
 70
     0
 40
0.0
 41
1.0
 50
0.0
 71
     0
 42
45.0
  3
MSGOTHIC.TTC
  4

1001
ACAD
1000
MS Gothic
1071
    32817
  0
STYLE
  5
47B
330
3
100
AcDbSymbolTableRecord
100
AcDbTextStyleTableRecord
  2

 70
     1
 40
0.0
 41
1.0
 50
0.0
 71
     0
 42
3.0
  3
ltypeshp.shx
  4

  0
ENDTAB
  0
TABLE
  2
VIEW
  5
6
330
0
100
AcDbSymbolTable
 70
     0
  0
ENDTAB
  0
TABLE
  2
UCS
  5
7
330
0
100
AcDbSymbolTable
 70
     0
  0
ENDTAB
  0
TABLE
  2
APPID
  5
9
330
0
100
AcDbSymbolTable
 70
     6
  0
APPID
  5
12
330
9
100
AcDbSymbolTableRecord
100
AcDbRegAppTableRecord
  2
ACAD
 70
     0
  0
APPID
  5
6A9E
330
9
100
AcDbSymbolTableRecord
100
AcDbRegAppTableRecord
  2
ACAD_DSTYLE_DIMRADIAL_EXTENSION
 70
     0
  0
APPID
  5
742C
330
9
100
AcDbSymbolTableRecord
100
AcDbRegAppTableRecord
  2
ACAD_PSEXT
 70
     0
  0
APPID
  5
742D
330
9
100
AcDbSymbolTableRecord
100
AcDbRegAppTableRecord
  2
ACAD_DSTYLE_DIMJAG
 70
     0
  0
APPID
  5
742E
330
9
100
AcDbSymbolTableRecord
100
AcDbRegAppTableRecord
  2
ACAD_DSTYLE_DIMTALN
 70
     0
  0
APPID
  5
835C
330
9
100
AcDbSymbolTableRecord
100
AcDbRegAppTableRecord
  2
AcAecLayerStandard
 70
     0
  0
ENDTAB
  0
TABLE
  2
DIMSTYLE
  5
A
330
0
100
AcDbSymbolTable
 70
    24
100
AcDbDimStyleTable
  0
DIMSTYLE
105
73
330
A
100
AcDbSymbolTableRecord
100
AcDbDimStyleTableRecord
  2
NEMY-1
 70
     0
 41
3.0
 42
1.5
 43
10.0
 44
1.0
 73
     0
 74
     0
 77
     1
 78
     8
140
3.0
141
1.5
143
0.03937007874016
147
1.0
171
     3
172
     1
178
     0
271
     1
272
     1
274
     3
283
     0
284
     8
340
11
341
8F
342
8F
  0
DIMSTYLE
105
4DCE
330
A
100
AcDbSymbolTableRecord
100
AcDbDimStyleTableRecord
  2
NEMY-2
 70
     0
 40
2.0
 41
3.0
 42
1.5
 43
10.0
 44
1.0
 73
     0
 74
     0
 77
     1
 78
     8
140
3.0
141
1.5
143
0.03937007874016
147
1.0
171
     3
172
     1
178
     0
271
     1
272
     1
274
     3
283
     0
284
     8
340
11
341
8F
342
8F
  0
DIMSTYLE
105
4DCF
330
A
100
AcDbSymbolTableRecord
100
AcDbDimStyleTableRecord
  2
NEMY-3
 70
     0
 40
3.0
 41
3.0
 42
1.5
 43
10.0
 44
1.0
 73
     0
 74
     0
 77
     1
 78
     8
140
3.0
141
1.5
143
0.03937007874016
147
1.0
171
     3
172
     1
178
     0
271
     1
272
     1
274
     3
283
     0
284
     8
340
11
341
8F
342
8F
  0
DIMSTYLE
105
4DD0
330
A
100
AcDbSymbolTableRecord
100
AcDbDimStyleTableRecord
  2
NEMY-5
 70
     0
 40
5.0
 41
3.0
 42
1.5
 43
10.0
 44
1.0
 73
     0
 74
     0
 77
     1
 78
     8
140
3.0
141
1.5
143
0.03937007874016
147
1.0
171
     3
172
     1
178
     0
271
     1
272
     1
274
     3
283
     0
284
     8
340
11
341
8F
342
8F
  0
DIMSTYLE
105
4DD1
330
A
100
AcDbSymbolTableRecord
100
AcDbDimStyleTableRecord
  2
NEMY-8
 70
     0
 40
8.0
 41
3.0
 42
1.5
 43
10.0
 44
1.0
 73
     0
 74
     0
 77
     1
 78
     8
140
3.0
141
1.5
143
0.03937007874016
147
1.0
171
     3
172
     1
178
     0
271
     1
272
     1
274
     3
283
     0
284
     8
340
11
341
8F
342
8F
  0
DIMSTYLE
105
4DD2
102
{ACAD_REACTORS
330
D9A1
330
D9A2
330
D6DC
330
BE62
330
BE63
330
BE65
330
BE67
330
BE68
330
BE6B
330
BE64
330
BE72
330
D888
330
D88B
330
D891
330
D8A4
330
F274
330
FBDB
330
FBDF
330
FBE0
330
FBE5
330
FBE8
330
FBEB
330
FBEE
330
FBEF
330
FC06
330
FC07
330
FC08
330
FC09
330
FC0A
330
FC0B
330
FC0C
330
FC0D
330
FC0E
330
FC0F
330
FC10
330
FC11
330
FCE6
330
FCF3
330
FD00
330
FD0D
330
FD1C
330
FD33
330
FD34
330
FD35
330
FD36
330
FD69
330
FD80
330
FD81
330
FD82
330
FD83
102
}
330
A
100
AcDbSymbolTableRecord
100
AcDbDimStyleTableRecord
  2
NEMY-15
 70
     0
 40
15.0
 41
3.0
 42
1.5
 43
10.0
 44
1.0
 73
     0
 74
     0
 77
     1
 78
     8
140
3.0
141
1.5
143
0.03937007874016
147
1.0
171
     3
172
     1
178
     0
271
     1
272
     1
274
     3
283
     0
284
     8
340
11
341
8F
342
8F
  0
DIMSTYLE
105
4DD3
102
{ACAD_REACTORS
330
BE5D
330
F978
330
F985
102
}
330
A
100
AcDbSymbolTableRecord
100
AcDbDimStyleTableRecord
  2
NEMY-10
 70
     0
 40
10.0
 41
3.0
 42
1.5
 43
10.0
 44
1.0
 73
     0
 74
     0
 77
     1
 78
     8
140
3.0
141
1.5
143
0.03937007874016
147
1.0
171
     3
172
     1
178
     0
271
     1
272
     1
274
     3
283
     0
284
     8
340
11
341
8F
342
8F
  0
DIMSTYLE
105
4DD4
330
A
100
AcDbSymbolTableRecord
100
AcDbDimStyleTableRecord
  2
NEMY-25
 70
     0
 40
25.0
 41
3.0
 42
1.5
 43
10.0
 44
1.0
 73
     0
 74
     0
 77
     1
 78
     8
140
3.0
141
1.5
143
0.03937007874016
147
1.0
171
     3
172
     1
178
     0
271
     1
272
     1
274
     3
283
     0
284
     8
340
11
341
8F
342
8F
  0
DIMSTYLE
105
4DD5
330
A
100
AcDbSymbolTableRecord
100
AcDbDimStyleTableRecord
  2
NEMY-30
 70
     0
 40
30.0
 41
3.0
 42
1.5
 43
10.0
 44
1.0
 73
     0
 74
     0
 77
     1
 78
     8
140
3.0
141
1.5
143
0.03937007874016
147
1.0
171
     3
172
     1
178
     0
271
     1
272
     1
274
     3
283
     0
284
     8
340
11
341
8F
342
8F
  0
DIMSTYLE
105
4DD6
330
A
100
AcDbSymbolTableRecord
100
AcDbDimStyleTableRecord
  2
NEMY-50
 70
     0
 40
50.0
 41
3.0
 42
1.5
 43
10.0
 44
1.0
 73
     0
 74
     0
 77
     1
 78
     8
140
3.0
141
1.5
143
0.03937007874016
147
1.0
171
     3
172
     1
178
     0
271
     1
272
     1
274
     3
283
     0
284
     8
340
11
341
8F
342
8F
  0
DIMSTYLE
105
4E6F
330
A
100
AcDbSymbolTableRecord
100
AcDbDimStyleTableRecord
  2
NEMY-20
 70
     0
 40
20.0
 41
3.0
 42
1.5
 43
10.0
 44
1.0
 73
     0
 74
     0
 77
     1
 78
     8
140
3.0
141
1.5
143
0.03937007874016
147
1.0
171
     3
172
     1
178
     0
271
     1
272
     1
274
     3
283
     0
284
     8
340
11
341
8F
342
8F
  0
DIMSTYLE
105
4F44
330
A
100
AcDbSymbolTableRecord
100
AcDbDimStyleTableRecord
  2
NEMY-10$3
 70
     0
 40
10.0
 41
3.0
 42
1.5
 43
10.0
 44
1.0
 77
     1
 78
     8
140
3.0
141
1.5
143
0.03937007874016
147
1.0
171
     3
172
     1
178
     0
271
     1
272
     1
274
     3
283
     0
284
     8
340
11
341
8F
342
8F
  0
DIMSTYLE
105
4F45
330
A
100
AcDbSymbolTableRecord
100
AcDbDimStyleTableRecord
  2
NEMY-1$3
 70
     0
 41
3.0
 42
1.5
 43
10.0
 44
1.0
 77
     1
 78
     8
140
3.0
141
1.5
143
0.03937007874016
147
1.0
171
     3
172
     1
178
     0
271
     1
272
     1
274
     3
283
     0
284
     8
340
11
341
8F
342
8F
  0
DIMSTYLE
105
4F46
330
A
100
AcDbSymbolTableRecord
100
AcDbDimStyleTableRecord
  2
NEMY-12
 70
     0
 40
12.0
 41
3.0
 42
1.5
 43
10.0
 44
1.0
 73
     0
 74
     0
 77
     1
 78
     8
140
3.0
141
1.5
143
0.03937007874016
147
1.0
171
     3
172
     1
178
     0
271
     1
272
     1
274
     3
283
     0
284
     8
340
11
341
8F
342
8F
  0
DIMSTYLE
105
4F47
330
A
100
AcDbSymbolTableRecord
100
AcDbDimStyleTableRecord
  2
NEMY-12$3
 70
     0
 40
12.0
 41
3.0
 42
1.5
 43
10.0
 44
1.0
 77
     1
 78
     8
140
3.0
141
1.5
143
0.03937007874016
147
1.0
171
     3
172
     1
178
     0
271
     1
272
     1
274
     3
283
     0
284
     8
340
11
341
8F
342
8F
  0
DIMSTYLE
105
5E6E
330
A
100
AcDbSymbolTableRecord
100
AcDbDimStyleTableRecord
  2
NEMY-8$3
 70
     0
 40
8.0
 41
3.0
 42
1.5
 43
10.0
 44
1.0
 77
     1
 78
     8
140
3.0
141
1.5
143
0.03937007874016
147
1.0
171
     3
172
     1
178
     0
271
     1
272
     1
274
     3
283
     0
284
     8
340
11
341
8F
342
8F
  0
DIMSTYLE
105
5E6F
330
A
100
AcDbSymbolTableRecord
100
AcDbDimStyleTableRecord
  2
NEMY-50$3
 70
     0
 40
50.0
 41
3.0
 42
1.5
 43
10.0
 44
1.0
 77
     1
 78
     8
140
3.0
141
1.5
143
0.03937007874016
147
1.0
171
     3
172
     1
178
     0
271
     1
272
     1
274
     3
283
     0
284
     8
340
11
341
8F
342
8F
  0
DIMSTYLE
105
5E70
330
A
100
AcDbSymbolTableRecord
100
AcDbDimStyleTableRecord
  2
NEMY-5$3
 70
     0
 40
5.0
 41
3.0
 42
1.5
 43
10.0
 44
1.0
 77
     1
 78
     8
140
3.0
141
1.5
143
0.03937007874016
147
1.0
171
     3
172
     1
178
     0
271
     1
272
     1
274
     3
283
     0
284
     8
340
11
341
8F
342
8F
  0
DIMSTYLE
105
5E71
330
A
100
AcDbSymbolTableRecord
100
AcDbDimStyleTableRecord
  2
NEMY-30$3
 70
     0
 40
30.0
 41
3.0
 42
1.5
 43
10.0
 44
1.0
 77
     1
 78
     8
140
3.0
141
1.5
143
0.03937007874016
147
1.0
171
     3
172
     1
178
     0
271
     1
272
     1
274
     3
283
     0
284
     8
340
11
341
8F
342
8F
  0
DIMSTYLE
105
5E72
330
A
100
AcDbSymbolTableRecord
100
AcDbDimStyleTableRecord
  2
NEMY-3$3
 70
     0
 40
3.0
 41
3.0
 42
1.5
 43
10.0
 44
1.0
 77
     1
 78
     8
140
3.0
141
1.5
143
0.03937007874016
147
1.0
171
     3
172
     1
178
     0
271
     1
272
     1
274
     3
283
     0
284
     8
340
11
341
8F
342
8F
  0
DIMSTYLE
105
5E73
330
A
100
AcDbSymbolTableRecord
100
AcDbDimStyleTableRecord
  2
NEMY-25$3
 70
     0
 40
25.0
 41
3.0
 42
1.5
 43
10.0
 44
1.0
 77
     1
 78
     8
140
3.0
141
1.5
143
0.03937007874016
147
1.0
171
     3
172
     1
178
     0
271
     1
272
     1
274
     3
283
     0
284
     8
340
11
341
8F
342
8F
  0
DIMSTYLE
105
5E74
330
A
100
AcDbSymbolTableRecord
100
AcDbDimStyleTableRecord
  2
NEMY-20$3
 70
     0
 40
20.0
 41
3.0
 42
1.5
 43
10.0
 44
1.0
 77
     1
 78
     8
140
3.0
141
1.5
143
0.03937007874016
147
1.0
171
     3
172
     1
178
     0
271
     1
272
     1
274
     3
283
     0
284
     8
340
11
341
8F
342
8F
  0
DIMSTYLE
105
5E75
330
A
100
AcDbSymbolTableRecord
100
AcDbDimStyleTableRecord
  2
NEMY-2$3
 70
     0
 40
2.0
 41
3.0
 42
1.5
 43
10.0
 44
1.0
 77
     1
 78
     8
140
3.0
141
1.5
143
0.03937007874016
147
1.0
171
     3
172
     1
178
     0
271
     1
272
     1
274
     3
283
     0
284
     8
340
11
341
8F
342
8F
  0
DIMSTYLE
105
5E76
330
A
100
AcDbSymbolTableRecord
100
AcDbDimStyleTableRecord
  2
NEMY-15$3
 70
     0
 40
15.0
 41
3.0
 42
1.5
 43
10.0
 44
1.0
 77
     1
 78
     8
140
3.0
141
1.5
143
0.03937007874016
147
1.0
171
     3
172
     1
178
     0
271
     1
272
     1
274
     3
283
     0
284
     8
340
11
341
8F
342
8F
  0
ENDTAB
  0
TABLE
  2
BLOCK_RECORD
  5
1
330
0
100
AcDbSymbolTable
 70
    54
  0
BLOCK_RECORD
  5
1F
102
{ACAD_XDICTIONARY
360
969E
102
}
330
1
100
AcDbSymbolTableRecord
100
AcDbBlockTableRecord
  2
*Model_Space
340
22
  0
BLOCK_RECORD
  5
1B
330
1
100
AcDbSymbolTableRecord
100
AcDbBlockTableRecord
  2
*Paper_Space
340
1E
  0
BLOCK_RECORD
  5
8F
330
1
100
AcDbSymbolTableRecord
100
AcDbBlockTableRecord
  2
_Open
340
0
102
{BLKREFS
331
F97E
331
F97F
331
BE95
331
BEAF
331
BEBB
331
BEE5
331
BEF1
331
BF15
331
BF21
331
F98B
331
F98C
331
FC18
331
FC24
331
FC3F
331
FC59
331
FC65
331
FC71
331
FC8C
331
FCB4
331
FCED
331
FCFA
331
FD07
331
FD14
331
FD3D
331
FD49
331
FD55
331
FD61
331
FD8A
331
FD96
331
FDA2
331
FDAE
331
BE96
331
BEB0
331
BEBC
331
BEE6
331
BEF2
331
BF16
331
BF22
331
D6F8
331
FC19
331
FC25
331
FC40
331
FC5A
331
FC66
331
FC72
331
FC8D
331
FCB5
331
FCEE
331
FCFB
331
FD08
331
FD15
331
FD3E
331
FD4A
331
FD56
331
FD62
331
FD8B
331
FD97
331
FDA3
331
FDAF
331
BEA3
331
D6F9
331
FC4D
331
FC9A
331
FCA8
331
FCC2
331
BEA4
331
BECA
331
FC33
331
FC4E
331
FC80
331
FC9B
331
FCA9
331
FCC3
331
BECB
331
FC34
331
FC81
102
}
  0
BLOCK_RECORD
  5
82F2
330
1
100
AcDbSymbolTableRecord
100
AcDbBlockTableRecord
  2
hole-φ16
340
0
102
{BLKREFS
331
FBF2
331
FBF4
331
FBF6
331
FBF8
331
FBFA
331
FBFC
331
FBFE
331
FC00
102
}
  0
BLOCK_RECORD
  5
836D
330
1
100
AcDbSymbolTableRecord
100
AcDbBlockTableRecord
  2
平W-M12
340
0
102
{BLKREFS
331
FBF3
331
FBF5
331
FBF7
331
FBF9
331
FBFB
331
FBFD
331
FBFF
331
FC01
102
}
  0
BLOCK_RECORD
  5
841D
330
1
100
AcDbSymbolTableRecord
100
AcDbBlockTableRecord
  2
BH-端柱補強桟(L40x15xt3.2)
340
0
102
{BLKREFS
331
843A
102
}
  0
BLOCK_RECORD
  5
842A
330
1
100
AcDbSymbolTableRecord
100
AcDbBlockTableRecord
  2
BH-端柱(L60)-500H-正面
340
0
102
{BLKREFS
331
BDFD
331
BDFF
102
}
  0
BLOCK_RECORD
  5
843D
330
1
100
AcDbSymbolTableRecord
100
AcDbBlockTableRecord
  2
BH-端柱(L60)-500H-側面
340
0
102
{BLKREFS
331
BDFE
331
BE00
102
}
  0
BLOCK_RECORD
  5
8522
330
1
100
AcDbSymbolTableRecord
100
AcDbBlockTableRecord
  2
BH-anchor-L60-背面
340
0
102
{BLKREFS
331
BE0C
331
BE0D
102
}
  0
BLOCK_RECORD
  5
8548
330
1
100
AcDbSymbolTableRecord
100
AcDbBlockTableRecord
  2
BH-anchor-L60-立面
340
0
102
{BLKREFS
331
BE0E
331
BE0F
102
}
  0
BLOCK_RECORD
  5
856D
330
1
100
AcDbSymbolTableRecord
100
AcDbBlockTableRecord
  2
BH-端柱(L60)-平面
340
0
102
{BLKREFS
331
0
331
0
331
0
331
0
331
FBD0
331
FBD1
331
FBD2
331
FBD3
331
0
331
0
331
0
331
0
331
0
331
0
331
0
331
0
102
}
  0
BLOCK_RECORD
  5
858C
330
1
100
AcDbSymbolTableRecord
100
AcDbBlockTableRecord
  2
BH-anchor-L60-平面(実線)
340
0
102
{BLKREFS
331
0
331
0
331
0
331
0
331
0
331
0
331
0
331
0
331
0
331
0
331
0
331
0
102
}
  0
BLOCK_RECORD
  5
85C5
330
1
100
AcDbSymbolTableRecord
100
AcDbBlockTableRecord
  2
BH-レベル調整ボルト
340
0
102
{BLKREFS
331
0
102
}
  0
BLOCK_RECORD
  5
9928
330
1
100
AcDbSymbolTableRecord
100
AcDbBlockTableRecord
  2
BH-筋交(柱L60)-500H
340
0
102
{BLKREFS
331
BDFC
331
BE10
102
}
  0
BLOCK_RECORD
  5
BE8F
330
1
100
AcDbSymbolTableRecord
100
AcDbBlockTableRecord
  2
*D541
340
0
  0
BLOCK_RECORD
  5
BE9B
330
1
100
AcDbSymbolTableRecord
100
AcDbBlockTableRecord
  2
*D542
340
0
  0
BLOCK_RECORD
  5
BEA9
330
1
100
AcDbSymbolTableRecord
100
AcDbBlockTableRecord
  2
*D543
340
0
  0
BLOCK_RECORD
  5
BEB5
330
1
100
AcDbSymbolTableRecord
100
AcDbBlockTableRecord
  2
*D544
340
0
  0
BLOCK_RECORD
  5
BEC1
330
1
100
AcDbSymbolTableRecord
100
AcDbBlockTableRecord
  2
*D545
340
0
  0
BLOCK_RECORD
  5
BEDF
330
1
100
AcDbSymbolTableRecord
100
AcDbBlockTableRecord
  2
*D547
340
0
  0
BLOCK_RECORD
  5
BEEB
330
1
100
AcDbSymbolTableRecord
100
AcDbBlockTableRecord
  2
*D548
340
0
  0
BLOCK_RECORD
  5
BF0F
330
1
100
AcDbSymbolTableRecord
100
AcDbBlockTableRecord
  2
*D551
340
0
  0
BLOCK_RECORD
  5
BF1B
330
1
100
AcDbSymbolTableRecord
100
AcDbBlockTableRecord
  2
*D552
340
0
  0
BLOCK_RECORD
  5
D6F1
330
1
100
AcDbSymbolTableRecord
100
AcDbBlockTableRecord
  2
*D825
340
0
  0
BLOCK_RECORD
  5
F690
330
1
100
AcDbSymbolTableRecord
100
AcDbBlockTableRecord
  2
BH-組立ボルトセット
340
0
102
{BLKREFS
331
FC04
102
}
  0
BLOCK_RECORD
  5
F6DA
330
1
100
AcDbSymbolTableRecord
100
AcDbBlockTableRecord
  2
BH-筋交(柱L60)-500H-平面
340
0
102
{BLKREFS
331
FC05
102
}
  0
BLOCK_RECORD
  5
F974
330
1
100
AcDbSymbolTableRecord
100
AcDbBlockTableRecord
  2
RAS-AP140SG他
340
0
102
{BLKREFS
331
FBF0
102
}
  0
BLOCK_RECORD
  5
F979
330
1
100
AcDbSymbolTableRecord
100
AcDbBlockTableRecord
  2
*D1222
340
0
  0
BLOCK_RECORD
  5
F986
330
1
100
AcDbSymbolTableRecord
100
AcDbBlockTableRecord
  2
*D1223
340
0
  0
BLOCK_RECORD
  5
FA39
330
1
100
AcDbSymbolTableRecord
100
AcDbBlockTableRecord
  2
N-SPH950
340
0
102
{BLKREFS
331
FBF1
102
}
  0
BLOCK_RECORD
  5
FC12
330
1
100
AcDbSymbolTableRecord
100
AcDbBlockTableRecord
  2
*D1239
340
0
  0
BLOCK_RECORD
  5
FC1E
330
1
100
AcDbSymbolTableRecord
100
AcDbBlockTableRecord
  2
*D1240
340
0
  0
BLOCK_RECORD
  5
FC2A
330
1
100
AcDbSymbolTableRecord
100
AcDbBlockTableRecord
  2
*D1241
340
0
  0
BLOCK_RECORD
  5
FC39
330
1
100
AcDbSymbolTableRecord
100
AcDbBlockTableRecord
  2
*D1242
340
0
  0
BLOCK_RECORD
  5
FC45
330
1
100
AcDbSymbolTableRecord
100
AcDbBlockTableRecord
  2
*D1243
340
0
  0
BLOCK_RECORD
  5
FC53
330
1
100
AcDbSymbolTableRecord
100
AcDbBlockTableRecord
  2
*D1244
340
0
  0
BLOCK_RECORD
  5
FC5F
330
1
100
AcDbSymbolTableRecord
100
AcDbBlockTableRecord
  2
*D1245
340
0
  0
BLOCK_RECORD
  5
FC6B
330
1
100
AcDbSymbolTableRecord
100
AcDbBlockTableRecord
  2
*D1246
340
0
  0
BLOCK_RECORD
  5
FC77
330
1
100
AcDbSymbolTableRecord
100
AcDbBlockTableRecord
  2
*D1247
340
0
  0
BLOCK_RECORD
  5
FC86
330
1
100
AcDbSymbolTableRecord
100
AcDbBlockTableRecord
  2
*D1248
340
0
  0
BLOCK_RECORD
  5
FC92
330
1
100
AcDbSymbolTableRecord
100
AcDbBlockTableRecord
  2
*D1249
340
0
  0
BLOCK_RECORD
  5
FCA0
330
1
100
AcDbSymbolTableRecord
100
AcDbBlockTableRecord
  2
*D1250
340
0
  0
BLOCK_RECORD
  5
FCAE
330
1
100
AcDbSymbolTableRecord
100
AcDbBlockTableRecord
  2
*D1251
340
0
  0
BLOCK_RECORD
  5
FCBA
330
1
100
AcDbSymbolTableRecord
100
AcDbBlockTableRecord
  2
*D1252
340
0
  0
BLOCK_RECORD
  5
FCE7
330
1
100
AcDbSymbolTableRecord
100
AcDbBlockTableRecord
  2
*D1255
340
0
  0
BLOCK_RECORD
  5
FCF4
330
1
100
AcDbSymbolTableRecord
100
AcDbBlockTableRecord
  2
*D1256
340
0
  0
BLOCK_RECORD
  5
FD01
330
1
100
AcDbSymbolTableRecord
100
AcDbBlockTableRecord
  2
*D1257
340
0
  0
BLOCK_RECORD
  5
FD0E
330
1
100
AcDbSymbolTableRecord
100
AcDbBlockTableRecord
  2
*D1258
340
0
  0
BLOCK_RECORD
  5
FD37
330
1
100
AcDbSymbolTableRecord
100
AcDbBlockTableRecord
  2
*D1259
340
0
  0
BLOCK_RECORD
  5
FD43
330
1
100
AcDbSymbolTableRecord
100
AcDbBlockTableRecord
  2
*D1260
340
0
  0
BLOCK_RECORD
  5
FD4F
330
1
100
AcDbSymbolTableRecord
100
AcDbBlockTableRecord
  2
*D1261
340
0
  0
BLOCK_RECORD
  5
FD5B
330
1
100
AcDbSymbolTableRecord
100
AcDbBlockTableRecord
  2
*D1262
340
0
  0
BLOCK_RECORD
  5
FD84
330
1
100
AcDbSymbolTableRecord
100
AcDbBlockTableRecord
  2
*D1263
340
0
  0
BLOCK_RECORD
  5
FD90
330
1
100
AcDbSymbolTableRecord
100
AcDbBlockTableRecord
  2
*D1264
340
0
  0
BLOCK_RECORD
  5
FD9C
330
1
100
AcDbSymbolTableRecord
100
AcDbBlockTableRecord
  2
*D1265
340
0
  0
BLOCK_RECORD
  5
FDA8
330
1
100
AcDbSymbolTableRecord
100
AcDbBlockTableRecord
  2
*D1266
340
0
  0
ENDTAB
  0
ENDSEC
  0
SECTION
  2
BLOCKS
  0
BLOCK
  5
20
330
1F
100
AcDbEntity
  8
0
100
AcDbBlockBegin
  2
*Model_Space
 70
     0
 10
0.0
 20
0.0
 30
0.0
  3
*Model_Space
  1

  0
ENDBLK
  5
21
330
1F
100
AcDbEntity
  8
0
100
AcDbBlockEnd
  0
BLOCK
  5
1C
330
1B
100
AcDbEntity
 67
     1
  8
0
100
AcDbBlockBegin
  2
*Paper_Space
 70
     0
 10
0.0
 20
0.0
 30
0.0
  3
*Paper_Space
  1

  0
ENDBLK
  5
1D
330
1B
100
AcDbEntity
 67
     1
  8
0
100
AcDbBlockEnd
  0
BLOCK
  5
93
330
8F
100
AcDbEntity
  8
0
100
AcDbBlockBegin
  2
_Open
 70
     0
 10
0.0
 20
0.0
 30
0.0
  3
_Open
  1

  0
LINE
  5
90
330
8F
100
AcDbEntity
  8
01注記寸法
 62
     0
370
    -2
100
AcDbLine
 10
-1.0
 20
0.1666666666666667
 30
0.0
 11
0.0
 21
0.0
 31
0.0
  0
LINE
  5
91
330
8F
100
AcDbEntity
  8
01注記寸法
 62
     0
370
    -2
100
AcDbLine
 10
-1.0
 20
-0.1666666666666667
 30
0.0
 11
0.0
 21
0.0
 31
0.0
  0
LINE
  5
92
330
8F
100
AcDbEntity
  8
01注記寸法
 62
     0
370
    -2
100
AcDbLine
 10
0.0
 20
0.0
 30
0.0
 11
-1.0
 21
0.0
 31
0.0
  0
ENDBLK
  5
94
330
8F
100
AcDbEntity
  8
0
100
AcDbBlockEnd
  0
BLOCK
  5
82F3
330
82F2
100
AcDbEntity
  8
0
100
AcDbBlockBegin
  2
hole-φ16
 70
     0
 10
0.0
 20
0.0
 30
0.0
  3
hole-φ16
  1

  0
CIRCLE
  5
82F4
330
82F2
100
AcDbEntity
  8
02実線
100
AcDbCircle
 10
0.0
 20
0.0
 30
0.0
 40
8.0
  0
LINE
  5
82F5
330
82F2
100
AcDbEntity
  8
04一点鎖線
  6
CENTER
 48
0.2
100
AcDbLine
 10
0.0
 20
-20.0
 30
0.0
 11
0.0
 21
20.0
 31
0.0
  0
LINE
  5
82F6
330
82F2
100
AcDbEntity
  8
04一点鎖線
  6
CENTER
 48
0.2
100
AcDbLine
 10
-20.0
 20
0.0
 30
0.0
 11
20.0
 21
0.0
 31
0.0
  0
ENDBLK
  5
82F7
330
82F2
100
AcDbEntity
  8
0
100
AcDbBlockEnd
  0
BLOCK
  5
836E
330
836D
100
AcDbEntity
  8
0
100
AcDbBlockBegin
  2
平W-M12
 70
     0
 10
0.0
 20
0.0
 30
0.0
  3
平W-M12
  1

  0
CIRCLE
  5
836F
330
836D
100
AcDbEntity
  8
10副資材
100
AcDbCircle
 10
0.0
 20
0.0
 30
0.0
 40
6.0
  0
CIRCLE
  5
8370
330
836D
100
AcDbEntity
  8
10副資材
100
AcDbCircle
 10
0.0
 20
0.0
 30
0.0
 40
13.0
  0
TEXT
  5
8371
330
836D
100
AcDbEntity
  8
10副資材
100
AcDbText
 10
-3.899921878130408
 20
-11.29716620919794
 30
0.0
 40
4.0
  1
M12
 72
     1
 11
0.000078121869592
 21
-9.29716620919794
 31
0.0
100
AcDbText
 73
     2
  0
ENDBLK
  5
8372
330
836D
100
AcDbEntity
  8
0
100
AcDbBlockEnd
  0
BLOCK
  5
841E
330
841D
100
AcDbEntity
  8
0
100
AcDbBlockBegin
  2
BH-端柱補強桟(L40x15xt3.2)
 70
     0
 10
0.0
 20
0.0
 30
0.0
  3
BH-端柱補強桟(L40x15xt3.2)
  1

  0
LINE
  5
841F
330
841D
100
AcDbEntity
  8
03破線
  6
HIDDEN
 48
0.5
100
AcDbLine
 10
3.199999999999818
 20
-3.199999999999818
 30
0.0
 11
3.199999999999818
 21
-40.0
 31
0.0
  0
LINE
  5
8420
330
841D
100
AcDbEntity
  8
03破線
  6
HIDDEN
 48
0.5
100
AcDbLine
 10
15.0
 20
0.0
 30
0.0
 11
15.0
 21
-3.199999999999818
 31
0.0
  0
LINE
  5
8421
330
841D
100
AcDbEntity
  8
03破線
  6
HIDDEN
 48
0.5
100
AcDbLine
 10
15.0
 20
-3.199999999999818
 30
0.0
 11
3.199999999999818
 21
-3.199999999999818
 31
0.0
  0
LINE
  5
8422
330
841D
100
AcDbEntity
  8
03破線
  6
HIDDEN
 48
0.5
100
AcDbLine
 10
0.0
 20
0.0
 30
0.0
 11
0.0
 21
-40.0
 31
0.0
  0
LINE
  5
8423
330
841D
100
AcDbEntity
  8
03破線
  6
HIDDEN
 48
0.5
100
AcDbLine
 10
15.0
 20
0.0
 30
0.0
 11
0.0
 21
0.0
 31
0.0
  0
LINE
  5
8424
330
841D
100
AcDbEntity
  8
03破線
  6
HIDDEN
 48
0.5
100
AcDbLine
 10
3.199999999999818
 20
-40.0
 30
0.0
 11
0.0
 21
-40.0
 31
0.0
  0
ENDBLK
  5
8425
330
841D
100
AcDbEntity
  8
0
100
AcDbBlockEnd
  0
BLOCK
  5
842B
330
842A
100
AcDbEntity
  8
0
100
AcDbBlockBegin
  2
BH-端柱(L60)-500H-正面
 70
     0
 10
0.0
 20
0.0
 30
0.0
  3
BH-端柱(L60)-500H-正面
  1

  0
LWPOLYLINE
  5
842C
330
842A
100
AcDbEntity
  8
02実線
100
AcDbPolyline
 90
        4
 70
     1
 43
0.0
 10
0.0
 20
0.0
 10
0.0
 20
497.0000000000005
 10
60.0
 20
497.0000000000005
 10
60.0
 20
0.0
  0
LINE
  5
842D
330
842A
100
AcDbEntity
  8
03破線
100
AcDbLine
 10
3.200000000000728
 20
0.0
 30
0.0
 11
3.200000000000728
 21
497.0000000000005
 31
0.0
  0
ARC
  5
842E
330
842A
100
AcDbEntity
  8
02実線
100
AcDbCircle
 10
22.00000000000091
 20
30.0
 30
0.0
 40
7.0
100
AcDbArc
 50
90.0
 51
270.0
  0
LINE
  5
842F
330
842A
100
AcDbEntity
  8
02実線
100
AcDbLine
 10
22.00000000000091
 20
23.0
 30
0.0
 11
42.00000000000091
 21
23.0
 31
0.0
  0
LINE
  5
8430
330
842A
100
AcDbEntity
  8
02実線
100
AcDbLine
 10
22.00000000000091
 20
37.0
 30
0.0
 11
42.00000000000091
 21
37.0
 31
0.0
  0
ARC
  5
8431
330
842A
100
AcDbEntity
  8
02実線
100
AcDbCircle
 10
42.00000000000091
 20
30.0
 30
0.0
 40
7.0
100
AcDbArc
 50
270.0
 51
90.0
  0
CIRCLE
  5
8432
330
842A
100
AcDbEntity
  8
02実線
100
AcDbCircle
 10
30.00000000000091
 20
215.0000000000002
 30
0.0
 40
6.5
  0
CIRCLE
  5
8433
330
842A
100
AcDbEntity
  8
02実線
100
AcDbCircle
 10
30.00000000000091
 20
466.0000000000005
 30
0.0
 40
6.5
  0
LINE
  5
8434
330
842A
100
AcDbEntity
  8
04一点鎖線
 48
0.2
100
AcDbLine
 10
59.0
 20
30.0
 30
0.0
 11
-10.0
 21
30.0
 31
0.0
  0
LINE
  5
8435
330
842A
100
AcDbEntity
  8
04一点鎖線
 48
0.2
100
AcDbLine
 10
46.5
 20
466.0000000000005
 30
0.0
 11
13.50000000000091
 21
466.0000000000005
 31
0.0
  0
LINE
  5
8436
330
842A
100
AcDbEntity
  8
04一点鎖線
 48
0.2
100
AcDbLine
 10
32.00000000000091
 20
13.0
 30
0.0
 11
32.00000000000091
 21
47.0
 31
0.0
  0
LINE
  5
8437
330
842A
100
AcDbEntity
  8
04一点鎖線
 48
0.2
100
AcDbLine
 10
30.00000000000182
 20
198.5000000000002
 30
0.0
 11
30.0
 21
231.5000000000002
 31
0.0
  0
LINE
  5
8438
330
842A
100
AcDbEntity
  8
04一点鎖線
 48
0.2
100
AcDbLine
 10
30.00000000000182
 20
449.5000000000005
 30
0.0
 11
30.0
 21
482.5000000000005
 31
0.0
  0
LINE
  5
8439
330
842A
100
AcDbEntity
  8
04一点鎖線
 48
0.2
100
AcDbLine
 10
46.5
 20
215.0000000000002
 30
0.0
 11
13.50000000000091
 21
215.0000000000002
 31
0.0
  0
INSERT
  5
843A
330
842A
100
AcDbEntity
  8
03破線
100
AcDbBlockReference
  2
BH-端柱補強桟(L40x15xt3.2)
 10
3.200000000000728
 20
250.0
 30
0.0
  0
ENDBLK
  5
843B
330
842A
100
AcDbEntity
  8
0
100
AcDbBlockEnd
  0
BLOCK
  5
843E
330
843D
100
AcDbEntity
  8
0
100
AcDbBlockBegin
  2
BH-端柱(L60)-500H-側面
 70
     0
 10
0.0
 20
0.0
 30
0.0
  3
BH-端柱(L60)-500H-側面
  1

  0
ARC
  5
843F
330
843D
100
AcDbEntity
  8
02実線
100
AcDbCircle
 10
42.00000000000091
 20
29.99999999999886
 30
0.0
 40
7.0
100
AcDbArc
 50
270.0
 51
90.0
  0
LINE
  5
8440
330
843D
100
AcDbEntity
  8
02実線
100
AcDbLine
 10
22.00000000000091
 20
36.99999999999886
 30
0.0
 11
42.00000000000091
 21
36.99999999999886
 31
0.0
  0
LINE
  5
8441
330
843D
100
AcDbEntity
  8
02実線
100
AcDbLine
 10
22.00000000000091
 20
22.99999999999886
 30
0.0
 11
42.00000000000091
 21
22.99999999999886
 31
0.0
  0
ARC
  5
8442
330
843D
100
AcDbEntity
  8
02実線
100
AcDbCircle
 10
22.00000000000091
 20
29.99999999999886
 30
0.0
 40
7.0
100
AcDbArc
 50
90.0
 51
270.0
  0
LINE
  5
8443
330
843D
100
AcDbEntity
  8
03破線
100
AcDbLine
 10
3.200000000000728
 20
-0.0000000000011369
 30
0.0
 11
3.200000000000728
 21
496.9999999999993
 31
0.0
  0
LWPOLYLINE
  5
8444
330
843D
100
AcDbEntity
  8
02実線
100
AcDbPolyline
 90
        4
 70
     1
 43
0.0
 10
0.0
 20
0.0
 10
0.0
 20
497.0000000000002
 10
60.0
 20
497.0000000000002
 10
60.0
 20
0.0
  0
CIRCLE
  5
8445
330
843D
100
AcDbEntity
  8
02実線
100
AcDbCircle
 10
34.69999999999982
 20
469.9999999999993
 30
0.0
 40
6.5
  0
CIRCLE
  5
8446
330
843D
100
AcDbEntity
  8
02実線
100
AcDbCircle
 10
34.69999999999982
 20
399.9999999999991
 30
0.0
 40
6.5
  0
LINE
  5
8447
330
843D
100
AcDbEntity
  8
04一点鎖線
 48
0.2
100
AcDbLine
 10
59.00000000000091
 20
29.99999999999886
 30
0.0
 11
-10.0
 21
29.99999999999886
 31
0.0
  0
LINE
  5
8448
330
843D
100
AcDbEntity
  8
04一点鎖線
 48
0.2
100
AcDbLine
 10
32.00000000000091
 20
12.99999999999886
 30
0.0
 11
32.00000000000091
 21
46.99999999999886
 31
0.0
  0
LINE
  5
8449
330
843D
100
AcDbEntity
  8
04一点鎖線
 48
0.2
100
AcDbLine
 10
51.20000000000073
 20
469.9999999999989
 30
0.0
 11
18.20000000000073
 21
469.9999999999989
 31
0.0
  0
LINE
  5
844A
330
843D
100
AcDbEntity
  8
04一点鎖線
 48
0.2
100
AcDbLine
 10
51.19999999999982
 20
399.9999999999991
 30
0.0
 11
18.19999999999982
 21
399.9999999999991
 31
0.0
  0
LINE
  5
844B
330
843D
100
AcDbEntity
  8
04一点鎖線
 48
0.2
100
AcDbLine
 10
34.69999999999982
 20
383.4999999999991
 30
0.0
 11
34.69999999999982
 21
416.4999999999991
 31
0.0
  0
LINE
  5
844C
330
843D
100
AcDbEntity
  8
04一点鎖線
 48
0.2
100
AcDbLine
 10
34.70000000000073
 20
453.4999999999989
 30
0.0
 11
34.70000000000073
 21
486.4999999999989
 31
0.0
  0
ENDBLK
  5
844D
330
843D
100
AcDbEntity
  8
0
100
AcDbBlockEnd
  0
BLOCK
  5
8523
330
8522
100
AcDbEntity
  8
0
100
AcDbBlockBegin
  2
BH-anchor-L60-背面
 70
     0
 10
0.0
 20
0.0
 30
0.0
  3
BH-anchor-L60-背面
  1

  0
LINE
  5
8524
330
8522
100
AcDbEntity
  8
04一点鎖線
 48
0.2
100
AcDbLine
 10
0.0
 20
-15.0
 30
0.0
 11
0.0
 21
19.5
 31
0.0
  0
LINE
  5
8525
330
8522
100
AcDbEntity
  8
03破線
100
AcDbLine
 10
-28.5
 20
4.5
 30
0.0
 11
28.5
 21
4.5
 31
0.0
  0
LINE
  5
8526
330
8522
100
AcDbEntity
  8
03破線
100
AcDbLine
 10
-28.5
 20
0.0
 30
0.0
 11
28.5
 21
0.0
 31
0.0
  0
LINE
  5
8527
330
8522
100
AcDbEntity
  8
03破線
100
AcDbLine
 10
-15.82435206036507
 20
56.11709862642329
 30
0.0
 11
4.175647939634928
 21
26.11709862642329
 31
0.0
  0
LINE
  5
8528
330
8522
100
AcDbEntity
  8
03破線
100
AcDbLine
 10
-4.175647939634928
 20
63.88290137357671
 30
0.0
 11
15.82435206036507
 21
33.88290137357671
 31
0.0
  0
ARC
  5
8529
330
8522
100
AcDbEntity
  8
03破線
100
AcDbCircle
 10
10.0
 20
30.0
 30
0.0
 40
7.0
100
AcDbArc
 50
213.6900675259766
 51
33.69006752597669
  0
ARC
  5
852A
330
8522
100
AcDbEntity
  8
03破線
100
AcDbCircle
 10
-10.0
 20
60.0
 30
0.0
 40
7.0
100
AcDbArc
 50
33.69006752597669
 51
213.6900675259766
  0
LINE
  5
852B
330
8522
100
AcDbEntity
  8
03破線
100
AcDbLine
 10
-23.5
 20
80.0
 30
0.0
 11
-28.5
 21
75.0
 31
0.0
  0
LINE
  5
852C
330
8522
100
AcDbEntity
  8
03破線
100
AcDbLine
 10
-28.5
 20
0.0
 30
0.0
 11
-28.5
 21
75.0
 31
0.0
  0
LINE
  5
852D
330
8522
100
AcDbEntity
  8
03破線
100
AcDbLine
 10
28.5
 20
75.0
 30
0.0
 11
23.5
 21
80.0
 31
0.0
  0
LINE
  5
852E
330
8522
100
AcDbEntity
  8
03破線
100
AcDbLine
 10
-23.5
 20
80.0
 30
0.0
 11
23.5
 21
80.0
 31
0.0
  0
LINE
  5
852F
330
8522
100
AcDbEntity
  8
03破線
100
AcDbLine
 10
28.5
 20
0.0
 30
0.0
 11
28.5
 21
75.0
 31
0.0
  0
ENDBLK
  5
8530
330
8522
100
AcDbEntity
  8
0
100
AcDbBlockEnd
  0
BLOCK
  5
8549
330
8548
100
AcDbEntity
  8
0
100
AcDbBlockBegin
  2
BH-anchor-L60-立面
 70
     0
 10
0.0
 20
0.0
 30
0.0
  3
BH-anchor-L60-立面
  1

  0
LINE
  5
854A
330
8548
100
AcDbEntity
  8
04一点鎖線
 48
0.2
100
AcDbLine
 10
-22.5
 20
45.0
 30
0.0
 11
-47.0
 21
45.0
 31
0.0
  0
ARC
  5
854B
330
8548
100
AcDbEntity
  8
03破線
100
AcDbCircle
 10
-29.19999999999982
 20
7.799999999999727
 30
0.0
 40
3.300000000000002
100
AcDbArc
 50
180.0
 51
270.0
  0
ARC
  5
854C
330
8548
100
AcDbEntity
  8
03破線
100
AcDbCircle
 10
-29.19999999999982
 20
7.799999999999727
 30
0.0
 40
7.800000000000002
100
AcDbArc
 50
179.9999999999967
 51
270.0
  0
LINE
  5
854D
330
8548
100
AcDbEntity
  8
03破線
100
AcDbLine
 10
-37.0
 20
80.0
 30
0.0
 11
-32.5
 21
80.0
 31
0.0
  0
LINE
  5
854E
330
8548
100
AcDbEntity
  8
03破線
100
AcDbLine
 10
23.0
 20
4.5
 30
0.0
 11
23.0
 21
0.0
 31
0.0
  0
LINE
  5
854F
330
8548
100
AcDbEntity
  8
03破線
100
AcDbLine
 10
-32.5
 20
80.0
 30
0.0
 11
-32.5
 21
7.799999999999727
 31
0.0
  0
LINE
  5
8550
330
8548
100
AcDbEntity
  8
03破線
100
AcDbLine
 10
-29.19999999999982
 20
4.5
 30
0.0
 11
23.0
 21
4.5
 31
0.0
  0
LINE
  5
8551
330
8548
100
AcDbEntity
  8
03破線
100
AcDbLine
 10
-37.0
 20
80.0
 30
0.0
 11
-37.0
 21
7.799999999999727
 31
0.0
  0
LINE
  5
8552
330
8548
100
AcDbEntity
  8
03破線
100
AcDbLine
 10
-29.19999999999982
 20
0.0
 30
0.0
 11
23.0
 21
0.0
 31
0.0
  0
LINE
  5
8553
330
8548
100
AcDbEntity
  8
04一点鎖線
 48
0.2
100
AcDbLine
 10
0.0
 20
19.5
 30
0.0
 11
0.0
 21
-15.0
 31
0.0
  0
ENDBLK
  5
8554
330
8548
100
AcDbEntity
  8
0
100
AcDbBlockEnd
  0
BLOCK
  5
856E
330
856D
100
AcDbEntity
  8
0
100
AcDbBlockBegin
  2
BH-端柱(L60)-平面
 70
     0
 10
0.0
 20
0.0
 30
0.0
  3
BH-端柱(L60)-平面
  1

  0
LINE
  5
856F
330
856D
100
AcDbEntity
  8
02実線
100
AcDbLine
 10
60.0
 20
3.199999999999818
 30
0.0
 11
60.0
 21
0.0
 31
0.0
  0
LINE
  5
8570
330
856D
100
AcDbEntity
  8
02実線
100
AcDbLine
 10
3.200000000000728
 20
3.199999999999818
 30
0.0
 11
60.0
 21
3.199999999999818
 31
0.0
  0
LINE
  5
8571
330
856D
100
AcDbEntity
  8
02実線
100
AcDbLine
 10
0.0
 20
60.0
 30
0.0
 11
3.200000000000728
 21
60.0
 31
0.0
  0
LINE
  5
8572
330
856D
100
AcDbEntity
  8
02実線
100
AcDbLine
 10
0.0
 20
0.0
 30
0.0
 11
60.0
 21
0.0
 31
0.0
  0
LINE
  5
8573
330
856D
100
AcDbEntity
  8
02実線
100
AcDbLine
 10
0.0
 20
60.0
 30
0.0
 11
0.0
 21
0.0
 31
0.0
  0
LINE
  5
8574
330
856D
100
AcDbEntity
  8
02実線
100
AcDbLine
 10
3.200000000000728
 20
60.0
 30
0.0
 11
3.200000000000728
 21
3.199999999999818
 31
0.0
  0
LINE
  5
8575
330
856D
100
AcDbEntity
  8
08非表示
100
AcDbLine
 10
3.200000000000728
 20
4.699999999999818
 30
0.0
 11
60.0
 21
4.699999999999818
 31
0.0
  0
ENDBLK
  5
8576
330
856D
100
AcDbEntity
  8
0
100
AcDbBlockEnd
  0
BLOCK
  5
858D
330
858C
100
AcDbEntity
  8
0
100
AcDbBlockBegin
  2
BH-anchor-L60-平面(実線)
 70
     0
 10
0.0
 20
0.0
 30
0.0
  3
BH-anchor-L60-平面(実線)
  1

  0
LINE
  5
858E
330
858C
100
AcDbEntity
  8
02実線
100
AcDbLine
 10
-32.5
 20
-28.5
 30
0.0
 11
-32.5
 21
28.5
 31
0.0
  0
LINE
  5
858F
330
858C
100
AcDbEntity
  8
02実線
100
AcDbLine
 10
-37.0
 20
-28.5
 30
0.0
 11
-37.0
 21
28.5
 31
0.0
  0
CIRCLE
  5
8590
330
858C
100
AcDbEntity
  8
02実線
100
AcDbCircle
 10
0.0
 20
0.0
 30
0.0
 40
8.0
  0
LINE
  5
8591
330
858C
100
AcDbEntity
  8
02実線
100
AcDbLine
 10
23.0
 20
18.5
 30
0.0
 11
13.0
 21
28.5
 31
0.0
  0
LINE
  5
8592
330
858C
100
AcDbEntity
  8
02実線
100
AcDbLine
 10
23.0
 20
-18.5
 30
0.0
 11
13.0
 21
-28.5
 31
0.0
  0
LINE
  5
8593
330
858C
100
AcDbEntity
  8
02実線
100
AcDbLine
 10
-37.0
 20
28.5
 30
0.0
 11
13.0
 21
28.5
 31
0.0
  0
LINE
  5
8594
330
858C
100
AcDbEntity
  8
02実線
100
AcDbLine
 10
-37.0
 20
-28.5
 30
0.0
 11
13.0
 21
-28.5
 31
0.0
  0
LINE
  5
8595
330
858C
100
AcDbEntity
  8
02実線
100
AcDbLine
 10
23.0
 20
-18.5
 30
0.0
 11
23.0
 21
18.5
 31
0.0
  0
ARC
  5
A0C7
330
858C
100
AcDbEntity
  8
08非表示
100
AcDbCircle
 10
-5.0
 20
0.0
 30
0.0
 40
8.0
100
AcDbArc
 50
90.0
 51
270.0
  0
ARC
  5
A0C8
330
858C
100
AcDbEntity
  8
08非表示
100
AcDbCircle
 10
5.0
 20
0.0
 30
0.0
 40
8.0
100
AcDbArc
 50
270.0
 51
90.0
  0
LINE
  5
A0C9
330
858C
100
AcDbEntity
  8
08非表示
100
AcDbLine
 10
5.0
 20
-8.0
 30
0.0
 11
-5.0
 21
-8.0
 31
0.0
  0
LINE
  5
A0CA
330
858C
100
AcDbEntity
  8
08非表示
100
AcDbLine
 10
5.0
 20
8.0
 30
0.0
 11
-5.0
 21
8.0
 31
0.0
  0
ENDBLK
  5
8596
330
858C
100
AcDbEntity
  8
0
100
AcDbBlockEnd
  0
BLOCK
  5
85C6
330
85C5
100
AcDbEntity
  8
0
100
AcDbBlockBegin
  2
BH-レベル調整ボルト
 70
     0
 10
0.0
 20
0.0
 30
0.0
  3
BH-レベル調整ボルト
  1

  0
LINE
  5
85C7
330
85C5
100
AcDbEntity
  8
04一点鎖線
  6
CENTER
 48
0.2
100
AcDbLine
 10
-28.39999999999964
 20
0.0
 30
0.0
 11
13.00000001115222
 21
0.0
 31
0.0
  0
LINE
  5
85C8
330
85C5
100
AcDbEntity
  8
02実線
100
AcDbLine
 10
-23.39999999999964
 20
-4.0
 30
0.0
 11
-17.3000000111515
 21
-4.0
 31
0.0
  0
LINE
  5
85C9
330
85C5
100
AcDbEntity
  8
02実線
100
AcDbLine
 10
-23.39999999999964
 20
4.0
 30
0.0
 11
-17.3000000111515
 21
4.0
 31
0.0
  0
LINE
  5
85CA
330
85C5
100
AcDbEntity
  8
02実線
100
AcDbLine
 10
-23.39999999999964
 20
-4.0
 30
0.0
 11
-23.39999999999964
 21
4.0
 31
0.0
  0
LINE
  5
85CB
330
85C5
100
AcDbEntity
  8
02実線
100
AcDbLine
 10
-22.39999999999964
 20
5.0
 30
0.0
 11
-17.3000000111515
 21
5.0
 31
0.0
  0
LINE
  5
85CC
330
85C5
100
AcDbEntity
  8
02実線
100
AcDbLine
 10
-22.39999999999964
 20
-5.0
 30
0.0
 11
-22.39999999999964
 21
5.0
 31
0.0
  0
LINE
  5
85CD
330
85C5
100
AcDbEntity
  8
02実線
100
AcDbLine
 10
-22.39999999999964
 20
-5.0
 30
0.0
 11
-17.3000000111515
 21
-5.0
 31
0.0
  0
LINE
  5
85CE
330
85C5
100
AcDbEntity
  8
02実線
100
AcDbLine
 10
-23.39999999999964
 20
-4.0
 30
0.0
 11
-22.39999999999964
 21
-5.0
 31
0.0
  0
LINE
  5
85CF
330
85C5
100
AcDbEntity
  8
02実線
100
AcDbLine
 10
-22.39999999999964
 20
5.0
 30
0.0
 11
-23.39999999999964
 21
4.0
 31
0.0
  0
LINE
  5
85D0
330
85C5
100
AcDbEntity
  8
02実線
100
AcDbLine
 10
-7.700000000000728
 20
11.0
 30
0.0
 11
-7.700000000000728
 21
-11.0
 31
0.0
  0
LINE
  5
85D1
330
85C5
100
AcDbEntity
  8
02実線
100
AcDbLine
 10
-9.299999999999272
 20
11.0
 30
0.0
 11
-7.700000000000728
 21
11.0
 31
0.0
  0
LINE
  5
85D2
330
85C5
100
AcDbEntity
  8
02実線
100
AcDbLine
 10
-9.299999999999272
 20
-11.0
 30
0.0
 11
-7.700000000000728
 21
-11.0
 31
0.0
  0
LINE
  5
85D3
330
85C5
100
AcDbEntity
  8
02実線
100
AcDbLine
 10
-9.299999999999272
 20
11.0
 30
0.0
 11
-9.299999999999272
 21
-11.0
 31
0.0
  0
LINE
  5
85D4
330
85C5
100
AcDbEntity
  8
02実線
100
AcDbLine
 10
-9.299999999999272
 20
9.237604307033962
 30
0.0
 11
-9.299999999999272
 21
-9.237604307033962
 31
0.0
  0
ARC
  5
85D5
330
85C5
100
AcDbEntity
  8
02実線
100
AcDbCircle
 10
-12.68119784648297
 20
6.927925269031675
 30
0.0
 40
4.618802164669552
100
AcDbArc
 50
149.9960184984644
 51
209.9960184984832
  0
ARC
  5
85D6
330
85C5
100
AcDbEntity
  8
02実線
100
AcDbCircle
 10
-12.68119784648297
 20
-6.927925269031675
 30
0.0
 40
4.618802164669552
100
AcDbArc
 50
150.0039815015167
 51
210.0039815015356
  0
ARC
  5
85D7
330
85C5
100
AcDbEntity
  8
02実線
100
AcDbCircle
 10
0.2513967268932902
 20
0.0
 30
0.0
 40
17.55139672689282
100
AcDbArc
 50
164.7424308899368
 51
195.2575691100632
  0
LINE
  5
85D8
330
85C5
100
AcDbEntity
  8
02実線
100
AcDbLine
 10
-9.299999999999272
 20
4.618802153516754
 30
0.0
 11
-16.68135832748158
 21
4.618802153516754
 31
0.0
  0
LINE
  5
85D9
330
85C5
100
AcDbEntity
  8
02実線
100
AcDbLine
 10
-17.3000000111515
 20
6.927925269031675
 30
0.0
 11
-17.3000000111515
 21
-6.927925269031675
 31
0.0
  0
LINE
  5
85DA
330
85C5
100
AcDbEntity
  8
02実線
100
AcDbLine
 10
-9.299999999999272
 20
-4.618802153516754
 30
0.0
 11
-16.68135832748158
 21
-4.618802153516754
 31
0.0
  0
LINE
  5
85DB
330
85C5
100
AcDbEntity
  8
02実線
100
AcDbLine
 10
-9.299999999999272
 20
-9.237604307033962
 30
0.0
 11
-16.68103736548437
 21
-9.237604307033962
 31
0.0
  0
LINE
  5
85DC
330
85C5
100
AcDbEntity
  8
02実線
100
AcDbLine
 10
-9.299999999999272
 20
9.237604307033962
 30
0.0
 11
-16.68103736548437
 21
9.237604307033962
 31
0.0
  0
LINE
  5
85DD
330
85C5
100
AcDbEntity
  8
02実線
100
AcDbLine
 10
0.0
 20
-11.0
 30
0.0
 11
1.600000000000364
 21
-11.0
 31
0.0
  0
LINE
  5
85DE
330
85C5
100
AcDbEntity
  8
02実線
100
AcDbLine
 10
0.0
 20
11.0
 30
0.0
 11
1.600000000000364
 21
11.0
 31
0.0
  0
LINE
  5
85DF
330
85C5
100
AcDbEntity
  8
02実線
100
AcDbLine
 10
1.600000000000364
 20
11.0
 30
0.0
 11
1.600000000000364
 21
-11.0
 31
0.0
  0
LINE
  5
85E0
330
85C5
100
AcDbEntity
  8
02実線
100
AcDbLine
 10
0.0
 20
11.0
 30
0.0
 11
0.0
 21
-11.0
 31
0.0
  0
LINE
  5
85E1
330
85C5
100
AcDbEntity
  8
02実線
100
AcDbLine
 10
1.600000000000364
 20
-4.618802153516754
 30
0.0
 11
7.381358327482303
 21
-4.618802153516754
 31
0.0
  0
LINE
  5
85E2
330
85C5
100
AcDbEntity
  8
02実線
100
AcDbLine
 10
1.600000000000364
 20
-9.237604307033962
 30
0.0
 11
7.38103736548328
 21
-9.237604307033962
 31
0.0
  0
LINE
  5
85E3
330
85C5
100
AcDbEntity
  8
02実線
100
AcDbLine
 10
8.000000011152224
 20
6.927925269031675
 30
0.0
 11
8.000000011152224
 21
-6.927925269031675
 31
0.0
  0
LINE
  5
85E4
330
85C5
100
AcDbEntity
  8
02実線
100
AcDbLine
 10
1.600000000000364
 20
4.618802153516754
 30
0.0
 11
7.381358327482303
 21
4.618802153516754
 31
0.0
  0
LINE
  5
85E5
330
85C5
100
AcDbEntity
  8
02実線
100
AcDbLine
 10
1.600000000000364
 20
9.237604307033962
 30
0.0
 11
7.38103736548328
 21
9.237604307033962
 31
0.0
  0
ARC
  5
85E6
330
85C5
100
AcDbEntity
  8
02実線
100
AcDbCircle
 10
-9.551396726892563
 20
0.0
 30
0.0
 40
17.55139672689282
100
AcDbArc
 50
344.7424308899368
 51
15.25756911006317
  0
ARC
  5
85E7
330
85C5
100
AcDbEntity
  8
02実線
100
AcDbCircle
 10
3.381197846481882
 20
-6.927925269031675
 30
0.0
 40
4.618802164669552
100
AcDbArc
 50
329.9960184984644
 51
29.99601849845809
  0
ARC
  5
85E8
330
85C5
100
AcDbEntity
  8
02実線
100
AcDbCircle
 10
3.381197846481882
 20
6.927925269031675
 30
0.0
 40
4.618802164669552
100
AcDbArc
 50
330.0039815015419
 51
30.00398150153562
  0
LINE
  5
85E9
330
85C5
100
AcDbEntity
  8
02実線
100
AcDbLine
 10
1.600000000000364
 20
9.237604307033962
 30
0.0
 11
1.600000000000364
 21
-9.237604307033962
 31
0.0
  0
ENDBLK
  5
85EA
330
85C5
100
AcDbEntity
  8
0
100
AcDbBlockEnd
  0
BLOCK
  5
9929
330
9928
100
AcDbEntity
  8
0
100
AcDbBlockBegin
  2
BH-筋交(柱L60)-500H
 70
     0
 10
0.0
 20
0.0
 30
0.0
  3
BH-筋交(柱L60)-500H
  1

  0
CIRCLE
  5
992B
330
9928
100
AcDbEntity
  8
03破線
100
AcDbCircle
 10
312.2304049160912
 20
250.0243473062876
 30
0.0
 40
6.499999999999988
  0
LINE
  5
992C
330
9928
100
AcDbEntity
  8
03破線
100
AcDbLine
 10
316.5633268549091
 20
268.6110572752962
 30
0.0
 11
-19.0843584298882
 21
-0.1651160789606365
 31
0.0
  0
CIRCLE
  5
992D
330
9928
100
AcDbEntity
  8
03破線
100
AcDbCircle
 10
0.0
 20
0.0
 30
0.0
 40
6.499999999999988
  0
LINE
  5
992E
330
9928
100
AcDbEntity
  8
03破線
100
AcDbLine
 10
-5.458031501695586
 20
-17.18167314688799
 30
0.0
 11
-21.08455320833764
 21
2.332727160368449
 31
0.0
  0
LINE
  5
992F
330
9928
100
AcDbEntity
  8
03破線
100
AcDbLine
 10
314.5631320764578
 20
271.1089005146271
 30
0.0
 11
330.1896537831008
 21
251.5945002073715
 31
0.0
  0
LINE
  5
9930
330
9928
100
AcDbEntity
  8
03破線
100
AcDbLine
 10
330.1896537831008
 20
251.5945002073715
 30
0.0
 11
329.4120780629773
 21
244.5663158045902
 31
0.0
  0
LINE
  5
9931
330
9928
100
AcDbEntity
  8
03破線
100
AcDbLine
 10
1.570152901083929
 20
-17.9592488670105
 30
0.0
 11
-5.458031501695586
 21
-17.18167314688799
 31
0.0
  0
LINE
  5
9932
330
9928
100
AcDbEntity
  8
03破線
100
AcDbLine
 10
329.4120780629773
 20
244.5663158045902
 30
0.0
 11
304.9776628862055
 21
225.0000000000005
 31
0.0
  0
LINE
  5
9933
330
9928
100
AcDbEntity
  8
03破線
100
AcDbLine
 10
-21.08455320833764
 20
2.332727160368449
 30
0.0
 11
30.0
 21
43.23964036371416
 31
0.0
  0
LINE
  5
9934
330
9928
100
AcDbEntity
  8
03破線
100
AcDbLine
 10
256.9823371137927
 20
225.0000000000005
 30
0.0
 11
314.5631320764578
 21
271.1089005146271
 31
0.0
  0
LINE
  5
9935
330
9928
100
AcDbEntity
  8
02実線
100
AcDbLine
 10
304.9776628862055
 20
225.0000000000005
 30
0.0
 11
30.0
 21
4.806483915593844
 31
0.0
  0
LINE
  5
9936
330
9928
100
AcDbEntity
  8
02実線
100
AcDbLine
 10
30.0
 20
43.23964036371416
 30
0.0
 11
256.9823371137927
 21
225.0000000000005
 31
0.0
  0
LINE
  5
9937
330
9928
100
AcDbEntity
  8
03破線
100
AcDbLine
 10
30.0
 20
4.806483915593844
 30
0.0
 11
1.570152901083929
 21
-17.9592488670105
 31
0.0
  0
ENDBLK
  5
992A
330
9928
100
AcDbEntity
  8
0
100
AcDbBlockEnd
  0
BLOCK
  5
BE90
330
BE8F
100
AcDbEntity
  8
0
100
AcDbBlockBegin
  2
*D541
 70
     1
 10
0.0
 20
0.0
 30
0.0
  3
*D541
  1

  0
LINE
  5
BE92
330
BE8F
100
AcDbEntity
  8
08非表示
 62
     0
370
    -2
100
AcDbLine
 10
3099.999999999999
 20
2165.000000000001
 30
0.0
 11
3099.999999999999
 21
2260.000000000001
 31
0.0
  0
LINE
  5
BE93
330
BE8F
100
AcDbEntity
  8
08非表示
 62
     0
370
    -2
100
AcDbLine
 10
3874.999999999999
 20
2165.000000000001
 30
0.0
 11
3874.999999999999
 21
2260.000000000001
 31
0.0
  0
LINE
  5
BE94
330
BE8F
100
AcDbEntity
  8
08非表示
 62
     0
370
    -2
100
AcDbLine
 10
3129.999999999999
 20
2250.000000000001
 30
0.0
 11
3844.999999999999
 21
2250.000000000001
 31
0.0
  0
INSERT
  5
BE95
330
BE8F
100
AcDbEntity
  8
08非表示
 62
     0
370
    -2
100
AcDbBlockReference
  2
_Open
 10
3099.999999999999
 20
2250.000000000001
 30
0.0
 41
30.0
 42
30.0
 43
30.0
 50
180.0
  0
INSERT
  5
BE96
330
BE8F
100
AcDbEntity
  8
08非表示
 62
     0
370
    -2
100
AcDbBlockReference
  2
_Open
 10
3874.999999999999
 20
2250.000000000001
 30
0.0
 41
30.0
 42
30.0
 43
30.0
  0
MTEXT
  5
BE97
330
BE8F
100
AcDbEntity
  8
08非表示
 62
     0
100
AcDbMText
 10
3487.499999999999
 20
2275.000000000001
 30
0.0
 40
30.0
 41
0.0
 71
     5
 72
     1
  1
775
 73
     1
 44
1.0
  0
POINT
  5
BE98
330
BE8F
100
AcDbEntity
  8
Defpoints
 62
     0
100
AcDbPoint
 10
3099.999999999999
 20
2150.000000000001
 30
0.0
  0
POINT
  5
BE99
330
BE8F
100
AcDbEntity
  8
Defpoints
 62
     0
100
AcDbPoint
 10
3874.999999999999
 20
2150.000000000001
 30
0.0
  0
POINT
  5
BE9A
330
BE8F
100
AcDbEntity
  8
Defpoints
 62
     0
100
AcDbPoint
 10
3874.999999999999
 20
2250.000000000001
 30
0.0
  0
ENDBLK
  5
BE91
330
BE8F
100
AcDbEntity
  8
0
100
AcDbBlockEnd
  0
BLOCK
  5
BE9C
330
BE9B
100
AcDbEntity
  8
0
100
AcDbBlockBegin
  2
*D542
 70
     1
 10
0.0
 20
0.0
 30
0.0
  3
*D542
  1

  0
LINE
  5
BE9E
330
BE9B
100
AcDbEntity
  8
13製作用注記
 62
     0
370
    -2
100
AcDbLine
 10
1526.799999999998
 20
1904.000000000001
 30
0.0
 11
1526.799999999998
 21
1954.037128224684
 31
0.0
  0
LINE
  5
BE9F
330
BE9B
100
AcDbEntity
  8
13製作用注記
 62
     0
370
    -2
100
AcDbLine
 10
1496.799999999998
 20
1904.000000000001
 30
0.0
 11
1496.799999999998
 21
1954.037128224684
 31
0.0
  0
LINE
  5
BEA0
330
BE9B
100
AcDbEntity
  8
13製作用注記
 62
     0
370
    -2
100
AcDbLine
 10
1451.799999999998
 20
1939.037128224684
 30
0.0
 11
1323.114999999998
 21
1939.037128224684
 31
0.0
  0
LINE
  5
BEA1
330
BE9B
100
AcDbEntity
  8
13製作用注記
 62
     0
370
    -2
100
AcDbLine
 10
1526.799999999998
 20
1939.037128224684
 30
0.0
 11
1496.799999999998
 21
1939.037128224684
 31
0.0
  0
LINE
  5
BEA2
330
BE9B
100
AcDbEntity
  8
13製作用注記
 62
     0
370
    -2
100
AcDbLine
 10
1571.799999999998
 20
1939.037128224684
 30
0.0
 11
1616.799999999998
 21
1939.037128224684
 31
0.0
  0
INSERT
  5
BEA3
330
BE9B
100
AcDbEntity
  8
13製作用注記
 62
     0
370
    -2
100
AcDbBlockReference
  2
_Open
 10
1526.799999999998
 20
1939.037128224684
 30
0.0
 41
45.0
 42
45.0
 43
45.0
 50
180.0
  0
INSERT
  5
BEA4
330
BE9B
100
AcDbEntity
  8
13製作用注記
 62
     0
370
    -2
100
AcDbBlockReference
  2
_Open
 10
1496.799999999998
 20
1939.037128224684
 30
0.0
 41
45.0
 42
45.0
 43
45.0
  0
MTEXT
  5
BEA5
330
BE9B
100
AcDbEntity
  8
13製作用注記
 62
     0
100
AcDbMText
 10
1364.957499999998
 20
1976.537128224684
 30
0.0
 40
45.0
 41
0.0
 71
     5
 72
     1
  1
30
 73
     1
 44
1.0
  0
POINT
  5
BEA6
330
BE9B
100
AcDbEntity
  8
Defpoints
 62
     0
100
AcDbPoint
 10
1526.799999999998
 20
1881.500000000001
 30
0.0
  0
POINT
  5
BEA7
330
BE9B
100
AcDbEntity
  8
Defpoints
 62
     0
100
AcDbPoint
 10
1496.799999999998
 20
1881.500000000001
 30
0.0
  0
POINT
  5
BEA8
330
BE9B
100
AcDbEntity
  8
Defpoints
 62
     0
100
AcDbPoint
 10
1496.799999999998
 20
1939.037128224684
 30
0.0
  0
ENDBLK
  5
BE9D
330
BE9B
100
AcDbEntity
  8
0
100
AcDbBlockEnd
  0
BLOCK
  5
BEAA
330
BEA9
100
AcDbEntity
  8
0
100
AcDbBlockBegin
  2
*D543
 70
     1
 10
0.0
 20
0.0
 30
0.0
  3
*D543
  1

  0
LINE
  5
BEAC
330
BEA9
100
AcDbEntity
  8
13製作用注記
 62
     0
370
    -2
100
AcDbLine
 10
1474.299999999998
 20
1650.000000000001
 30
0.0
 11
1331.799999999998
 21
1650.000000000001
 31
0.0
  0
LINE
  5
BEAD
330
BEA9
100
AcDbEntity
  8
13製作用注記
 62
     0
370
    -2
100
AcDbLine
 10
1487.799999999998
 20
1865.000000000001
 30
0.0
 11
1331.799999999998
 21
1865.000000000001
 31
0.0
  0
LINE
  5
BEAE
330
BEA9
100
AcDbEntity
  8
13製作用注記
 62
     0
370
    -2
100
AcDbLine
 10
1346.799999999998
 20
1695.000000000001
 30
0.0
 11
1346.799999999998
 21
1820.000000000001
 31
0.0
  0
INSERT
  5
BEAF
330
BEA9
100
AcDbEntity
  8
13製作用注記
 62
     0
370
    -2
100
AcDbBlockReference
  2
_Open
 10
1346.799999999998
 20
1650.000000000001
 30
0.0
 41
45.0
 42
45.0
 43
45.0
 50
270.0
  0
INSERT
  5
BEB0
330
BEA9
100
AcDbEntity
  8
13製作用注記
 62
     0
370
    -2
100
AcDbBlockReference
  2
_Open
 10
1346.799999999998
 20
1865.000000000001
 30
0.0
 41
45.0
 42
45.0
 43
45.0
 50
90.0
  0
MTEXT
  5
BEB1
330
BEA9
100
AcDbEntity
  8
13製作用注記
 62
     0
100
AcDbMText
 10
1309.299999999998
 20
1757.500000000001
 30
0.0
 40
45.0
 41
0.0
 71
     5
 72
     1
  1
215
 11
0.0
 21
1.0
 31
0.0
 73
     1
 44
1.0
  0
POINT
  5
BEB2
330
BEA9
100
AcDbEntity
  8
Defpoints
 62
     0
100
AcDbPoint
 10
1496.799999999998
 20
1650.000000000001
 30
0.0
  0
POINT
  5
BEB3
330
BEA9
100
AcDbEntity
  8
Defpoints
 62
     0
100
AcDbPoint
 10
1510.299999999998
 20
1865.000000000001
 30
0.0
  0
POINT
  5
BEB4
330
BEA9
100
AcDbEntity
  8
Defpoints
 62
     0
100
AcDbPoint
 10
1346.799999999998
 20
1865.000000000001
 30
0.0
  0
ENDBLK
  5
BEAB
330
BEA9
100
AcDbEntity
  8
0
100
AcDbBlockEnd
  0
BLOCK
  5
BEB6
330
BEB5
100
AcDbEntity
  8
0
100
AcDbBlockBegin
  2
*D544
 70
     1
 10
0.0
 20
0.0
 30
0.0
  3
*D544
  1

  0
LINE
  5
BEB8
330
BEB5
100
AcDbEntity
  8
01注記寸法
 62
     0
370
    -2
100
AcDbLine
 10
1474.299999999998
 20
1650.000000000001
 30
0.0
 11
1234.999999999999
 21
1650.000000000001
 31
0.0
  0
LINE
  5
BEB9
330
BEB5
100
AcDbEntity
  8
01注記寸法
 62
     0
370
    -2
100
AcDbLine
 10
1477.499999999999
 20
2150.000000000001
 30
0.0
 11
1234.999999999999
 21
2150.000000000001
 31
0.0
  0
LINE
  5
BEBA
330
BEB5
100
AcDbEntity
  8
01注記寸法
 62
     0
370
    -2
100
AcDbLine
 10
1249.999999999999
 20
1695.000000000001
 30
0.0
 11
1249.999999999999
 21
2105.000000000001
 31
0.0
  0
INSERT
  5
BEBB
330
BEB5
100
AcDbEntity
  8
01注記寸法
 62
     0
370
    -2
100
AcDbBlockReference
  2
_Open
 10
1249.999999999999
 20
1650.000000000001
 30
0.0
 41
45.0
 42
45.0
 43
45.0
 50
270.0
  0
INSERT
  5
BEBC
330
BEB5
100
AcDbEntity
  8
01注記寸法
 62
     0
370
    -2
100
AcDbBlockReference
  2
_Open
 10
1249.999999999999
 20
2150.000000000001
 30
0.0
 41
45.0
 42
45.0
 43
45.0
 50
90.0
  0
MTEXT
  5
BEBD
330
BEB5
100
AcDbEntity
  8
01注記寸法
 62
     0
100
AcDbMText
 10
1212.499999999999
 20
1900.000000000001
 30
0.0
 40
45.0
 41
0.0
 71
     5
 72
     1
  1
500
 11
0.0
 21
1.0
 31
0.0
 73
     1
 44
1.0
  0
POINT
  5
BEBE
330
BEB5
100
AcDbEntity
  8
Defpoints
 62
     0
100
AcDbPoint
 10
1496.799999999998
 20
1650.000000000001
 30
0.0
  0
POINT
  5
BEBF
330
BEB5
100
AcDbEntity
  8
Defpoints
 62
     0
100
AcDbPoint
 10
1499.999999999999
 20
2150.000000000001
 30
0.0
  0
POINT
  5
BEC0
330
BEB5
100
AcDbEntity
  8
Defpoints
 62
     0
100
AcDbPoint
 10
1249.999999999999
 20
2150.000000000001
 30
0.0
  0
ENDBLK
  5
BEB7
330
BEB5
100
AcDbEntity
  8
0
100
AcDbBlockEnd
  0
BLOCK
  5
BEC2
330
BEC1
100
AcDbEntity
  8
0
100
AcDbBlockBegin
  2
*D545
 70
     1
 10
0.0
 20
0.0
 30
0.0
  3
*D545
  1

  0
LINE
  5
BEC4
330
BEC1
100
AcDbEntity
  8
13製作用注記
 62
     0
370
    -2
100
AcDbLine
 10
1877.999999999999
 20
2115.000000000001
 30
0.0
 11
1953.452757210268
 21
2115.000000000001
 31
0.0
  0
LINE
  5
BEC5
330
BEC1
100
AcDbEntity
  8
13製作用注記
 62
     0
370
    -2
100
AcDbLine
 10
1877.999999999999
 20
2150.000000000001
 30
0.0
 11
1953.452757210268
 21
2150.000000000001
 31
0.0
  0
LINE
  5
BEC6
330
BEC1
100
AcDbEntity
  8
13製作用注記
 62
     0
370
    -2
100
AcDbLine
 10
1938.452757210268
 20
2115.000000000001
 30
0.0
 11
1938.452757210268
 21
1942.485000000001
 31
0.0
  0
LINE
  5
BEC7
330
BEC1
100
AcDbEntity
  8
13製作用注記
 62
     0
370
    -2
100
AcDbLine
 10
1938.452757210268
 20
2115.000000000001
 30
0.0
 11
1938.452757210268
 21
2150.000000000001
 31
0.0
  0
LINE
  5
BEC8
330
BEC1
100
AcDbEntity
  8
13製作用注記
 62
     0
370
    -2
100
AcDbLine
 10
1938.452757210268
 20
2070.000000000001
 30
0.0
 11
1938.452757210268
 21
2025.000000000001
 31
0.0
  0
LINE
  5
BEC9
330
BEC1
100
AcDbEntity
  8
13製作用注記
 62
     0
370
    -2
100
AcDbLine
 10
1938.452757210268
 20
2195.000000000001
 30
0.0
 11
1938.452757210268
 21
2240.000000000001
 31
0.0
  0
INSERT
  5
BECA
330
BEC1
100
AcDbEntity
  8
13製作用注記
 62
     0
370
    -2
100
AcDbBlockReference
  2
_Open
 10
1938.452757210268
 20
2115.000000000001
 30
0.0
 41
45.0
 42
45.0
 43
45.0
 50
90.0
  0
INSERT
  5
BECB
330
BEC1
100
AcDbEntity
  8
13製作用注記
 62
     0
370
    -2
100
AcDbBlockReference
  2
_Open
 10
1938.452757210268
 20
2150.000000000001
 30
0.0
 41
45.0
 42
45.0
 43
45.0
 50
270.0
  0
MTEXT
  5
BECC
330
BEC1
100
AcDbEntity
  8
13製作用注記
 62
     0
100
AcDbMText
 10
1900.952757210268
 20
1983.742500000001
 30
0.0
 40
45.0
 41
0.0
 71
     5
 72
     1
  1
35
 11
0.0
 21
1.0
 31
0.0
 73
     1
 44
1.0
  0
POINT
  5
BECD
330
BEC1
100
AcDbEntity
  8
Defpoints
 62
     0
100
AcDbPoint
 10
1855.499999999999
 20
2115.000000000001
 30
0.0
  0
POINT
  5
BECE
330
BEC1
100
AcDbEntity
  8
Defpoints
 62
     0
100
AcDbPoint
 10
1855.499999999999
 20
2150.000000000001
 30
0.0
  0
POINT
  5
BECF
330
BEC1
100
AcDbEntity
  8
Defpoints
 62
     0
100
AcDbPoint
 10
1938.452757210268
 20
2150.000000000001
 30
0.0
  0
ENDBLK
  5
BEC3
330
BEC1
100
AcDbEntity
  8
0
100
AcDbBlockEnd
  0
BLOCK
  5
BEE0
330
BEDF
100
AcDbEntity
  8
0
100
AcDbBlockBegin
  2
*D547
 70
     1
 10
0.0
 20
0.0
 30
0.0
  3
*D547
  1

  0
LINE
  5
BEE2
330
BEDF
100
AcDbEntity
  8
13製作用注記
 62
     0
370
    -2
100
AcDbLine
 10
1499.999999999999
 20
2172.500000000001
 30
0.0
 11
1499.999999999999
 21
2235.000000000001
 31
0.0
  0
LINE
  5
BEE3
330
BEDF
100
AcDbEntity
  8
13製作用注記
 62
     0
370
    -2
100
AcDbLine
 10
1838.999999999999
 20
2154.000000000001
 30
0.0
 11
1838.999999999999
 21
2235.000000000001
 31
0.0
  0
LINE
  5
BEE4
330
BEDF
100
AcDbEntity
  8
13製作用注記
 62
     0
370
    -2
100
AcDbLine
 10
1544.999999999999
 20
2220.000000000001
 30
0.0
 11
1793.999999999999
 21
2220.000000000001
 31
0.0
  0
INSERT
  5
BEE5
330
BEDF
100
AcDbEntity
  8
13製作用注記
 62
     0
370
    -2
100
AcDbBlockReference
  2
_Open
 10
1499.999999999999
 20
2220.000000000001
 30
0.0
 41
45.0
 42
45.0
 43
45.0
 50
180.0
  0
INSERT
  5
BEE6
330
BEDF
100
AcDbEntity
  8
13製作用注記
 62
     0
370
    -2
100
AcDbBlockReference
  2
_Open
 10
1838.999999999999
 20
2220.000000000001
 30
0.0
 41
45.0
 42
45.0
 43
45.0
  0
MTEXT
  5
BEE7
330
BEDF
100
AcDbEntity
  8
13製作用注記
 62
     0
100
AcDbMText
 10
1669.499999999999
 20
2257.500000000001
 30
0.0
 40
45.0
 41
0.0
 71
     5
 72
     1
  1
339
 73
     1
 44
1.0
  0
POINT
  5
BEE8
330
BEDF
100
AcDbEntity
  8
Defpoints
 62
     0
100
AcDbPoint
 10
1499.999999999999
 20
2150.000000000001
 30
0.0
  0
POINT
  5
BEE9
330
BEDF
100
AcDbEntity
  8
Defpoints
 62
     0
100
AcDbPoint
 10
1838.999999999999
 20
2131.500000000001
 30
0.0
  0
POINT
  5
BEEA
330
BEDF
100
AcDbEntity
  8
Defpoints
 62
     0
100
AcDbPoint
 10
1838.999999999999
 20
2220.000000000001
 30
0.0
  0
ENDBLK
  5
BEE1
330
BEDF
100
AcDbEntity
  8
0
100
AcDbBlockEnd
  0
BLOCK
  5
BEEC
330
BEEB
100
AcDbEntity
  8
0
100
AcDbBlockBegin
  2
*D548
 70
     1
 10
0.0
 20
0.0
 30
0.0
  3
*D548
  1

  0
LINE
  5
BEEE
330
BEEB
100
AcDbEntity
  8
13製作用注記
 62
     0
370
    -2
100
AcDbLine
 10
1838.999999999999
 20
2154.000000000001
 30
0.0
 11
1838.999999999999
 21
2235.000000000001
 31
0.0
  0
LINE
  5
BEEF
330
BEEB
100
AcDbEntity
  8
13製作用注記
 62
     0
370
    -2
100
AcDbLine
 10
2110.999999999999
 20
2154.000000000001
 30
0.0
 11
2110.999999999999
 21
2235.000000000001
 31
0.0
  0
LINE
  5
BEF0
330
BEEB
100
AcDbEntity
  8
13製作用注記
 62
     0
370
    -2
100
AcDbLine
 10
1883.999999999999
 20
2220.000000000001
 30
0.0
 11
2065.999999999999
 21
2220.000000000001
 31
0.0
  0
INSERT
  5
BEF1
330
BEEB
100
AcDbEntity
  8
13製作用注記
 62
     0
370
    -2
100
AcDbBlockReference
  2
_Open
 10
1838.999999999999
 20
2220.000000000001
 30
0.0
 41
45.0
 42
45.0
 43
45.0
 50
180.0
  0
INSERT
  5
BEF2
330
BEEB
100
AcDbEntity
  8
13製作用注記
 62
     0
370
    -2
100
AcDbBlockReference
  2
_Open
 10
2110.999999999999
 20
2220.000000000001
 30
0.0
 41
45.0
 42
45.0
 43
45.0
  0
MTEXT
  5
BEF3
330
BEEB
100
AcDbEntity
  8
13製作用注記
 62
     0
100
AcDbMText
 10
1974.999999999999
 20
2257.500000000001
 30
0.0
 40
45.0
 41
0.0
 71
     5
 72
     1
  1
272
 73
     1
 44
1.0
  0
POINT
  5
BEF4
330
BEEB
100
AcDbEntity
  8
Defpoints
 62
     0
100
AcDbPoint
 10
1838.999999999999
 20
2131.500000000001
 30
0.0
  0
POINT
  5
BEF5
330
BEEB
100
AcDbEntity
  8
Defpoints
 62
     0
100
AcDbPoint
 10
2110.999999999999
 20
2131.500000000001
 30
0.0
  0
POINT
  5
BEF6
330
BEEB
100
AcDbEntity
  8
Defpoints
 62
     0
100
AcDbPoint
 10
2110.999999999999
 20
2220.000000000001
 30
0.0
  0
ENDBLK
  5
BEED
330
BEEB
100
AcDbEntity
  8
0
100
AcDbBlockEnd
  0
BLOCK
  5
BF10
330
BF0F
100
AcDbEntity
  8
0
100
AcDbBlockBegin
  2
*D551
 70
     1
 10
0.0
 20
0.0
 30
0.0
  3
*D551
  1

  0
LINE
  5
BF12
330
BF0F
100
AcDbEntity
  8
13製作用注記
 62
     0
370
    -2
100
AcDbLine
 10
2110.999999999999
 20
2154.000000000001
 30
0.0
 11
2110.999999999999
 21
2235.000000000001
 31
0.0
  0
LINE
  5
BF13
330
BF0F
100
AcDbEntity
  8
13製作用注記
 62
     0
370
    -2
100
AcDbLine
 10
2449.999999999999
 20
2172.500000000001
 30
0.0
 11
2449.999999999999
 21
2235.000000000001
 31
0.0
  0
LINE
  5
BF14
330
BF0F
100
AcDbEntity
  8
13製作用注記
 62
     0
370
    -2
100
AcDbLine
 10
2155.999999999999
 20
2220.000000000001
 30
0.0
 11
2404.999999999999
 21
2220.000000000001
 31
0.0
  0
INSERT
  5
BF15
330
BF0F
100
AcDbEntity
  8
13製作用注記
 62
     0
370
    -2
100
AcDbBlockReference
  2
_Open
 10
2110.999999999999
 20
2220.000000000001
 30
0.0
 41
45.0
 42
45.0
 43
45.0
 50
180.0
  0
INSERT
  5
BF16
330
BF0F
100
AcDbEntity
  8
13製作用注記
 62
     0
370
    -2
100
AcDbBlockReference
  2
_Open
 10
2449.999999999999
 20
2220.000000000001
 30
0.0
 41
45.0
 42
45.0
 43
45.0
  0
MTEXT
  5
BF17
330
BF0F
100
AcDbEntity
  8
13製作用注記
 62
     0
100
AcDbMText
 10
2280.499999999999
 20
2257.500000000001
 30
0.0
 40
45.0
 41
0.0
 71
     5
 72
     1
  1
339
 73
     1
 44
1.0
  0
POINT
  5
BF18
330
BF0F
100
AcDbEntity
  8
Defpoints
 62
     0
100
AcDbPoint
 10
2110.999999999999
 20
2131.500000000001
 30
0.0
  0
POINT
  5
BF19
330
BF0F
100
AcDbEntity
  8
Defpoints
 62
     0
100
AcDbPoint
 10
2449.999999999999
 20
2150.000000000001
 30
0.0
  0
POINT
  5
BF1A
330
BF0F
100
AcDbEntity
  8
Defpoints
 62
     0
100
AcDbPoint
 10
2449.999999999999
 20
2220.000000000001
 30
0.0
  0
ENDBLK
  5
BF11
330
BF0F
100
AcDbEntity
  8
0
100
AcDbBlockEnd
  0
BLOCK
  5
BF1C
330
BF1B
100
AcDbEntity
  8
0
100
AcDbBlockBegin
  2
*D552
 70
     1
 10
0.0
 20
0.0
 30
0.0
  3
*D552
  1

  0
LINE
  5
BF1E
330
BF1B
100
AcDbEntity
  8
01注記寸法
 62
     0
370
    -2
100
AcDbLine
 10
3072.799999999998
 20
1650.000000000003
 30
0.0
 11
2933.499999999999
 21
1650.000000000003
 31
0.0
  0
LINE
  5
BF1F
330
BF1B
100
AcDbEntity
  8
01注記寸法
 62
     0
370
    -2
100
AcDbLine
 10
3083.500000000001
 20
1900.000000000001
 30
0.0
 11
2933.499999999999
 21
1900.000000000001
 31
0.0
  0
LINE
  5
BF20
330
BF1B
100
AcDbEntity
  8
01注記寸法
 62
     0
370
    -2
100
AcDbLine
 10
2948.499999999999
 20
1695.000000000003
 30
0.0
 11
2948.499999999999
 21
1855.000000000001
 31
0.0
  0
INSERT
  5
BF21
330
BF1B
100
AcDbEntity
  8
01注記寸法
 62
     0
370
    -2
100
AcDbBlockReference
  2
_Open
 10
2948.499999999999
 20
1650.000000000003
 30
0.0
 41
45.0
 42
45.0
 43
45.0
 50
270.0
  0
INSERT
  5
BF22
330
BF1B
100
AcDbEntity
  8
01注記寸法
 62
     0
370
    -2
100
AcDbBlockReference
  2
_Open
 10
2948.499999999999
 20
1900.000000000001
 30
0.0
 41
45.0
 42
45.0
 43
45.0
 50
90.0
  0
MTEXT
  5
BF23
330
BF1B
100
AcDbEntity
  8
01注記寸法
 62
     0
100
AcDbMText
 10
2910.999999999999
 20
1775.000000000002
 30
0.0
 40
45.0
 41
0.0
 71
     5
 72
     1
  1
250
 11
0.0
 21
1.0
 31
0.0
 73
     1
 44
1.0
  0
POINT
  5
BF24
330
BF1B
100
AcDbEntity
  8
Defpoints
 62
     0
100
AcDbPoint
 10
3095.299999999998
 20
1650.000000000003
 30
0.0
  0
POINT
  5
BF25
330
BF1B
100
AcDbEntity
  8
Defpoints
 62
     0
100
AcDbPoint
 10
3106.000000000001
 20
1900.000000000001
 30
0.0
  0
POINT
  5
BF26
330
BF1B
100
AcDbEntity
  8
Defpoints
 62
     0
100
AcDbPoint
 10
2948.499999999999
 20
1900.000000000001
 30
0.0
  0
ENDBLK
  5
BF1D
330
BF1B
100
AcDbEntity
  8
0
100
AcDbBlockEnd
  0
BLOCK
  5
D6F2
330
D6F1
100
AcDbEntity
  8
0
100
AcDbBlockBegin
  2
*D825
 70
     1
 10
0.0
 20
0.0
 30
0.0
  3
*D825
  1

  0
LINE
  5
D6F4
330
D6F1
100
AcDbEntity
  8
01注記寸法
 62
     0
370
    -2
100
AcDbLine
 10
4498.418814455152
 20
433.7004795614739
 30
0.0
 11
4377.529669687498
 21
433.7004795614739
 31
0.0
  0
LINE
  5
D6F5
330
D6F1
100
AcDbEntity
  8
01注記寸法
 62
     0
370
    -2
100
AcDbLine
 10
4498.418814455152
 20
298.7004795614698
 30
0.0
 11
4377.529669687498
 21
298.7004795614698
 31
0.0
  0
LINE
  5
D6F6
330
D6F1
100
AcDbEntity
  8
01注記寸法
 62
     0
370
    -2
100
AcDbLine
 10
4392.529669687498
 20
433.7004795614739
 30
0.0
 11
4392.529669687498
 21
738.7854795614744
 31
0.0
  0
LINE
  5
D6F7
330
D6F1
100
AcDbEntity
  8
01注記寸法
 62
     0
370
    -2
100
AcDbLine
 10
4392.529669687498
 20
388.7004795614739
 30
0.0
 11
4392.529669687498
 21
343.7004795614698
 31
0.0
  0
INSERT
  5
D6F8
330
D6F1
100
AcDbEntity
  8
01注記寸法
 62
     0
370
    -2
100
AcDbBlockReference
  2
_Open
 10
4392.529669687498
 20
433.7004795614739
 30
0.0
 41
45.0
 42
45.0
 43
45.0
 50
90.0
  0
INSERT
  5
D6F9
330
D6F1
100
AcDbEntity
  8
01注記寸法
 62
     0
370
    -2
100
AcDbBlockReference
  2
_Open
 10
4392.529669687498
 20
298.7004795614698
 30
0.0
 41
45.0
 42
45.0
 43
45.0
 50
270.0
  0
MTEXT
  5
D6FA
330
D6F1
100
AcDbEntity
  8
01注記寸法
 62
     0
100
AcDbMText
 10
4355.029669687498
 20
608.7429795614748
 30
0.0
 40
45.0
 41
0.0
 71
     5
 72
     1
  1
MAX 30mm
 11
0.0
 21
1.0
 31
0.0
 73
     1
 44
1.0
  0
POINT
  5
D6FB
330
D6F1
100
AcDbEntity
  8
Defpoints
 62
     0
100
AcDbPoint
 10
4520.918814455152
 20
433.7004795614739
 30
0.0
  0
POINT
  5
D6FC
330
D6F1
100
AcDbEntity
  8
Defpoints
 62
     0
100
AcDbPoint
 10
4520.918814455152
 20
298.7004795614698
 30
0.0
  0
POINT
  5
D6FD
330
D6F1
100
AcDbEntity
  8
Defpoints
 62
     0
100
AcDbPoint
 10
4392.529669687498
 20
298.7004795614698
 30
0.0
  0
ENDBLK
  5
D6F3
330
D6F1
100
AcDbEntity
  8
0
100
AcDbBlockEnd
  0
BLOCK
  5
F6A9
330
F690
100
AcDbEntity
  8
0
100
AcDbBlockBegin
  2
BH-組立ボルトセット
 70
     0
 10
0.0
 20
0.0
 30
0.0
  3
BH-組立ボルトセット
  1

  0
LINE
  5
F691
330
F690
100
AcDbEntity
  8
10副資材
100
AcDbLine
 10
-15.0
 20
9.237604307034417
 30
0.0
 11
-8.0
 21
9.237604307034417
 31
0.0
  0
LINE
  5
F692
330
F690
100
AcDbEntity
  8
10副資材
100
AcDbLine
 10
-8.0
 20
9.237604307034417
 30
0.0
 11
-8.0
 21
-9.237604307034417
 31
0.0
  0
LINE
  5
F693
330
F690
100
AcDbEntity
  8
10副資材
100
AcDbLine
 10
-15.0
 20
-9.237604307034417
 30
0.0
 11
-8.0
 21
-9.237604307034417
 31
0.0
  0
LINE
  5
F694
330
F690
100
AcDbEntity
  8
10副資材
100
AcDbLine
 10
-16.0
 20
6.928203230274448
 30
0.0
 11
-16.0
 21
-6.928203230274448
 31
0.0
  0
LINE
  5
F695
330
F690
100
AcDbEntity
  8
10副資材
100
AcDbLine
 10
-15.0
 20
4.618802153516299
 30
0.0
 11
-8.0
 21
4.618802153516299
 31
0.0
  0
LINE
  5
F696
330
F690
100
AcDbEntity
  8
10副資材
100
AcDbLine
 10
-15.0
 20
-4.618802153516299
 30
0.0
 11
-8.0
 21
-4.618802153516299
 31
0.0
  0
ARC
  5
F697
330
F690
100
AcDbEntity
  8
10副資材
100
AcDbCircle
 10
-4.833333333332121
 20
0.0
 30
0.0
 40
11.16666666666642
100
AcDbArc
 50
155.5673023205475
 51
204.4326976794525
  0
ARC
  5
F698
330
F690
100
AcDbEntity
  8
10副資材
100
AcDbCircle
 10
-12.83333333333212
 20
6.928203230274448
 30
0.0
 40
3.166666666666948
100
AcDbArc
 50
133.173551107244
 51
226.8264488927094
  0
ARC
  5
F699
330
F690
100
AcDbEntity
  8
10副資材
100
AcDbCircle
 10
-12.83333333333212
 20
-6.928203230274448
 30
0.0
 40
3.166666666666948
100
AcDbArc
 50
133.1735511072906
 51
226.826448892756
  0
LWPOLYLINE
  5
F69A
330
F690
100
AcDbEntity
  8
10副資材
100
AcDbPolyline
 90
        4
 70
     1
 43
0.0
 10
-8.0
 20
-14.0
 10
-8.0
 20
14.0
 10
-6.399999999999636
 20
14.0
 10
-6.399999999999636
 20
-14.0
  0
LINE
  5
F69B
330
F690
100
AcDbEntity
  8
10副資材
100
AcDbLine
 10
7.000000000001819
 20
9.237604307034417
 30
0.0
 11
1.600000000000364
 21
9.237604307034417
 31
0.0
  0
LINE
  5
F69C
330
F690
100
AcDbEntity
  8
10副資材
100
AcDbLine
 10
1.600000000000364
 20
9.237604307034417
 30
0.0
 11
1.600000000000364
 21
-9.237604307034417
 31
0.0
  0
LINE
  5
F69D
330
F690
100
AcDbEntity
  8
10副資材
100
AcDbLine
 10
7.000000000001819
 20
-9.237604307034417
 30
0.0
 11
1.600000000000364
 21
-9.237604307034417
 31
0.0
  0
LINE
  5
F69E
330
F690
100
AcDbEntity
  8
10副資材
100
AcDbLine
 10
8.000000000001819
 20
6.928203230274448
 30
0.0
 11
8.000000000001819
 21
-6.928203230274448
 31
0.0
  0
LINE
  5
F69F
330
F690
100
AcDbEntity
  8
10副資材
100
AcDbLine
 10
7.000000000001819
 20
4.618802153516299
 30
0.0
 11
1.600000000000364
 21
4.618802153516299
 31
0.0
  0
LINE
  5
F6A0
330
F690
100
AcDbEntity
  8
10副資材
100
AcDbLine
 10
7.000000000001819
 20
-4.618802153516299
 30
0.0
 11
1.600000000000364
 21
-4.618802153516299
 31
0.0
  0
ARC
  5
F6A1
330
F690
100
AcDbEntity
  8
10副資材
100
AcDbCircle
 10
-3.16666666666606
 20
0.0
 30
0.0
 40
11.16666666666642
100
AcDbArc
 50
335.5673023205475
 51
24.43269767945252
  0
ARC
  5
F6A2
330
F690
100
AcDbEntity
  8
10副資材
100
AcDbCircle
 10
4.83333333333394
 20
6.928203230274448
 30
0.0
 40
3.166666666666948
100
AcDbArc
 50
313.1735511072793
 51
46.82644889276722
  0
ARC
  5
F6A3
330
F690
100
AcDbEntity
  8
10副資材
100
AcDbCircle
 10
4.83333333333394
 20
-6.928203230274448
 30
0.0
 40
3.166666666666948
100
AcDbArc
 50
313.1735511072328
 51
46.8264488927207
  0
LWPOLYLINE
  5
F6A4
330
F690
100
AcDbEntity
  8
10副資材
100
AcDbPolyline
 90
        4
 70
     1
 43
0.0
 10
0.0
 20
-14.0
 10
0.0
 20
14.0
 10
1.600000000000364
 20
14.0
 10
1.600000000000364
 20
-14.0
  0
LWPOLYLINE
  5
F6A5
330
F690
100
AcDbEntity
  8
10副資材
100
AcDbPolyline
 90
        6
 70
     1
 43
0.0
 10
-25.0
 20
-4.0
 10
-25.0
 20
4.0
 10
-24.0
 20
5.0
 10
0.0
 20
5.0
 10
0.0
 20
-5.0
 10
-24.0
 20
-5.0
  0
LINE
  5
F6A6
330
F690
100
AcDbEntity
  8
10副資材
100
AcDbLine
 10
-24.0
 20
5.0
 30
0.0
 11
-24.0
 21
-5.0
 31
0.0
  0
LINE
  5
F6A7
330
F690
100
AcDbEntity
  8
10副資材
100
AcDbLine
 10
-25.0
 20
4.0
 30
0.0
 11
0.0
 21
4.0
 31
0.0
  0
LINE
  5
F6A8
330
F690
100
AcDbEntity
  8
10副資材
100
AcDbLine
 10
-25.0
 20
-4.0
 30
0.0
 11
0.0
 21
-4.0
 31
0.0
  0
ENDBLK
  5
F6AA
330
F690
100
AcDbEntity
  8
0
100
AcDbBlockEnd
  0
BLOCK
  5
F6DB
330
F6DA
100
AcDbEntity
  8
0
100
AcDbBlockBegin
  2
BH-筋交(柱L60)-500H-平面
 70
     0
 10
0.0
 20
0.0
 30
0.0
  3
BH-筋交(柱L60)-500H-平面
  1

  0
LWPOLYLINE
  5
F6DD
330
F6DA
100
AcDbEntity
  8
08非表示
100
AcDbPolyline
 90
        4
 70
     1
 43
0.0
 10
-351.8422019590198
 20
0.0
 10
-351.8422019590198
 20
15.0
 10
-0.5679949675813987
 20
15.0
 10
-0.5679949675813987
 20
0.0
  0
LINE
  5
F6DE
330
F6DA
100
AcDbEntity
  8
08非表示
100
AcDbLine
 10
-0.5679949675813987
 20
3.199999999999818
 30
0.0
 11
-351.8422019590198
 21
3.199999999999818
 31
0.0
  0
ENDBLK
  5
F6DC
330
F6DA
100
AcDbEntity
  8
0
100
AcDbBlockEnd
  0
BLOCK
  5
F975
330
F974
100
AcDbEntity
  8
0
100
AcDbBlockBegin
  2
RAS-AP140SG他
 70
     0
 10
0.0
 20
0.0
 30
0.0
  3
RAS-AP140SG他
  1

  0
CIRCLE
  5
F976
330
F974
100
AcDbEntity
  8
11機器
100
AcDbCircle
 10
409.0
 20
311.9999999999995
 30
0.0
 40
30.0
  0
TEXT
  5
F977
330
F974
100
AcDbEntity
  8
11機器
100
AcDbText
 10
399.25
 20
296.9999999999995
 30
0.0
 40
30.0
  1
G
 72
     1
 11
409.0
 21
311.9999999999995
 31
0.0
100
AcDbText
 73
     2
  0
DIMENSION
  5
F978
330
F974
100
AcDbEntity
  8
11機器
100
AcDbDimension
  2
*D1222
 10
524.4933986609922
 20
-18.0
 30
0.0
 11
499.4933986609922
 21
146.9999999999998
 31
0.0
 70
    32
 71
     5
 42
329.9999999999995
  3
NEMY-10
100
AcDbAlignedDimension
 13
439.0
 23
311.9999999999995
 33
0.0
 14
439.0
 24
-18.0
 34
0.0
 50
90.0
100
AcDbRotatedDimension
  0
DIMENSION
  5
F985
330
F974
100
AcDbEntity
  8
11機器
100
AcDbDimension
  2
*D1223
 10
-131.0
 20
412.9417519735402
 30
0.0
 11
139.0
 21
437.9417519735402
 31
0.0
 70
    32
 71
     5
 42
540.0
  3
NEMY-10
100
AcDbAlignedDimension
 13
409.0
 23
341.9999999999995
 33
0.0
 14
-131.0
 24
341.9999999999995
 34
0.0
100
AcDbRotatedDimension
  0
LINE
  5
F992
330
F974
100
AcDbEntity
  8
11機器
100
AcDbLine
 10
-130.0
 20
-2.299999999999727
 30
0.0
 11
-130.0
 21
731.9999999999995
 31
0.0
  0
LINE
  5
F993
330
F974
100
AcDbEntity
  8
11機器
100
AcDbLine
 10
818.0000129999999
 20
-2.299999999999727
 30
0.0
 11
818.0000129999999
 21
731.9999999999995
 31
0.0
  0
LINE
  5
F994
330
F974
100
AcDbEntity
  8
11機器
100
AcDbLine
 10
-127.3000000000002
 20
-2.0
 30
0.0
 11
-127.3000000000002
 21
-5.400000000000091
 31
0.0
  0
LINE
  5
F995
330
F974
100
AcDbEntity
  8
11機器
100
AcDbLine
 10
781.9474879999998
 20
746.7006779999997
 30
0.0
 11
778.600031
 21
746.7006779999997
 31
0.0
  0
LINE
  5
F996
330
F974
100
AcDbEntity
  8
11機器
100
AcDbLine
 10
-90.59998900000028
 20
747.0000130000003
 30
0.0
 11
778.600031
 21
747.0000130000003
 31
0.0
  0
LINE
  5
F997
330
F974
100
AcDbEntity
  8
11機器
100
AcDbLine
 10
-90.59998900000028
 20
747.0000130000003
 30
0.0
 11
-90.59998900000028
 21
744.3999989999998
 31
0.0
  0
LINE
  5
F998
330
F974
100
AcDbEntity
  8
11機器
100
AcDbLine
 10
-93.80087800000001
 20
746.6006620000003
 30
0.0
 11
-90.59998900000028
 21
746.6006620000003
 31
0.0
  0
ARC
  5
F999
330
F974
100
AcDbEntity
  8
11機器
100
AcDbCircle
 10
-95.0
 20
744.9999999999995
 30
0.0
 40
2.0
100
AcDbArc
 50
0.0
 51
90.0
  0
ARC
  5
F99A
330
F974
100
AcDbEntity
  8
11機器
100
AcDbCircle
 10
-95.0
 20
744.9999999999995
 30
0.0
 40
1.0
100
AcDbArc
 50
0.0
 51
90.0
  0
ARC
  5
F99B
330
F974
100
AcDbEntity
  8
11機器
100
AcDbCircle
 10
-88.80000000000018
 20
743.7999999999997
 30
0.0
 40
3.2
100
AcDbArc
 50
124.2285849999954
 51
169.1930769999993
  0
ARC
  5
F99C
330
F974
100
AcDbEntity
  8
11機器
100
AcDbCircle
 10
-116.0
 20
731.9999999999995
 30
0.0
 40
14.0
100
AcDbArc
 50
90.0
 51
180.0
  0
LINE
  5
F99D
330
F974
100
AcDbEntity
  8
11機器
100
AcDbLine
 10
-127.2999870000003
 20
734.4000080000001
 30
0.0
 11
-117.2999879999998
 21
744.3999989999998
 31
0.0
  0
LINE
  5
F99E
330
F974
100
AcDbEntity
  8
11機器
100
AcDbLine
 10
-117.2999879999998
 20
744.3999989999998
 30
0.0
 11
-90.59998900000028
 21
744.3999989999998
 31
0.0
  0
LINE
  5
F99F
330
F974
100
AcDbEntity
  8
11機器
100
AcDbLine
 10
-116.0
 20
746.0000260000002
 30
0.0
 11
-95.0
 21
746.0000260000002
 31
0.0
  0
LINE
  5
F9A0
330
F974
100
AcDbEntity
  8
11機器
100
AcDbLine
 10
-94.00000199999977
 20
744.9999789999997
 30
0.0
 11
-94.00000199999977
 21
744.3999989999998
 31
0.0
  0
LINE
  5
F9A1
330
F974
100
AcDbEntity
  8
11機器
100
AcDbLine
 10
-93.0
 20
744.9999789999997
 30
0.0
 11
-93.0
 21
744.3999989999998
 31
0.0
  0
LINE
  5
F9A2
330
F974
100
AcDbEntity
  8
11機器
100
AcDbLine
 10
-129.8999869999998
 20
730.99998
 30
0.0
 11
-127.2999870000003
 21
730.99998
 31
0.0
  0
LINE
  5
F9A3
330
F974
100
AcDbEntity
  8
11機器
100
AcDbLine
 10
-127.2999870000003
 20
730.99998
 30
0.0
 11
-127.2999870000003
 21
734.4000080000001
 31
0.0
  0
LINE
  5
F9A4
330
F974
100
AcDbEntity
  8
11機器
100
AcDbLine
 10
-90.70787699999983
 20
744.3999989999998
 30
0.0
 11
-90.64775800000007
 21
744.5653420000003
 31
0.0
  0
LINE
  5
F9A5
330
F974
100
AcDbEntity
  8
11機器
100
AcDbLine
 10
-90.64775800000007
 20
744.5653420000003
 30
0.0
 11
-90.59998900000028
 21
744.6717960000001
 31
0.0
  0
LINE
  5
F9A6
330
F974
100
AcDbEntity
  8
11機器
100
AcDbLine
 10
-116.0
 20
746.9999999999995
 30
0.0
 11
-95.0
 21
747.0000130000003
 31
0.0
  0
LINE
  5
F9A7
330
F974
100
AcDbEntity
  8
11機器
100
AcDbLine
 10
-96.19998699999996
 20
-15.40000000000009
 30
0.0
 11
-96.19998699999996
 21
-17.29999999999973
 31
0.0
  0
ARC
  5
F9A8
330
F974
100
AcDbEntity
  8
11機器
100
AcDbCircle
 10
-96.19998699999996
 20
-15.29999999999973
 30
0.0
 40
1.0
100
AcDbArc
 50
185.7391700000131
 51
270.0
  0
LINE
  5
F9A9
330
F974
100
AcDbEntity
  8
11機器
100
AcDbLine
 10
784.40004
 20
-15.40000000000009
 30
0.0
 11
784.40004
 21
-17.29999999999973
 31
0.0
  0
LINE
  5
F9AA
330
F974
100
AcDbEntity
  8
11機器
100
AcDbLine
 10
786.200041
 20
-15.5
 30
0.0
 11
786.200041
 21
-15.40000000000009
 31
0.0
  0
LINE
  5
F9AB
330
F974
100
AcDbEntity
  8
11機器
100
AcDbLine
 10
785.4000270000001
 20
-15.5
 30
0.0
 11
785.4000270000001
 21
-15.40000000000009
 31
0.0
  0
ARC
  5
F9AC
330
F974
100
AcDbEntity
  8
11機器
100
AcDbCircle
 10
784.400013
 20
-15.5
 30
0.0
 40
1.8
100
AcDbArc
 50
270.0
 51
0.0
  0
ARC
  5
F9AD
330
F974
100
AcDbEntity
  8
11機器
100
AcDbCircle
 10
784.400013
 20
-15.5
 30
0.0
 40
1.0
100
AcDbArc
 50
270.0
 51
0.0
  0
ARC
  5
F9AE
330
F974
100
AcDbEntity
  8
11機器
100
AcDbCircle
 10
-96.39998699999978
 20
-15.5
 30
0.0
 40
1.8
100
AcDbArc
 50
180.0
 51
270.0
  0
ARC
  5
F9AF
330
F974
100
AcDbEntity
  8
11機器
100
AcDbCircle
 10
777.0
 20
743.7999999999997
 30
0.0
 40
3.2
100
AcDbArc
 50
10.8069230000007
 51
59.99973100000695
  0
ARC
  5
F9B0
330
F974
100
AcDbEntity
  8
11機器
100
AcDbCircle
 10
777.0
 20
743.7999999999997
 30
0.0
 40
2.0
100
AcDbArc
 50
17.45760300000483
 51
36.86927700001889
  0
ARC
  5
F9B1
330
F974
100
AcDbEntity
  8
11機器
100
AcDbCircle
 10
-116.0
 20
731.9999999999995
 30
0.0
 40
15.0
100
AcDbArc
 50
90.0
 51
180.0
  0
ARC
  5
F9B2
330
F974
100
AcDbEntity
  8
11機器
100
AcDbCircle
 10
783.0000129999999
 20
744.9999999999995
 30
0.0
 40
1.0
100
AcDbArc
 50
90.0
 51
180.0
  0
ARC
  5
F9B3
330
F974
100
AcDbEntity
  8
11機器
100
AcDbCircle
 10
783.0000129999999
 20
744.9999999999995
 30
0.0
 40
2.0
100
AcDbArc
 50
90.00074699998663
 51
180.0
  0
ARC
  5
F9B4
330
F974
100
AcDbEntity
  8
11機器
100
AcDbCircle
 10
804.0000129999999
 20
731.9999999999995
 30
0.0
 40
14.0
100
AcDbArc
 50
0.0
 51
90.0
  0
ARC
  5
F9B5
330
F974
100
AcDbEntity
  8
11機器
100
AcDbCircle
 10
804.0000129999999
 20
731.9999999999995
 30
0.0
 40
15.0
100
AcDbArc
 50
0.0
 51
90.0
  0
LINE
  5
F9B6
330
F974
100
AcDbEntity
  8
11機器
100
AcDbLine
 10
804.0000140000002
 20
746.0000260000002
 30
0.0
 11
782.9999870000001
 21
746.0000260000002
 31
0.0
  0
LINE
  5
F9B7
330
F974
100
AcDbEntity
  8
11機器
100
AcDbLine
 10
781.9999990000001
 20
744.9999789999997
 30
0.0
 11
781.9999990000001
 21
744.3999989999998
 31
0.0
  0
LINE
  5
F9B8
330
F974
100
AcDbEntity
  8
11機器
100
AcDbLine
 10
781.000012
 20
744.9999789999997
 30
0.0
 11
781.000012
 21
744.3999989999998
 31
0.0
  0
ARC
  5
F9B9
330
F974
100
AcDbEntity
  8
11機器
100
AcDbCircle
 10
791.0000129999999
 20
-15.29999999999973
 30
0.0
 40
2.0
100
AcDbArc
 50
182.8659840000097
 51
270.0
  0
LINE
  5
F9BA
330
F974
100
AcDbEntity
  8
11機器
100
AcDbLine
 10
778.599972
 20
-17.29999999999973
 30
0.0
 11
784.40004
 21
-17.29999999999973
 31
0.0
  0
ARC
  5
F9BB
330
F974
100
AcDbEntity
  8
11機器
100
AcDbCircle
 10
804.0000129999999
 20
-2.299999999999727
 30
0.0
 40
15.0
100
AcDbArc
 50
270.0
 51
0.0
  0
ARC
  5
F9BC
330
F974
100
AcDbEntity
  8
11機器
100
AcDbCircle
 10
804.0000129999999
 20
-2.299999999999727
 30
0.0
 40
14.0
100
AcDbArc
 50
270.0
 51
0.0
  0
LINE
  5
F9BD
330
F974
100
AcDbEntity
  8
11機器
100
AcDbLine
 10
791.0000030000001
 20
-16.29999999999973
 30
0.0
 11
804.0000140000002
 21
-16.29999999999973
 31
0.0
  0
ARC
  5
F9BE
330
F974
100
AcDbEntity
  8
11機器
100
AcDbCircle
 10
791.0000129999999
 20
-15.29999999999973
 30
0.0
 40
1.0
100
AcDbArc
 50
185.7391700000157
 51
270.0
  0
ARC
  5
F9BF
330
F974
100
AcDbEntity
  8
11機器
100
AcDbCircle
 10
-103.0
 20
-15.29999999999973
 30
0.0
 40
1.0
100
AcDbArc
 50
270.0
 51
354.2608299999869
  0
LINE
  5
F9C0
330
F974
100
AcDbEntity
  8
11機器
100
AcDbLine
 10
-103.0
 20
-16.29999999999973
 30
0.0
 11
-116.0
 21
-16.29999999999973
 31
0.0
  0
ARC
  5
F9C1
330
F974
100
AcDbEntity
  8
11機器
100
AcDbCircle
 10
-116.0
 20
-2.299999999999727
 30
0.0
 40
14.0
100
AcDbArc
 50
180.0
 51
270.0
  0
ARC
  5
F9C2
330
F974
100
AcDbEntity
  8
11機器
100
AcDbCircle
 10
-116.0
 20
-2.299999999999727
 30
0.0
 40
15.0
100
AcDbArc
 50
180.0
 51
270.0
  0
LINE
  5
F9C3
330
F974
100
AcDbEntity
  8
11機器
100
AcDbLine
 10
-90.60000000000036
 20
-17.29999999999973
 30
0.0
 11
-96.39998699999978
 21
-17.29999999999973
 31
0.0
  0
ARC
  5
F9C4
330
F974
100
AcDbEntity
  8
11機器
100
AcDbCircle
 10
-103.0
 20
-15.29999999999973
 30
0.0
 40
2.0
100
AcDbArc
 50
270.0
 51
357.1340159999897
  0
LINE
  5
F9C5
330
F974
100
AcDbEntity
  8
11機器
100
AcDbLine
 10
-131.0
 20
731.4999999999995
 30
0.0
 11
-131.0
 21
-2.299999999999727
 31
0.0
  0
LINE
  5
F9C6
330
F974
100
AcDbEntity
  8
11機器
100
AcDbLine
 10
819.0
 20
731.51953
 30
0.0
 11
819.0
 21
-2.467717999999877
 31
0.0
  0
LINE
  5
F9C7
330
F974
100
AcDbEntity
  8
11機器
100
AcDbLine
 10
-101.9474970000001
 20
-17.00065799999993
 30
0.0
 11
-97.39398400000027
 21
-17.00065799999993
 31
0.0
  0
LINE
  5
F9C8
330
F974
100
AcDbEntity
  8
11機器
100
AcDbLine
 10
789.8008770000001
 20
-16.90065800000002
 30
0.0
 11
785.530561
 21
-16.90065800000002
 31
0.0
  0
LINE
  5
F9C9
330
F974
100
AcDbEntity
  8
11機器
100
AcDbLine
 10
-117.3000009999996
 20
-15.40000000000009
 30
0.0
 11
-127.3000000000002
 21
-5.400000000000091
 31
0.0
  0
LINE
  5
F9CA
330
F974
100
AcDbEntity
  8
11機器
100
AcDbLine
 10
-117.3000009999996
 20
-15.40000000000009
 30
0.0
 11
-90.60000000000036
 21
-15.40000000000009
 31
0.0
  0
LINE
  5
F9CB
330
F974
100
AcDbEntity
  8
11機器
100
AcDbLine
 10
805.2999909999999
 20
-15.40000000000009
 30
0.0
 11
778.599972
 21
-15.40000000000009
 31
0.0
  0
LINE
  5
F9CC
330
F974
100
AcDbEntity
  8
11機器
100
AcDbLine
 10
815.299982
 20
-5.400000000000091
 30
0.0
 11
805.2999909999999
 21
-15.40000000000009
 31
0.0
  0
LINE
  5
F9CD
330
F974
100
AcDbEntity
  8
11機器
100
AcDbLine
 10
815.299982
 20
-2.0
 30
0.0
 11
815.299982
 21
-5.400000000000091
 31
0.0
  0
LINE
  5
F9CE
330
F974
100
AcDbEntity
  8
11機器
100
AcDbLine
 10
-129.8999999999996
 20
-2.0
 30
0.0
 11
-127.3000000000002
 21
-2.0
 31
0.0
  0
LINE
  5
F9CF
330
F974
100
AcDbEntity
  8
11機器
100
AcDbLine
 10
815.299982
 20
-2.0
 30
0.0
 11
818.0000129999999
 21
-2.0
 31
0.0
  0
LINE
  5
F9D0
330
F974
100
AcDbEntity
  8
11機器
100
AcDbLine
 10
778.599972
 20
-18.0
 30
0.0
 11
-90.60000000000036
 21
-18.0
 31
0.0
  0
LINE
  5
F9D1
330
F974
100
AcDbEntity
  8
11機器
100
AcDbLine
 10
778.600031
 20
747.0000130000003
 30
0.0
 11
778.600031
 21
744.3999989999998
 31
0.0
  0
LINE
  5
F9D2
330
F974
100
AcDbEntity
  8
11機器
100
AcDbLine
 10
782.9169309999997
 20
747.0000130000003
 30
0.0
 11
804.008585
 21
747.0000130000003
 31
0.0
  0
LINE
  5
F9D3
330
F974
100
AcDbEntity
  8
11機器
100
AcDbLine
 10
815.3000419999998
 20
734.4000080000001
 30
0.0
 11
815.3000419999998
 21
730.99998
 31
0.0
  0
LINE
  5
F9D4
330
F974
100
AcDbEntity
  8
11機器
100
AcDbLine
 10
805.2999909999999
 20
744.3999989999998
 30
0.0
 11
815.3000419999998
 21
734.4000080000001
 31
0.0
  0
LINE
  5
F9D5
330
F974
100
AcDbEntity
  8
11機器
100
AcDbLine
 10
805.2999909999999
 20
744.3999989999998
 30
0.0
 11
778.600031
 21
744.3999989999998
 31
0.0
  0
LINE
  5
F9D6
330
F974
100
AcDbEntity
  8
11機器
100
AcDbLine
 10
815.3000419999998
 20
730.99998
 30
0.0
 11
817.8999960000001
 21
730.99998
 31
0.0
  0
LINE
  5
F9D7
330
F974
100
AcDbEntity
  8
11機器
100
AcDbLine
 10
778.599972
 20
-15.40000000000009
 30
0.0
 11
778.599972
 21
-18.0
 31
0.0
  0
LINE
  5
F9D8
330
F974
100
AcDbEntity
  8
11機器
100
AcDbLine
 10
-90.60000000000036
 20
-15.40000000000009
 30
0.0
 11
-90.60000000000036
 21
-18.0
 31
0.0
  0
LINE
  5
F9D9
330
F974
100
AcDbEntity
  8
11機器
100
AcDbLine
 10
-103.0
 20
-17.29999999999973
 30
0.0
 11
-116.0
 21
-17.29999999999973
 31
0.0
  0
LINE
  5
F9DA
330
F974
100
AcDbEntity
  8
11機器
100
AcDbLine
 10
791.0000129999999
 20
-17.29999999999973
 30
0.0
 11
804.0000140000002
 21
-17.29999999999973
 31
0.0
  0
ARC
  5
F9DB
330
F974
100
AcDbEntity
  8
11機器
100
AcDbCircle
 10
-116.0
 20
731.9999999999995
 30
0.0
 40
11.0
100
AcDbArc
 50
106.7231120000013
 51
163.2768879999987
  0
ARC
  5
F9DC
330
F974
100
AcDbEntity
  8
11機器
100
AcDbCircle
 10
-110.1000000000004
 20
744.9999999999995
 30
0.0
 40
1.0
100
AcDbArc
 50
0.0
 51
90.0
  0
LINE
  5
F9DD
330
F974
100
AcDbEntity
  8
11機器
100
AcDbLine
 10
-109.1000009999998
 20
744.5000150000001
 30
0.0
 11
-102.8999999999996
 21
744.5000150000001
 31
0.0
  0
ARC
  5
F9DE
330
F974
100
AcDbEntity
  8
11機器
100
AcDbCircle
 10
-101.8999999999996
 20
744.9999999999995
 30
0.0
 40
1.0
100
AcDbArc
 50
90.0
 51
180.0
  0
LINE
  5
F9DF
330
F974
100
AcDbEntity
  8
11機器
100
AcDbLine
 10
-102.8999999999996
 20
744.9999789999997
 30
0.0
 11
-102.8999999999996
 21
744.5000150000001
 31
0.0
  0
LINE
  5
F9E0
330
F974
100
AcDbEntity
  8
11機器
100
AcDbLine
 10
-109.1000009999998
 20
744.5000150000001
 30
0.0
 11
-109.1000009999998
 21
744.9999789999997
 31
0.0
  0
LINE
  5
F9E1
330
F974
100
AcDbEntity
  8
11機器
100
AcDbLine
 10
-95.0
 20
746.0000260000002
 30
0.0
 11
-95.0
 21
744.3999989999998
 31
0.0
  0
ARC
  5
F9E2
330
F974
100
AcDbEntity
  8
11機器
100
AcDbCircle
 10
789.900013
 20
744.9999999999995
 30
0.0
 40
1.0
100
AcDbArc
 50
0.0
 51
90.0
  0
ARC
  5
F9E3
330
F974
100
AcDbEntity
  8
11機器
100
AcDbCircle
 10
798.1000130000002
 20
744.9999999999995
 30
0.0
 40
1.0
100
AcDbArc
 50
90.0
 51
180.0
  0
LINE
  5
F9E4
330
F974
100
AcDbEntity
  8
11機器
100
AcDbLine
 10
797.1000020000001
 20
744.9999789999997
 30
0.0
 11
797.1000020000001
 21
744.5000150000001
 31
0.0
  0
LINE
  5
F9E5
330
F974
100
AcDbEntity
  8
11機器
100
AcDbLine
 10
790.8999859999999
 20
744.5000150000001
 30
0.0
 11
790.8999859999999
 21
744.9999789999997
 31
0.0
  0
LINE
  5
F9E6
330
F974
100
AcDbEntity
  8
11機器
100
AcDbLine
 10
-98.19998699999996
 20
-15.40000000000009
 30
0.0
 11
-98.19998699999996
 21
-15.5
 31
0.0
  0
LINE
  5
F9E7
330
F974
100
AcDbEntity
  8
11機器
100
AcDbLine
 10
790.8999859999999
 20
744.5000150000001
 30
0.0
 11
797.1000020000001
 21
744.5000150000001
 31
0.0
  0
ARC
  5
F9E8
330
F974
100
AcDbEntity
  8
11機器
100
AcDbCircle
 10
804.0000129999999
 20
731.9999999999995
 30
0.0
 40
11.0
100
AcDbArc
 50
16.72321300000264
 51
73.27678700000033
  0
LINE
  5
F9E9
330
F974
100
AcDbEntity
  8
11機器
100
AcDbLine
 10
782.9999870000001
 20
746.0000260000002
 30
0.0
 11
782.9999870000001
 21
744.3999989999998
 31
0.0
  0
LINE
  5
F9EA
330
F974
100
AcDbEntity
  8
11機器
100
AcDbLine
 10
791.0000030000001
 20
-15.40000000000009
 30
0.0
 11
791.0000030000001
 21
-16.29999999999973
 31
0.0
  0
ARC
  5
F9EB
330
F974
100
AcDbEntity
  8
11機器
100
AcDbCircle
 10
804.0000129999999
 20
-2.299999999999727
 30
0.0
 40
11.0
100
AcDbArc
 50
292.7690309999998
 51
337.230968999998
  0
LINE
  5
F9EC
330
F974
100
AcDbEntity
  8
11機器
100
AcDbLine
 10
-103.0
 20
-15.40000000000009
 30
0.0
 11
-103.0
 21
-16.29999999999973
 31
0.0
  0
ARC
  5
F9ED
330
F974
100
AcDbEntity
  8
11機器
100
AcDbCircle
 10
-116.0
 20
-2.299999999999727
 30
0.0
 40
11.0
100
AcDbArc
 50
202.7691580000015
 51
247.2308420000016
  0
LINE
  5
F9EE
330
F974
100
AcDbEntity
  8
11機器
100
AcDbLine
 10
818.0000129999999
 20
52.5
 30
0.0
 11
-130.0
 21
52.5
 31
0.0
  0
LINE
  5
F9EF
330
F974
100
AcDbEntity
  8
11機器
100
AcDbLine
 10
676.4999870000001
 20
-7.5
 30
0.0
 11
699.4999889999999
 21
-7.5
 31
0.0
  0
ARC
  5
F9F0
330
F974
100
AcDbEntity
  8
11機器
100
AcDbCircle
 10
676.5
 20
0.0
 30
0.0
 40
7.5
100
AcDbArc
 50
90.0
 51
270.0
  0
LINE
  5
F9F1
330
F974
100
AcDbEntity
  8
11機器
100
AcDbLine
 10
699.4999889999999
 20
7.5
 30
0.0
 11
676.4999870000001
 21
7.5
 31
0.0
  0
ARC
  5
F9F2
330
F974
100
AcDbEntity
  8
11機器
100
AcDbCircle
 10
699.5
 20
0.0
 30
0.0
 40
7.5
100
AcDbArc
 50
270.0
 51
90.0
  0
LINE
  5
F9F3
330
F974
100
AcDbEntity
  8
11機器
100
AcDbLine
 10
-11.49999899999966
 20
-7.5
 30
0.0
 11
11.49999500000013
 21
-7.5
 31
0.0
  0
ARC
  5
F9F4
330
F974
100
AcDbEntity
  8
11機器
100
AcDbCircle
 10
-11.5
 20
0.0
 30
0.0
 40
7.5
100
AcDbArc
 50
90.0
 51
270.0
  0
LINE
  5
F9F5
330
F974
100
AcDbEntity
  8
11機器
100
AcDbLine
 10
11.49999500000013
 20
7.5
 30
0.0
 11
-11.49999899999966
 21
7.5
 31
0.0
  0
ARC
  5
F9F6
330
F974
100
AcDbEntity
  8
11機器
100
AcDbCircle
 10
11.5
 20
0.0
 30
0.0
 40
7.5
100
AcDbArc
 50
270.0
 51
90.0
  0
LINE
  5
F9F7
330
F974
100
AcDbEntity
  8
11機器
100
AcDbLine
 10
11.50000999999975
 20
736.5000219999997
 30
0.0
 11
-11.49998400000004
 21
736.5000219999997
 31
0.0
  0
ARC
  5
F9F8
330
F974
100
AcDbEntity
  8
11機器
100
AcDbCircle
 10
11.50001299999985
 20
728.9999999999995
 30
0.0
 40
7.5
100
AcDbArc
 50
270.0
 51
90.0
  0
LINE
  5
F9F9
330
F974
100
AcDbEntity
  8
11機器
100
AcDbLine
 10
-11.49998400000004
 20
721.499977
 30
0.0
 11
11.50000999999975
 21
721.499977
 31
0.0
  0
ARC
  5
F9FA
330
F974
100
AcDbEntity
  8
11機器
100
AcDbCircle
 10
-11.49998700000015
 20
728.9999999999995
 30
0.0
 40
7.5
100
AcDbArc
 50
90.0
 51
270.0
  0
LINE
  5
F9FB
330
F974
100
AcDbEntity
  8
11機器
100
AcDbLine
 10
699.4999889999999
 20
736.5000219999997
 30
0.0
 11
676.4999870000001
 21
736.5000219999997
 31
0.0
  0
ARC
  5
F9FC
330
F974
100
AcDbEntity
  8
11機器
100
AcDbCircle
 10
699.5000129999999
 20
728.9999999999995
 30
0.0
 40
7.5
100
AcDbArc
 50
270.0
 51
90.0
  0
LINE
  5
F9FD
330
F974
100
AcDbEntity
  8
11機器
100
AcDbLine
 10
676.4999870000001
 20
721.499977
 30
0.0
 11
699.4999889999999
 21
721.499977
 31
0.0
  0
ARC
  5
F9FE
330
F974
100
AcDbEntity
  8
11機器
100
AcDbCircle
 10
676.5000129999999
 20
728.9999999999995
 30
0.0
 40
7.5
100
AcDbArc
 50
90.0
 51
270.0
  0
LINE
  5
F9FF
330
F974
100
AcDbEntity
  8
11機器
100
AcDbLine
 10
-130.0
 20
676.50002
 30
0.0
 11
818.0000129999999
 21
676.50002
 31
0.0
  0
LINE
  5
FA00
330
F974
100
AcDbEntity
  8
11機器
100
AcDbLine
 10
-23.50000100000034
 20
347.8000070000003
 30
0.0
 11
-8.5
 21
347.8000070000003
 31
0.0
  0
LINE
  5
FA01
330
F974
100
AcDbEntity
  8
11機器
100
AcDbLine
 10
-23.50000100000034
 20
353.1984900000002
 30
0.0
 11
-23.50000100000034
 21
347.8000070000003
 31
0.0
  0
ARC
  5
FA02
330
F974
100
AcDbEntity
  8
11機器
100
AcDbCircle
 10
-16.0
 20
363.9999999999995
 30
0.0
 40
13.15
100
AcDbArc
 50
124.7740919999999
 51
235.2259079999979
  0
LINE
  5
FA03
330
F974
100
AcDbEntity
  8
11機器
100
AcDbLine
 10
-23.50000100000034
 20
380.1999899999996
 30
0.0
 11
-23.50000100000034
 21
374.801508
 31
0.0
  0
LINE
  5
FA04
330
F974
100
AcDbEntity
  8
11機器
100
AcDbLine
 10
-8.5
 20
380.1999899999996
 30
0.0
 11
-23.50000100000034
 21
380.1999899999996
 31
0.0
  0
LINE
  5
FA05
330
F974
100
AcDbEntity
  8
11機器
100
AcDbLine
 10
-8.5
 20
374.801508
 30
0.0
 11
-8.5
 21
380.1999899999996
 31
0.0
  0
ARC
  5
FA06
330
F974
100
AcDbEntity
  8
11機器
100
AcDbCircle
 10
-16.0
 20
363.9999999999995
 30
0.0
 40
13.15
100
AcDbArc
 50
304.7740920000021
 51
55.22590800000016
  0
LINE
  5
FA07
330
F974
100
AcDbEntity
  8
11機器
100
AcDbLine
 10
-8.5
 20
347.8000070000003
 30
0.0
 11
-8.5
 21
353.1984900000002
 31
0.0
  0
LINE
  5
FA08
330
F974
100
AcDbEntity
  8
11機器
100
AcDbLine
 10
696.5000279999999
 20
347.8000070000003
 30
0.0
 11
711.5000129999999
 21
347.8000070000003
 31
0.0
  0
LINE
  5
FA09
330
F974
100
AcDbEntity
  8
11機器
100
AcDbLine
 10
696.5000279999999
 20
353.1984900000002
 30
0.0
 11
696.5000279999999
 21
347.8000070000003
 31
0.0
  0
ARC
  5
FA0A
330
F974
100
AcDbEntity
  8
11機器
100
AcDbCircle
 10
704.0
 20
363.9999999999995
 30
0.0
 40
13.15
100
AcDbArc
 50
124.7740919999999
 51
235.2259079999963
  0
LINE
  5
FA0B
330
F974
100
AcDbEntity
  8
11機器
100
AcDbLine
 10
696.5000279999999
 20
380.1999899999996
 30
0.0
 11
696.5000279999999
 21
374.801508
 31
0.0
  0
LINE
  5
FA0C
330
F974
100
AcDbEntity
  8
11機器
100
AcDbLine
 10
711.5000129999999
 20
380.1999899999996
 30
0.0
 11
696.5000279999999
 21
380.1999899999996
 31
0.0
  0
LINE
  5
FA0D
330
F974
100
AcDbEntity
  8
11機器
100
AcDbLine
 10
711.5000129999999
 20
374.801508
 30
0.0
 11
711.5000129999999
 21
380.1999899999996
 31
0.0
  0
ARC
  5
FA0E
330
F974
100
AcDbEntity
  8
11機器
100
AcDbCircle
 10
704.0
 20
363.9999999999995
 30
0.0
 40
13.15
100
AcDbArc
 50
304.7740920000037
 51
55.22590800000016
  0
LINE
  5
FA0F
330
F974
100
AcDbEntity
  8
11機器
100
AcDbLine
 10
711.5000129999999
 20
347.8000070000003
 30
0.0
 11
711.5000129999999
 21
353.1984900000002
 31
0.0
  0
LINE
  5
FA10
330
F974
100
AcDbEntity
  8
11機器
100
AcDbLine
 10
282.0000099999997
 20
149.0029800000002
 30
0.0
 11
296.9999959999996
 21
149.0029800000002
 31
0.0
  0
ARC
  5
FA11
330
F974
100
AcDbEntity
  8
11機器
100
AcDbCircle
 10
297.0
 20
129.002978
 30
0.0
 40
20.0
100
AcDbArc
 50
0.0
 51
90.0
  0
LINE
  5
FA12
330
F974
100
AcDbEntity
  8
11機器
100
AcDbLine
 10
317.0000069999996
 20
129.0029840000002
 30
0.0
 11
317.0000069999996
 21
110.5029770000001
 31
0.0
  0
LINE
  5
FA13
330
F974
100
AcDbEntity
  8
11機器
100
AcDbLine
 10
108.0
 20
110.5029770000001
 30
0.0
 11
108.0
 21
129.0029840000002
 31
0.0
  0
ARC
  5
FA14
330
F974
100
AcDbEntity
  8
11機器
100
AcDbCircle
 10
128.0
 20
129.002978
 30
0.0
 40
20.0
100
AcDbArc
 50
90.0
 51
180.0
  0
LINE
  5
FA15
330
F974
100
AcDbEntity
  8
11機器
100
AcDbLine
 10
127.9999959999996
 20
149.0029800000002
 30
0.0
 11
169.999992
 21
149.0029800000002
 31
0.0
  0
LINE
  5
FA16
330
F974
100
AcDbEntity
  8
11機器
100
AcDbLine
 10
243.9999930000004
 20
107.502978
 30
0.0
 11
243.9999930000004
 21
89.00297799999998
 31
0.0
  0
LINE
  5
FA17
330
F974
100
AcDbEntity
  8
11機器
100
AcDbLine
 10
264.0000040000004
 20
69.00297499999988
 30
0.0
 11
278.9999889999999
 21
69.00297499999988
 31
0.0
  0
ARC
  5
FA18
330
F974
100
AcDbEntity
  8
11機器
100
AcDbCircle
 10
264.0
 20
89.00297799999998
 30
0.0
 40
20.0
100
AcDbArc
 50
180.0
 51
270.0
  0
LINE
  5
FA19
330
F974
100
AcDbEntity
  8
11機器
100
AcDbLine
 10
173.0000129999999
 20
69.00297499999988
 30
0.0
 11
215.0000090000003
 21
69.00297499999988
 31
0.0
  0
LINE
  5
FA1A
330
F974
100
AcDbEntity
  8
11機器
100
AcDbLine
 10
234.9999889999999
 20
89.00297799999998
 30
0.0
 11
234.9999889999999
 21
107.502978
 31
0.0
  0
ARC
  5
FA1B
330
F974
100
AcDbEntity
  8
11機器
100
AcDbCircle
 10
215.0
 20
89.00297799999998
 30
0.0
 40
20.0
100
AcDbArc
 50
270.0
 51
0.0
  0
ARC
  5
FA1C
330
F974
100
AcDbEntity
  8
11機器
100
AcDbCircle
 10
74.0
 20
82.0
 30
0.0
 40
16.5
100
AcDbArc
 50
212.6052510000007
 51
327.3947489999992
  0
ARC
  5
FA1D
330
F974
100
AcDbEntity
  8
11機器
100
AcDbCircle
 10
74.0
 20
82.0
 30
0.0
 40
16.5
100
AcDbArc
 50
332.605251
 51
84.78409099999922
  0
ARC
  5
FA1E
330
F974
100
AcDbEntity
  8
11機器
100
AcDbCircle
 10
69.0
 20
147.0
 30
0.0
 40
27.5
100
AcDbArc
 50
93.12677599999994
 51
208.4371939999999
  0
ARC
  5
FA1F
330
F974
100
AcDbEntity
  8
11機器
100
AcDbCircle
 10
74.0
 20
227.0
 30
0.0
 40
32.5
100
AcDbArc
 50
211.3223279999993
 51
328.677672
  0
ARC
  5
FA20
330
F974
100
AcDbEntity
  8
11機器
100
AcDbCircle
 10
74.0
 20
227.0
 30
0.0
 40
32.5
100
AcDbArc
 50
92.64536000000004
 51
208.6776719999997
  0
ARC
  5
FA21
330
F974
100
AcDbEntity
  8
11機器
100
AcDbCircle
 10
74.0
 20
227.0
 30
0.0
 40
32.5
100
AcDbArc
 50
331.3223280000003
 51
87.35463999999997
  0
ARC
  5
FA22
330
F974
100
AcDbEntity
  8
11機器
100
AcDbCircle
 10
69.0
 20
147.0
 30
0.0
 40
27.5
100
AcDbArc
 50
211.5628059999991
 51
328.4371940000001
  0
ARC
  5
FA23
330
F974
100
AcDbEntity
  8
11機器
100
AcDbCircle
 10
69.0
 20
147.0
 30
0.0
 40
27.5
100
AcDbArc
 50
331.562806
 51
86.87322400000008
  0
ARC
  5
FA24
330
F974
100
AcDbEntity
  8
11機器
100
AcDbCircle
 10
74.0
 20
82.0
 30
0.0
 40
16.5
100
AcDbArc
 50
95.21590900000078
 51
207.394749
  0
LINE
  5
FA25
330
F974
100
AcDbEntity
  8
11機器
100
AcDbLine
 10
108.0
 20
107.502978
 30
0.0
 11
108.0
 21
89.00297799999998
 31
0.0
  0
LINE
  5
FA26
330
F974
100
AcDbEntity
  8
11機器
100
AcDbLine
 10
127.9999959999996
 20
69.00297499999988
 30
0.0
 11
169.999992
 21
69.00297499999988
 31
0.0
  0
ARC
  5
FA27
330
F974
100
AcDbEntity
  8
11機器
100
AcDbCircle
 10
128.0
 20
89.00297799999998
 30
0.0
 40
20.0
100
AcDbArc
 50
180.0
 51
270.0
  0
LINE
  5
FA28
330
F974
100
AcDbEntity
  8
11機器
100
AcDbLine
 10
278.9999889999999
 20
149.0029800000002
 30
0.0
 11
264.0000040000004
 21
149.0029800000002
 31
0.0
  0
LINE
  5
FA29
330
F974
100
AcDbEntity
  8
11機器
100
AcDbLine
 10
243.9999930000004
 20
129.0029840000002
 30
0.0
 11
243.9999930000004
 21
110.5029770000001
 31
0.0
  0
ARC
  5
FA2A
330
F974
100
AcDbEntity
  8
11機器
100
AcDbCircle
 10
264.0
 20
129.002978
 30
0.0
 40
20.0
100
AcDbArc
 50
90.0
 51
180.0
  0
LINE
  5
FA2B
330
F974
100
AcDbEntity
  8
11機器
100
AcDbLine
 10
303.8578680000001
 20
74.86084500000015
 30
0.0
 11
311.1421220000002
 21
82.14511300000004
 31
0.0
  0
ARC
  5
FA2C
330
F974
100
AcDbEntity
  8
11機器
100
AcDbCircle
 10
289.7157280000001
 20
89.00297799999998
 30
0.0
 40
20.0
100
AcDbArc
 50
270.0
 51
314.9999999999991
  0
LINE
  5
FA2D
330
F974
100
AcDbEntity
  8
11機器
100
AcDbLine
 10
282.0000099999997
 20
69.00297499999988
 30
0.0
 11
289.7157420000003
 21
69.00297499999988
 31
0.0
  0
LINE
  5
FA2E
330
F974
100
AcDbEntity
  8
11機器
100
AcDbLine
 10
317.0000069999996
 20
96.2872470000002
 30
0.0
 11
317.0000069999996
 21
107.502978
 31
0.0
  0
ARC
  5
FA2F
330
F974
100
AcDbEntity
  8
11機器
100
AcDbCircle
 10
297.0
 20
96.28724899999997
 30
0.0
 40
20.0
100
AcDbArc
 50
314.9999999999991
 51
0.0
  0
LINE
  5
FA30
330
F974
100
AcDbEntity
  8
11機器
100
AcDbLine
 10
173.0000129999999
 20
149.0029800000002
 30
0.0
 11
215.0000090000003
 21
149.0029800000002
 31
0.0
  0
ARC
  5
FA31
330
F974
100
AcDbEntity
  8
11機器
100
AcDbCircle
 10
215.0
 20
129.002978
 30
0.0
 40
20.0
100
AcDbArc
 50
0.0
 51
90.0
  0
LINE
  5
FA32
330
F974
100
AcDbEntity
  8
11機器
100
AcDbLine
 10
234.9999889999999
 20
129.0029840000002
 30
0.0
 11
234.9999889999999
 21
110.5029770000001
 31
0.0
  0
CIRCLE
  5
FA33
330
F974
100
AcDbEntity
  8
11機器
100
AcDbCircle
 10
0.0000129999998535
 20
728.9999999999995
 30
0.0
 40
7.5
  0
CIRCLE
  5
FA34
330
F974
100
AcDbEntity
  8
11機器
100
AcDbCircle
 10
0.0
 20
0.0
 30
0.0
 40
7.5
  0
CIRCLE
  5
FA35
330
F974
100
AcDbEntity
  8
11機器
100
AcDbCircle
 10
688.0
 20
0.0
 30
0.0
 40
7.5
  0
CIRCLE
  5
FA36
330
F974
100
AcDbEntity
  8
11機器
100
AcDbCircle
 10
688.0000129999999
 20
728.9999999999995
 30
0.0
 40
7.5
  0
ENDBLK
  5
FA37
330
F974
100
AcDbEntity
  8
0
100
AcDbBlockEnd
  0
BLOCK
  5
F97A
330
F979
100
AcDbEntity
  8
0
100
AcDbBlockBegin
  2
*D1222
 70
     1
 10
0.0
 20
0.0
 30
0.0
  3
*D1222
  1

  0
LINE
  5
F97B
330
F979
100
AcDbEntity
  8
11機器
 62
     0
370
    -2
100
AcDbLine
 10
454.0
 20
311.9999999999995
 30
0.0
 11
534.4933986609922
 21
311.9999999999995
 31
0.0
  0
LINE
  5
F97C
330
F979
100
AcDbEntity
  8
11機器
 62
     0
370
    -2
100
AcDbLine
 10
454.0
 20
-18.0
 30
0.0
 11
534.4933986609922
 21
-18.0
 31
0.0
  0
LINE
  5
F97D
330
F979
100
AcDbEntity
  8
11機器
 62
     0
370
    -2
100
AcDbLine
 10
524.4933986609922
 20
281.9999999999995
 30
0.0
 11
524.4933986609922
 21
12.0
 31
0.0
  0
INSERT
  5
F97E
330
F979
100
AcDbEntity
  8
11機器
 62
     0
370
    -2
100
AcDbBlockReference
  2
_Open
 10
524.4933986609922
 20
311.9999999999995
 30
0.0
 41
30.0
 42
30.0
 43
30.0
 50
90.0
  0
INSERT
  5
F97F
330
F979
100
AcDbEntity
  8
11機器
 62
     0
370
    -2
100
AcDbBlockReference
  2
_Open
 10
524.4933986609922
 20
-18.0
 30
0.0
 41
30.0
 42
30.0
 43
30.0
 50
270.0
  0
MTEXT
  5
F980
330
F979
100
AcDbEntity
  8
11機器
 62
     0
100
AcDbMText
 10
499.4933986609922
 20
146.9999999999998
 30
0.0
 40
30.0
 41
0.0
 71
     5
 72
     1
  1
330
 11
0.0
 21
1.0
 31
0.0
 73
     1
 44
1.0
  0
POINT
  5
F981
330
F979
100
AcDbEntity
  8
Defpoints
 62
     0
100
AcDbPoint
 10
439.0
 20
311.9999999999995
 30
0.0
  0
POINT
  5
F982
330
F979
100
AcDbEntity
  8
Defpoints
 62
     0
100
AcDbPoint
 10
439.0
 20
-18.0
 30
0.0
  0
POINT
  5
F983
330
F979
100
AcDbEntity
  8
Defpoints
 62
     0
100
AcDbPoint
 10
524.4933986609922
 20
-18.0
 30
0.0
  0
ENDBLK
  5
F984
330
F979
100
AcDbEntity
  8
0
100
AcDbBlockEnd
  0
BLOCK
  5
F987
330
F986
100
AcDbEntity
  8
0
100
AcDbBlockBegin
  2
*D1223
 70
     1
 10
0.0
 20
0.0
 30
0.0
  3
*D1223
  1

  0
LINE
  5
F988
330
F986
100
AcDbEntity
  8
11機器
 62
     0
370
    -2
100
AcDbLine
 10
409.0
 20
356.9999999999995
 30
0.0
 11
409.0
 21
422.9417519735402
 31
0.0
  0
LINE
  5
F989
330
F986
100
AcDbEntity
  8
11機器
 62
     0
370
    -2
100
AcDbLine
 10
-131.0
 20
356.9999999999995
 30
0.0
 11
-131.0
 21
422.9417519735402
 31
0.0
  0
LINE
  5
F98A
330
F986
100
AcDbEntity
  8
11機器
 62
     0
370
    -2
100
AcDbLine
 10
379.0
 20
412.9417519735402
 30
0.0
 11
-101.0
 21
412.9417519735402
 31
0.0
  0
INSERT
  5
F98B
330
F986
100
AcDbEntity
  8
11機器
 62
     0
370
    -2
100
AcDbBlockReference
  2
_Open
 10
409.0
 20
412.9417519735402
 30
0.0
 41
30.0
 42
30.0
 43
30.0
  0
INSERT
  5
F98C
330
F986
100
AcDbEntity
  8
11機器
 62
     0
370
    -2
100
AcDbBlockReference
  2
_Open
 10
-131.0
 20
412.9417519735402
 30
0.0
 41
30.0
 42
30.0
 43
30.0
 50
180.0
  0
MTEXT
  5
F98D
330
F986
100
AcDbEntity
  8
11機器
 62
     0
100
AcDbMText
 10
139.0
 20
437.9417519735402
 30
0.0
 40
30.0
 41
0.0
 71
     5
 72
     1
  1
540
 73
     1
 44
1.0
  0
POINT
  5
F98E
330
F986
100
AcDbEntity
  8
Defpoints
 62
     0
100
AcDbPoint
 10
409.0
 20
341.9999999999995
 30
0.0
  0
POINT
  5
F98F
330
F986
100
AcDbEntity
  8
Defpoints
 62
     0
100
AcDbPoint
 10
-131.0
 20
341.9999999999995
 30
0.0
  0
POINT
  5
F990
330
F986
100
AcDbEntity
  8
Defpoints
 62
     0
100
AcDbPoint
 10
-131.0
 20
412.9417519735402
 30
0.0
  0
ENDBLK
  5
F991
330
F986
100
AcDbEntity
  8
0
100
AcDbBlockEnd
  0
BLOCK
  5
FA3A
330
FA39
100
AcDbEntity
  8
0
100
AcDbBlockBegin
  2
N-SPH950
 70
     0
 10
0.0
 20
0.0
 30
0.0
  3
N-SPH950
  1

  0
LWPOLYLINE
  5
FA3B
330
FA39
100
AcDbEntity
  8
12防振架台
100
AcDbPolyline
 90
        4
 70
     1
 43
0.0
 10
0.0
 20
0.0
 10
0.0
 20
765.0
 10
950.0
 20
765.0
 10
950.0
 20
0.0
  0
LWPOLYLINE
  5
FA3C
330
FA39
100
AcDbEntity
  8
12防振架台
100
AcDbPolyline
 90
        4
 70
     1
 43
0.0
 10
60.0
 20
60.0
 10
60.0
 20
705.0
 10
890.0
 20
705.0
 10
890.0
 20
60.0
  0
CIRCLE
  5
FA3D
330
FA39
100
AcDbEntity
  8
12防振架台
100
AcDbCircle
 10
100.0
 20
30.0
 30
0.0
 40
8.0
  0
CIRCLE
  5
FA3E
330
FA39
100
AcDbEntity
  8
12防振架台
100
AcDbCircle
 10
131.0
 20
18.0
 30
0.0
 40
8.0
  0
CIRCLE
  5
FA3F
330
FA39
100
AcDbEntity
  8
12防振架台
100
AcDbCircle
 10
100.0
 20
735.0
 30
0.0
 40
8.0
  0
CIRCLE
  5
FA40
330
FA39
100
AcDbEntity
  8
12防振架台
100
AcDbCircle
 10
131.0
 20
747.0
 30
0.0
 40
8.0
  0
CIRCLE
  5
FA41
330
FA39
100
AcDbEntity
  8
12防振架台
100
AcDbCircle
 10
850.0
 20
30.0
 30
0.0
 40
8.0
  0
CIRCLE
  5
FA42
330
FA39
100
AcDbEntity
  8
12防振架台
100
AcDbCircle
 10
819.0
 20
18.0
 30
0.0
 40
8.0
  0
CIRCLE
  5
FA43
330
FA39
100
AcDbEntity
  8
12防振架台
100
AcDbCircle
 10
850.0
 20
735.0
 30
0.0
 40
8.0
  0
CIRCLE
  5
FA44
330
FA39
100
AcDbEntity
  8
12防振架台
100
AcDbCircle
 10
819.0
 20
747.0
 30
0.0
 40
8.0
  0
ENDBLK
  5
FA45
330
FA39
100
AcDbEntity
  8
0
100
AcDbBlockEnd
  0
BLOCK
  5
FC13
330
FC12
100
AcDbEntity
  8
0
100
AcDbBlockBegin
  2
*D1239
 70
     1
 10
0.0
 20
0.0
 30
0.0
  3
*D1239
  1

  0
LINE
  5
FC15
330
FC12
100
AcDbEntity
  8
01注記寸法
 62
     0
370
    -2
100
AcDbLine
 10
1500.0
 20
3728.999999999998
 30
0.0
 11
1500.0
 21
4169.999999999996
 31
0.0
  0
LINE
  5
FC16
330
FC12
100
AcDbEntity
  8
01注記寸法
 62
     0
370
    -2
100
AcDbLine
 10
2450.0
 20
3728.999999999997
 30
0.0
 11
2450.0
 21
4169.999999999996
 31
0.0
  0
LINE
  5
FC17
330
FC12
100
AcDbEntity
  8
01注記寸法
 62
     0
370
    -2
100
AcDbLine
 10
1545.0
 20
4154.999999999996
 30
0.0
 11
2405.0
 21
4154.999999999996
 31
0.0
  0
INSERT
  5
FC18
330
FC12
100
AcDbEntity
  8
01注記寸法
 62
     0
370
    -2
100
AcDbBlockReference
  2
_Open
 10
1500.0
 20
4154.999999999996
 30
0.0
 41
45.0
 42
45.0
 43
45.0
 50
180.0
  0
INSERT
  5
FC19
330
FC12
100
AcDbEntity
  8
01注記寸法
 62
     0
370
    -2
100
AcDbBlockReference
  2
_Open
 10
2450.0
 20
4154.999999999996
 30
0.0
 41
45.0
 42
45.0
 43
45.0
  0
MTEXT
  5
FC1A
330
FC12
100
AcDbEntity
  8
01注記寸法
 62
     0
100
AcDbMText
 10
1975.0
 20
4192.499999999996
 30
0.0
 40
45.0
 41
0.0
 71
     5
 72
     1
  1
950
 73
     1
 44
1.0
  0
POINT
  5
FC1B
330
FC12
100
AcDbEntity
  8
Defpoints
 62
     0
100
AcDbPoint
 10
1500.0
 20
3706.499999999998
 30
0.0
  0
POINT
  5
FC1C
330
FC12
100
AcDbEntity
  8
Defpoints
 62
     0
100
AcDbPoint
 10
2450.0
 20
3706.499999999997
 30
0.0
  0
POINT
  5
FC1D
330
FC12
100
AcDbEntity
  8
Defpoints
 62
     0
100
AcDbPoint
 10
2450.0
 20
4154.999999999996
 30
0.0
  0
ENDBLK
  5
FC14
330
FC12
100
AcDbEntity
  8
0
100
AcDbBlockEnd
  0
BLOCK
  5
FC1F
330
FC1E
100
AcDbEntity
  8
0
100
AcDbBlockBegin
  2
*D1240
 70
     1
 10
0.0
 20
0.0
 30
0.0
  3
*D1240
  1

  0
LINE
  5
FC21
330
FC1E
100
AcDbEntity
  8
01注記寸法
 62
     0
370
    -2
100
AcDbLine
 10
1477.5
 20
3704.999999999996
 30
0.0
 11
1185.0
 21
3704.999999999996
 31
0.0
  0
LINE
  5
FC22
330
FC1E
100
AcDbEntity
  8
01注記寸法
 62
     0
370
    -2
100
AcDbLine
 10
1477.5
 20
2929.999999999996
 30
0.0
 11
1185.0
 21
2929.999999999996
 31
0.0
  0
LINE
  5
FC23
330
FC1E
100
AcDbEntity
  8
01注記寸法
 62
     0
370
    -2
100
AcDbLine
 10
1200.0
 20
3659.999999999996
 30
0.0
 11
1200.0
 21
2974.999999999996
 31
0.0
  0
INSERT
  5
FC24
330
FC1E
100
AcDbEntity
  8
01注記寸法
 62
     0
370
    -2
100
AcDbBlockReference
  2
_Open
 10
1200.0
 20
3704.999999999996
 30
0.0
 41
45.0
 42
45.0
 43
45.0
 50
90.0
  0
INSERT
  5
FC25
330
FC1E
100
AcDbEntity
  8
01注記寸法
 62
     0
370
    -2
100
AcDbBlockReference
  2
_Open
 10
1200.0
 20
2929.999999999996
 30
0.0
 41
45.0
 42
45.0
 43
45.0
 50
270.0
  0
MTEXT
  5
FC26
330
FC1E
100
AcDbEntity
  8
01注記寸法
 62
     0
100
AcDbMText
 10
1162.5
 20
3317.499999999996
 30
0.0
 40
45.0
 41
0.0
 71
     5
 72
     1
  1
775
 11
0.0
 21
1.0
 31
0.0
 73
     1
 44
1.0
  0
POINT
  5
FC27
330
FC1E
100
AcDbEntity
  8
Defpoints
 62
     0
100
AcDbPoint
 10
1500.0
 20
3704.999999999996
 30
0.0
  0
POINT
  5
FC28
330
FC1E
100
AcDbEntity
  8
Defpoints
 62
     0
100
AcDbPoint
 10
1500.0
 20
2929.999999999996
 30
0.0
  0
POINT
  5
FC29
330
FC1E
100
AcDbEntity
  8
Defpoints
 62
     0
100
AcDbPoint
 10
1200.0
 20
2929.999999999996
 30
0.0
  0
ENDBLK
  5
FC20
330
FC1E
100
AcDbEntity
  8
0
100
AcDbBlockEnd
  0
BLOCK
  5
FC2B
330
FC2A
100
AcDbEntity
  8
0
100
AcDbBlockBegin
  2
*D1241
 70
     1
 10
0.0
 20
0.0
 30
0.0
  3
*D1241
  1

  0
LINE
  5
FC2D
330
FC2A
100
AcDbEntity
  8
01注記寸法
 62
     0
370
    -2
100
AcDbLine
 10
1477.5
 20
3704.999999999998
 30
0.0
 11
1335.0
 21
3704.999999999998
 31
0.0
  0
LINE
  5
FC2E
330
FC2A
100
AcDbEntity
  8
01注記寸法
 62
     0
370
    -2
100
AcDbLine
 10
1588.500013
 20
3681.974093999998
 30
0.0
 11
1335.0
 21
3681.974093999998
 31
0.0
  0
LINE
  5
FC2F
330
FC2A
100
AcDbEntity
  8
01注記寸法
 62
     0
370
    -2
100
AcDbLine
 10
1350.0
 20
3704.999999999998
 30
0.0
 11
1350.0
 21
3877.987499999998
 31
0.0
  0
LINE
  5
FC30
330
FC2A
100
AcDbEntity
  8
01注記寸法
 62
     0
370
    -2
100
AcDbLine
 10
1350.0
 20
3704.999999999998
 30
0.0
 11
1350.0
 21
3681.974093999998
 31
0.0
  0
LINE
  5
FC31
330
FC2A
100
AcDbEntity
  8
01注記寸法
 62
     0
370
    -2
100
AcDbLine
 10
1350.0
 20
3749.999999999998
 30
0.0
 11
1350.0
 21
3794.999999999998
 31
0.0
  0
LINE
  5
FC32
330
FC2A
100
AcDbEntity
  8
01注記寸法
 62
     0
370
    -2
100
AcDbLine
 10
1350.0
 20
3636.974093999998
 30
0.0
 11
1350.0
 21
3591.974093999998
 31
0.0
  0
INSERT
  5
FC33
330
FC2A
100
AcDbEntity
  8
01注記寸法
 62
     0
370
    -2
100
AcDbBlockReference
  2
_Open
 10
1350.0
 20
3704.999999999998
 30
0.0
 41
45.0
 42
45.0
 43
45.0
 50
270.0
  0
INSERT
  5
FC34
330
FC2A
100
AcDbEntity
  8
01注記寸法
 62
     0
370
    -2
100
AcDbBlockReference
  2
_Open
 10
1350.0
 20
3681.974093999998
 30
0.0
 41
45.0
 42
45.0
 43
45.0
 50
90.0
  0
MTEXT
  5
FC35
330
FC2A
100
AcDbEntity
  8
01注記寸法
 62
     0
100
AcDbMText
 10
1312.5
 20
3836.842499999998
 30
0.0
 40
45.0
 41
0.0
 71
     5
 72
     1
  1
23
 11
0.0
 21
1.0
 31
0.0
 73
     1
 44
1.0
  0
POINT
  5
FC36
330
FC2A
100
AcDbEntity
  8
Defpoints
 62
     0
100
AcDbPoint
 10
1500.0
 20
3704.999999999998
 30
0.0
  0
POINT
  5
FC37
330
FC2A
100
AcDbEntity
  8
Defpoints
 62
     0
100
AcDbPoint
 10
1611.000013
 20
3681.974093999998
 30
0.0
  0
POINT
  5
FC38
330
FC2A
100
AcDbEntity
  8
Defpoints
 62
     0
100
AcDbPoint
 10
1350.0
 20
3681.974093999998
 30
0.0
  0
ENDBLK
  5
FC2C
330
FC2A
100
AcDbEntity
  8
0
100
AcDbBlockEnd
  0
BLOCK
  5
FC3A
330
FC39
100
AcDbEntity
  8
0
100
AcDbBlockBegin
  2
*D1242
 70
     1
 10
0.0
 20
0.0
 30
0.0
  3
*D1242
  1

  0
LINE
  5
FC3C
330
FC39
100
AcDbEntity
  8
01注記寸法
 62
     0
370
    -2
100
AcDbLine
 10
1588.500013
 20
3681.974093999998
 30
0.0
 11
1335.0
 21
3681.974093999998
 31
0.0
  0
LINE
  5
FC3D
330
FC39
100
AcDbEntity
  8
01注記寸法
 62
     0
370
    -2
100
AcDbLine
 10
1588.5
 20
2952.974093999998
 30
0.0
 11
1335.0
 21
2952.974093999998
 31
0.0
  0
LINE
  5
FC3E
330
FC39
100
AcDbEntity
  8
01注記寸法
 62
     0
370
    -2
100
AcDbLine
 10
1350.0
 20
3636.974093999998
 30
0.0
 11
1350.0
 21
2997.974093999998
 31
0.0
  0
INSERT
  5
FC3F
330
FC39
100
AcDbEntity
  8
01注記寸法
 62
     0
370
    -2
100
AcDbBlockReference
  2
_Open
 10
1350.0
 20
3681.974093999998
 30
0.0
 41
45.0
 42
45.0
 43
45.0
 50
90.0
  0
INSERT
  5
FC40
330
FC39
100
AcDbEntity
  8
01注記寸法
 62
     0
370
    -2
100
AcDbBlockReference
  2
_Open
 10
1350.0
 20
2952.974093999998
 30
0.0
 41
45.0
 42
45.0
 43
45.0
 50
270.0
  0
MTEXT
  5
FC41
330
FC39
100
AcDbEntity
  8
01注記寸法
 62
     0
100
AcDbMText
 10
1312.5
 20
3317.474093999998
 30
0.0
 40
45.0
 41
0.0
 71
     5
 72
     1
  1
729
 11
0.0
 21
1.0
 31
0.0
 73
     1
 44
1.0
  0
POINT
  5
FC42
330
FC39
100
AcDbEntity
  8
Defpoints
 62
     0
100
AcDbPoint
 10
1611.000013
 20
3681.974093999998
 30
0.0
  0
POINT
  5
FC43
330
FC39
100
AcDbEntity
  8
Defpoints
 62
     0
100
AcDbPoint
 10
1611.0
 20
2952.974093999998
 30
0.0
  0
POINT
  5
FC44
330
FC39
100
AcDbEntity
  8
Defpoints
 62
     0
100
AcDbPoint
 10
1350.0
 20
2952.974093999998
 30
0.0
  0
ENDBLK
  5
FC3B
330
FC39
100
AcDbEntity
  8
0
100
AcDbBlockEnd
  0
BLOCK
  5
FC46
330
FC45
100
AcDbEntity
  8
0
100
AcDbBlockBegin
  2
*D1243
 70
     1
 10
0.0
 20
0.0
 30
0.0
  3
*D1243
  1

  0
LINE
  5
FC48
330
FC45
100
AcDbEntity
  8
01注記寸法
 62
     0
370
    -2
100
AcDbLine
 10
1588.5
 20
2952.974093999998
 30
0.0
 11
1335.0
 21
2952.974093999998
 31
0.0
  0
LINE
  5
FC49
330
FC45
100
AcDbEntity
  8
01注記寸法
 62
     0
370
    -2
100
AcDbLine
 10
1477.5
 20
2929.999999999998
 30
0.0
 11
1335.0
 21
2929.999999999998
 31
0.0
  0
LINE
  5
FC4A
330
FC45
100
AcDbEntity
  8
01注記寸法
 62
     0
370
    -2
100
AcDbLine
 10
1350.0
 20
2884.999999999998
 30
0.0
 11
1350.0
 21
2757.709999999998
 31
0.0
  0
LINE
  5
FC4B
330
FC45
100
AcDbEntity
  8
01注記寸法
 62
     0
370
    -2
100
AcDbLine
 10
1350.0
 20
2952.974093999998
 30
0.0
 11
1350.0
 21
2929.999999999998
 31
0.0
  0
LINE
  5
FC4C
330
FC45
100
AcDbEntity
  8
01注記寸法
 62
     0
370
    -2
100
AcDbLine
 10
1350.0
 20
2997.974093999998
 30
0.0
 11
1350.0
 21
3042.974093999998
 31
0.0
  0
INSERT
  5
FC4D
330
FC45
100
AcDbEntity
  8
01注記寸法
 62
     0
370
    -2
100
AcDbBlockReference
  2
_Open
 10
1350.0
 20
2952.974093999998
 30
0.0
 41
45.0
 42
45.0
 43
45.0
 50
270.0
  0
INSERT
  5
FC4E
330
FC45
100
AcDbEntity
  8
01注記寸法
 62
     0
370
    -2
100
AcDbBlockReference
  2
_Open
 10
1350.0
 20
2929.999999999998
 30
0.0
 41
45.0
 42
45.0
 43
45.0
 50
90.0
  0
MTEXT
  5
FC4F
330
FC45
100
AcDbEntity
  8
01注記寸法
 62
     0
100
AcDbMText
 10
1312.5
 20
2798.854999999998
 30
0.0
 40
45.0
 41
0.0
 71
     5
 72
     1
  1
23
 11
0.0
 21
1.0
 31
0.0
 73
     1
 44
1.0
  0
POINT
  5
FC50
330
FC45
100
AcDbEntity
  8
Defpoints
 62
     0
100
AcDbPoint
 10
1611.0
 20
2952.974093999998
 30
0.0
  0
POINT
  5
FC51
330
FC45
100
AcDbEntity
  8
Defpoints
 62
     0
100
AcDbPoint
 10
1500.0
 20
2929.999999999998
 30
0.0
  0
POINT
  5
FC52
330
FC45
100
AcDbEntity
  8
Defpoints
 62
     0
100
AcDbPoint
 10
1350.0
 20
2929.999999999998
 30
0.0
  0
ENDBLK
  5
FC47
330
FC45
100
AcDbEntity
  8
0
100
AcDbBlockEnd
  0
BLOCK
  5
FC54
330
FC53
100
AcDbEntity
  8
0
100
AcDbBlockBegin
  2
*D1244
 70
     1
 10
0.0
 20
0.0
 30
0.0
  3
*D1244
  1

  0
LINE
  5
FC56
330
FC53
100
AcDbEntity
  8
01注記寸法
 62
     0
370
    -2
100
AcDbLine
 10
1500.0
 20
3728.999999999997
 30
0.0
 11
1500.0
 21
4019.999999999998
 31
0.0
  0
LINE
  5
FC57
330
FC53
100
AcDbEntity
  8
01注記寸法
 62
     0
370
    -2
100
AcDbLine
 10
1631.000012999999
 20
3717.474093999998
 30
0.0
 11
1631.000012999999
 21
4019.999999999998
 31
0.0
  0
LINE
  5
FC58
330
FC53
100
AcDbEntity
  8
01注記寸法
 62
     0
370
    -2
100
AcDbLine
 10
1545.0
 20
4004.999999999998
 30
0.0
 11
1586.000012999999
 21
4004.999999999998
 31
0.0
  0
INSERT
  5
FC59
330
FC53
100
AcDbEntity
  8
01注記寸法
 62
     0
370
    -2
100
AcDbBlockReference
  2
_Open
 10
1500.0
 20
4004.999999999998
 30
0.0
 41
45.0
 42
45.0
 43
45.0
 50
180.0
  0
INSERT
  5
FC5A
330
FC53
100
AcDbEntity
  8
01注記寸法
 62
     0
370
    -2
100
AcDbBlockReference
  2
_Open
 10
1631.000012999999
 20
4004.999999999998
 30
0.0
 41
45.0
 42
45.0
 43
45.0
  0
MTEXT
  5
FC5B
330
FC53
100
AcDbEntity
  8
01注記寸法
 62
     0
100
AcDbMText
 10
1565.500006499999
 20
4042.499999999998
 30
0.0
 40
45.0
 41
0.0
 71
     5
 72
     1
  1
131
 73
     1
 44
1.0
  0
POINT
  5
FC5C
330
FC53
100
AcDbEntity
  8
Defpoints
 62
     0
100
AcDbPoint
 10
1500.0
 20
3706.499999999997
 30
0.0
  0
POINT
  5
FC5D
330
FC53
100
AcDbEntity
  8
Defpoints
 62
     0
100
AcDbPoint
 10
1631.000012999999
 20
3694.974093999998
 30
0.0
  0
POINT
  5
FC5E
330
FC53
100
AcDbEntity
  8
Defpoints
 62
     0
100
AcDbPoint
 10
1631.000012999999
 20
4004.999999999998
 30
0.0
  0
ENDBLK
  5
FC55
330
FC53
100
AcDbEntity
  8
0
100
AcDbBlockEnd
  0
BLOCK
  5
FC60
330
FC5F
100
AcDbEntity
  8
0
100
AcDbBlockBegin
  2
*D1245
 70
     1
 10
0.0
 20
0.0
 30
0.0
  3
*D1245
  1

  0
LINE
  5
FC62
330
FC5F
100
AcDbEntity
  8
01注記寸法
 62
     0
370
    -2
100
AcDbLine
 10
1631.000012999999
 20
3717.474093999998
 30
0.0
 11
1631.000012999999
 21
4019.999999999998
 31
0.0
  0
LINE
  5
FC63
330
FC5F
100
AcDbEntity
  8
01注記寸法
 62
     0
370
    -2
100
AcDbLine
 10
2319.000013
 20
3724.474093999998
 30
0.0
 11
2319.000013
 21
4019.999999999998
 31
0.0
  0
LINE
  5
FC64
330
FC5F
100
AcDbEntity
  8
01注記寸法
 62
     0
370
    -2
100
AcDbLine
 10
1676.000012999999
 20
4004.999999999998
 30
0.0
 11
2274.000013
 21
4004.999999999998
 31
0.0
  0
INSERT
  5
FC65
330
FC5F
100
AcDbEntity
  8
01注記寸法
 62
     0
370
    -2
100
AcDbBlockReference
  2
_Open
 10
1631.000012999999
 20
4004.999999999998
 30
0.0
 41
45.0
 42
45.0
 43
45.0
 50
180.0
  0
INSERT
  5
FC66
330
FC5F
100
AcDbEntity
  8
01注記寸法
 62
     0
370
    -2
100
AcDbBlockReference
  2
_Open
 10
2319.000013
 20
4004.999999999998
 30
0.0
 41
45.0
 42
45.0
 43
45.0
  0
MTEXT
  5
FC67
330
FC5F
100
AcDbEntity
  8
01注記寸法
 62
     0
100
AcDbMText
 10
1975.000012999999
 20
4042.499999999998
 30
0.0
 40
45.0
 41
0.0
 71
     5
 72
     1
  1
688
 73
     1
 44
1.0
  0
POINT
  5
FC68
330
FC5F
100
AcDbEntity
  8
Defpoints
 62
     0
100
AcDbPoint
 10
1631.000012999999
 20
3694.974093999998
 30
0.0
  0
POINT
  5
FC69
330
FC5F
100
AcDbEntity
  8
Defpoints
 62
     0
100
AcDbPoint
 10
2319.000013
 20
3701.974093999998
 30
0.0
  0
POINT
  5
FC6A
330
FC5F
100
AcDbEntity
  8
Defpoints
 62
     0
100
AcDbPoint
 10
2319.000013
 20
4004.999999999998
 30
0.0
  0
ENDBLK
  5
FC61
330
FC5F
100
AcDbEntity
  8
0
100
AcDbBlockEnd
  0
BLOCK
  5
FC6C
330
FC6B
100
AcDbEntity
  8
0
100
AcDbBlockBegin
  2
*D1246
 70
     1
 10
0.0
 20
0.0
 30
0.0
  3
*D1246
  1

  0
LINE
  5
FC6E
330
FC6B
100
AcDbEntity
  8
01注記寸法
 62
     0
370
    -2
100
AcDbLine
 10
2319.000013
 20
3724.474093999998
 30
0.0
 11
2319.000013
 21
4019.999999999998
 31
0.0
  0
LINE
  5
FC6F
330
FC6B
100
AcDbEntity
  8
01注記寸法
 62
     0
370
    -2
100
AcDbLine
 10
2450.0
 20
3728.999999999997
 30
0.0
 11
2450.0
 21
4019.999999999998
 31
0.0
  0
LINE
  5
FC70
330
FC6B
100
AcDbEntity
  8
01注記寸法
 62
     0
370
    -2
100
AcDbLine
 10
2364.000013
 20
4004.999999999998
 30
0.0
 11
2405.0
 21
4004.999999999998
 31
0.0
  0
INSERT
  5
FC71
330
FC6B
100
AcDbEntity
  8
01注記寸法
 62
     0
370
    -2
100
AcDbBlockReference
  2
_Open
 10
2319.000013
 20
4004.999999999998
 30
0.0
 41
45.0
 42
45.0
 43
45.0
 50
180.0
  0
INSERT
  5
FC72
330
FC6B
100
AcDbEntity
  8
01注記寸法
 62
     0
370
    -2
100
AcDbBlockReference
  2
_Open
 10
2450.0
 20
4004.999999999998
 30
0.0
 41
45.0
 42
45.0
 43
45.0
  0
MTEXT
  5
FC73
330
FC6B
100
AcDbEntity
  8
01注記寸法
 62
     0
100
AcDbMText
 10
2384.5000065
 20
4042.499999999998
 30
0.0
 40
45.0
 41
0.0
 71
     5
 72
     1
  1
131
 73
     1
 44
1.0
  0
POINT
  5
FC74
330
FC6B
100
AcDbEntity
  8
Defpoints
 62
     0
100
AcDbPoint
 10
2319.000013
 20
3701.974093999998
 30
0.0
  0
POINT
  5
FC75
330
FC6B
100
AcDbEntity
  8
Defpoints
 62
     0
100
AcDbPoint
 10
2450.0
 20
3706.499999999997
 30
0.0
  0
POINT
  5
FC76
330
FC6B
100
AcDbEntity
  8
Defpoints
 62
     0
100
AcDbPoint
 10
2450.0
 20
4004.999999999998
 30
0.0
  0
ENDBLK
  5
FC6D
330
FC6B
100
AcDbEntity
  8
0
100
AcDbBlockEnd
  0
BLOCK
  5
FC78
330
FC77
100
AcDbEntity
  8
0
100
AcDbBlockBegin
  2
*D1247
 70
     1
 10
0.0
 20
0.0
 30
0.0
  3
*D1247
  1

  0
LINE
  5
FC7A
330
FC77
100
AcDbEntity
  8
01注記寸法
 62
     0
370
    -2
100
AcDbLine
 10
2472.5
 20
3704.999999999997
 30
0.0
 11
2615.000000000001
 21
3704.999999999997
 31
0.0
  0
LINE
  5
FC7B
330
FC77
100
AcDbEntity
  8
01注記寸法
 62
     0
370
    -2
100
AcDbLine
 10
2392.5
 20
3669.999999999998
 30
0.0
 11
2615.000000000001
 21
3669.999999999998
 31
0.0
  0
LINE
  5
FC7C
330
FC77
100
AcDbEntity
  8
01注記寸法
 62
     0
370
    -2
100
AcDbLine
 10
2600.000000000001
 20
3704.999999999997
 30
0.0
 11
2600.000000000001
 21
3877.964999999998
 31
0.0
  0
LINE
  5
FC7D
330
FC77
100
AcDbEntity
  8
01注記寸法
 62
     0
370
    -2
100
AcDbLine
 10
2600.000000000001
 20
3704.999999999997
 30
0.0
 11
2600.000000000001
 21
3669.999999999998
 31
0.0
  0
LINE
  5
FC7E
330
FC77
100
AcDbEntity
  8
01注記寸法
 62
     0
370
    -2
100
AcDbLine
 10
2600.000000000001
 20
3749.999999999997
 30
0.0
 11
2600.000000000001
 21
3794.999999999997
 31
0.0
  0
LINE
  5
FC7F
330
FC77
100
AcDbEntity
  8
01注記寸法
 62
     0
370
    -2
100
AcDbLine
 10
2600.000000000001
 20
3624.999999999998
 30
0.0
 11
2600.000000000001
 21
3579.999999999998
 31
0.0
  0
INSERT
  5
FC80
330
FC77
100
AcDbEntity
  8
01注記寸法
 62
     0
370
    -2
100
AcDbBlockReference
  2
_Open
 10
2600.000000000001
 20
3704.999999999997
 30
0.0
 41
45.0
 42
45.0
 43
45.0
 50
270.0
  0
INSERT
  5
FC81
330
FC77
100
AcDbEntity
  8
01注記寸法
 62
     0
370
    -2
100
AcDbBlockReference
  2
_Open
 10
2600.000000000001
 20
3669.999999999998
 30
0.0
 41
45.0
 42
45.0
 43
45.0
 50
90.0
  0
MTEXT
  5
FC82
330
FC77
100
AcDbEntity
  8
01注記寸法
 62
     0
100
AcDbMText
 10
2562.500000000001
 20
3836.707499999998
 30
0.0
 40
45.0
 41
0.0
 71
     5
 72
     1
  1
35
 11
0.0
 21
1.0
 31
0.0
 73
     1
 44
1.0
  0
POINT
  5
FC83
330
FC77
100
AcDbEntity
  8
Defpoints
 62
     0
100
AcDbPoint
 10
2450.0
 20
3704.999999999997
 30
0.0
  0
POINT
  5
FC84
330
FC77
100
AcDbEntity
  8
Defpoints
 62
     0
100
AcDbPoint
 10
2370.0
 20
3669.999999999998
 30
0.0
  0
POINT
  5
FC85
330
FC77
100
AcDbEntity
  8
Defpoints
 62
     0
100
AcDbPoint
 10
2600.000000000001
 20
3669.999999999998
 30
0.0
  0
ENDBLK
  5
FC79
330
FC77
100
AcDbEntity
  8
0
100
AcDbBlockEnd
  0
BLOCK
  5
FC87
330
FC86
100
AcDbEntity
  8
0
100
AcDbBlockBegin
  2
*D1248
 70
     1
 10
0.0
 20
0.0
 30
0.0
  3
*D1248
  1

  0
LINE
  5
FC89
330
FC86
100
AcDbEntity
  8
01注記寸法
 62
     0
370
    -2
100
AcDbLine
 10
2392.5
 20
3669.999999999998
 30
0.0
 11
2615.000000000001
 21
3669.999999999998
 31
0.0
  0
LINE
  5
FC8A
330
FC86
100
AcDbEntity
  8
01注記寸法
 62
     0
370
    -2
100
AcDbLine
 10
2392.5
 20
2964.999999999998
 30
0.0
 11
2615.000000000001
 21
2964.999999999998
 31
0.0
  0
LINE
  5
FC8B
330
FC86
100
AcDbEntity
  8
01注記寸法
 62
     0
370
    -2
100
AcDbLine
 10
2600.000000000001
 20
3624.999999999998
 30
0.0
 11
2600.000000000001
 21
3009.999999999998
 31
0.0
  0
INSERT
  5
FC8C
330
FC86
100
AcDbEntity
  8
01注記寸法
 62
     0
370
    -2
100
AcDbBlockReference
  2
_Open
 10
2600.000000000001
 20
3669.999999999998
 30
0.0
 41
45.0
 42
45.0
 43
45.0
 50
90.0
  0
INSERT
  5
FC8D
330
FC86
100
AcDbEntity
  8
01注記寸法
 62
     0
370
    -2
100
AcDbBlockReference
  2
_Open
 10
2600.000000000001
 20
2964.999999999998
 30
0.0
 41
45.0
 42
45.0
 43
45.0
 50
270.0
  0
MTEXT
  5
FC8E
330
FC86
100
AcDbEntity
  8
01注記寸法
 62
     0
100
AcDbMText
 10
2561.015000000001
 20
3317.499999999998
 30
0.0
 40
45.0
 41
0.0
 71
     5
 72
     1
  1
※ 705
 11
0.0
 21
1.0
 31
0.0
 73
     1
 44
1.0
  0
POINT
  5
FC8F
330
FC86
100
AcDbEntity
  8
Defpoints
 62
     0
100
AcDbPoint
 10
2370.0
 20
3669.999999999998
 30
0.0
  0
POINT
  5
FC90
330
FC86
100
AcDbEntity
  8
Defpoints
 62
     0
100
AcDbPoint
 10
2370.0
 20
2964.999999999998
 30
0.0
  0
POINT
  5
FC91
330
FC86
100
AcDbEntity
  8
Defpoints
 62
     0
100
AcDbPoint
 10
2600.000000000001
 20
2964.999999999998
 30
0.0
  0
ENDBLK
  5
FC88
330
FC86
100
AcDbEntity
  8
0
100
AcDbBlockEnd
  0
BLOCK
  5
FC93
330
FC92
100
AcDbEntity
  8
0
100
AcDbBlockBegin
  2
*D1249
 70
     1
 10
0.0
 20
0.0
 30
0.0
  3
*D1249
  1

  0
LINE
  5
FC95
330
FC92
100
AcDbEntity
  8
01注記寸法
 62
     0
370
    -2
100
AcDbLine
 10
2392.5
 20
2964.999999999998
 30
0.0
 11
2615.000000000001
 21
2964.999999999998
 31
0.0
  0
LINE
  5
FC96
330
FC92
100
AcDbEntity
  8
01注記寸法
 62
     0
370
    -2
100
AcDbLine
 10
2472.5
 20
2929.999999999998
 30
0.0
 11
2615.000000000001
 21
2929.999999999998
 31
0.0
  0
LINE
  5
FC97
330
FC92
100
AcDbEntity
  8
01注記寸法
 62
     0
370
    -2
100
AcDbLine
 10
2600.000000000001
 20
2884.999999999998
 30
0.0
 11
2600.000000000001
 21
2757.484999999998
 31
0.0
  0
LINE
  5
FC98
330
FC92
100
AcDbEntity
  8
01注記寸法
 62
     0
370
    -2
100
AcDbLine
 10
2600.000000000001
 20
2964.999999999998
 30
0.0
 11
2600.000000000001
 21
2929.999999999998
 31
0.0
  0
LINE
  5
FC99
330
FC92
100
AcDbEntity
  8
01注記寸法
 62
     0
370
    -2
100
AcDbLine
 10
2600.000000000001
 20
3009.999999999998
 30
0.0
 11
2600.000000000001
 21
3054.999999999998
 31
0.0
  0
INSERT
  5
FC9A
330
FC92
100
AcDbEntity
  8
01注記寸法
 62
     0
370
    -2
100
AcDbBlockReference
  2
_Open
 10
2600.000000000001
 20
2964.999999999998
 30
0.0
 41
45.0
 42
45.0
 43
45.0
 50
270.0
  0
INSERT
  5
FC9B
330
FC92
100
AcDbEntity
  8
01注記寸法
 62
     0
370
    -2
100
AcDbBlockReference
  2
_Open
 10
2600.000000000001
 20
2929.999999999998
 30
0.0
 41
45.0
 42
45.0
 43
45.0
 50
90.0
  0
MTEXT
  5
FC9C
330
FC92
100
AcDbEntity
  8
01注記寸法
 62
     0
100
AcDbMText
 10
2562.500000000001
 20
2798.742499999998
 30
0.0
 40
45.0
 41
0.0
 71
     5
 72
     1
  1
35
 11
0.0
 21
1.0
 31
0.0
 73
     1
 44
1.0
  0
POINT
  5
FC9D
330
FC92
100
AcDbEntity
  8
Defpoints
 62
     0
100
AcDbPoint
 10
2370.0
 20
2964.999999999998
 30
0.0
  0
POINT
  5
FC9E
330
FC92
100
AcDbEntity
  8
Defpoints
 62
     0
100
AcDbPoint
 10
2450.0
 20
2929.999999999998
 30
0.0
  0
POINT
  5
FC9F
330
FC92
100
AcDbEntity
  8
Defpoints
 62
     0
100
AcDbPoint
 10
2600.000000000001
 20
2929.999999999998
 30
0.0
  0
ENDBLK
  5
FC94
330
FC92
100
AcDbEntity
  8
0
100
AcDbBlockEnd
  0
BLOCK
  5
FCA1
330
FCA0
100
AcDbEntity
  8
0
100
AcDbBlockBegin
  2
*D1250
 70
     1
 10
0.0
 20
0.0
 30
0.0
  3
*D1250
  1

  0
LINE
  5
FCA3
330
FCA0
100
AcDbEntity
  8
01注記寸法
 62
     0
370
    -2
100
AcDbLine
 10
1500.0
 20
2905.999999999997
 30
0.0
 11
1500.0
 21
2614.999999999998
 31
0.0
  0
LINE
  5
FCA4
330
FCA0
100
AcDbEntity
  8
01注記寸法
 62
     0
370
    -2
100
AcDbLine
 10
1600.0
 20
2922.499999999998
 30
0.0
 11
1600.0
 21
2614.999999999998
 31
0.0
  0
LINE
  5
FCA5
330
FCA0
100
AcDbEntity
  8
01注記寸法
 62
     0
370
    -2
100
AcDbLine
 10
1500.0
 20
2629.999999999998
 30
0.0
 11
1600.0
 21
2629.999999999998
 31
0.0
  0
LINE
  5
FCA6
330
FCA0
100
AcDbEntity
  8
01注記寸法
 62
     0
370
    -2
100
AcDbLine
 10
1455.0
 20
2629.999999999998
 30
0.0
 11
1410.0
 21
2629.999999999998
 31
0.0
  0
LINE
  5
FCA7
330
FCA0
100
AcDbEntity
  8
01注記寸法
 62
     0
370
    -2
100
AcDbLine
 10
1645.0
 20
2629.999999999998
 30
0.0
 11
1690.0
 21
2629.999999999998
 31
0.0
  0
INSERT
  5
FCA8
330
FCA0
100
AcDbEntity
  8
01注記寸法
 62
     0
370
    -2
100
AcDbBlockReference
  2
_Open
 10
1500.0
 20
2629.999999999998
 30
0.0
 41
45.0
 42
45.0
 43
45.0
  0
INSERT
  5
FCA9
330
FCA0
100
AcDbEntity
  8
01注記寸法
 62
     0
370
    -2
100
AcDbBlockReference
  2
_Open
 10
1600.0
 20
2629.999999999998
 30
0.0
 41
45.0
 42
45.0
 43
45.0
 50
180.0
  0
MTEXT
  5
FCAA
330
FCA0
100
AcDbEntity
  8
01注記寸法
 62
     0
100
AcDbMText
 10
1550.0
 20
2667.499999999998
 30
0.0
 40
45.0
 41
0.0
 71
     5
 72
     1
  1
100
 73
     1
 44
1.0
  0
POINT
  5
FCAB
330
FCA0
100
AcDbEntity
  8
Defpoints
 62
     0
100
AcDbPoint
 10
1500.0
 20
2928.499999999997
 30
0.0
  0
POINT
  5
FCAC
330
FCA0
100
AcDbEntity
  8
Defpoints
 62
     0
100
AcDbPoint
 10
1600.0
 20
2944.999999999998
 30
0.0
  0
POINT
  5
FCAD
330
FCA0
100
AcDbEntity
  8
Defpoints
 62
     0
100
AcDbPoint
 10
1600.0
 20
2629.999999999998
 30
0.0
  0
ENDBLK
  5
FCA2
330
FCA0
100
AcDbEntity
  8
0
100
AcDbBlockEnd
  0
BLOCK
  5
FCAF
330
FCAE
100
AcDbEntity
  8
0
100
AcDbBlockBegin
  2
*D1251
 70
     1
 10
0.0
 20
0.0
 30
0.0
  3
*D1251
  1

  0
LINE
  5
FCB1
330
FCAE
100
AcDbEntity
  8
01注記寸法
 62
     0
370
    -2
100
AcDbLine
 10
1600.0
 20
2922.499999999998
 30
0.0
 11
1600.0
 21
2614.999999999998
 31
0.0
  0
LINE
  5
FCB2
330
FCAE
100
AcDbEntity
  8
01注記寸法
 62
     0
370
    -2
100
AcDbLine
 10
2350.0
 20
2929.499999999998
 30
0.0
 11
2350.0
 21
2614.999999999998
 31
0.0
  0
LINE
  5
FCB3
330
FCAE
100
AcDbEntity
  8
01注記寸法
 62
     0
370
    -2
100
AcDbLine
 10
1645.0
 20
2629.999999999998
 30
0.0
 11
2305.0
 21
2629.999999999998
 31
0.0
  0
INSERT
  5
FCB4
330
FCAE
100
AcDbEntity
  8
01注記寸法
 62
     0
370
    -2
100
AcDbBlockReference
  2
_Open
 10
1600.0
 20
2629.999999999998
 30
0.0
 41
45.0
 42
45.0
 43
45.0
 50
180.0
  0
INSERT
  5
FCB5
330
FCAE
100
AcDbEntity
  8
01注記寸法
 62
     0
370
    -2
100
AcDbBlockReference
  2
_Open
 10
2350.0
 20
2629.999999999998
 30
0.0
 41
45.0
 42
45.0
 43
45.0
  0
MTEXT
  5
FCB6
330
FCAE
100
AcDbEntity
  8
01注記寸法
 62
     0
100
AcDbMText
 10
1975.0
 20
2668.984999999998
 30
0.0
 40
45.0
 41
0.0
 71
     5
 72
     1
  1
※ 750
 73
     1
 44
1.0
  0
POINT
  5
FCB7
330
FCAE
100
AcDbEntity
  8
Defpoints
 62
     0
100
AcDbPoint
 10
1600.0
 20
2944.999999999998
 30
0.0
  0
POINT
  5
FCB8
330
FCAE
100
AcDbEntity
  8
Defpoints
 62
     0
100
AcDbPoint
 10
2350.0
 20
2951.999999999998
 30
0.0
  0
POINT
  5
FCB9
330
FCAE
100
AcDbEntity
  8
Defpoints
 62
     0
100
AcDbPoint
 10
2350.0
 20
2629.999999999998
 30
0.0
  0
ENDBLK
  5
FCB0
330
FCAE
100
AcDbEntity
  8
0
100
AcDbBlockEnd
  0
BLOCK
  5
FCBB
330
FCBA
100
AcDbEntity
  8
0
100
AcDbBlockBegin
  2
*D1252
 70
     1
 10
0.0
 20
0.0
 30
0.0
  3
*D1252
  1

  0
LINE
  5
FCBD
330
FCBA
100
AcDbEntity
  8
01注記寸法
 62
     0
370
    -2
100
AcDbLine
 10
2350.0
 20
2929.499999999998
 30
0.0
 11
2350.0
 21
2614.999999999998
 31
0.0
  0
LINE
  5
FCBE
330
FCBA
100
AcDbEntity
  8
01注記寸法
 62
     0
370
    -2
100
AcDbLine
 10
2450.0
 20
2905.999999999997
 30
0.0
 11
2450.0
 21
2614.999999999998
 31
0.0
  0
LINE
  5
FCBF
330
FCBA
100
AcDbEntity
  8
01注記寸法
 62
     0
370
    -2
100
AcDbLine
 10
2495.0
 20
2629.999999999998
 30
0.0
 11
2649.74
 21
2629.999999999998
 31
0.0
  0
LINE
  5
FCC0
330
FCBA
100
AcDbEntity
  8
01注記寸法
 62
     0
370
    -2
100
AcDbLine
 10
2350.0
 20
2629.999999999998
 30
0.0
 11
2450.0
 21
2629.999999999998
 31
0.0
  0
LINE
  5
FCC1
330
FCBA
100
AcDbEntity
  8
01注記寸法
 62
     0
370
    -2
100
AcDbLine
 10
2305.0
 20
2629.999999999998
 30
0.0
 11
2260.0
 21
2629.999999999998
 31
0.0
  0
INSERT
  5
FCC2
330
FCBA
100
AcDbEntity
  8
01注記寸法
 62
     0
370
    -2
100
AcDbBlockReference
  2
_Open
 10
2350.0
 20
2629.999999999998
 30
0.0
 41
45.0
 42
45.0
 43
45.0
  0
INSERT
  5
FCC3
330
FCBA
100
AcDbEntity
  8
01注記寸法
 62
     0
370
    -2
100
AcDbBlockReference
  2
_Open
 10
2450.0
 20
2629.999999999998
 30
0.0
 41
45.0
 42
45.0
 43
45.0
 50
180.0
  0
MTEXT
  5
FCC4
330
FCBA
100
AcDbEntity
  8
01注記寸法
 62
     0
100
AcDbMText
 10
2594.87
 20
2667.499999999998
 30
0.0
 40
45.0
 41
0.0
 71
     5
 72
     1
  1
100
 73
     1
 44
1.0
  0
POINT
  5
FCC5
330
FCBA
100
AcDbEntity
  8
Defpoints
 62
     0
100
AcDbPoint
 10
2350.0
 20
2951.999999999998
 30
0.0
  0
POINT
  5
FCC6
330
FCBA
100
AcDbEntity
  8
Defpoints
 62
     0
100
AcDbPoint
 10
2450.0
 20
2928.499999999997
 30
0.0
  0
POINT
  5
FCC7
330
FCBA
100
AcDbEntity
  8
Defpoints
 62
     0
100
AcDbPoint
 10
2450.0
 20
2629.999999999998
 30
0.0
  0
ENDBLK
  5
FCBC
330
FCBA
100
AcDbEntity
  8
0
100
AcDbBlockEnd
  0
BLOCK
  5
FCE8
330
FCE7
100
AcDbEntity
  8
0
100
AcDbBlockBegin
  2
*D1255
 70
     1
 10
0.0
 20
0.0
 30
0.0
  3
*D1255
  1

  0
LINE
  5
FCEA
330
FCE7
100
AcDbEntity
  8
01注記寸法
 62
     0
370
    -2
100
AcDbLine
 10
486.5999999999995
 20
854.625
 30
0.0
 11
322.5000000000001
 21
854.625
 31
0.0
  0
LINE
  5
FCEB
330
FCE7
100
AcDbEntity
  8
01注記寸法
 62
     0
370
    -2
100
AcDbLine
 10
486.5999999999995
 20
326.625
 30
0.0
 11
322.5
 21
326.625
 31
0.0
  0
LINE
  5
FCEC
330
FCE7
100
AcDbEntity
  8
01注記寸法
 62
     0
370
    -2
100
AcDbLine
 10
337.5000000000001
 20
809.625
 30
0.0
 11
337.5
 21
371.625
 31
0.0
  0
INSERT
  5
FCED
330
FCE7
100
AcDbEntity
  8
01注記寸法
 62
     0
370
    -2
100
AcDbBlockReference
  2
_Open
 10
337.5000000000001
 20
854.625
 30
0.0
 41
45.0
 42
45.0
 43
45.0
 50
90.0
  0
INSERT
  5
FCEE
330
FCE7
100
AcDbEntity
  8
01注記寸法
 62
     0
370
    -2
100
AcDbBlockReference
  2
_Open
 10
337.5
 20
326.625
 30
0.0
 41
45.0
 42
45.0
 43
45.0
 50
270.0
  0
MTEXT
  5
FCEF
330
FCE7
100
AcDbEntity
  8
01注記寸法
 62
     0
100
AcDbMText
 10
300.0
 20
590.625
 30
0.0
 40
45.0
 41
0.0
 71
     5
 72
     1
  1
704
 11
1.076579902666818E-16
 21
1.0
 31
0.0
 73
     1
 44
1.0
  0
POINT
  5
FCF0
330
FCE7
100
AcDbEntity
  8
Defpoints
 62
     0
100
AcDbPoint
 10
509.0999999999995
 20
854.625
 30
0.0
  0
POINT
  5
FCF1
330
FCE7
100
AcDbEntity
  8
Defpoints
 62
     0
100
AcDbPoint
 10
509.0999999999995
 20
326.625
 30
0.0
  0
POINT
  5
FCF2
330
FCE7
100
AcDbEntity
  8
Defpoints
 62
     0
100
AcDbPoint
 10
337.5
 20
326.625
 30
0.0
  0
ENDBLK
  5
FCE9
330
FCE7
100
AcDbEntity
  8
0
100
AcDbBlockEnd
  0
BLOCK
  5
FCF5
330
FCF4
100
AcDbEntity
  8
0
100
AcDbBlockBegin
  2
*D1256
 70
     1
 10
0.0
 20
0.0
 30
0.0
  3
*D1256
  1

  0
LINE
  5
FCF7
330
FCF4
100
AcDbEntity
  8
01注記寸法
 62
     0
370
    -2
100
AcDbLine
 10
509.0999999999995
 20
877.125
 30
0.0
 11
509.0999999999995
 21
1046.25
 31
0.0
  0
LINE
  5
FCF8
330
FCF4
100
AcDbEntity
  8
01注記寸法
 62
     0
370
    -2
100
AcDbLine
 10
1178.400000000001
 20
877.125
 30
0.0
 11
1178.400000000001
 21
1046.25
 31
0.0
  0
LINE
  5
FCF9
330
FCF4
100
AcDbEntity
  8
01注記寸法
 62
     0
370
    -2
100
AcDbLine
 10
554.0999999999995
 20
1031.25
 30
0.0
 11
1133.400000000001
 21
1031.25
 31
0.0
  0
INSERT
  5
FCFA
330
FCF4
100
AcDbEntity
  8
01注記寸法
 62
     0
370
    -2
100
AcDbBlockReference
  2
_Open
 10
509.0999999999995
 20
1031.25
 30
0.0
 41
45.0
 42
45.0
 43
45.0
 50
180.0
  0
INSERT
  5
FCFB
330
FCF4
100
AcDbEntity
  8
01注記寸法
 62
     0
370
    -2
100
AcDbBlockReference
  2
_Open
 10
1178.400000000001
 20
1031.25
 30
0.0
 41
45.0
 42
45.0
 43
45.0
  0
MTEXT
  5
FCFC
330
FCF4
100
AcDbEntity
  8
01注記寸法
 62
     0
100
AcDbMText
 10
843.75
 20
1068.75
 30
0.0
 40
45.0
 41
0.0
 71
     5
 72
     1
  1
892
 73
     1
 44
1.0
  0
POINT
  5
FCFD
330
FCF4
100
AcDbEntity
  8
Defpoints
 62
     0
100
AcDbPoint
 10
509.0999999999995
 20
854.625
 30
0.0
  0
POINT
  5
FCFE
330
FCF4
100
AcDbEntity
  8
Defpoints
 62
     0
100
AcDbPoint
 10
1178.400000000001
 20
854.625
 30
0.0
  0
POINT
  5
FCFF
330
FCF4
100
AcDbEntity
  8
Defpoints
 62
     0
100
AcDbPoint
 10
1178.400000000001
 20
1031.25
 30
0.0
  0
ENDBLK
  5
FCF6
330
FCF4
100
AcDbEntity
  8
0
100
AcDbBlockEnd
  0
BLOCK
  5
FD02
330
FD01
100
AcDbEntity
  8
0
100
AcDbBlockBegin
  2
*D1257
 70
     1
 10
0.0
 20
0.0
 30
0.0
  3
*D1257
  1

  0
LINE
  5
FD04
330
FD01
100
AcDbEntity
  8
08非表示
 62
     0
370
    -2
100
AcDbLine
 10
1222.5
 20
881.25
 30
0.0
 11
1365.0
 21
881.25
 31
0.0
  0
LINE
  5
FD05
330
FD01
100
AcDbEntity
  8
08非表示
 62
     0
370
    -2
100
AcDbLine
 10
1222.5
 20
300.0
 30
0.0
 11
1365.0
 21
300.0
 31
0.0
  0
LINE
  5
FD06
330
FD01
100
AcDbEntity
  8
08非表示
 62
     0
370
    -2
100
AcDbLine
 10
1350.0
 20
836.25
 30
0.0
 11
1350.0
 21
345.0
 31
0.0
  0
INSERT
  5
FD07
330
FD01
100
AcDbEntity
  8
08非表示
 62
     0
370
    -2
100
AcDbBlockReference
  2
_Open
 10
1350.0
 20
881.25
 30
0.0
 41
45.0
 42
45.0
 43
45.0
 50
90.0
  0
INSERT
  5
FD08
330
FD01
100
AcDbEntity
  8
08非表示
 62
     0
370
    -2
100
AcDbBlockReference
  2
_Open
 10
1350.0
 20
300.0
 30
0.0
 41
45.0
 42
45.0
 43
45.0
 50
270.0
  0
MTEXT
  5
FD09
330
FD01
100
AcDbEntity
  8
08非表示
 62
     0
100
AcDbMText
 10
1312.5
 20
590.625
 30
0.0
 40
45.0
 41
0.0
 71
     5
 72
     1
  1
775
 11
0.0
 21
1.0
 31
0.0
 73
     1
 44
1.0
  0
POINT
  5
FD0A
330
FD01
100
AcDbEntity
  8
Defpoints
 62
     0
100
AcDbPoint
 10
1200.0
 20
881.25
 30
0.0
  0
POINT
  5
FD0B
330
FD01
100
AcDbEntity
  8
Defpoints
 62
     0
100
AcDbPoint
 10
1200.0
 20
300.0
 30
0.0
  0
POINT
  5
FD0C
330
FD01
100
AcDbEntity
  8
Defpoints
 62
     0
100
AcDbPoint
 10
1350.0
 20
300.0
 30
0.0
  0
ENDBLK
  5
FD03
330
FD01
100
AcDbEntity
  8
0
100
AcDbBlockEnd
  0
BLOCK
  5
FD0F
330
FD0E
100
AcDbEntity
  8
0
100
AcDbBlockBegin
  2
*D1258
 70
     1
 10
0.0
 20
0.0
 30
0.0
  3
*D1258
  1

  0
LINE
  5
FD11
330
FD0E
100
AcDbEntity
  8
08非表示
 62
     0
370
    -2
100
AcDbLine
 10
487.5
 20
276.3749999999993
 30
0.0
 11
487.5
 21
135.0
 31
0.0
  0
LINE
  5
FD12
330
FD0E
100
AcDbEntity
  8
08非表示
 62
     0
370
    -2
100
AcDbLine
 10
1200.0
 20
276.3749999999993
 30
0.0
 11
1200.0
 21
135.0
 31
0.0
  0
LINE
  5
FD13
330
FD0E
100
AcDbEntity
  8
08非表示
 62
     0
370
    -2
100
AcDbLine
 10
532.5
 20
150.0
 30
0.0
 11
1155.0
 21
150.0
 31
0.0
  0
INSERT
  5
FD14
330
FD0E
100
AcDbEntity
  8
08非表示
 62
     0
370
    -2
100
AcDbBlockReference
  2
_Open
 10
487.5
 20
150.0
 30
0.0
 41
45.0
 42
45.0
 43
45.0
 50
180.0
  0
INSERT
  5
FD15
330
FD0E
100
AcDbEntity
  8
08非表示
 62
     0
370
    -2
100
AcDbBlockReference
  2
_Open
 10
1200.0
 20
150.0
 30
0.0
 41
45.0
 42
45.0
 43
45.0
  0
MTEXT
  5
FD16
330
FD0E
100
AcDbEntity
  8
08非表示
 62
     0
100
AcDbMText
 10
843.75
 20
187.5
 30
0.0
 40
45.0
 41
0.0
 71
     5
 72
     1
  1
950
 73
     1
 44
1.0
  0
POINT
  5
FD17
330
FD0E
100
AcDbEntity
  8
Defpoints
 62
     0
100
AcDbPoint
 10
487.5
 20
298.8749999999993
 30
0.0
  0
POINT
  5
FD18
330
FD0E
100
AcDbEntity
  8
Defpoints
 62
     0
100
AcDbPoint
 10
1200.0
 20
298.8749999999993
 30
0.0
  0
POINT
  5
FD19
330
FD0E
100
AcDbEntity
  8
Defpoints
 62
     0
100
AcDbPoint
 10
1200.0
 20
150.0
 30
0.0
  0
ENDBLK
  5
FD10
330
FD0E
100
AcDbEntity
  8
0
100
AcDbBlockEnd
  0
BLOCK
  5
FD38
330
FD37
100
AcDbEntity
  8
0
100
AcDbBlockBegin
  2
*D1259
 70
     1
 10
0.0
 20
0.0
 30
0.0
  3
*D1259
  1

  0
LINE
  5
FD3A
330
FD37
100
AcDbEntity
  8
01注記寸法
 62
     0
370
    -2
100
AcDbLine
 10
1634.849999999999
 20
860.7749999999992
 30
0.0
 11
1522.5
 21
860.7749999999992
 31
0.0
  0
LINE
  5
FD3B
330
FD37
100
AcDbEntity
  8
01注記寸法
 62
     0
370
    -2
100
AcDbLine
 10
1634.849999999999
 20
320.4749999999995
 30
0.0
 11
1522.5
 21
320.4749999999995
 31
0.0
  0
LINE
  5
FD3C
330
FD37
100
AcDbEntity
  8
01注記寸法
 62
     0
370
    -2
100
AcDbLine
 10
1537.5
 20
815.7749999999992
 30
0.0
 11
1537.5
 21
365.4749999999995
 31
0.0
  0
INSERT
  5
FD3D
330
FD37
100
AcDbEntity
  8
01注記寸法
 62
     0
370
    -2
100
AcDbBlockReference
  2
_Open
 10
1537.5
 20
860.7749999999992
 30
0.0
 41
45.0
 42
45.0
 43
45.0
 50
90.0
  0
INSERT
  5
FD3E
330
FD37
100
AcDbEntity
  8
01注記寸法
 62
     0
370
    -2
100
AcDbBlockReference
  2
_Open
 10
1537.5
 20
320.4749999999995
 30
0.0
 41
45.0
 42
45.0
 43
45.0
 50
270.0
  0
MTEXT
  5
FD3F
330
FD37
100
AcDbEntity
  8
01注記寸法
 62
     0
100
AcDbMText
 10
1500.0
 20
590.6249999999993
 30
0.0
 40
45.0
 41
0.0
 71
     5
 72
     1
  1
720
 11
0.0
 21
1.0
 31
0.0
 73
     1
 44
1.0
  0
POINT
  5
FD40
330
FD37
100
AcDbEntity
  8
Defpoints
 62
     0
100
AcDbPoint
 10
1657.349999999999
 20
860.7749999999992
 30
0.0
  0
POINT
  5
FD41
330
FD37
100
AcDbEntity
  8
Defpoints
 62
     0
100
AcDbPoint
 10
1657.349999999999
 20
320.4749999999995
 30
0.0
  0
POINT
  5
FD42
330
FD37
100
AcDbEntity
  8
Defpoints
 62
     0
100
AcDbPoint
 10
1537.5
 20
320.4749999999995
 30
0.0
  0
ENDBLK
  5
FD39
330
FD37
100
AcDbEntity
  8
0
100
AcDbBlockEnd
  0
BLOCK
  5
FD44
330
FD43
100
AcDbEntity
  8
0
100
AcDbBlockBegin
  2
*D1260
 70
     1
 10
0.0
 20
0.0
 30
0.0
  3
*D1260
  1

  0
LINE
  5
FD46
330
FD43
100
AcDbEntity
  8
01注記寸法
 62
     0
370
    -2
100
AcDbLine
 10
1657.349999999999
 20
883.2749999999992
 30
0.0
 11
1657.349999999999
 21
1046.25
 31
0.0
  0
LINE
  5
FD47
330
FD43
100
AcDbEntity
  8
01注記寸法
 62
     0
370
    -2
100
AcDbLine
 10
2430.150000000001
 20
883.2749999999992
 30
0.0
 11
2430.150000000001
 21
1046.25
 31
0.0
  0
LINE
  5
FD48
330
FD43
100
AcDbEntity
  8
01注記寸法
 62
     0
370
    -2
100
AcDbLine
 10
1702.349999999999
 20
1031.25
 30
0.0
 11
2385.150000000001
 21
1031.25
 31
0.0
  0
INSERT
  5
FD49
330
FD43
100
AcDbEntity
  8
01注記寸法
 62
     0
370
    -2
100
AcDbBlockReference
  2
_Open
 10
1657.349999999999
 20
1031.25
 30
0.0
 41
45.0
 42
45.0
 43
45.0
 50
180.0
  0
INSERT
  5
FD4A
330
FD43
100
AcDbEntity
  8
01注記寸法
 62
     0
370
    -2
100
AcDbBlockReference
  2
_Open
 10
2430.150000000001
 20
1031.25
 30
0.0
 41
45.0
 42
45.0
 43
45.0
  0
MTEXT
  5
FD4B
330
FD43
100
AcDbEntity
  8
01注記寸法
 62
     0
100
AcDbMText
 10
2043.75
 20
1068.75
 30
0.0
 40
45.0
 41
0.0
 71
     5
 72
     1
  1
1030
 73
     1
 44
1.0
  0
POINT
  5
FD4C
330
FD43
100
AcDbEntity
  8
Defpoints
 62
     0
100
AcDbPoint
 10
1657.349999999999
 20
860.7749999999992
 30
0.0
  0
POINT
  5
FD4D
330
FD43
100
AcDbEntity
  8
Defpoints
 62
     0
100
AcDbPoint
 10
2430.150000000001
 20
860.7749999999992
 30
0.0
  0
POINT
  5
FD4E
330
FD43
100
AcDbEntity
  8
Defpoints
 62
     0
100
AcDbPoint
 10
2430.150000000001
 20
1031.25
 30
0.0
  0
ENDBLK
  5
FD45
330
FD43
100
AcDbEntity
  8
0
100
AcDbBlockEnd
  0
BLOCK
  5
FD50
330
FD4F
100
AcDbEntity
  8
0
100
AcDbBlockBegin
  2
*D1261
 70
     1
 10
0.0
 20
0.0
 30
0.0
  3
*D1261
  1

  0
LINE
  5
FD52
330
FD4F
100
AcDbEntity
  8
08非表示
 62
     0
370
    -2
100
AcDbLine
 10
2422.5
 20
881.25
 30
0.0
 11
2565.0
 21
881.25
 31
0.0
  0
LINE
  5
FD53
330
FD4F
100
AcDbEntity
  8
08非表示
 62
     0
370
    -2
100
AcDbLine
 10
2422.5
 20
300.0
 30
0.0
 11
2565.0
 21
300.0
 31
0.0
  0
LINE
  5
FD54
330
FD4F
100
AcDbEntity
  8
08非表示
 62
     0
370
    -2
100
AcDbLine
 10
2550.0
 20
836.25
 30
0.0
 11
2550.0
 21
345.0
 31
0.0
  0
INSERT
  5
FD55
330
FD4F
100
AcDbEntity
  8
08非表示
 62
     0
370
    -2
100
AcDbBlockReference
  2
_Open
 10
2550.0
 20
881.25
 30
0.0
 41
45.0
 42
45.0
 43
45.0
 50
90.0
  0
INSERT
  5
FD56
330
FD4F
100
AcDbEntity
  8
08非表示
 62
     0
370
    -2
100
AcDbBlockReference
  2
_Open
 10
2550.0
 20
300.0
 30
0.0
 41
45.0
 42
45.0
 43
45.0
 50
270.0
  0
MTEXT
  5
FD57
330
FD4F
100
AcDbEntity
  8
08非表示
 62
     0
100
AcDbMText
 10
2512.5
 20
590.625
 30
0.0
 40
45.0
 41
0.0
 71
     5
 72
     1
  1
775
 11
0.0
 21
1.0
 31
0.0
 73
     1
 44
1.0
  0
POINT
  5
FD58
330
FD4F
100
AcDbEntity
  8
Defpoints
 62
     0
100
AcDbPoint
 10
2400.0
 20
881.25
 30
0.0
  0
POINT
  5
FD59
330
FD4F
100
AcDbEntity
  8
Defpoints
 62
     0
100
AcDbPoint
 10
2400.0
 20
300.0
 30
0.0
  0
POINT
  5
FD5A
330
FD4F
100
AcDbEntity
  8
Defpoints
 62
     0
100
AcDbPoint
 10
2550.0
 20
300.0
 30
0.0
  0
ENDBLK
  5
FD51
330
FD4F
100
AcDbEntity
  8
0
100
AcDbBlockEnd
  0
BLOCK
  5
FD5C
330
FD5B
100
AcDbEntity
  8
0
100
AcDbBlockBegin
  2
*D1262
 70
     1
 10
0.0
 20
0.0
 30
0.0
  3
*D1262
  1

  0
LINE
  5
FD5E
330
FD5B
100
AcDbEntity
  8
08非表示
 62
     0
370
    -2
100
AcDbLine
 10
1687.5
 20
276.3749999999993
 30
0.0
 11
1687.5
 21
135.0
 31
0.0
  0
LINE
  5
FD5F
330
FD5B
100
AcDbEntity
  8
08非表示
 62
     0
370
    -2
100
AcDbLine
 10
2400.0
 20
276.3749999999993
 30
0.0
 11
2400.0
 21
135.0
 31
0.0
  0
LINE
  5
FD60
330
FD5B
100
AcDbEntity
  8
08非表示
 62
     0
370
    -2
100
AcDbLine
 10
1732.5
 20
150.0
 30
0.0
 11
2355.0
 21
150.0
 31
0.0
  0
INSERT
  5
FD61
330
FD5B
100
AcDbEntity
  8
08非表示
 62
     0
370
    -2
100
AcDbBlockReference
  2
_Open
 10
1687.5
 20
150.0
 30
0.0
 41
45.0
 42
45.0
 43
45.0
 50
180.0
  0
INSERT
  5
FD62
330
FD5B
100
AcDbEntity
  8
08非表示
 62
     0
370
    -2
100
AcDbBlockReference
  2
_Open
 10
2400.0
 20
150.0
 30
0.0
 41
45.0
 42
45.0
 43
45.0
  0
MTEXT
  5
FD63
330
FD5B
100
AcDbEntity
  8
08非表示
 62
     0
100
AcDbMText
 10
2043.75
 20
187.5
 30
0.0
 40
45.0
 41
0.0
 71
     5
 72
     1
  1
950
 73
     1
 44
1.0
  0
POINT
  5
FD64
330
FD5B
100
AcDbEntity
  8
Defpoints
 62
     0
100
AcDbPoint
 10
1687.5
 20
298.8749999999993
 30
0.0
  0
POINT
  5
FD65
330
FD5B
100
AcDbEntity
  8
Defpoints
 62
     0
100
AcDbPoint
 10
2400.0
 20
298.8749999999993
 30
0.0
  0
POINT
  5
FD66
330
FD5B
100
AcDbEntity
  8
Defpoints
 62
     0
100
AcDbPoint
 10
2400.0
 20
150.0
 30
0.0
  0
ENDBLK
  5
FD5D
330
FD5B
100
AcDbEntity
  8
0
100
AcDbBlockEnd
  0
BLOCK
  5
FD85
330
FD84
100
AcDbEntity
  8
0
100
AcDbBlockBegin
  2
*D1263
 70
     1
 10
0.0
 20
0.0
 30
0.0
  3
*D1263
  1

  0
LINE
  5
FD87
330
FD84
100
AcDbEntity
  8
01注記寸法
 62
     0
370
    -2
100
AcDbLine
 10
2886.599999999999
 20
912.5249999999992
 30
0.0
 11
2722.5
 21
912.5249999999992
 31
0.0
  0
LINE
  5
FD88
330
FD84
100
AcDbEntity
  8
01注記寸法
 62
     0
370
    -2
100
AcDbLine
 10
2886.599999999999
 20
268.7249999999995
 30
0.0
 11
2722.5
 21
268.7249999999995
 31
0.0
  0
LINE
  5
FD89
330
FD84
100
AcDbEntity
  8
01注記寸法
 62
     0
370
    -2
100
AcDbLine
 10
2737.5
 20
867.5249999999992
 30
0.0
 11
2737.5
 21
313.7249999999995
 31
0.0
  0
INSERT
  5
FD8A
330
FD84
100
AcDbEntity
  8
01注記寸法
 62
     0
370
    -2
100
AcDbBlockReference
  2
_Open
 10
2737.5
 20
912.5249999999992
 30
0.0
 41
45.0
 42
45.0
 43
45.0
 50
90.0
  0
INSERT
  5
FD8B
330
FD84
100
AcDbEntity
  8
01注記寸法
 62
     0
370
    -2
100
AcDbBlockReference
  2
_Open
 10
2737.5
 20
268.7249999999995
 30
0.0
 41
45.0
 42
45.0
 43
45.0
 50
270.0
  0
MTEXT
  5
FD8C
330
FD84
100
AcDbEntity
  8
01注記寸法
 62
     0
100
AcDbMText
 10
2700.0
 20
590.6249999999993
 30
0.0
 40
45.0
 41
0.0
 71
     5
 72
     1
  1
858
 11
0.0
 21
1.0
 31
0.0
 73
     1
 44
1.0
  0
POINT
  5
FD8D
330
FD84
100
AcDbEntity
  8
Defpoints
 62
     0
100
AcDbPoint
 10
2909.099999999999
 20
912.5249999999992
 30
0.0
  0
POINT
  5
FD8E
330
FD84
100
AcDbEntity
  8
Defpoints
 62
     0
100
AcDbPoint
 10
2909.099999999999
 20
268.7249999999995
 30
0.0
  0
POINT
  5
FD8F
330
FD84
100
AcDbEntity
  8
Defpoints
 62
     0
100
AcDbPoint
 10
2737.5
 20
268.7249999999995
 30
0.0
  0
ENDBLK
  5
FD86
330
FD84
100
AcDbEntity
  8
0
100
AcDbBlockEnd
  0
BLOCK
  5
FD91
330
FD90
100
AcDbEntity
  8
0
100
AcDbBlockBegin
  2
*D1264
 70
     1
 10
0.0
 20
0.0
 30
0.0
  3
*D1264
  1

  0
LINE
  5
FD93
330
FD90
100
AcDbEntity
  8
01注記寸法
 62
     0
370
    -2
100
AcDbLine
 10
2909.099999999999
 20
935.0249999999992
 30
0.0
 11
2909.099999999999
 21
1046.25
 31
0.0
  0
LINE
  5
FD94
330
FD90
100
AcDbEntity
  8
01注記寸法
 62
     0
370
    -2
100
AcDbLine
 10
3578.400000000001
 20
935.0249999999992
 30
0.0
 11
3578.400000000001
 21
1046.25
 31
0.0
  0
LINE
  5
FD95
330
FD90
100
AcDbEntity
  8
01注記寸法
 62
     0
370
    -2
100
AcDbLine
 10
2954.099999999999
 20
1031.25
 30
0.0
 11
3533.400000000001
 21
1031.25
 31
0.0
  0
INSERT
  5
FD96
330
FD90
100
AcDbEntity
  8
01注記寸法
 62
     0
370
    -2
100
AcDbBlockReference
  2
_Open
 10
2909.099999999999
 20
1031.25
 30
0.0
 41
45.0
 42
45.0
 43
45.0
 50
180.0
  0
INSERT
  5
FD97
330
FD90
100
AcDbEntity
  8
01注記寸法
 62
     0
370
    -2
100
AcDbBlockReference
  2
_Open
 10
3578.400000000001
 20
1031.25
 30
0.0
 41
45.0
 42
45.0
 43
45.0
  0
MTEXT
  5
FD98
330
FD90
100
AcDbEntity
  8
01注記寸法
 62
     0
100
AcDbMText
 10
3243.75
 20
1068.75
 30
0.0
 40
45.0
 41
0.0
 71
     5
 72
     1
  1
892
 73
     1
 44
1.0
  0
POINT
  5
FD99
330
FD90
100
AcDbEntity
  8
Defpoints
 62
     0
100
AcDbPoint
 10
2909.099999999999
 20
912.5249999999992
 30
0.0
  0
POINT
  5
FD9A
330
FD90
100
AcDbEntity
  8
Defpoints
 62
     0
100
AcDbPoint
 10
3578.400000000001
 20
912.5249999999992
 30
0.0
  0
POINT
  5
FD9B
330
FD90
100
AcDbEntity
  8
Defpoints
 62
     0
100
AcDbPoint
 10
3578.400000000001
 20
1031.25
 30
0.0
  0
ENDBLK
  5
FD92
330
FD90
100
AcDbEntity
  8
0
100
AcDbBlockEnd
  0
BLOCK
  5
FD9D
330
FD9C
100
AcDbEntity
  8
0
100
AcDbBlockBegin
  2
*D1265
 70
     1
 10
0.0
 20
0.0
 30
0.0
  3
*D1265
  1

  0
LINE
  5
FD9F
330
FD9C
100
AcDbEntity
  8
08非表示
 62
     0
370
    -2
100
AcDbLine
 10
3622.5
 20
881.25
 30
0.0
 11
3765.0
 21
881.25
 31
0.0
  0
LINE
  5
FDA0
330
FD9C
100
AcDbEntity
  8
08非表示
 62
     0
370
    -2
100
AcDbLine
 10
3622.5
 20
300.0
 30
0.0
 11
3765.0
 21
300.0
 31
0.0
  0
LINE
  5
FDA1
330
FD9C
100
AcDbEntity
  8
08非表示
 62
     0
370
    -2
100
AcDbLine
 10
3750.0
 20
836.25
 30
0.0
 11
3750.0
 21
345.0
 31
0.0
  0
INSERT
  5
FDA2
330
FD9C
100
AcDbEntity
  8
08非表示
 62
     0
370
    -2
100
AcDbBlockReference
  2
_Open
 10
3750.0
 20
881.25
 30
0.0
 41
45.0
 42
45.0
 43
45.0
 50
90.0
  0
INSERT
  5
FDA3
330
FD9C
100
AcDbEntity
  8
08非表示
 62
     0
370
    -2
100
AcDbBlockReference
  2
_Open
 10
3750.0
 20
300.0
 30
0.0
 41
45.0
 42
45.0
 43
45.0
 50
270.0
  0
MTEXT
  5
FDA4
330
FD9C
100
AcDbEntity
  8
08非表示
 62
     0
100
AcDbMText
 10
3712.5
 20
590.625
 30
0.0
 40
45.0
 41
0.0
 71
     5
 72
     1
  1
775
 11
0.0
 21
1.0
 31
0.0
 73
     1
 44
1.0
  0
POINT
  5
FDA5
330
FD9C
100
AcDbEntity
  8
Defpoints
 62
     0
100
AcDbPoint
 10
3600.0
 20
881.25
 30
0.0
  0
POINT
  5
FDA6
330
FD9C
100
AcDbEntity
  8
Defpoints
 62
     0
100
AcDbPoint
 10
3600.0
 20
300.0
 30
0.0
  0
POINT
  5
FDA7
330
FD9C
100
AcDbEntity
  8
Defpoints
 62
     0
100
AcDbPoint
 10
3750.0
 20
300.0
 30
0.0
  0
ENDBLK
  5
FD9E
330
FD9C
100
AcDbEntity
  8
0
100
AcDbBlockEnd
  0
BLOCK
  5
FDA9
330
FDA8
100
AcDbEntity
  8
0
100
AcDbBlockBegin
  2
*D1266
 70
     1
 10
0.0
 20
0.0
 30
0.0
  3
*D1266
  1

  0
LINE
  5
FDAB
330
FDA8
100
AcDbEntity
  8
08非表示
 62
     0
370
    -2
100
AcDbLine
 10
2887.5
 20
276.3749999999993
 30
0.0
 11
2887.5
 21
135.0
 31
0.0
  0
LINE
  5
FDAC
330
FDA8
100
AcDbEntity
  8
08非表示
 62
     0
370
    -2
100
AcDbLine
 10
3600.0
 20
276.3749999999993
 30
0.0
 11
3600.0
 21
135.0
 31
0.0
  0
LINE
  5
FDAD
330
FDA8
100
AcDbEntity
  8
08非表示
 62
     0
370
    -2
100
AcDbLine
 10
2932.5
 20
150.0
 30
0.0
 11
3555.0
 21
150.0
 31
0.0
  0
INSERT
  5
FDAE
330
FDA8
100
AcDbEntity
  8
08非表示
 62
     0
370
    -2
100
AcDbBlockReference
  2
_Open
 10
2887.5
 20
150.0
 30
0.0
 41
45.0
 42
45.0
 43
45.0
 50
180.0
  0
INSERT
  5
FDAF
330
FDA8
100
AcDbEntity
  8
08非表示
 62
     0
370
    -2
100
AcDbBlockReference
  2
_Open
 10
3600.0
 20
150.0
 30
0.0
 41
45.0
 42
45.0
 43
45.0
  0
MTEXT
  5
FDB0
330
FDA8
100
AcDbEntity
  8
08非表示
 62
     0
100
AcDbMText
 10
3243.75
 20
187.5
 30
0.0
 40
45.0
 41
0.0
 71
     5
 72
     1
  1
950
 73
     1
 44
1.0
  0
POINT
  5
FDB1
330
FDA8
100
AcDbEntity
  8
Defpoints
 62
     0
100
AcDbPoint
 10
2887.5
 20
298.8749999999993
 30
0.0
  0
POINT
  5
FDB2
330
FDA8
100
AcDbEntity
  8
Defpoints
 62
     0
100
AcDbPoint
 10
3600.0
 20
298.8749999999993
 30
0.0
  0
POINT
  5
FDB3
330
FDA8
100
AcDbEntity
  8
Defpoints
 62
     0
100
AcDbPoint
 10
3600.0
 20
150.0
 30
0.0
  0
ENDBLK
  5
FDAA
330
FDA8
100
AcDbEntity
  8
0
100
AcDbBlockEnd
  0
ENDSEC
  0
SECTION
  2
ENTITIES
  0
LWPOLYLINE
  5
7E6F
330
1F
100
AcDbEntity
  8
08非表示
  6
PHANTOM
100
AcDbPolyline
 90
        4
 70
     1
 43
0.0
 10
0.0
 20
0.0
 10
0.0
 20
4455.0
 10
6300.0
 20
4455.0
 10
6300.0
 20
0.0
  0
LWPOLYLINE
  5
7E74
330
1F
100
AcDbEntity
  8
09図枠
100
AcDbPolyline
 90
        4
 70
     1
 43
0.0
 10
150.0
 20
150.0
 10
150.0
 20
4305.0
 10
6150.0
 20
4305.0
 10
6150.0
 20
150.0
  0
LWPOLYLINE
  5
7E7B
330
1F
100
AcDbEntity
  8
09図枠
100
AcDbPolyline
 90
        4
 70
     1
 43
0.0
 10
4950.0
 20
4065.0
 10
4950.0
 20
4305.0
 10
6150.0
 20
4305.0
 10
6150.0
 20
4065.0
  0
LWPOLYLINE
  5
7E88
330
1F
100
AcDbEntity
  8
09図枠
100
AcDbPolyline
 90
        4
 70
     1
 43
0.0
 10
5190.0
 20
3945.0
 10
5190.0
 20
4065.0
 10
6150.0
 20
4065.0
 10
6150.0
 20
3945.0
  0
LWPOLYLINE
  5
7E89
330
1F
100
AcDbEntity
  8
09図枠
100
AcDbPolyline
 90
        4
 70
     1
 43
0.0
 10
4950.0
 20
3945.0
 10
4950.0
 20
4065.0
 10
5190.0
 20
4065.0
 10
5190.0
 20
3945.0
  0
TEXT
  5
7E8A
330
1F
100
AcDbEntity
  8
01注記寸法
100
AcDbText
 10
4992.0
 20
3975.0
 30
0.0
 40
60.0
  1
型式
 72
     1
 11
5070.0
 21
4005.0
 31
0.0
100
AcDbText
 73
     2
  0
TEXT
  5
7E8B
330
1F
100
AcDbEntity
  8
01注記寸法
100
AcDbText
 10
5241.0
 20
3975.0
 30
0.0
 40
60.0
  1
Ｎ－ＢＨＨ９５０Ｄ－５
 72
     1
 11
5670.0
 21
4005.0
 31
0.0
100
AcDbText
 73
     2
  0
LWPOLYLINE
  5
7E8C
330
1F
100
AcDbEntity
  8
09図枠
100
AcDbPolyline
 90
        4
 70
     1
 43
0.0
 10
4950.0
 20
3645.0
 10
4950.0
 20
3945.0
 10
6150.0
 20
3945.0
 10
6150.0
 20
3645.0
  0
LINE
  5
7E8D
330
1F
100
AcDbEntity
  8
01注記寸法
  6
HIDDEN
100
AcDbLine
 10
4950.0
 20
3765.0
 30
0.0
 11
6150.0
 21
3765.0
 31
0.0
  0
TEXT
  5
7E8F
330
1F
100
AcDbEntity
  8
01注記寸法
100
AcDbText
 10
4995.0
 20
3832.5
 30
0.0
 40
45.0
  1
機器
 11
4995.0
 21
3855.0
 31
0.0
100
AcDbText
 73
     2
  0
TEXT
  5
7E90
330
1F
100
AcDbEntity
  8
01注記寸法
100
AcDbText
 10
4995.0
 20
3682.5
 30
0.0
 40
45.0
  1
機器質量
 11
4995.0
 21
3705.0
 31
0.0
100
AcDbText
 73
     2
  0
LWPOLYLINE
  5
7E94
330
1F
100
AcDbEntity
  8
09図枠
100
AcDbPolyline
 90
        4
 70
     1
 43
0.0
 10
4950.0
 20
3375.0
 10
4950.0
 20
3645.0
 10
6150.0
 20
3645.0
 10
6150.0
 20
3375.0
  0
TEXT
  5
7E95
330
1F
100
AcDbEntity
  8
01注記寸法
100
AcDbText
 10
4995.0
 20
3532.5
 30
0.0
 40
45.0
  1
現場名
 11
4995.0
 21
3555.0
 31
0.0
100
AcDbText
 73
     2
  0
LINE
  5
7E97
330
1F
100
AcDbEntity
  8
01注記寸法
  6
HIDDEN
100
AcDbLine
 10
4950.0
 20
3465.0
 30
0.0
 11
6150.0
 21
3465.0
 31
0.0
  0
TEXT
  5
7E98
330
1F
100
AcDbEntity
  8
01注記寸法
100
AcDbText
 10
4995.0
 20
3397.5
 30
0.0
 40
45.0
  1
系統名
 11
4995.0
 21
3420.0
 31
0.0
100
AcDbText
 73
     2
  0
LWPOLYLINE
  5
7EA4
330
1F
100
AcDbEntity
  8
09図枠
100
AcDbPolyline
 90
        4
 70
     1
 43
0.0
 10
5190.0
 20
150.0
 10
5190.0
 20
270.0
 10
6150.0
 20
270.0
 10
6150.0
 20
150.0
  0
LWPOLYLINE
  5
7EA5
330
1F
100
AcDbEntity
  8
09図枠
100
AcDbPolyline
 90
        4
 70
     1
 43
0.0
 10
4950.0
 20
150.0
 10
4950.0
 20
270.0
 10
5190.0
 20
270.0
 10
5190.0
 20
150.0
  0
TEXT
  5
7EA6
330
1F
100
AcDbEntity
  8
01注記寸法
100
AcDbText
 10
4992.0
 20
180.0
 30
0.0
 40
60.0
  1
図番
 72
     1
 11
5070.0
 21
210.0
 31
0.0
100
AcDbText
 73
     2
  0
TEXT
  5
7EA7
330
1F
100
AcDbEntity
  8
01注記寸法
100
AcDbText
 10
5202.0
 20
180.0
 30
0.0
 40
60.0
  1
３－ＨＴＲ０９４＃Ｅ２Ｂ１－５
 41
0.8
 72
     1
 11
5670.0
 21
210.0
 31
0.0
100
AcDbText
 73
     2
  0
LWPOLYLINE
  5
7EB6
330
1F
100
AcDbEntity
  8
09図枠
100
AcDbPolyline
 90
        4
 70
     1
 43
0.0
 10
4950.0
 20
270.0
 10
4950.0
 20
420.0
 10
6150.0
 20
420.0
 10
6150.0
 20
270.0
  0
LWPOLYLINE
  5
7EB9
330
1F
100
AcDbEntity
  8
09図枠
100
AcDbPolyline
 90
        4
 70
     1
 43
0.0
 10
4950.0
 20
420.0
 10
4950.0
 20
630.0
 10
6150.0
 20
630.0
 10
6150.0
 20
420.0
  0
TEXT
  5
7EBE
330
1F
100
AcDbEntity
  8
01注記寸法
100
AcDbText
 10
5057.25
 20
562.5
 30
0.0
 40
45.0
  1
発行日
 72
     1
 11
5145.0
 21
585.0
 31
0.0
100
AcDbText
 73
     2
  0
TEXT
  5
7EBF
330
1F
100
AcDbEntity
  8
01注記寸法
100
AcDbText
 10
5416.5
 20
562.5
 30
0.0
 40
45.0
  1
承認
 72
     1
 11
5475.0
 21
585.0
 31
0.0
100
AcDbText
 73
     2
  0
TEXT
  5
7EC0
330
1F
100
AcDbEntity
  8
01注記寸法
100
AcDbText
 10
5686.5
 20
562.5
 30
0.0
 40
45.0
  1
設計
 72
     1
 11
5745.0
 21
585.0
 31
0.0
100
AcDbText
 73
     2
  0
TEXT
  5
7EC1
330
1F
100
AcDbEntity
  8
01注記寸法
100
AcDbText
 10
5956.5
 20
562.5
 30
0.0
 40
45.0
  1
作図
 72
     1
 11
6015.0
 21
585.0
 31
0.0
100
AcDbText
 73
     2
  0
TEXT
  5
7EC2
330
1F
100
AcDbEntity
  8
01注記寸法
100
AcDbText
 10
5013.375
 20
457.5
 30
0.0
 40
45.0
  1
'13.04.23
 72
     1
 11
5145.0
 21
480.0
 31
0.0
100
AcDbText
 73
     2
  0
TEXT
  5
7EC3
330
1F
100
AcDbEntity
  8
01注記寸法
100
AcDbText
 10
5416.5
 20
457.5
 30
0.0
 40
45.0
  1
橋本
 72
     1
 11
5475.0
 21
480.0
 31
0.0
100
AcDbText
 73
     2
  0
TEXT
  5
7EC4
330
1F
100
AcDbEntity
  8
01注記寸法
100
AcDbText
 10
5686.5
 20
457.5
 30
0.0
 40
45.0
  1
内野
 72
     1
 11
5745.0
 21
480.0
 31
0.0
100
AcDbText
 73
     2
  0
TEXT
  5
7EC5
330
1F
100
AcDbEntity
  8
01注記寸法
100
AcDbText
 10
5956.5
 20
457.5
 30
0.0
 40
45.0
  1
内野
 72
     1
 11
6015.0
 21
480.0
 31
0.0
100
AcDbText
 73
     2
  0
LWPOLYLINE
  5
7EC6
330
1F
100
AcDbEntity
  8
01注記寸法
100
AcDbPolyline
 90
        4
 70
     1
 43
0.0
 10
4950.0
 20
1080.0
 10
4950.0
 20
1170.0
 10
5100.0
 20
1170.0
 10
5100.0
 20
1080.0
  0
LWPOLYLINE
  5
7EC7
330
1F
100
AcDbEntity
  8
01注記寸法
100
AcDbPolyline
 90
        4
 70
     1
 43
0.0
 10
6375.0
 20
1080.0
 10
6375.0
 20
1170.0
 10
6525.0
 20
1170.0
 10
6525.0
 20
1080.0
  0
LWPOLYLINE
  5
7EC8
330
1F
100
AcDbEntity
  8
01注記寸法
100
AcDbPolyline
 90
        4
 70
     1
 43
0.0
 10
5100.0
 20
1080.0
 10
5100.0
 20
1170.0
 10
5400.0
 20
1170.0
 10
5400.0
 20
1080.0
  0
LWPOLYLINE
  5
7EC9
330
1F
100
AcDbEntity
  8
01注記寸法
100
AcDbPolyline
 90
        4
 70
     1
 43
0.0
 10
5400.0
 20
1080.0
 10
5400.0
 20
1170.0
 10
6150.0
 20
1170.0
 10
6150.0
 20
1080.0
  0
TEXT
  5
7ECA
330
1F
100
AcDbEntity
  8
01注記寸法
100
AcDbText
 10
4966.5
 20
1102.5
 30
0.0
 40
45.0
  1
番号
 72
     1
 11
5025.0
 21
1125.0
 31
0.0
100
AcDbText
 73
     2
  0
TEXT
  5
7ECB
330
1F
100
AcDbEntity
  8
01注記寸法
100
AcDbText
 10
6391.5
 20
1102.5
 30
0.0
 40
45.0
  1
担当
 72
     1
 11
6450.0
 21
1125.0
 31
0.0
100
AcDbText
 73
     2
  0
TEXT
  5
7ECC
330
1F
100
AcDbEntity
  8
01注記寸法
100
AcDbText
 10
5191.5
 20
1102.5
 30
0.0
 40
45.0
  1
日付
 72
     1
 11
5250.0
 21
1125.0
 31
0.0
100
AcDbText
 73
     2
  0
TEXT
  5
7ECD
330
1F
100
AcDbEntity
  8
01注記寸法
100
AcDbText
 10
5658.0
 20
1102.5
 30
0.0
 40
45.0
  1
改訂記事
 72
     1
 11
5775.0
 21
1125.0
 31
0.0
100
AcDbText
 73
     2
  0
LWPOLYLINE
  5
7ECE
330
1F
100
AcDbEntity
  8
01注記寸法
100
AcDbPolyline
 90
        4
 70
     1
 43
0.0
 10
4950.0
 20
990.0
 10
4950.0
 20
1080.0
 10
5100.0
 20
1080.0
 10
5100.0
 20
990.0
  0
LWPOLYLINE
  5
7ECF
330
1F
100
AcDbEntity
  8
01注記寸法
100
AcDbPolyline
 90
        4
 70
     1
 43
0.0
 10
6375.0
 20
990.0
 10
6375.0
 20
1080.0
 10
6525.0
 20
1080.0
 10
6525.0
 20
990.0
  0
LWPOLYLINE
  5
7ED0
330
1F
100
AcDbEntity
  8
01注記寸法
100
AcDbPolyline
 90
        4
 70
     1
 43
0.0
 10
5100.0
 20
990.0
 10
5100.0
 20
1080.0
 10
5400.0
 20
1080.0
 10
5400.0
 20
990.0
  0
LWPOLYLINE
  5
7ED1
330
1F
100
AcDbEntity
  8
01注記寸法
100
AcDbPolyline
 90
        4
 70
     1
 43
0.0
 10
5400.0
 20
990.0
 10
5400.0
 20
1080.0
 10
6150.0
 20
1080.0
 10
6150.0
 20
990.0
  0
TEXT
  5
7ED2
330
1F
100
AcDbEntity
  8
01注記寸法
100
AcDbText
 10
6391.5
 20
1012.5
 30
0.0
 40
45.0
  1
内野
 72
     1
 11
6450.0
 21
1035.0
 31
0.0
100
AcDbText
 73
     2
  0
TEXT
  5
7ED4
330
1F
100
AcDbEntity
  8
01注記寸法
100
AcDbText
 10
5118.375
 20
1012.50015
 30
0.0
 40
45.0
  1
'16.04.25
 72
     1
 11
5250.0
 21
1035.00015
 31
0.0
100
AcDbText
 73
     2
  0
TEXT
  5
7ED5
330
1F
100
AcDbEntity
  8
01注記寸法
100
AcDbText
 10
5658.0
 20
1012.500113123142
 30
0.0
 40
45.0
  1
全面改訂
 72
     1
 11
5775.0
 21
1035.000113123142
 31
0.0
100
AcDbText
 73
     2
  0
TEXT
  5
7ED6
330
1F
100
AcDbEntity
  8
01注記寸法
100
AcDbText
 10
5010.375000000004
 20
1002.204851391144
 30
0.0
 40
45.0
  1
1
 72
     4
 11
5025.000000000004
 21
1024.929851391144
 31
0.0
100
AcDbText
  0
LWPOLYLINE
  5
7EDA
330
1F
100
AcDbEntity
  8
09図枠
100
AcDbPolyline
 90
        4
 70
     1
 43
0.0
 10
4950.0
 20
1170.0
 10
4950.0
 20
3375.0
 10
6150.0
 20
3375.0
 10
6150.0
 20
1170.0
  0
LWPOLYLINE
  5
7EDB
330
1F
100
AcDbEntity
  8
09図枠
100
AcDbPolyline
 90
        4
 70
     1
 43
0.0
 10
4950.0
 20
630.0
 10
4950.0
 20
1170.0
 10
6150.0
 20
1170.0
 10
6150.0
 20
630.0
  0
LWPOLYLINE
  5
7EDC
330
1F
100
AcDbEntity
  8
01注記寸法
100
AcDbPolyline
 90
        4
 70
     1
 43
0.0
 10
4950.0
 20
900.0
 10
4950.0
 20
990.0
 10
5100.0
 20
990.0
 10
5100.0
 20
900.0
  0
LWPOLYLINE
  5
7EDD
330
1F
100
AcDbEntity
  8
01注記寸法
100
AcDbPolyline
 90
        4
 70
     1
 43
0.0
 10
6375.0
 20
900.0
 10
6375.0
 20
990.0
 10
6525.0
 20
990.0
 10
6525.0
 20
900.0
  0
LWPOLYLINE
  5
7EDE
330
1F
100
AcDbEntity
  8
01注記寸法
100
AcDbPolyline
 90
        4
 70
     1
 43
0.0
 10
5100.0
 20
900.0
 10
5100.0
 20
990.0
 10
5400.0
 20
990.0
 10
5400.0
 20
900.0
  0
LWPOLYLINE
  5
7EDF
330
1F
100
AcDbEntity
  8
01注記寸法
100
AcDbPolyline
 90
        4
 70
     1
 43
0.0
 10
5400.0
 20
900.0
 10
5400.0
 20
990.0
 10
6150.0
 20
990.0
 10
6150.0
 20
900.0
  0
TEXT
  5
7EE0
330
1F
100
AcDbEntity
  8
01注記寸法
100
AcDbText
 10
6391.5
 20
922.5
 30
0.0
 40
45.0
  1
内野
 72
     1
 11
6450.0
 21
945.0
 31
0.0
100
AcDbText
 73
     2
  0
TEXT
  5
7EE2
330
1F
100
AcDbEntity
  8
01注記寸法
100
AcDbText
 10
5658.0
 20
922.500113123142
 30
0.0
 40
45.0
  1
型式追記
 72
     1
 11
5775.0
 21
945.000113123142
 31
0.0
100
AcDbText
 73
     2
  0
TEXT
  5
7EE3
330
1F
100
AcDbEntity
  8
01注記寸法
100
AcDbText
 10
5010.375
 20
912.2055000000004
 30
0.0
 40
45.0
  1
2
 72
     4
 11
5025.0
 21
934.9305000000004
 31
0.0
100
AcDbText
  0
LWPOLYLINE
  5
7EE7
330
1F
100
AcDbEntity
  8
01注記寸法
100
AcDbPolyline
 90
        4
 70
     1
 43
0.0
 10
4950.0
 20
810.0
 10
4950.0
 20
900.0
 10
5100.0
 20
900.0
 10
5100.0
 20
810.0
  0
LWPOLYLINE
  5
7EE8
330
1F
100
AcDbEntity
  8
01注記寸法
100
AcDbPolyline
 90
        4
 70
     1
 43
0.0
 10
6375.0
 20
810.0
 10
6375.0
 20
900.0
 10
6525.0
 20
900.0
 10
6525.0
 20
810.0
  0
LWPOLYLINE
  5
7EE9
330
1F
100
AcDbEntity
  8
01注記寸法
100
AcDbPolyline
 90
        4
 70
     1
 43
0.0
 10
5100.0
 20
810.0
 10
5100.0
 20
900.0
 10
5400.0
 20
900.0
 10
5400.0
 20
810.0
  0
LWPOLYLINE
  5
7EEA
330
1F
100
AcDbEntity
  8
01注記寸法
100
AcDbPolyline
 90
        4
 70
     1
 43
0.0
 10
5400.0
 20
810.0
 10
5400.0
 20
900.0
 10
6150.0
 20
900.0
 10
6150.0
 20
810.0
  0
TEXT
  5
7EEB
330
1F
100
AcDbEntity
  8
01注記寸法
100
AcDbText
 10
6391.5
 20
832.5
 30
0.0
 40
45.0
  1
内野
 72
     1
 11
6450.0
 21
855.0
 31
0.0
100
AcDbText
 73
     2
  0
TEXT
  5
7EED
330
1F
100
AcDbEntity
  8
01注記寸法
100
AcDbText
 10
5541.0
 20
832.500113123142
 30
0.0
 40
45.0
  1
適用防振架台追加
 72
     1
 11
5775.0
 21
855.000113123142
 31
0.0
100
AcDbText
 73
     2
  0
TEXT
  5
7EEE
330
1F
100
AcDbEntity
  8
01注記寸法
100
AcDbText
 10
5010.375
 20
822.2055000000004
 30
0.0
 40
45.0
  1
3
 72
     4
 11
5025.0
 21
844.9305000000004
 31
0.0
100
AcDbText
  0
LWPOLYLINE
  5
7EF2
330
1F
100
AcDbEntity
  8
01注記寸法
100
AcDbPolyline
 90
        4
 70
     1
 43
0.0
 10
4950.0
 20
720.0
 10
4950.0
 20
810.0
 10
5100.0
 20
810.0
 10
5100.0
 20
720.0
  0
LWPOLYLINE
  5
7EF3
330
1F
100
AcDbEntity
  8
01注記寸法
100
AcDbPolyline
 90
        4
 70
     1
 43
0.0
 10
6375.0
 20
720.0
 10
6375.0
 20
810.0
 10
6525.0
 20
810.0
 10
6525.0
 20
720.0
  0
LWPOLYLINE
  5
7EF4
330
1F
100
AcDbEntity
  8
01注記寸法
100
AcDbPolyline
 90
        4
 70
     1
 43
0.0
 10
5100.0
 20
720.0
 10
5100.0
 20
810.0
 10
5400.0
 20
810.0
 10
5400.0
 20
720.0
  0
LWPOLYLINE
  5
7EF5
330
1F
100
AcDbEntity
  8
01注記寸法
100
AcDbPolyline
 90
        4
 70
     1
 43
0.0
 10
5400.0
 20
720.0
 10
5400.0
 20
810.0
 10
6150.0
 20
810.0
 10
6150.0
 20
720.0
  0
TEXT
  5
7EF6
330
1F
100
AcDbEntity
  8
01注記寸法
100
AcDbText
 10
6391.5
 20
742.5
 30
0.0
 40
45.0
  1
担当
 72
     1
 11
6450.0
 21
765.0
 31
0.0
100
AcDbText
 73
     2
  0
TEXT
  5
7EF8
330
1F
100
AcDbEntity
  8
08非表示
100
AcDbText
 10
5701.875
 20
742.500113123142
 30
0.0
 40
45.0
  1
*****
 72
     1
 11
5775.0
 21
765.000113123142
 31
0.0
100
AcDbText
 73
     2
  0
TEXT
  5
7EF9
330
1F
100
AcDbEntity
  8
08非表示
100
AcDbText
 10
5010.375
 20
732.2055000000004
 30
0.0
 40
45.0
  1
4
 72
     4
 11
5025.0
 21
754.9305000000004
 31
0.0
100
AcDbText
  0
LWPOLYLINE
  5
7EFD
330
1F
100
AcDbEntity
  8
01注記寸法
100
AcDbPolyline
 90
        4
 70
     1
 43
0.0
 10
4950.0
 20
630.0
 10
4950.0
 20
720.0
 10
5100.0
 20
720.0
 10
5100.0
 20
630.0
  0
LWPOLYLINE
  5
7EFE
330
1F
100
AcDbEntity
  8
01注記寸法
100
AcDbPolyline
 90
        4
 70
     1
 43
0.0
 10
6375.0
 20
630.0
 10
6375.0
 20
720.0
 10
6525.0
 20
720.0
 10
6525.0
 20
630.0
  0
LWPOLYLINE
  5
7EFF
330
1F
100
AcDbEntity
  8
01注記寸法
100
AcDbPolyline
 90
        4
 70
     1
 43
0.0
 10
5100.0
 20
630.0
 10
5100.0
 20
720.0
 10
5400.0
 20
720.0
 10
5400.0
 20
630.0
  0
LWPOLYLINE
  5
7F00
330
1F
100
AcDbEntity
  8
01注記寸法
100
AcDbPolyline
 90
        4
 70
     1
 43
0.0
 10
5400.0
 20
630.0
 10
5400.0
 20
720.0
 10
6150.0
 20
720.0
 10
6150.0
 20
630.0
  0
TEXT
  5
7F01
330
1F
100
AcDbEntity
  8
01注記寸法
100
AcDbText
 10
6391.5
 20
652.5
 30
0.0
 40
45.0
  1
担当
 72
     1
 11
6450.0
 21
675.0
 31
0.0
100
AcDbText
 73
     2
  0
TEXT
  5
7F03
330
1F
100
AcDbEntity
  8
08非表示
100
AcDbText
 10
5701.875
 20
652.500113123142
 30
0.0
 40
45.0
  1
*****
 72
     1
 11
5775.0
 21
675.000113123142
 31
0.0
100
AcDbText
 73
     2
  0
TEXT
  5
7F04
330
1F
100
AcDbEntity
  8
08非表示
100
AcDbText
 10
5010.375
 20
642.2055000000004
 30
0.0
 40
45.0
  1
5
 72
     4
 11
5025.0
 21
664.9305000000004
 31
0.0
100
AcDbText
  0
ARC
  5
7F08
330
1F
100
AcDbEntity
  8
09図枠
100
AcDbCircle
 10
5010.0
 20
3315.0
 30
0.0
 40
45.0
100
AcDbArc
 50
90.0
 51
270.0
  0
ARC
  5
7F09
330
1F
100
AcDbEntity
  8
09図枠
100
AcDbCircle
 10
5220.0
 20
3315.0
 30
0.0
 40
45.0
100
AcDbArc
 50
270.0
 51
90.0
  0
LINE
  5
7F0A
330
1F
100
AcDbEntity
  8
09図枠
100
AcDbLine
 10
5010.0
 20
3360.0
 30
0.0
 11
5220.0
 21
3360.0
 31
0.0
  0
LINE
  5
7F0B
330
1F
100
AcDbEntity
  8
09図枠
100
AcDbLine
 10
5010.0
 20
3270.0
 30
0.0
 11
5220.0
 21
3270.0
 31
0.0
  0
TEXT
  5
7F0C
330
1F
100
AcDbEntity
  8
01注記寸法
100
AcDbText
 10
5056.5
 20
3292.5
 30
0.0
 40
45.0
  1
仕様
 72
     1
 11
5115.0
 21
3315.0
 31
0.0
100
AcDbText
 73
     2
  0
TEXT
  5
7F0D
330
1F
100
AcDbEntity
  8
01注記寸法
100
AcDbText
 10
4995.0
 20
3202.5
 30
0.0
 40
45.0
  1
架台質量
 11
4995.0
 21
3225.0
 31
0.0
100
AcDbText
 73
     2
  0
TEXT
  5
7F12
330
1F
100
AcDbEntity
  8
01注記寸法
100
AcDbText
 10
6061.5
 20
3202.5
 30
0.0
 40
45.0
  1
kg
 72
     2
 11
6120.0
 21
3225.0
 31
0.0
100
AcDbText
 73
     2
  0
TEXT
  5
7F13
330
1F
100
AcDbEntity
  8
01注記寸法
100
AcDbText
 10
5971.5
 20
3202.5
 30
0.0
 40
45.0
  1
22
 72
     2
 11
6030.0
 21
3225.0
 31
0.0
100
AcDbText
 73
     2
  0
LINE
  5
7F19
330
1F
100
AcDbEntity
  8
01注記寸法
100
AcDbLine
 10
6150.0
 20
3180.0
 30
0.0
 11
4950.0
 21
3180.0
 31
0.0
  0
TEXT
  5
7F1B
330
1F
100
AcDbEntity
  8
01注記寸法
100
AcDbText
 10
4995.0
 20
3112.5
 30
0.0
 40
45.0
  1
材質
 11
4995.0
 21
3135.0
 31
0.0
100
AcDbText
 73
     2
  0
TEXT
  5
7F1C
330
1F
100
AcDbEntity
  8
01注記寸法
100
AcDbText
 10
5973.75
 20
3112.5
 30
0.0
 40
45.0
  1
SS400
 72
     2
 11
6120.0
 21
3135.0
 31
0.0
100
AcDbText
 73
     2
  0
LINE
  5
7F47
330
1F
100
AcDbEntity
  8
09図枠
100
AcDbLine
 10
6150.0
 20
2175.0
 30
0.0
 11
4950.0
 21
2175.0
 31
0.0
  0
LINE
  5
7F48
330
1F
100
AcDbEntity
  8
09図枠
100
AcDbLine
 10
5010.0
 20
2160.0
 30
0.0
 11
5220.0
 21
2160.0
 31
0.0
  0
ARC
  5
7F49
330
1F
100
AcDbEntity
  8
09図枠
100
AcDbCircle
 10
5220.0
 20
2115.0
 30
0.0
 40
45.0
100
AcDbArc
 50
270.0
 51
90.0
  0
TEXT
  5
7F4A
330
1F
100
AcDbEntity
  8
01注記寸法
100
AcDbText
 10
5027.250298397516
 20
2092.5
 30
0.0
 40
45.0
  1
その他
 72
     1
 11
5115.000298397516
 21
2115.0
 31
0.0
100
AcDbText
 73
     2
  0
LINE
  5
7F4B
330
1F
100
AcDbEntity
  8
09図枠
100
AcDbLine
 10
5010.0
 20
2070.0
 30
0.0
 11
5220.0
 21
2070.0
 31
0.0
  0
ARC
  5
7F4C
330
1F
100
AcDbEntity
  8
09図枠
100
AcDbCircle
 10
5010.0
 20
2115.0
 30
0.0
 40
45.0
100
AcDbArc
 50
90.0
 51
270.0
  0
LWPOLYLINE
  5
7F4E
330
1F
100
AcDbEntity
  8
01注記寸法
100
AcDbPolyline
 90
        4
 70
     1
 43
0.0
 10
5850.0
 20
-165.0
 10
5850.0
 20
-75.0
 10
6000.0
 20
-75.0
 10
6000.0
 20
-165.0
  0
LWPOLYLINE
  5
7F4F
330
1F
100
AcDbEntity
  8
01注記寸法
100
AcDbPolyline
 90
        4
 70
     1
 43
0.0
 10
4800.0
 20
-165.0
 10
4800.0
 20
-75.0
 10
5100.0
 20
-75.0
 10
5100.0
 20
-165.0
  0
LWPOLYLINE
  5
7F50
330
1F
100
AcDbEntity
  8
01注記寸法
100
AcDbPolyline
 90
        4
 70
     1
 43
0.0
 10
5100.0
 20
-165.0
 10
5100.0
 20
-75.0
 10
5850.0
 20
-75.0
 10
5850.0
 20
-165.0
  0
TEXT
  5
7F51
330
1F
100
AcDbEntity
  8
01注記寸法
100
AcDbText
 10
5866.5
 20
-142.5
 30
0.0
 40
45.0
  1
担当
 72
     1
 11
5925.0
 21
-120.0
 31
0.0
100
AcDbText
 73
     2
  0
TEXT
  5
7F52
330
1F
100
AcDbEntity
  8
01注記寸法
100
AcDbText
 10
4891.5
 20
-142.5
 30
0.0
 40
45.0
  1
日付
 72
     1
 11
4950.0
 21
-120.0
 31
0.0
100
AcDbText
 73
     2
  0
TEXT
  5
7F53
330
1F
100
AcDbEntity
  8
01注記寸法
100
AcDbText
 10
5211.75
 20
-142.5
 30
0.0
 40
45.0
  1
社内都合による改訂
 72
     1
 11
5475.0
 21
-120.0
 31
0.0
100
AcDbText
 73
     2
  0
LWPOLYLINE
  5
7F54
330
1F
100
AcDbEntity
  8
01注記寸法
100
AcDbPolyline
 90
        4
 70
     1
 43
0.0
 10
5850.0
 20
-255.0
 10
5850.0
 20
-165.0
 10
6000.0
 20
-165.0
 10
6000.0
 20
-255.0
  0
LWPOLYLINE
  5
7F55
330
1F
100
AcDbEntity
  8
01注記寸法
100
AcDbPolyline
 90
        4
 70
     1
 43
0.0
 10
4800.0
 20
-255.0
 10
4800.0
 20
-165.0
 10
5100.0
 20
-165.0
 10
5100.0
 20
-255.0
  0
LWPOLYLINE
  5
7F56
330
1F
100
AcDbEntity
  8
01注記寸法
100
AcDbPolyline
 90
        4
 70
     1
 43
0.0
 10
5100.0
 20
-255.0
 10
5100.0
 20
-165.0
 10
5850.0
 20
-165.0
 10
5850.0
 20
-255.0
  0
TEXT
  5
7F57
330
1F
100
AcDbEntity
  8
01注記寸法
100
AcDbText
 10
5866.5
 20
-232.5
 30
0.0
 40
45.0
  1
担当
 72
     1
 11
5925.0
 21
-210.0
 31
0.0
100
AcDbText
 73
     2
  0
TEXT
  5
7F58
330
1F
100
AcDbEntity
  8
01注記寸法
100
AcDbText
 10
4818.375
 20
-232.4998430661597
 30
0.0
 40
45.0
  1
'yy.mm.dd
 72
     1
 11
4950.0
 21
-209.9998430661597
 31
0.0
100
AcDbText
 73
     2
  0
TEXT
  5
7F59
330
1F
100
AcDbEntity
  8
01注記寸法
100
AcDbText
 10
5401.875
 20
-232.499886876858
 30
0.0
 40
45.0
  1
*****
 72
     1
 11
5475.0
 21
-209.999886876858
 31
0.0
100
AcDbText
 73
     2
  0
LWPOLYLINE
  5
7F8D
330
1F
100
AcDbEntity
  8
01注記寸法
100
AcDbPolyline
 90
        4
 70
     1
 43
0.0
 10
6525.0
 20
1080.0
 10
6525.0
 20
1170.0
 10
6825.0
 20
1170.0
 10
6825.0
 20
1080.0
  0
TEXT
  5
7F8E
330
1F
100
AcDbEntity
  8
01注記寸法
100
AcDbText
 10
6587.25
 20
1102.500492815348
 30
0.0
 40
45.0
  1
依頼書
 72
     1
 11
6675.0
 21
1125.000492815348
 31
0.0
100
AcDbText
 73
     2
  0
LWPOLYLINE
  5
7F8F
330
1F
100
AcDbEntity
  8
01注記寸法
100
AcDbPolyline
 90
        4
 70
     1
 43
0.0
 10
6525.0
 20
990.0
 10
6525.0
 20
1080.0
 10
6825.0
 20
1080.0
 10
6825.0
 20
990.0
  0
TEXT
  5
7F90
330
1F
100
AcDbEntity
  8
01注記寸法
100
AcDbText
 10
6543.375
 20
1012.500492815348
 30
0.0
 40
45.0
  1
PJK000258
 72
     1
 11
6675.0
 21
1035.000492815348
 31
0.0
100
AcDbText
 73
     2
  0
TEXT
  5
7F91
330
1F
100
AcDbEntity
  8
01注記寸法
100
AcDbText
 10
6558.0
 20
922.500113123142
 30
0.0
 40
45.0
  1
T1606288
 72
     1
 11
6675.0
 21
945.000113123142
 31
0.0
100
AcDbText
 73
     2
  0
LWPOLYLINE
  5
7F92
330
1F
100
AcDbEntity
  8
01注記寸法
100
AcDbPolyline
 90
        4
 70
     1
 43
0.0
 10
6525.0
 20
900.0
 10
6525.0
 20
990.0
 10
6825.0
 20
990.0
 10
6825.0
 20
900.0
  0
TEXT
  5
7F93
330
1F
100
AcDbEntity
  8
01注記寸法
100
AcDbText
 10
6558.0
 20
832.500113123142
 30
0.0
 40
45.0
  1
T1705014
 72
     1
 11
6675.0
 21
855.000113123142
 31
0.0
100
AcDbText
 73
     2
  0
LWPOLYLINE
  5
7F94
330
1F
100
AcDbEntity
  8
01注記寸法
100
AcDbPolyline
 90
        4
 70
     1
 43
0.0
 10
6525.0
 20
810.0
 10
6525.0
 20
900.0
 10
6825.0
 20
900.0
 10
6825.0
 20
810.0
  0
TEXT
  5
7F95
330
1F
100
AcDbEntity
  8
01注記寸法
100
AcDbText
 10
6587.25
 20
742.500113123142
 30
0.0
 40
45.0
  1
******
 72
     1
 11
6675.0
 21
765.000113123142
 31
0.0
100
AcDbText
 73
     2
  0
LWPOLYLINE
  5
7F96
330
1F
100
AcDbEntity
  8
01注記寸法
100
AcDbPolyline
 90
        4
 70
     1
 43
0.0
 10
6525.0
 20
720.0
 10
6525.0
 20
810.0
 10
6825.0
 20
810.0
 10
6825.0
 20
720.0
  0
TEXT
  5
7F97
330
1F
100
AcDbEntity
  8
01注記寸法
100
AcDbText
 10
6587.25
 20
652.500113123142
 30
0.0
 40
45.0
  1
******
 72
     1
 11
6675.0
 21
675.000113123142
 31
0.0
100
AcDbText
 73
     2
  0
LWPOLYLINE
  5
7F98
330
1F
100
AcDbEntity
  8
01注記寸法
100
AcDbPolyline
 90
        4
 70
     1
 43
0.0
 10
6525.0
 20
630.0
 10
6525.0
 20
720.0
 10
6825.0
 20
720.0
 10
6825.0
 20
630.0
  0
TEXT
  5
7FC3
330
1F
100
AcDbEntity
  8
01注記寸法
100
AcDbText
 10
4995.0
 20
1912.5
 30
0.0
 40
45.0
  1
　底面全体で水平面に設置してください。
 11
4995.0
 21
1935.0
 31
0.0
100
AcDbText
 73
     2
  0
TEXT
  5
7FC9
330
1F
100
AcDbEntity
  8
01注記寸法
100
AcDbText
 10
195.0
 20
82.5
 30
0.0
 40
45.0
  1
A3
 11
195.0
 21
105.0
 31
0.0
100
AcDbText
 73
     2
  0
TEXT
  5
7FCA
330
1F
100
AcDbEntity
  8
01注記寸法
100
AcDbText
 10
345.0
 20
82.5
 30
0.0
 40
45.0
  1
SCALE=
 11
345.0
 21
105.0
 31
0.0
100
AcDbText
 73
     2
  0
TEXT
  5
7FCB
330
1F
100
AcDbEntity
  8
01注記寸法
100
AcDbText
 10
540.0
 20
82.5
 30
0.0
 40
45.0
  1
1:15
 11
540.0
 21
105.0
 31
0.0
100
AcDbText
 73
     2
  0
LWPOLYLINE
  5
807F
330
1F
100
AcDbEntity
  8
01注記寸法
100
AcDbPolyline
 90
        4
 70
     1
 43
0.0
 10
6000.0
 20
-165.0
 10
6000.0
 20
-75.0
 10
6300.0
 20
-75.0
 10
6300.0
 20
-165.0
  0
TEXT
  5
8080
330
1F
100
AcDbEntity
  8
01注記寸法
100
AcDbText
 10
6062.25
 20
-142.4995071846524
 30
0.0
 40
45.0
  1
依頼書
 72
     1
 11
6150.0
 21
-119.9995071846524
 31
0.0
100
AcDbText
 73
     2
  0
LWPOLYLINE
  5
8081
330
1F
100
AcDbEntity
  8
01注記寸法
100
AcDbPolyline
 90
        4
 70
     1
 43
0.0
 10
6000.0
 20
-255.0
 10
6000.0
 20
-165.0
 10
6300.0
 20
-165.0
 10
6300.0
 20
-255.0
  0
TEXT
  5
8082
330
1F
100
AcDbEntity
  8
01注記寸法
100
AcDbText
 10
6062.25
 20
-232.4995071846524
 30
0.0
 40
45.0
  1
******
 72
     1
 11
6150.0
 21
-209.9995071846524
 31
0.0
100
AcDbText
 73
     2
  0
TEXT
  5
818F
330
1F
100
AcDbEntity
  8
01注記寸法
100
AcDbText
 10
4995.000298397516
 20
3022.5
 30
0.0
 40
45.0
  1
表面処理
 11
4995.000298397516
 21
3045.0
 31
0.0
100
AcDbText
 73
     2
  0
LINE
  5
8191
330
1F
100
AcDbEntity
  8
09図枠
100
AcDbLine
 10
6150.0
 20
2820.0
 30
0.0
 11
4950.0
 21
2820.0
 31
0.0
  0
TEXT
  5
8192
330
1F
100
AcDbEntity
  8
01注記寸法
100
AcDbText
 10
5710.500298397516
 20
3022.5
 30
0.0
 40
45.0
  1
溶融亜鉛めっき
 72
     2
 11
6120.000298397516
 21
3045.0
 31
0.0
100
AcDbText
 73
     2
  0
TEXT
  5
8193
330
1F
100
AcDbEntity
  8
01注記寸法
100
AcDbText
 10
5827.500298397516
 20
2932.5
 30
0.0
 40
45.0
  1
2種・HDZ45
 72
     2
 11
6120.000298397516
 21
2955.0
 31
0.0
100
AcDbText
 73
     2
  0
LINE
  5
8194
330
1F
100
AcDbEntity
  8
09図枠
100
AcDbLine
 10
5010.0
 20
2715.0
 30
0.0
 11
5220.0
 21
2715.0
 31
0.0
  0
ARC
  5
8195
330
1F
100
AcDbEntity
  8
09図枠
100
AcDbCircle
 10
5220.0
 20
2760.0
 30
0.0
 40
45.0
100
AcDbArc
 50
270.0
 51
90.0
  0
LINE
  5
8196
330
1F
100
AcDbEntity
  8
09図枠
100
AcDbLine
 10
5010.0
 20
2805.0
 30
0.0
 11
5220.0
 21
2805.0
 31
0.0
  0
TEXT
  5
8197
330
1F
100
AcDbEntity
  8
01注記寸法
100
AcDbText
 10
5027.250298397516
 20
2737.5
 30
0.0
 40
45.0
  1
付属品
 72
     1
 11
5115.000298397516
 21
2760.0
 31
0.0
100
AcDbText
 73
     2
  0
ARC
  5
8199
330
1F
100
AcDbEntity
  8
09図枠
100
AcDbCircle
 10
5010.0
 20
2760.0
 30
0.0
 40
45.0
100
AcDbArc
 50
90.0
 51
270.0
  0
TEXT
  5
819A
330
1F
100
AcDbEntity
  8
01注記寸法
100
AcDbText
 10
4995.000298397516
 20
2647.5
 30
0.0
 40
45.0
  1
機器固定ボルト
 11
4995.000298397516
 21
2670.0
 31
0.0
100
AcDbText
 73
     2
  0
TEXT
  5
819C
330
1F
100
AcDbEntity
  8
01注記寸法
100
AcDbText
 10
5710.500298397516
 20
2647.5
 30
0.0
 40
45.0
  1
溶融亜鉛めっき
 72
     2
 11
6120.000298397516
 21
2670.0
 31
0.0
100
AcDbText
 73
     2
  0
TEXT
  5
819D
330
1F
100
AcDbEntity
  8
01注記寸法
100
AcDbText
 10
5944.500298397516
 20
2557.5
 30
0.0
 40
45.0
  1
セット
 72
     2
 11
6120.000298397516
 21
2580.0
 31
0.0
100
AcDbText
 73
     2
  0
TEXT
  5
819F
330
1F
100
AcDbEntity
  8
01注記寸法
100
AcDbText
 10
5040.0
 20
2557.5
 30
0.0
 40
45.0
  1
M12×40L
 11
5040.0
 21
2580.0
 31
0.0
100
AcDbText
 73
     2
  0
TEXT
  5
81A1
330
1F
100
AcDbEntity
  8
01注記寸法
100
AcDbText
 10
5903.2503
 20
2557.5
 30
0.0
 40
45.0
  1
4
 72
     2
 11
5932.5003
 21
2580.0
 31
0.0
100
AcDbText
 73
     2
  0
TEXT
  5
81A4
330
1F
100
AcDbEntity
  8
01注記寸法
100
AcDbText
 10
5310.0
 20
2557.5
 30
0.0
 40
45.0
  1
(平W×2,NT×2付)
 11
5310.0
 21
2580.0
 31
0.0
100
AcDbText
 73
     2
  0
TEXT
  5
81A5
330
1F
100
AcDbEntity
  8
01注記寸法
100
AcDbText
 10
5903.250298397516
 20
2377.5
 30
0.0
 40
45.0
  1
4
 72
     2
 11
5932.500298397516
 21
2400.0
 31
0.0
100
AcDbText
 73
     2
  0
TEXT
  5
81A6
330
1F
100
AcDbEntity
  8
01注記寸法
100
AcDbText
 10
5944.500298397516
 20
2377.5
 30
0.0
 40
45.0
  1
セット
 72
     2
 11
6120.000298397516
 21
2400.0
 31
0.0
100
AcDbText
 73
     2
  0
TEXT
  5
81A7
330
1F
100
AcDbEntity
  8
01注記寸法
100
AcDbText
 10
5710.500298397516
 20
2467.5
 30
0.0
 40
45.0
  1
溶融亜鉛めっき
 72
     2
 11
6120.000298397516
 21
2490.0
 31
0.0
100
AcDbText
 73
     2
  0
TEXT
  5
81AA
330
1F
100
AcDbEntity
  8
01注記寸法
100
AcDbText
 10
5310.0
 20
2377.5
 30
0.0
 40
45.0
  1
(平W,角W,NT×2付)
 11
5310.0
 21
2400.0
 31
0.0
100
AcDbText
 73
     2
  0
TEXT
  5
81AB
330
1F
100
AcDbEntity
  8
01注記寸法
100
AcDbText
 10
5040.0
 20
2377.5
 30
0.0
 40
45.0
  1
M12×70L
 11
5040.0
 21
2400.0
 31
0.0
100
AcDbText
 73
     2
  0
TEXT
  5
81AC
330
1F
100
AcDbEntity
  8
01注記寸法
100
AcDbText
 10
4995.000298397516
 20
2467.5
 30
0.0
 40
45.0
  1
防振架台固定ボルト
 11
4995.000298397516
 21
2490.0
 31
0.0
100
AcDbText
 73
     2
  0
TEXT
  5
81AD
330
1F
100
AcDbEntity
  8
08非表示
100
AcDbText
 10
4995.000298397516
 20
2287.5
 30
0.0
 40
45.0
  1
架台連結ボルト
 11
4995.000298397516
 21
2310.0
 31
0.0
100
AcDbText
 73
     2
  0
TEXT
  5
81AE
330
1F
100
AcDbEntity
  8
08非表示
100
AcDbText
 10
5040.0
 20
2197.5
 30
0.0
 40
45.0
  1
M16×40L
 11
5040.0
 21
2220.0
 31
0.0
100
AcDbText
 73
     2
  0
TEXT
  5
81AF
330
1F
100
AcDbEntity
  8
08非表示
100
AcDbText
 10
5310.0
 20
2197.5
 30
0.0
 40
45.0
  1
(平W×2,NT×2付)
 11
5310.0
 21
2220.0
 31
0.0
100
AcDbText
 73
     2
  0
TEXT
  5
81B0
330
1F
100
AcDbEntity
  8
08非表示
100
AcDbText
 10
5710.500298397516
 20
2287.5
 30
0.0
 40
45.0
  1
溶融亜鉛めっき
 72
     2
 11
6120.000298397516
 21
2310.0
 31
0.0
100
AcDbText
 73
     2
  0
TEXT
  5
81B1
330
1F
100
AcDbEntity
  8
08非表示
100
AcDbText
 10
5903.250298397516
 20
2197.5
 30
0.0
 40
45.0
  1
4
 72
     2
 11
5932.500298397516
 21
2220.0
 31
0.0
100
AcDbText
 73
     2
  0
TEXT
  5
81B2
330
1F
100
AcDbEntity
  8
08非表示
100
AcDbText
 10
5944.500298397516
 20
2197.5
 30
0.0
 40
45.0
  1
セット
 72
     2
 11
6120.000298397516
 21
2220.0
 31
0.0
100
AcDbText
 73
     2
  0
TEXT
  5
81BB
330
1F
100
AcDbEntity
  8
01注記寸法
100
AcDbText
 10
4995.0
 20
2842.5
 30
0.0
 40
45.0
  1
耐震基準
 11
4995.0
 21
2865.0
 31
0.0
100
AcDbText
 73
     2
  0
TEXT
  5
81BC
330
1F
100
AcDbEntity
  8
01注記寸法
100
AcDbText
 10
6003.0
 20
2842.5
 30
0.0
 40
45.0
  1
1.0G
 72
     2
 11
6120.0
 21
2865.0
 31
0.0
100
AcDbText
 73
     2
  0
CIRCLE
  5
81BD
330
1F
100
AcDbEntity
  8
08非表示
100
AcDbCircle
 10
5347.5
 20
2760.0
 30
0.0
 40
37.5
  0
TEXT
  5
81BE
330
1F
100
AcDbEntity
  8
08非表示
100
AcDbText
 10
5332.875
 20
2737.5
 30
0.0
 40
45.0
  1
A
 72
     1
 11
5347.5
 21
2760.0
 31
0.0
100
AcDbText
 73
     2
  0
CIRCLE
  5
81BF
330
1F
100
AcDbEntity
  8
08非表示
100
AcDbCircle
 10
5422.5
 20
2760.0
 30
0.0
 40
37.5
  0
TEXT
  5
81C0
330
1F
100
AcDbEntity
  8
08非表示
100
AcDbText
 10
5407.875
 20
2737.5
 30
0.0
 40
45.0
  1
B
 72
     1
 11
5422.5
 21
2760.0
 31
0.0
100
AcDbText
 73
     2
  0
CIRCLE
  5
81C1
330
1F
100
AcDbEntity
  8
08非表示
100
AcDbCircle
 10
5497.5
 20
2760.0
 30
0.0
 40
37.5
  0
TEXT
  5
81C2
330
1F
100
AcDbEntity
  8
08非表示
100
AcDbText
 10
5482.875
 20
2737.5
 30
0.0
 40
45.0
  1
C
 72
     1
 11
5497.5
 21
2760.0
 31
0.0
100
AcDbText
 73
     2
  0
CIRCLE
  5
81C3
330
1F
100
AcDbEntity
  8
08非表示
100
AcDbCircle
 10
5572.5
 20
2760.0
 30
0.0
 40
37.5
  0
TEXT
  5
81C4
330
1F
100
AcDbEntity
  8
08非表示
100
AcDbText
 10
5557.875
 20
2737.5
 30
0.0
 40
45.0
  1
1
 72
     1
 11
5572.5
 21
2760.0
 31
0.0
100
AcDbText
 73
     2
  0
TEXT
  5
81C5
330
1F
100
AcDbEntity
  8
08非表示
100
AcDbText
 10
5632.875
 20
2737.5
 30
0.0
 40
45.0
  1
2
 72
     1
 11
5647.5
 21
2760.0
 31
0.0
100
AcDbText
 73
     2
  0
CIRCLE
  5
81C6
330
1F
100
AcDbEntity
  8
08非表示
100
AcDbCircle
 10
5647.5
 20
2760.0
 30
0.0
 40
37.5
  0
TEXT
  5
81C7
330
1F
100
AcDbEntity
  8
08非表示
100
AcDbText
 10
5707.875
 20
2737.5
 30
0.0
 40
45.0
  1
3
 72
     1
 11
5722.5
 21
2760.0
 31
0.0
100
AcDbText
 73
     2
  0
CIRCLE
  5
81C8
330
1F
100
AcDbEntity
  8
08非表示
100
AcDbCircle
 10
5722.5
 20
2760.0
 30
0.0
 40
37.5
  0
LINE
  5
81CD
330
1F
100
AcDbEntity
  8
01注記寸法
100
AcDbLine
 10
6150.0
 20
2910.0
 30
0.0
 11
4950.0
 21
2910.0
 31
0.0
  0
TEXT
  5
81E7
330
1F
100
AcDbEntity
  8
01注記寸法
100
AcDbText
 10
4995.0
 20
1822.5
 30
0.0
 40
45.0
  1
2.アンカーボルトは含まれておりません。
 11
4995.0
 21
1845.0
 31
0.0
100
AcDbText
 73
     2
  0
TEXT
  5
81E8
330
1F
100
AcDbEntity
  8
01注記寸法
100
AcDbText
 10
4995.0
 20
1732.5
 30
0.0
 40
45.0
  1
　先様にてご用意ください。
 11
4995.0
 21
1755.0
 31
0.0
100
AcDbText
 73
     2
  0
TEXT
  5
81F8
330
1F
100
AcDbEntity
  8
01注記寸法
100
AcDbText
 10
4995.0
 20
2002.5
 30
0.0
 40
45.0
  1
1.架台の据付
 11
4995.0
 21
2025.0
 31
0.0
100
AcDbText
 73
     2
  0
LINE
  5
86AE
330
1F
100
AcDbEntity
  8
08非表示
100
AcDbLine
 10
6150.0
 20
3090.0
 30
0.0
 11
4950.0
 21
3090.0
 31
0.0
  0
LINE
  5
86AF
330
1F
100
AcDbEntity
  8
08非表示
100
AcDbLine
 10
6375.0
 20
1035.0
 30
0.0
 11
6150.0
 21
1035.0
 31
0.0
  0
LINE
  5
86B0
330
1F
100
AcDbEntity
  8
08非表示
100
AcDbLine
 10
6375.0
 20
945.0
 30
0.0
 11
6150.0
 21
945.0
 31
0.0
  0
LINE
  5
86B1
330
1F
100
AcDbEntity
  8
08非表示
100
AcDbLine
 10
6375.0
 20
855.0
 30
0.0
 11
6150.0
 21
855.0
 31
0.0
  0
LINE
  5
86B2
330
1F
100
AcDbEntity
  8
08非表示
100
AcDbLine
 10
6375.0
 20
765.0
 30
0.0
 11
6150.0
 21
765.0
 31
0.0
  0
LINE
  5
86B3
330
1F
100
AcDbEntity
  8
08非表示
100
AcDbLine
 10
6375.0
 20
675.0
 30
0.0
 11
6150.0
 21
675.0
 31
0.0
  0
TEXT
  5
86B4
330
1F
100
AcDbEntity
  8
01注記寸法
100
AcDbText
 10
5118.375
 20
922.50015
 30
0.0
 40
45.0
  1
'16.06.28
 72
     1
 11
5250.0
 21
945.00015
 31
0.0
100
AcDbText
 73
     2
  0
TEXT
  5
86B5
330
1F
100
AcDbEntity
  8
01注記寸法
100
AcDbText
 10
5118.375
 20
832.50015
 30
0.0
 40
45.0
  1
'17.05.26
 72
     1
 11
5250.0
 21
855.00015
 31
0.0
100
AcDbText
 73
     2
  0
TEXT
  5
86B6
330
1F
100
AcDbEntity
  8
08非表示
100
AcDbText
 10
5118.375
 20
742.50015
 30
0.0
 40
45.0
  1
'yy.mm.dd
 72
     1
 11
5250.0
 21
765.00015
 31
0.0
100
AcDbText
 73
     2
  0
TEXT
  5
86B7
330
1F
100
AcDbEntity
  8
08非表示
100
AcDbText
 10
5118.375
 20
652.50015
 30
0.0
 40
45.0
  1
'yy.mm.dd
 72
     1
 11
5250.0
 21
675.00015
 31
0.0
100
AcDbText
 73
     2
  0
LWPOLYLINE
  5
86F1
330
1F
100
AcDbEntity
  8
01注記寸法
100
AcDbPolyline
 90
        4
 70
     1
 43
0.0
 10
0.0
 20
-165.0
 10
0.0
 20
-75.0
 10
750.0
 20
-75.0
 10
750.0
 20
-165.0
  0
TEXT
  5
86F2
330
1F
100
AcDbEntity
  8
01注記寸法
100
AcDbText
 10
258.0
 20
-142.5
 30
0.0
 40
45.0
  1
適用機種
 72
     1
 11
375.0
 21
-120.0
 31
0.0
100
AcDbText
 73
     2
  0
LWPOLYLINE
  5
86F3
330
1F
100
AcDbEntity
  8
01注記寸法
100
AcDbPolyline
 90
        4
 70
     1
 43
0.0
 10
0.0
 20
-255.0
 10
0.0
 20
-165.0
 10
750.0
 20
-165.0
 10
750.0
 20
-255.0
  0
TEXT
  5
86FD
330
1F
100
AcDbEntity
  8
01注記寸法
100
AcDbText
 10
15.0
 20
-232.5
 30
0.0
 40
45.0
  1
適用防振架台参照
 11
15.0
 21
-210.0
 31
0.0
100
AcDbText
 73
     2
  0
TEXT
  5
885B
330
1F
100
AcDbEntity
  8
01注記寸法
100
AcDbText
 10
5111.25
 20
4147.5
 30
0.0
 40
75.0
  1
高置ＢＨ架台仕様書
 72
     1
 11
5550.0
 21
4185.0
 31
0.0
100
AcDbText
 73
     2
  0
TEXT
  5
8864
330
1F
100
AcDbEntity
  8
08非表示
100
AcDbText
 10
5514.0
 20
3870.0
 30
0.0
 40
60.0
  1
メーカー
 72
     1
 11
5670.0
 21
3900.0
 31
0.0
100
AcDbText
 73
     2
  0
TEXT
  5
8865
330
1F
100
AcDbEntity
  8
08非表示
100
AcDbText
 10
5553.0
 20
3780.0
 30
0.0
 40
60.0
  1
機種名
 72
     1
 11
5670.0
 21
3810.0
 31
0.0
100
AcDbText
 73
     2
  0
TEXT
  5
8867
330
1F
100
AcDbEntity
  8
08非表示
100
AcDbText
 10
5582.25
 20
3682.5
 30
0.0
 40
45.0
  1
*** kg
 72
     1
 11
5670.0
 21
3705.0
 31
0.0
100
AcDbText
 73
     2
  0
TEXT
  5
8869
330
1F
100
AcDbEntity
  8
08非表示
100
AcDbText
 10
5596.875
 20
3397.5
 30
0.0
 40
45.0
  1
*****
 72
     1
 11
5670.0
 21
3420.0
 31
0.0
100
AcDbText
 73
     2
  0
TEXT
  5
886D
330
1F
100
AcDbEntity
  8
08非表示
100
AcDbText
 10
5509.125
 20
3532.5
 30
0.0
 40
45.0
  1
現場名(1行)
 72
     1
 11
5670.0
 21
3555.0
 31
0.0
100
AcDbText
 73
     2
  0
TEXT
  5
886E
330
1F
100
AcDbEntity
  8
08非表示
100
AcDbText
 10
5479.875
 20
3577.5
 30
0.0
 40
45.0
  1
現場名(1/2行)
 72
     1
 11
5670.0
 21
3600.0
 31
0.0
100
AcDbText
 73
     2
  0
TEXT
  5
886F
330
1F
100
AcDbEntity
  8
08非表示
100
AcDbText
 10
5479.875
 20
3487.5
 30
0.0
 40
45.0
  1
現場名(2/2行)
 72
     1
 11
5670.0
 21
3510.0
 31
0.0
100
AcDbText
 73
     2
  0
LWPOLYLINE
  5
8C2C
330
1F
100
AcDbEntity
  8
01注記寸法
100
AcDbPolyline
 90
        4
 70
     1
 43
0.0
 10
6375.0
 20
435.0
 10
6375.0
 20
525.0
 10
6525.0
 20
525.0
 10
6525.0
 20
435.0
  0
TEXT
  5
8C2E
330
1F
100
AcDbEntity
  8
01注記寸法
100
AcDbText
 10
6558.0
 20
457.500113123142
 30
0.0
 40
45.0
  1
N22113-1
 72
     1
 11
6675.0
 21
480.000113123142
 31
0.0
100
AcDbText
 73
     2
  0
LWPOLYLINE
  5
8C2F
330
1F
100
AcDbEntity
  8
01注記寸法
100
AcDbPolyline
 90
        4
 70
     1
 43
0.0
 10
6525.0
 20
435.0
 10
6525.0
 20
525.0
 10
6825.0
 20
525.0
 10
6825.0
 20
435.0
  0
LINE
  5
8C30
330
1F
100
AcDbEntity
  8
08非表示
100
AcDbLine
 10
6375.0
 20
480.0
 30
0.0
 11
6150.0
 21
480.0
 31
0.0
  0
LINE
  5
8C31
330
1F
100
AcDbEntity
  8
01注記寸法
100
AcDbLine
 10
6375.0
 20
435.0
 30
0.0
 11
6525.0
 21
525.0
 31
0.0
  0
LWPOLYLINE
  5
969D
330
1F
100
AcDbEntity
  8
01注記寸法
100
AcDbPolyline
 90
        4
 70
     0
 43
0.0
 10
5025.000000000004
 20
1066.150186134337
 10
4985.364796555424
 20
997.5
 10
5064.635203444576
 20
997.5
 10
5025.000000000004
 20
1066.150186134337
  0
LWPOLYLINE
  5
96A0
330
1F
100
AcDbEntity
  8
01注記寸法
100
AcDbPolyline
 90
        4
 70
     0
 43
0.0
 10
5025.000000000004
 20
976.1501861343368
 10
4985.364796555424
 20
907.5
 10
5064.635203444576
 20
907.5
 10
5025.000000000004
 20
976.1501861343368
  0
LWPOLYLINE
  5
96A1
330
1F
100
AcDbEntity
  8
01注記寸法
100
AcDbPolyline
 90
        4
 70
     0
 43
0.0
 10
5025.000000000004
 20
886.1501861343368
 10
4985.364796555424
 20
817.5
 10
5064.635203444576
 20
817.5
 10
5025.000000000004
 20
886.1501861343368
  0
LWPOLYLINE
  5
96A2
330
1F
100
AcDbEntity
  8
08非表示
100
AcDbPolyline
 90
        4
 70
     0
 43
0.0
 10
5025.000000000004
 20
796.1501861343368
 10
4985.364796555424
 20
727.5
 10
5064.635203444576
 20
727.5
 10
5025.000000000004
 20
796.1501861343368
  0
LWPOLYLINE
  5
96A3
330
1F
100
AcDbEntity
  8
08非表示
100
AcDbPolyline
 90
        4
 70
     0
 43
0.0
 10
5025.000000000004
 20
706.1501861343368
 10
4985.364796555424
 20
637.5
 10
5064.635203444576
 20
637.5
 10
5025.000000000004
 20
706.1501861343368
  0
LINE
  5
9A59
330
1F
100
AcDbEntity
  8
08非表示
100
AcDbLine
 10
6120.0
 20
3180.0
 30
0.0
 11
6120.0
 21
3270.0
 31
0.0
  0
LINE
  5
9A5A
330
1F
100
AcDbEntity
  8
08非表示
100
AcDbLine
 10
4950.0
 20
3225.0
 30
0.0
 11
6150.0
 21
3225.0
 31
0.0
  0
LINE
  5
9A5B
330
1F
100
AcDbEntity
  8
08非表示
100
AcDbLine
 10
4995.0
 20
3270.0
 30
0.0
 11
4995.0
 21
3180.0
 31
0.0
  0
LINE
  5
9A5C
330
1F
100
AcDbEntity
  8
08非表示
100
AcDbLine
 10
6030.0
 20
3180.0
 30
0.0
 11
6030.0
 21
3270.0
 31
0.0
  0
LINE
  5
9A60
330
1F
100
AcDbEntity
  8
08非表示
100
AcDbLine
 10
6120.0
 20
3090.0
 30
0.0
 11
6120.0
 21
3180.0
 31
0.0
  0
LINE
  5
9A61
330
1F
100
AcDbEntity
  8
08非表示
100
AcDbLine
 10
4950.0
 20
3135.0
 30
0.0
 11
6150.0
 21
3135.0
 31
0.0
  0
LINE
  5
9A62
330
1F
100
AcDbEntity
  8
08非表示
100
AcDbLine
 10
4995.0
 20
3180.0
 30
0.0
 11
4995.0
 21
3090.0
 31
0.0
  0
LINE
  5
9A63
330
1F
100
AcDbEntity
  8
08非表示
100
AcDbLine
 10
4995.0
 20
3000.0
 30
0.0
 11
4995.0
 21
2910.0
 31
0.0
  0
LINE
  5
9A64
330
1F
100
AcDbEntity
  8
08非表示
100
AcDbLine
 10
4950.0
 20
2955.0
 30
0.0
 11
6150.0
 21
2955.0
 31
0.0
  0
LINE
  5
9A65
330
1F
100
AcDbEntity
  8
08非表示
100
AcDbLine
 10
6120.0
 20
2910.0
 30
0.0
 11
6120.0
 21
3000.0
 31
0.0
  0
LINE
  5
9A69
330
1F
100
AcDbEntity
  8
08非表示
100
AcDbLine
 10
4995.0
 20
2910.0
 30
0.0
 11
4995.0
 21
2820.0
 31
0.0
  0
LINE
  5
9A6A
330
1F
100
AcDbEntity
  8
08非表示
100
AcDbLine
 10
4950.0
 20
2865.0
 30
0.0
 11
6150.0
 21
2865.0
 31
0.0
  0
LINE
  5
9A6B
330
1F
100
AcDbEntity
  8
08非表示
100
AcDbLine
 10
6120.0
 20
2820.0
 30
0.0
 11
6120.0
 21
2910.0
 31
0.0
  0
LINE
  5
9A6C
330
1F
100
AcDbEntity
  8
08非表示
100
AcDbLine
 10
6120.0
 20
3000.0
 30
0.0
 11
6120.0
 21
3090.0
 31
0.0
  0
LINE
  5
9A6D
330
1F
100
AcDbEntity
  8
08非表示
100
AcDbLine
 10
4950.0
 20
3045.0
 30
0.0
 11
6150.0
 21
3045.0
 31
0.0
  0
LINE
  5
9A6E
330
1F
100
AcDbEntity
  8
08非表示
100
AcDbLine
 10
4995.0
 20
3090.0
 30
0.0
 11
4995.0
 21
3000.0
 31
0.0
  0
LINE
  5
9A6F
330
1F
100
AcDbEntity
  8
08非表示
100
AcDbLine
 10
6150.0
 20
3270.0
 30
0.0
 11
4950.0
 21
3270.0
 31
0.0
  0
LINE
  5
9A71
330
1F
100
AcDbEntity
  8
08非表示
100
AcDbLine
 10
4950.0
 20
2220.0
 30
0.0
 11
6150.0
 21
2220.0
 31
0.0
  0
LINE
  5
9A72
330
1F
100
AcDbEntity
  8
08非表示
100
AcDbLine
 10
5310.0
 20
2175.0
 30
0.0
 11
5310.0
 21
2265.0
 31
0.0
  0
LINE
  5
9A73
330
1F
100
AcDbEntity
  8
08非表示
100
AcDbLine
 10
6120.0
 20
2175.0
 30
0.0
 11
6120.0
 21
2265.0
 31
0.0
  0
LINE
  5
9A75
330
1F
100
AcDbEntity
  8
08非表示
100
AcDbLine
 10
5932.5
 20
2175.0
 30
0.0
 11
5932.5
 21
2265.0
 31
0.0
  0
LINE
  5
9A76
330
1F
100
AcDbEntity
  8
08非表示
100
AcDbLine
 10
5040.0
 20
2265.0
 30
0.0
 11
5040.0
 21
2175.0
 31
0.0
  0
LINE
  5
9A77
330
1F
100
AcDbEntity
  8
08非表示
100
AcDbLine
 10
4995.0
 20
2355.0
 30
0.0
 11
4995.0
 21
2265.0
 31
0.0
  0
LINE
  5
9A78
330
1F
100
AcDbEntity
  8
08非表示
100
AcDbLine
 10
4950.0
 20
2310.0
 30
0.0
 11
6150.0
 21
2310.0
 31
0.0
  0
LINE
  5
9A7A
330
1F
100
AcDbEntity
  8
08非表示
100
AcDbLine
 10
6120.0
 20
2265.0
 30
0.0
 11
6120.0
 21
2355.0
 31
0.0
  0
LINE
  5
9A7C
330
1F
100
AcDbEntity
  8
08非表示
100
AcDbLine
 10
4950.0
 20
3000.0
 30
0.0
 11
6150.0
 21
3000.0
 31
0.0
  0
LINE
  5
9A7D
330
1F
100
AcDbEntity
  8
08非表示
100
AcDbLine
 10
4950.0
 20
2265.0
 30
0.0
 11
6150.0
 21
2265.0
 31
0.0
  0
LINE
  5
9A7E
330
1F
100
AcDbEntity
  8
08非表示
100
AcDbLine
 10
4950.0
 20
2355.0
 30
0.0
 11
6150.0
 21
2355.0
 31
0.0
  0
LINE
  5
9A7F
330
1F
100
AcDbEntity
  8
08非表示
100
AcDbLine
 10
4995.0
 20
2535.0
 30
0.0
 11
4995.0
 21
2445.0
 31
0.0
  0
LINE
  5
9A80
330
1F
100
AcDbEntity
  8
08非表示
100
AcDbLine
 10
4950.0
 20
2535.0
 30
0.0
 11
6150.0
 21
2535.0
 31
0.0
  0
LINE
  5
9A81
330
1F
100
AcDbEntity
  8
08非表示
100
AcDbLine
 10
4950.0
 20
2490.0
 30
0.0
 11
6150.0
 21
2490.0
 31
0.0
  0
LINE
  5
9A82
330
1F
100
AcDbEntity
  8
08非表示
100
AcDbLine
 10
4950.0
 20
2400.0
 30
0.0
 11
6150.0
 21
2400.0
 31
0.0
  0
LINE
  5
9A83
330
1F
100
AcDbEntity
  8
08非表示
100
AcDbLine
 10
4950.0
 20
2445.0
 30
0.0
 11
6150.0
 21
2445.0
 31
0.0
  0
LINE
  5
9A84
330
1F
100
AcDbEntity
  8
08非表示
100
AcDbLine
 10
5040.0
 20
2445.0
 30
0.0
 11
5040.0
 21
2355.0
 31
0.0
  0
LINE
  5
9A85
330
1F
100
AcDbEntity
  8
08非表示
100
AcDbLine
 10
5310.0
 20
2355.0
 30
0.0
 11
5310.0
 21
2445.0
 31
0.0
  0
LINE
  5
9A86
330
1F
100
AcDbEntity
  8
08非表示
100
AcDbLine
 10
5932.5
 20
2355.0
 30
0.0
 11
5932.5
 21
2445.0
 31
0.0
  0
LINE
  5
9A87
330
1F
100
AcDbEntity
  8
08非表示
100
AcDbLine
 10
6120.0
 20
2355.0
 30
0.0
 11
6120.0
 21
2445.0
 31
0.0
  0
LINE
  5
9A88
330
1F
100
AcDbEntity
  8
08非表示
100
AcDbLine
 10
6120.0
 20
2445.0
 30
0.0
 11
6120.0
 21
2535.0
 31
0.0
  0
LINE
  5
9A89
330
1F
100
AcDbEntity
  8
08非表示
100
AcDbLine
 10
4995.0
 20
2715.0
 30
0.0
 11
4995.0
 21
2625.0
 31
0.0
  0
LINE
  5
9A8A
330
1F
100
AcDbEntity
  8
08非表示
100
AcDbLine
 10
4950.0
 20
2715.0
 30
0.0
 11
6150.0
 21
2715.0
 31
0.0
  0
LINE
  5
9A8B
330
1F
100
AcDbEntity
  8
08非表示
100
AcDbLine
 10
4950.0
 20
2670.0
 30
0.0
 11
6150.0
 21
2670.0
 31
0.0
  0
LINE
  5
9A8C
330
1F
100
AcDbEntity
  8
08非表示
100
AcDbLine
 10
4950.0
 20
2580.0
 30
0.0
 11
6150.0
 21
2580.0
 31
0.0
  0
LINE
  5
9A8D
330
1F
100
AcDbEntity
  8
08非表示
100
AcDbLine
 10
4950.0
 20
2625.0
 30
0.0
 11
6150.0
 21
2625.0
 31
0.0
  0
LINE
  5
9A8E
330
1F
100
AcDbEntity
  8
08非表示
100
AcDbLine
 10
5040.0
 20
2625.0
 30
0.0
 11
5040.0
 21
2535.0
 31
0.0
  0
LINE
  5
9A8F
330
1F
100
AcDbEntity
  8
08非表示
100
AcDbLine
 10
5310.0
 20
2535.0
 30
0.0
 11
5310.0
 21
2625.0
 31
0.0
  0
LINE
  5
9A90
330
1F
100
AcDbEntity
  8
08非表示
100
AcDbLine
 10
5932.5
 20
2535.0
 30
0.0
 11
5932.5
 21
2625.0
 31
0.0
  0
LINE
  5
9A91
330
1F
100
AcDbEntity
  8
08非表示
100
AcDbLine
 10
6120.0
 20
2535.0
 30
0.0
 11
6120.0
 21
2625.0
 31
0.0
  0
LINE
  5
9A92
330
1F
100
AcDbEntity
  8
08非表示
100
AcDbLine
 10
6120.0
 20
2625.0
 30
0.0
 11
6120.0
 21
2715.0
 31
0.0
  0
LINE
  5
9A93
330
1F
100
AcDbEntity
  8
08非表示
100
AcDbLine
 10
4950.0
 20
2760.0
 30
0.0
 11
6150.0
 21
2760.0
 31
0.0
  0
LINE
  5
9A94
330
1F
100
AcDbEntity
  8
08非表示
100
AcDbLine
 10
6150.0
 20
3315.0
 30
0.0
 11
4950.0
 21
3315.0
 31
0.0
  0
LINE
  5
9A9C
330
1F
100
AcDbEntity
  8
08非表示
100
AcDbLine
 10
4950.0
 20
2070.0
 30
0.0
 11
6150.0
 21
2070.0
 31
0.0
  0
LINE
  5
9A9D
330
1F
100
AcDbEntity
  8
08非表示
100
AcDbLine
 10
4950.0
 20
2025.0
 30
0.0
 11
6150.0
 21
2025.0
 31
0.0
  0
LINE
  5
9A9E
330
1F
100
AcDbEntity
  8
08非表示
100
AcDbLine
 10
4950.0
 20
1980.0
 30
0.0
 11
6150.0
 21
1980.0
 31
0.0
  0
LINE
  5
9A9F
330
1F
100
AcDbEntity
  8
08非表示
100
AcDbLine
 10
4950.0
 20
1935.0
 30
0.0
 11
6150.0
 21
1935.0
 31
0.0
  0
LINE
  5
9AA0
330
1F
100
AcDbEntity
  8
08非表示
100
AcDbLine
 10
4950.0
 20
1890.0
 30
0.0
 11
6150.0
 21
1890.0
 31
0.0
  0
LINE
  5
9AA1
330
1F
100
AcDbEntity
  8
08非表示
100
AcDbLine
 10
4950.0
 20
1845.0
 30
0.0
 11
6150.0
 21
1845.0
 31
0.0
  0
LINE
  5
9AA2
330
1F
100
AcDbEntity
  8
08非表示
100
AcDbLine
 10
4950.0
 20
1800.0
 30
0.0
 11
6150.0
 21
1800.0
 31
0.0
  0
LINE
  5
9AA3
330
1F
100
AcDbEntity
  8
08非表示
100
AcDbLine
 10
4950.0
 20
1755.0
 30
0.0
 11
6150.0
 21
1755.0
 31
0.0
  0
LINE
  5
9AA4
330
1F
100
AcDbEntity
  8
08非表示
100
AcDbLine
 10
4950.0
 20
1710.0
 30
0.0
 11
6150.0
 21
1710.0
 31
0.0
  0
LINE
  5
9AA5
330
1F
100
AcDbEntity
  8
08非表示
100
AcDbLine
 10
4995.0
 20
2070.0
 30
0.0
 11
4995.0
 21
1980.0
 31
0.0
  0
LINE
  5
9AA6
330
1F
100
AcDbEntity
  8
08非表示
100
AcDbLine
 10
4995.0
 20
1980.0
 30
0.0
 11
4995.0
 21
1890.0
 31
0.0
  0
LINE
  5
9AA7
330
1F
100
AcDbEntity
  8
08非表示
100
AcDbLine
 10
4995.0
 20
1890.0
 30
0.0
 11
4995.0
 21
1800.0
 31
0.0
  0
LINE
  5
9AA8
330
1F
100
AcDbEntity
  8
08非表示
100
AcDbLine
 10
4995.0
 20
1800.0
 30
0.0
 11
4995.0
 21
1710.0
 31
0.0
  0
LINE
  5
9AAB
330
1F
100
AcDbEntity
  8
08非表示
100
AcDbLine
 10
4995.0
 20
3465.0
 30
0.0
 11
4995.0
 21
3375.0
 31
0.0
  0
LINE
  5
9AAC
330
1F
100
AcDbEntity
  8
08非表示
100
AcDbLine
 10
4950.0
 20
3420.0
 30
0.0
 11
6150.0
 21
3420.0
 31
0.0
  0
LINE
  5
9AAD
330
1F
100
AcDbEntity
  8
08非表示
100
AcDbLine
 10
4995.0
 20
3765.0
 30
0.0
 11
4995.0
 21
3645.0
 31
0.0
  0
LINE
  5
9AAE
330
1F
100
AcDbEntity
  8
08非表示
100
AcDbLine
 10
4950.0
 20
3705.0
 30
0.0
 11
6150.0
 21
3705.0
 31
0.0
  0
LINE
  5
9AAF
330
1F
100
AcDbEntity
  8
08非表示
100
AcDbLine
 10
4995.0
 20
3855.0
 30
0.0
 11
4995.0
 21
3765.0
 31
0.0
  0
LINE
  5
9AB0
330
1F
100
AcDbEntity
  8
08非表示
100
AcDbLine
 10
4950.0
 20
3810.0
 30
0.0
 11
6150.0
 21
3810.0
 31
0.0
  0
LINE
  5
9AB1
330
1F
100
AcDbEntity
  8
08非表示
100
AcDbLine
 10
4950.0
 20
3855.0
 30
0.0
 11
6150.0
 21
3855.0
 31
0.0
  0
LINE
  5
9AB2
330
1F
100
AcDbEntity
  8
08非表示
100
AcDbLine
 10
4995.0
 20
3900.0
 30
0.0
 11
4995.0
 21
3810.0
 31
0.0
  0
LINE
  5
9AB3
330
1F
100
AcDbEntity
  8
08非表示
100
AcDbLine
 10
4950.0
 20
3900.0
 30
0.0
 11
6150.0
 21
3900.0
 31
0.0
  0
LINE
  5
9AB4
330
1F
100
AcDbEntity
  8
08非表示
100
AcDbLine
 10
4995.0
 20
3945.0
 30
0.0
 11
4995.0
 21
3855.0
 31
0.0
  0
LINE
  5
9AB5
330
1F
100
AcDbEntity
  8
08非表示
100
AcDbLine
 10
4950.0
 20
3555.0
 30
0.0
 11
6150.0
 21
3555.0
 31
0.0
  0
LINE
  5
9AB6
330
1F
100
AcDbEntity
  8
08非表示
100
AcDbLine
 10
4995.0
 20
3600.0
 30
0.0
 11
4995.0
 21
3510.0
 31
0.0
  0
LINE
  5
9AB7
330
1F
100
AcDbEntity
  8
08非表示
100
AcDbLine
 10
4950.0
 20
3600.0
 30
0.0
 11
6150.0
 21
3600.0
 31
0.0
  0
LINE
  5
9AB8
330
1F
100
AcDbEntity
  8
08非表示
100
AcDbLine
 10
4950.0
 20
3510.0
 30
0.0
 11
6150.0
 21
3510.0
 31
0.0
  0
LINE
  5
9AB9
330
1F
100
AcDbEntity
  8
08非表示
100
AcDbLine
 10
5190.0
 20
4005.0
 30
0.0
 11
6150.0
 21
4005.0
 31
0.0
  0
LINE
  5
9ABA
330
1F
100
AcDbEntity
  8
08非表示
100
AcDbLine
 10
5670.0
 20
4065.0
 30
0.0
 11
5670.0
 21
3945.0
 31
0.0
  0
LINE
  5
9ABB
330
1F
100
AcDbEntity
  8
08非表示
100
AcDbLine
 10
5670.0
 20
3945.0
 30
0.0
 11
5670.0
 21
3645.0
 31
0.0
  0
LINE
  5
9ABC
330
1F
100
AcDbEntity
  8
08非表示
100
AcDbLine
 10
5670.0
 20
3645.0
 30
0.0
 11
5670.0
 21
3375.0
 31
0.0
  0
LINE
  5
A00E
330
1F
100
AcDbEntity
  8
08非表示
100
AcDbLine
 10
750.0
 20
-75.0
 30
0.0
 11
825.0
 21
-75.0
 31
0.0
  0
TEXT
  5
A162
330
1F
100
AcDbEntity
  8
13製作用注記
100
AcDbText
 10
232.4995331564592
 20
4342.499560703486
 30
0.0
 40
75.0
  1
製作用詳細図
 72
     1
 11
524.9995331564592
 21
4379.999560703486
 31
0.0
100
AcDbText
 73
     2
  0
LWPOLYLINE
  5
A163
330
1F
100
AcDbEntity
  8
13製作用注記
370
    30
100
AcDbPolyline
 90
        4
 70
     1
 43
0.0
 10
150.0
 20
4305.0
 10
150.0
 20
4455.0
 10
900.0000000000003
 20
4455.0
 10
900.0000000000003
 20
4305.0
  0
TEXT
  5
A3F3
330
1F
100
AcDbEntity
  8
08非表示
100
AcDbText
 10
5422.5
 20
8.220234375
 30
0.0
 40
45.0
  1
仕様書フォーム：2016年03月30日
 72
     2
 11
6300.0
 21
0.0
 31
0.0
100
AcDbText
 73
     1
  0
LWPOLYLINE
  5
A948
330
1F
100
AcDbEntity
  8
01注記寸法
100
AcDbPolyline
 90
        4
 70
     1
 43
0.0
 10
6375.0
 20
4365.0
 10
6375.0
 20
4455.0
 10
6900.0
 20
4455.0
 10
6900.0
 20
4365.0
  0
TEXT
  5
A94D
330
1F
100
AcDbEntity
  8
01注記寸法
100
AcDbText
 10
6405.0
 20
4387.5
 30
0.0
 40
45.0
  1
機器脚   t=
 11
6405.0
 21
4410.0
 31
0.0
100
AcDbText
 73
     2
  0
LINE
  5
A94E
330
1F
100
AcDbEntity
  8
08非表示
100
AcDbLine
 10
6750.0
 20
4365.0
 30
0.0
 11
6750.0
 21
4455.0
 31
0.0
  0
LWPOLYLINE
  5
A972
330
1F
100
AcDbEntity
  8
01注記寸法
100
AcDbPolyline
 90
        4
 70
     1
 43
0.0
 10
6375.0
 20
4275.0
 10
6375.0
 20
4365.0
 10
6900.0
 20
4365.0
 10
6900.0
 20
4275.0
  0
TEXT
  5
A974
330
1F
100
AcDbEntity
  8
01注記寸法
100
AcDbText
 10
6405.0
 20
4297.5
 30
0.0
 40
45.0
  1
アンカー M=
 11
6405.0
 21
4320.0
 31
0.0
100
AcDbText
 73
     2
  0
LINE
  5
A975
330
1F
100
AcDbEntity
  8
08非表示
100
AcDbLine
 10
6750.0
 20
4275.0
 30
0.0
 11
6750.0
 21
4365.0
 31
0.0
  0
TEXT
  5
A9E7
330
1F
100
AcDbEntity
  8
01注記寸法
100
AcDbText
 10
6781.125
 20
4387.5
 30
0.0
 40
45.0
  1
3.2
 72
     1
 11
6825.0
 21
4410.0
 31
0.0
100
AcDbText
 73
     2
  0
TEXT
  5
A9E8
330
1F
100
AcDbEntity
  8
01注記寸法
100
AcDbText
 10
6795.75
 20
4297.5
 30
0.0
 40
45.0
  1
12
 72
     1
 11
6825.0
 21
4320.0
 31
0.0
100
AcDbText
 73
     2
  0
LWPOLYLINE
  5
B716
330
1F
100
AcDbEntity
  8
01注記寸法
100
AcDbPolyline
 90
        4
 70
     1
 43
0.0
 10
4650.0
 20
-255.0
 10
4650.0
 20
-165.0
 10
4800.0
 20
-165.0
 10
4800.0
 20
-255.0
  0
TEXT
  5
B719
330
1F
100
AcDbEntity
  8
01注記寸法
100
AcDbText
 10
4666.5
 20
-142.5
 30
0.0
 40
45.0
  1
番号
 72
     1
 11
4725.0
 21
-120.0
 31
0.0
100
AcDbText
 73
     2
  0
LWPOLYLINE
  5
B71A
330
1F
100
AcDbEntity
  8
01注記寸法
100
AcDbPolyline
 90
        4
 70
     1
 43
0.0
 10
4650.0
 20
-165.0
 10
4650.0
 20
-75.0
 10
4800.0
 20
-75.0
 10
4800.0
 20
-165.0
  0
LWPOLYLINE
  5
B71B
330
1F
100
AcDbEntity
  8
01注記寸法
100
AcDbPolyline
 90
        4
 70
     1
 43
0.0
 10
4695.0
 20
-240.0
 10
4695.0
 20
-180.0
 10
4755.0
 20
-180.0
 10
4755.0
 20
-240.0
  0
TEXT
  5
B71D
330
1F
100
AcDbEntity
  8
01注記寸法
100
AcDbText
 10
4710.375
 20
-232.5
 30
0.0
 40
45.0
  1
1
 72
     1
 11
4725.0
 21
-210.0
 31
0.0
100
AcDbText
 73
     2
  0
INSERT
  5
BDFC
330
1F
100
AcDbEntity
  8
02実線
100
AcDbBlockReference
  2
BH-筋交(柱L60)-500H
 10
1526.799999999998
 20
1865.000000000003
 30
0.0
  0
INSERT
  5
BDFD
330
1F
100
AcDbEntity
  8
02実線
100
AcDbBlockReference
  2
BH-端柱(L60)-500H-正面
 10
1496.799999999998
 20
1650.000000000001
 30
0.0
  0
INSERT
  5
BDFE
330
1F
100
AcDbEntity
  8
02実線
100
AcDbBlockReference
  2
BH-端柱(L60)-500H-側面
 10
3095.299999999998
 20
1650.000000000003
 30
0.0
  0
INSERT
  5
BDFF
330
1F
100
AcDbEntity
  8
02実線
100
AcDbBlockReference
  2
BH-端柱(L60)-500H-正面
 10
2453.2
 20
1650.000000000001
 30
0.0
 41
-1.0
  0
INSERT
  5
BE00
330
1F
100
AcDbEntity
  8
02実線
100
AcDbBlockReference
  2
BH-端柱(L60)-500H-側面
 10
3879.7
 20
1650.000000000003
 30
0.0
 41
-1.0
  0
LWPOLYLINE
  5
BE01
102
{ACAD_REACTORS
330
BE74
102
}
330
1F
100
AcDbEntity
  8
08非表示
100
AcDbPolyline
 90
        4
 70
     1
 43
0.0
 10
3869.000000000001
 20
1860.000000000001
 10
3869.000000000001
 20
1900.000000000001
 10
3879.700000000002
 20
1900.000000000001
 10
3879.700000000002
 20
1860.000000000001
  0
LWPOLYLINE
  5
BE02
102
{ACAD_REACTORS
330
BE74
102
}
330
1F
100
AcDbEntity
  8
08非表示
100
AcDbPolyline
 90
        4
 70
     1
 43
0.0
 10
3106.000000000001
 20
1860.000000000001
 10
3106.000000000001
 20
1900.000000000001
 10
3095.299999999998
 20
1900.000000000001
 10
3095.299999999998
 20
1860.000000000001
  0
LINE
  5
BE03
102
{ACAD_REACTORS
330
BE74
102
}
330
1F
100
AcDbEntity
  8
03破線
100
AcDbLine
 10
3106.000000000001
 20
1860.000000000001
 30
0.0
 11
3155.3
 21
1860.000000000001
 31
0.0
  0
LINE
  5
BE04
102
{ACAD_REACTORS
330
BE74
102
}
330
1F
100
AcDbEntity
  8
03破線
100
AcDbLine
 10
3106.000000000001
 20
1900.000000000001
 30
0.0
 11
3155.3
 21
1900.000000000001
 31
0.0
  0
LINE
  5
BE05
102
{ACAD_REACTORS
330
BE74
102
}
330
1F
100
AcDbEntity
  8
03破線
100
AcDbLine
 10
3106.000000000001
 20
1860.000000000001
 30
0.0
 11
3106.000000000001
 21
1900.000000000001
 31
0.0
  0
LINE
  5
BE06
102
{ACAD_REACTORS
330
BE74
102
}
330
1F
100
AcDbEntity
  8
03破線
100
AcDbLine
 10
3869.000000000001
 20
1860.000000000001
 30
0.0
 11
3819.700000000002
 21
1860.000000000001
 31
0.0
  0
LINE
  5
BE07
102
{ACAD_REACTORS
330
BE74
102
}
330
1F
100
AcDbEntity
  8
03破線
100
AcDbLine
 10
3869.000000000001
 20
1900.000000000001
 30
0.0
 11
3819.700000000002
 21
1900.000000000001
 31
0.0
  0
LINE
  5
BE08
102
{ACAD_REACTORS
330
BE74
102
}
330
1F
100
AcDbEntity
  8
03破線
100
AcDbLine
 10
3869.000000000001
 20
1860.000000000001
 30
0.0
 11
3869.000000000001
 21
1900.000000000001
 31
0.0
  0
LINE
  5
BE09
102
{ACAD_REACTORS
330
BE74
102
}
330
1F
100
AcDbEntity
  8
02実線
100
AcDbLine
 10
3819.700000000002
 20
1900.000000000001
 30
0.0
 11
3155.3
 21
1900.000000000001
 31
0.0
  0
LINE
  5
BE0A
102
{ACAD_REACTORS
330
BE74
102
}
330
1F
100
AcDbEntity
  8
03破線
100
AcDbLine
 10
3869.000000000001
 20
1896.800000000002
 30
0.0
 11
3106.000000000001
 21
1896.800000000002
 31
0.0
  0
LINE
  5
BE0B
102
{ACAD_REACTORS
330
BE74
102
}
330
1F
100
AcDbEntity
  8
02実線
100
AcDbLine
 10
3819.700000000002
 20
1860.000000000001
 30
0.0
 11
3155.3
 21
1860.000000000001
 31
0.0
  0
INSERT
  5
BE0C
330
1F
100
AcDbEntity
  8
03破線
100
AcDbBlockReference
  2
BH-anchor-L60-背面
 10
2421.2
 20
1650.000000000001
 30
0.0
  0
INSERT
  5
BE0D
330
1F
100
AcDbEntity
  8
03破線
100
AcDbBlockReference
  2
BH-anchor-L60-背面
 10
1528.799999999998
 20
1650.000000000001
 30
0.0
  0
INSERT
  5
BE0E
330
1F
100
AcDbEntity
  8
03破線
100
AcDbBlockReference
  2
BH-anchor-L60-立面
 10
3839.499999999999
 20
1650.000000000003
 30
0.0
 41
-1.0
  0
INSERT
  5
BE0F
330
1F
100
AcDbEntity
  8
03破線
100
AcDbBlockReference
  2
BH-anchor-L60-立面
 10
3135.499999999999
 20
1650.000000000003
 30
0.0
  0
INSERT
  5
BE10
330
1F
100
AcDbEntity
  8
02実線
100
AcDbBlockReference
  2
BH-筋交(柱L60)-500H
 10
2423.2
 20
1865.000000000003
 30
0.0
 41
-1.0
  0
LWPOLYLINE
  5
BE11
102
{ACAD_REACTORS
330
BE76
102
}
330
1F
100
AcDbEntity
  8
03破線
100
AcDbPolyline
 90
        4
 70
     0
 43
0.0
 10
1503.199999999996
 20
2100.000000000001
 10
1503.199999999996
 20
2146.800000000002
 10
2446.799999999998
 20
2146.800000000002
 10
2446.799999999998
 20
2100.000000000001
  0
LINE
  5
BE12
102
{ACAD_REACTORS
330
BE76
102
}
330
1F
100
AcDbEntity
  8
03破線
100
AcDbLine
 10
1503.199999999996
 20
2100.000000000001
 30
0.0
 11
1519.999999999999
 21
2090.000000000001
 31
0.0
  0
LINE
  5
BE13
102
{ACAD_REACTORS
330
BE76
102
}
330
1F
100
AcDbEntity
  8
03破線
100
AcDbLine
 10
2446.799999999998
 20
2100.000000000001
 30
0.0
 11
2429.999999999999
 21
2090.000000000001
 31
0.0
  0
LINE
  5
BE14
102
{ACAD_REACTORS
330
BE76
102
}
330
1F
100
AcDbEntity
  8
03破線
100
AcDbLine
 10
1499.999999999999
 20
2147.000000000001
 30
0.0
 11
1499.999999999999
 21
2100.000000000001
 31
0.0
  0
LINE
  5
BE15
102
{ACAD_REACTORS
330
BE76
102
}
330
1F
100
AcDbEntity
  8
03破線
100
AcDbLine
 10
2446.799999999998
 20
2100.000000000001
 30
0.0
 11
2449.999999999999
 21
2100.000000000001
 31
0.0
  0
LINE
  5
BE16
102
{ACAD_REACTORS
330
BE76
102
}
330
1F
100
AcDbEntity
  8
03破線
100
AcDbLine
 10
1503.199999999996
 20
2100.000000000001
 30
0.0
 11
1499.999999999999
 21
2100.000000000001
 31
0.0
  0
LINE
  5
BE17
102
{ACAD_REACTORS
330
BE76
102
}
330
1F
100
AcDbEntity
  8
03破線
100
AcDbLine
 10
1538.499999999999
 20
2109.500000000001
 30
0.0
 11
1521.499999999999
 21
2109.500000000001
 31
0.0
  0
LINE
  5
BE18
102
{ACAD_REACTORS
330
BE76
102
}
330
1F
100
AcDbEntity
  8
03破線
100
AcDbLine
 10
1538.499999999999
 20
2122.500000000001
 30
0.0
 11
1521.499999999999
 21
2122.500000000001
 31
0.0
  0
ARC
  5
BE19
102
{ACAD_REACTORS
330
BE76
102
}
330
1F
100
AcDbEntity
  8
03破線
100
AcDbCircle
 10
1538.499999999999
 20
2116.000000000001
 30
0.0
 40
6.5
100
AcDbArc
 50
270.0
 51
90.0
  0
ARC
  5
BE1A
102
{ACAD_REACTORS
330
BE76
102
}
330
1F
100
AcDbEntity
  8
03破線
100
AcDbCircle
 10
1521.499999999999
 20
2116.000000000001
 30
0.0
 40
6.5
100
AcDbArc
 50
90.0
 51
270.0
  0
CIRCLE
  5
BE1B
102
{ACAD_REACTORS
330
BE76
102
}
330
1F
100
AcDbEntity
  8
02実線
100
AcDbCircle
 10
1838.999999999999
 20
2115.000000000001
 30
0.0
 40
6.5
  0
CIRCLE
  5
BE1C
102
{ACAD_REACTORS
330
BE76
102
}
330
1F
100
AcDbEntity
  8
02実線
100
AcDbCircle
 10
2110.999999999999
 20
2115.000000000001
 30
0.0
 40
6.5
  0
ARC
  5
BE1D
102
{ACAD_REACTORS
330
BE76
102
}
330
1F
100
AcDbEntity
  8
03破線
100
AcDbCircle
 10
2428.499999999999
 20
2116.000000000001
 30
0.0
 40
6.5
100
AcDbArc
 50
270.0
 51
90.0
  0
ARC
  5
BE1E
102
{ACAD_REACTORS
330
BE76
102
}
330
1F
100
AcDbEntity
  8
03破線
100
AcDbCircle
 10
2411.499999999999
 20
2116.000000000001
 30
0.0
 40
6.5
100
AcDbArc
 50
90.0
 51
270.0
  0
LINE
  5
BE1F
102
{ACAD_REACTORS
330
BE76
102
}
330
1F
100
AcDbEntity
  8
03破線
100
AcDbLine
 10
2411.499999999999
 20
2122.500000000001
 30
0.0
 11
2428.499999999999
 21
2122.500000000001
 31
0.0
  0
LINE
  5
BE20
102
{ACAD_REACTORS
330
BE76
102
}
330
1F
100
AcDbEntity
  8
03破線
100
AcDbLine
 10
2411.499999999999
 20
2109.500000000001
 30
0.0
 11
2428.499999999999
 21
2109.500000000001
 31
0.0
  0
LWPOLYLINE
  5
BE21
102
{ACAD_REACTORS
330
BE76
102
}
330
1F
100
AcDbEntity
  8
03破線
100
AcDbPolyline
 90
        2
 70
   128
 43
0.0
 10
1556.799999999998
 20
2090.000000000001
 10
1519.999999999999
 20
2090.000000000001
  0
LWPOLYLINE
  5
BE22
102
{ACAD_REACTORS
330
BE76
102
}
330
1F
100
AcDbEntity
  8
03破線
100
AcDbPolyline
 90
        2
 70
     0
 43
0.0
 10
2429.999999999999
 20
2090.000000000001
 10
2393.2
 20
2090.000000000001
  0
LWPOLYLINE
  5
BE23
102
{ACAD_REACTORS
330
BE76
102
}
330
1F
100
AcDbEntity
  8
02実線
100
AcDbPolyline
 90
        2
 70
     0
 43
0.0
 10
2393.2
 20
2090.000000000001
 10
1556.799999999998
 20
2090.000000000001
  0
LWPOLYLINE
  5
BE24
102
{ACAD_REACTORS
330
BE76
102
}
330
1F
100
AcDbEntity
  8
03破線
100
AcDbPolyline
 90
        2
 70
     0
 43
0.0
 10
2449.999999999999
 20
2147.000000000001
 10
2449.999999999999
 20
2100.000000000001
  0
LWPOLYLINE
  5
BE25
102
{ACAD_REACTORS
330
BE76
102
}
330
1F
100
AcDbEntity
  8
02実線
100
AcDbPolyline
 90
        4
 70
     0
 43
0.0
 10
1499.999999999999
 20
2147.000000000001
 10
1499.999999999999
 20
2150.000000000001
 10
2449.999999999999
 20
2150.000000000001
 10
2449.999999999999
 20
2147.000000000001
  0
LINE
  5
BE26
102
{ACAD_REACTORS
330
BE76
102
}
330
1F
100
AcDbEntity
  8
04一点鎖線
 48
0.2
100
AcDbLine
 10
1838.999999999999
 20
2131.500000000001
 30
0.0
 11
1838.999999999999
 21
2098.500000000001
 31
0.0
  0
LINE
  5
BE27
102
{ACAD_REACTORS
330
BE76
102
}
330
1F
100
AcDbEntity
  8
04一点鎖線
 48
0.2
100
AcDbLine
 10
1855.499999999999
 20
2115.000000000001
 30
0.0
 11
1822.499999999999
 21
2115.000000000001
 31
0.0
  0
LINE
  5
BE28
102
{ACAD_REACTORS
330
BE76
102
}
330
1F
100
AcDbEntity
  8
04一点鎖線
 48
0.2
100
AcDbLine
 10
2110.999999999999
 20
2131.500000000001
 30
0.0
 11
2110.999999999999
 21
2098.500000000001
 31
0.0
  0
LINE
  5
BE29
102
{ACAD_REACTORS
330
BE76
102
}
330
1F
100
AcDbEntity
  8
04一点鎖線
 48
0.2
100
AcDbLine
 10
2127.499999999999
 20
2115.000000000001
 30
0.0
 11
2094.499999999999
 21
2115.000000000001
 31
0.0
  0
LWPOLYLINE
  5
BE2A
102
{ACAD_REACTORS
330
BE75
102
}
330
1F
100
AcDbEntity
  8
03破線
  6
HIDDEN
100
AcDbPolyline
 90
        4
 70
     0
 43
0.0
 10
3103.2
 20
2100.000000000001
 10
3103.2
 20
2146.800000000002
 10
3871.799999999998
 20
2146.800000000002
 10
3871.799999999998
 20
2100.000000000001
  0
LWPOLYLINE
  5
BE2B
102
{ACAD_REACTORS
330
BE75
102
}
330
1F
100
AcDbEntity
  8
02実線
100
AcDbPolyline
 90
        2
 70
     0
 43
0.0
 10
3814.999999999999
 20
2090.000000000001
 10
3159.999999999999
 20
2090.000000000001
  0
LINE
  5
BE2C
102
{ACAD_REACTORS
330
BE75
102
}
330
1F
100
AcDbEntity
  8
02実線
100
AcDbLine
 10
3159.999999999999
 20
2090.000000000001
 30
0.0
 11
3159.999999999999
 21
2100.000000000001
 31
0.0
  0
LINE
  5
BE2D
102
{ACAD_REACTORS
330
BE75
102
}
330
1F
100
AcDbEntity
  8
02実線
100
AcDbLine
 10
3814.999999999999
 20
2090.000000000001
 30
0.0
 11
3814.999999999999
 21
2100.000000000001
 31
0.0
  0
CIRCLE
  5
BE2E
102
{ACAD_REACTORS
330
BE75
102
}
330
1F
100
AcDbEntity
  8
02実線
100
AcDbCircle
 10
3199.999999999999
 20
2120.000000000001
 30
0.0
 40
6.5
  0
CIRCLE
  5
BE2F
102
{ACAD_REACTORS
330
BE75
102
}
330
1F
100
AcDbEntity
  8
02実線
100
AcDbCircle
 10
3129.999999999999
 20
2120.000000000001
 30
0.0
 40
6.5
  0
CIRCLE
  5
BE30
102
{ACAD_REACTORS
330
BE75
102
}
330
1F
100
AcDbEntity
  8
02実線
100
AcDbCircle
 10
3844.999999999999
 20
2120.000000000001
 30
0.0
 40
6.5
  0
CIRCLE
  5
BE31
102
{ACAD_REACTORS
330
BE75
102
}
330
1F
100
AcDbEntity
  8
02実線
100
AcDbCircle
 10
3774.999999999999
 20
2120.000000000001
 30
0.0
 40
6.5
  0
LINE
  5
BE32
102
{ACAD_REACTORS
330
BE75
102
}
330
1F
100
AcDbEntity
  8
02実線
100
AcDbLine
 10
3159.999999999999
 20
2100.000000000001
 30
0.0
 11
3155.299999999998
 21
2100.000000000001
 31
0.0
  0
LWPOLYLINE
  5
BE33
102
{ACAD_REACTORS
330
BE75
102
}
330
1F
100
AcDbEntity
  8
03破線
  6
HIDDEN
100
AcDbPolyline
 90
        2
 70
     0
 43
0.0
 10
3099.999999999999
 20
2100.000000000001
 10
3099.999999999999
 20
2147.000000000003
  0
LINE
  5
BE34
102
{ACAD_REACTORS
330
BE75
102
}
330
1F
100
AcDbEntity
  8
03破線
  6
HIDDEN
100
AcDbLine
 10
3155.299999999998
 20
2100.000000000001
 30
0.0
 11
3099.999999999999
 21
2100.000000000001
 31
0.0
  0
LWPOLYLINE
  5
BE35
102
{ACAD_REACTORS
330
BE75
102
}
330
1F
100
AcDbEntity
  8
02実線
100
AcDbPolyline
 90
        4
 70
     0
 43
0.0
 10
3099.999999999999
 20
2147.000000000003
 10
3099.999999999999
 20
2150.000000000001
 10
3874.999999999999
 20
2150.000000000001
 10
3874.999999999999
 20
2147.000000000003
  0
LINE
  5
BE36
102
{ACAD_REACTORS
330
BE75
102
}
330
1F
100
AcDbEntity
  8
02実線
100
AcDbLine
 10
3814.999999999999
 20
2100.000000000001
 30
0.0
 11
3819.7
 21
2100.000000000001
 31
0.0
  0
LWPOLYLINE
  5
BE37
102
{ACAD_REACTORS
330
BE75
102
}
330
1F
100
AcDbEntity
  8
03破線
  6
HIDDEN
100
AcDbPolyline
 90
        2
 70
     0
 43
0.0
 10
3874.999999999999
 20
2147.000000000003
 10
3874.999999999999
 20
2100.000000000001
  0
LINE
  5
BE38
102
{ACAD_REACTORS
330
BE75
102
}
330
1F
100
AcDbEntity
  8
03破線
  6
HIDDEN
100
AcDbLine
 10
3819.7
 20
2100.000000000001
 30
0.0
 11
3874.999999999999
 21
2100.000000000001
 31
0.0
  0
LINE
  5
BE39
102
{ACAD_REACTORS
330
BE75
102
}
330
1F
100
AcDbEntity
  8
04一点鎖線
 48
0.2
100
AcDbLine
 10
3791.499999999999
 20
2120.000000000001
 30
0.0
 11
3758.499999999999
 21
2120.000000000001
 31
0.0
  0
LINE
  5
BE3A
102
{ACAD_REACTORS
330
BE75
102
}
330
1F
100
AcDbEntity
  8
04一点鎖線
 48
0.2
100
AcDbLine
 10
3774.999999999999
 20
2103.500000000001
 30
0.0
 11
3774.999999999999
 21
2136.500000000001
 31
0.0
  0
LINE
  5
BE3B
102
{ACAD_REACTORS
330
BE75
102
}
330
1F
100
AcDbEntity
  8
04一点鎖線
 48
0.2
100
AcDbLine
 10
3216.499999999999
 20
2120.000000000001
 30
0.0
 11
3183.499999999999
 21
2120.000000000001
 31
0.0
  0
LINE
  5
BE3C
102
{ACAD_REACTORS
330
BE75
102
}
330
1F
100
AcDbEntity
  8
04一点鎖線
 48
0.2
100
AcDbLine
 10
3199.999999999999
 20
2103.500000000001
 30
0.0
 11
3199.999999999999
 21
2136.500000000001
 31
0.0
  0
DIMENSION
  5
BE5D
330
1F
100
AcDbEntity
  8
08非表示
100
AcDbDimension
  2
*D541
 10
3874.999999999999
 20
2250.000000000001
 30
0.0
 11
3487.499999999999
 21
2275.000000000001
 31
0.0
 70
    32
 71
     5
 42
775.0
  3
NEMY-10
100
AcDbAlignedDimension
 13
3099.999999999999
 23
2150.000000000001
 33
0.0
 14
3874.999999999999
 24
2150.000000000001
 34
0.0
100
AcDbRotatedDimension
  0
DIMENSION
  5
BE62
330
1F
100
AcDbEntity
  8
13製作用注記
100
AcDbDimension
  2
*D542
 10
1496.799999999998
 20
1939.037128224684
 30
0.0
 11
1364.957499999998
 21
1976.537128224684
 31
0.0
 70
    32
 71
     5
 42
30.0
  3
NEMY-15
100
AcDbAlignedDimension
 13
1526.799999999998
 23
1881.500000000001
 33
0.0
 14
1496.799999999998
 24
1881.500000000001
 34
0.0
100
AcDbRotatedDimension
  0
DIMENSION
  5
BE63
330
1F
100
AcDbEntity
  8
13製作用注記
100
AcDbDimension
  2
*D543
 10
1346.799999999998
 20
1865.000000000001
 30
0.0
 11
1309.299999999998
 21
1757.500000000001
 31
0.0
 70
    32
 71
     5
 42
215.0
  3
NEMY-15
100
AcDbAlignedDimension
 13
1496.799999999998
 23
1650.000000000001
 33
0.0
 14
1510.299999999998
 24
1865.000000000001
 34
0.0
 50
90.0
100
AcDbRotatedDimension
  0
DIMENSION
  5
BE64
330
1F
100
AcDbEntity
  8
01注記寸法
100
AcDbDimension
  2
*D544
 10
1249.999999999999
 20
2150.000000000001
 30
0.0
 11
1212.499999999999
 21
1900.000000000001
 31
0.0
 70
    32
 71
     5
 42
500.0
  3
NEMY-15
100
AcDbAlignedDimension
 13
1496.799999999998
 23
1650.000000000001
 33
0.0
 14
1499.999999999999
 24
2150.000000000001
 34
0.0
 50
90.0
100
AcDbRotatedDimension
  0
DIMENSION
  5
BE65
330
1F
100
AcDbEntity
  8
13製作用注記
100
AcDbDimension
  2
*D545
 10
1938.452757210268
 20
2150.000000000001
 30
0.0
 11
1938.452757210268
 21
1983.742500000001
 31
0.0
 70
   160
 71
     5
 42
35.0
  3
NEMY-15
100
AcDbAlignedDimension
 13
1855.499999999999
 23
2115.000000000001
 33
0.0
 14
1855.499999999999
 24
2150.000000000001
 34
0.0
 50
90.0
100
AcDbRotatedDimension
  0
DIMENSION
  5
BE67
330
1F
100
AcDbEntity
  8
13製作用注記
100
AcDbDimension
  2
*D547
 10
1838.999999999999
 20
2220.000000000001
 30
0.0
 11
1669.499999999999
 21
2257.500000000001
 31
0.0
 70
    32
 71
     5
 42
339.0
  3
NEMY-15
100
AcDbAlignedDimension
 13
1499.999999999999
 23
2150.000000000001
 33
0.0
 14
1838.999999999999
 24
2131.500000000001
 34
0.0
100
AcDbRotatedDimension
  0
DIMENSION
  5
BE68
330
1F
100
AcDbEntity
  8
13製作用注記
100
AcDbDimension
  2
*D548
 10
2110.999999999999
 20
2220.000000000001
 30
0.0
 11
1974.999999999999
 21
2257.500000000001
 31
0.0
 70
    32
 71
     5
 42
272.0
  3
NEMY-15
100
AcDbAlignedDimension
 13
1838.999999999999
 23
2131.500000000001
 33
0.0
 14
2110.999999999999
 24
2131.500000000001
 34
0.0
100
AcDbRotatedDimension
  0
DIMENSION
  5
BE6B
330
1F
100
AcDbEntity
  8
13製作用注記
100
AcDbDimension
  2
*D551
 10
2449.999999999999
 20
2220.000000000001
 30
0.0
 11
2280.499999999999
 21
2257.500000000001
 31
0.0
 70
    32
 71
     5
 42
339.0
  3
NEMY-15
100
AcDbAlignedDimension
 13
2110.999999999999
 23
2131.500000000001
 33
0.0
 14
2449.999999999999
 24
2150.000000000001
 34
0.0
100
AcDbRotatedDimension
  0
DIMENSION
  5
BE72
330
1F
100
AcDbEntity
  8
01注記寸法
100
AcDbDimension
  2
*D552
 10
2948.499999999999
 20
1900.000000000001
 30
0.0
 11
2910.999999999999
 21
1775.000000000002
 31
0.0
 70
    32
 71
     5
 42
249.9999999999982
  3
NEMY-15
100
AcDbAlignedDimension
 13
3095.299999999998
 23
1650.000000000003
 33
0.0
 14
3106.000000000001
 24
1900.000000000001
 34
0.0
 50
90.0
100
AcDbRotatedDimension
  0
TEXT
  5
C4B5
330
1F
100
AcDbEntity
  8
01注記寸法
100
AcDbText
 10
595.7025403784437
 20
723.375
 30
0.0
 40
45.0
  1
アンカーボルト孔
100
AcDbText
  0
TEXT
  5
C4B7
330
1F
100
AcDbEntity
  8
01注記寸法
100
AcDbText
 10
595.7025403784437
 20
648.375
 30
0.0
 40
45.0
  1
(4-φ16)
100
AcDbText
  0
TEXT
  5
D023
330
1F
100
AcDbEntity
  8
01注記寸法
100
AcDbText
 10
4995.0
 20
1642.5
 30
0.0
 40
45.0
  1
3.品質改善のため製品の仕様は予告無く
 11
4995.0
 21
1665.0
 31
0.0
100
AcDbText
 73
     2
  0
TEXT
  5
D024
330
1F
100
AcDbEntity
  8
01注記寸法
100
AcDbText
 10
4995.0
 20
1552.5
 30
0.0
 40
45.0
  1
　変更する場合があります。
 11
4995.0
 21
1575.0
 31
0.0
100
AcDbText
 73
     2
  0
LINE
  5
D025
330
1F
100
AcDbEntity
  8
08非表示
100
AcDbLine
 10
4950.0
 20
1665.0
 30
0.0
 11
6150.0
 21
1665.0
 31
0.0
  0
LINE
  5
D026
330
1F
100
AcDbEntity
  8
08非表示
100
AcDbLine
 10
4950.0
 20
1620.0
 30
0.0
 11
6150.0
 21
1620.0
 31
0.0
  0
LINE
  5
D027
330
1F
100
AcDbEntity
  8
08非表示
100
AcDbLine
 10
4950.0
 20
1575.0
 30
0.0
 11
6150.0
 21
1575.0
 31
0.0
  0
LINE
  5
D028
330
1F
100
AcDbEntity
  8
08非表示
100
AcDbLine
 10
4950.0
 20
1530.0
 30
0.0
 11
6150.0
 21
1530.0
 31
0.0
  0
LINE
  5
D029
330
1F
100
AcDbEntity
  8
08非表示
100
AcDbLine
 10
4995.0
 20
1710.0
 30
0.0
 11
4995.0
 21
1620.0
 31
0.0
  0
LINE
  5
D02A
330
1F
100
AcDbEntity
  8
08非表示
100
AcDbLine
 10
4995.0
 20
1620.0
 30
0.0
 11
4995.0
 21
1530.0
 31
0.0
  0
LWPOLYLINE
  5
D5F5
330
1F
100
AcDbEntity
  8
09図枠
100
AcDbPolyline
 90
        4
 70
     1
 43
0.0
 10
150.0
 20
150.0
 10
150.0
 20
1500.000000000001
 10
4950.0
 20
1500.000000000001
 10
4950.0
 20
150.0
  0
LWPOLYLINE
  5
D62C
330
1F
100
AcDbEntity
  8
09図枠
100
AcDbPolyline
 90
        4
 70
     1
 43
0.0
 10
150.0
 20
1500.000000000001
 10
150.0
 20
4304.999999999998
 10
4950.0
 20
4304.999999999998
 10
4950.0
 20
1500.000000000001
  0
LWPOLYLINE
  5
D62E
330
1F
100
AcDbEntity
  8
01注記寸法
100
AcDbPolyline
 90
        4
 70
     1
 43
0.0
 10
4950.0
 20
420.0
 10
4950.0
 20
539.9999999999999
 10
5340.0
 20
539.9999999999999
 10
5340.0
 20
420.0
  0
LWPOLYLINE
  5
D62F
330
1F
100
AcDbEntity
  8
01注記寸法
100
AcDbPolyline
 90
        4
 70
     1
 43
0.0
 10
5340.0
 20
420.0
 10
5340.0
 20
540.0
 10
5610.0
 20
540.0
 10
5610.0
 20
420.0
  0
LWPOLYLINE
  5
D630
330
1F
100
AcDbEntity
  8
01注記寸法
100
AcDbPolyline
 90
        4
 70
     1
 43
0.0
 10
5610.0
 20
420.0
 10
5610.0
 20
540.0
 10
5880.0
 20
540.0
 10
5880.0
 20
420.0
  0
LWPOLYLINE
  5
D631
330
1F
100
AcDbEntity
  8
01注記寸法
100
AcDbPolyline
 90
        4
 70
     1
 43
0.0
 10
5880.0
 20
420.0
 10
5880.0
 20
540.0
 10
6150.0
 20
540.0
 10
6150.0
 20
420.0
  0
LWPOLYLINE
  5
D632
330
1F
100
AcDbEntity
  8
01注記寸法
100
AcDbPolyline
 90
        4
 70
     1
 43
0.0
 10
4950.0
 20
540.0
 10
4950.0
 20
629.9999999999998
 10
5340.0
 20
629.9999999999998
 10
5340.0
 20
540.0
  0
LWPOLYLINE
  5
D633
330
1F
100
AcDbEntity
  8
01注記寸法
100
AcDbPolyline
 90
        4
 70
     1
 43
0.0
 10
5340.0
 20
539.9999999999999
 10
5340.0
 20
629.9999999999998
 10
5610.0
 20
629.9999999999998
 10
5610.0
 20
539.9999999999999
  0
LWPOLYLINE
  5
D634
330
1F
100
AcDbEntity
  8
01注記寸法
100
AcDbPolyline
 90
        4
 70
     1
 43
0.0
 10
5610.0
 20
539.9999999999999
 10
5610.0
 20
629.9999999999998
 10
5880.0
 20
629.9999999999998
 10
5880.0
 20
539.9999999999999
  0
LWPOLYLINE
  5
D635
330
1F
100
AcDbEntity
  8
01注記寸法
100
AcDbPolyline
 90
        4
 70
     1
 43
0.0
 10
5880.0
 20
540.0
 10
5880.0
 20
629.9999999999999
 10
6150.0
 20
629.9999999999999
 10
6150.0
 20
540.0
  0
LWPOLYLINE
  5
D6C7
330
1F
100
AcDbEntity
  8
09図枠
100
AcDbPolyline
 90
        4
 70
     1
 43
0.0
 10
150.0
 20
150.0
 10
150.0
 20
1500.000000000001
 10
4950.0
 20
1500.000000000001
 10
4950.0
 20
150.0
  0
LINE
  5
D6D6
330
1F
100
AcDbEntity
  8
04一点鎖線
  6
CENTER
 48
0.2
100
AcDbLine
 10
4624.418814455152
 20
330.2004795614698
 30
0.0
 11
4624.418814455152
 21
287.4504795614698
 31
0.0
  0
DIMENSION
  5
D6DC
330
1F
100
AcDbEntity
  8
01注記寸法
100
AcDbDimension
  2
*D825
 10
4392.529669687498
 20
298.7004795614698
 30
0.0
 11
4392.529669687498
 21
608.7429795614748
 31
0.0
 70
   160
  1
MAX 30mm
 71
     5
 42
135.0000000000041
  3
NEMY-15
100
AcDbAlignedDimension
 13
4520.918814455152
 23
433.7004795614739
 33
0.0
 14
4520.918814455152
 24
298.7004795614698
 34
0.0
 50
90.0
100
AcDbRotatedDimension
  0
LINE
  5
D6DD
330
1F
100
AcDbEntity
  8
04一点鎖線
  6
CENTER
 48
0.2
100
AcDbLine
 10
4065.93234845287
 20
330.2004795614698
 30
0.0
 11
4065.93234845287
 21
287.4504795614698
 31
0.0
  0
TEXT
  5
D6DE
330
1F
100
AcDbEntity
  8
01注記寸法
100
AcDbText
 10
3795.0
 20
1357.5
 30
0.0
 40
45.0
  1
<レベル調整>
 11
3795.0
 21
1380.0
 31
0.0
100
AcDbText
 73
     2
  0
TEXT
  5
D6DF
330
1F
100
AcDbEntity
  8
01注記寸法
100
AcDbText
 10
3795.0
 20
1267.5
 30
0.0
 40
45.0
  1
アンカー金具を上下にスライドさせて
 11
3795.0
 21
1290.0
 31
0.0
100
AcDbText
 73
     2
  0
LWPOLYLINE
  5
D6E0
330
1F
100
AcDbEntity
  8
09図枠
100
AcDbPolyline
 90
        4
 70
     1
 43
0.0
 10
3750.0
 20
150.0
 10
3750.0
 20
1500.0
 10
4950.0
 20
1500.0
 10
4950.0
 20
150.0
  0
TEXT
  5
D6E1
330
1F
100
AcDbEntity
  8
01注記寸法
100
AcDbText
 10
3795.0
 20
1177.5
 30
0.0
 40
45.0
  1
レベルを調整します。
 11
3795.0
 21
1200.0
 31
0.0
100
AcDbText
 73
     2
  0
TEXT
  5
D6E2
330
1F
100
AcDbEntity
  8
01注記寸法
100
AcDbText
 10
3795.0
 20
1087.5
 30
0.0
 40
45.0
  1
架台全体の嵩上げには使用しないで
 11
3795.0
 21
1110.0
 31
0.0
100
AcDbText
 73
     2
  0
TEXT
  5
D6E3
330
1F
100
AcDbEntity
  8
01注記寸法
100
AcDbText
 10
1395.0
 20
1357.5
 30
0.0
 40
45.0
  1
アンカー金具取付（Ｂ）
 11
1395.0
 21
1380.0
 31
0.0
100
AcDbText
 73
     2
  0
TEXT
  5
D6E4
330
1F
100
AcDbEntity
  8
01注記寸法
100
AcDbText
 10
2595.0
 20
1357.5
 30
0.0
 40
45.0
  1
アンカー金具取付（Ｃ）
 11
2595.0
 21
1380.0
 31
0.0
100
AcDbText
 73
     2
  0
LINE
  5
D6E5
330
1F
100
AcDbEntity
  8
01注記寸法
100
AcDbLine
 10
1350.0
 20
150.0
 30
0.0
 11
1350.0
 21
1500.0
 31
0.0
  0
LINE
  5
D6E6
330
1F
100
AcDbEntity
  8
01注記寸法
100
AcDbLine
 10
2550.0
 20
150.0
 30
0.0
 11
2550.0
 21
1500.0
 31
0.0
  0
TEXT
  5
D6E7
330
1F
100
AcDbEntity
  8
01注記寸法
100
AcDbText
 10
195.0
 20
1357.5
 30
0.0
 40
45.0
  1
アンカー金具取付（Ａ）
 11
195.0
 21
1380.0
 31
0.0
100
AcDbText
 73
     2
  0
TEXT
  5
D6E8
330
1F
100
AcDbEntity
  8
01注記寸法
100
AcDbText
 10
195.0
 20
1432.5
 30
0.0
 40
45.0
  1
<アンカー寸法図>
 11
195.0
 21
1455.0
 31
0.0
100
AcDbText
 73
     2
  0
TEXT
  5
D6E9
330
1F
100
AcDbEntity
  8
01注記寸法
100
AcDbText
 10
720.0
 20
1432.5
 30
0.0
 40
45.0
  1
SCALE=
 11
720.0
 21
1455.0
 31
0.0
100
AcDbText
 73
     2
  0
TEXT
  5
D6EA
330
1F
100
AcDbEntity
  8
01注記寸法
100
AcDbText
 10
915.0
 20
1432.5
 30
0.0
 40
45.0
  1
1:20
 11
915.0
 21
1455.0
 31
0.0
100
AcDbText
 73
     2
  0
TEXT
  5
D6EB
330
1F
100
AcDbEntity
  8
01注記寸法
100
AcDbText
 10
3795.0
 20
997.5
 30
0.0
 40
45.0
  1
ください。
 11
3795.0
 21
1020.0
 31
0.0
100
AcDbText
 73
     2
  0
LWPOLYLINE
  5
D76C
330
1F
100
AcDbEntity
  8
13製作用注記
100
AcDbPolyline
 90
        4
 70
     1
 43
0.0
 10
4050.0
 20
3285.0
 10
4050.0
 20
3375.0
 10
4350.0
 20
3375.0
 10
4350.0
 20
3285.0
  0
LWPOLYLINE
  5
D76D
330
1F
100
AcDbEntity
  8
13製作用注記
100
AcDbPolyline
 90
        4
 70
     1
 43
0.0
 10
3960.0
 20
3285.0
 10
3960.0
 20
3375.0
 10
4050.0
 20
3375.0
 10
4050.0
 20
3285.0
  0
TEXT
  5
D76E
330
1F
100
AcDbEntity
  8
13製作用注記
100
AcDbText
 10
3990.375
 20
3307.5
 30
0.0
 40
45.0
  1
1
 72
     1
 11
4005.0
 21
3330.0
 31
0.0
100
AcDbText
 73
     2
  0
TEXT
  5
D770
330
1F
100
AcDbEntity
  8
13製作用注記
100
AcDbText
 10
4112.25
 20
3307.5
 30
0.0
 40
45.0
  1
梁長手
 72
     1
 11
4200.0
 21
3330.0
 31
0.0
100
AcDbText
 73
     2
  0
LWPOLYLINE
  5
D771
330
1F
100
AcDbEntity
  8
13製作用注記
100
AcDbPolyline
 90
        4
 70
     1
 43
0.0
 10
4050.0
 20
3195.0
 10
4050.0
 20
3285.0
 10
4350.0
 20
3285.0
 10
4350.0
 20
3195.0
  0
LWPOLYLINE
  5
D772
330
1F
100
AcDbEntity
  8
13製作用注記
100
AcDbPolyline
 90
        4
 70
     1
 43
0.0
 10
3960.0
 20
3195.0
 10
3960.0
 20
3285.0
 10
4050.0
 20
3285.0
 10
4050.0
 20
3195.0
  0
TEXT
  5
D773
330
1F
100
AcDbEntity
  8
13製作用注記
100
AcDbText
 10
3990.375
 20
3217.5
 30
0.0
 40
45.0
  1
2
 72
     1
 11
4005.0
 21
3240.0
 31
0.0
100
AcDbText
 73
     2
  0
TEXT
  5
D774
330
1F
100
AcDbEntity
  8
13製作用注記
100
AcDbText
 10
4112.25
 20
3217.5
 30
0.0
 40
45.0
  1
梁短手
 72
     1
 11
4200.0
 21
3240.0
 31
0.0
100
AcDbText
 73
     2
  0
LWPOLYLINE
  5
D776
330
1F
100
AcDbEntity
  8
13製作用注記
100
AcDbPolyline
 90
        4
 70
     1
 43
0.0
 10
3960.0
 20
3105.0
 10
3960.0
 20
3195.0
 10
4050.0
 20
3195.0
 10
4050.0
 20
3105.0
  0
TEXT
  5
D777
330
1F
100
AcDbEntity
  8
13製作用注記
100
AcDbText
 10
3990.375
 20
3127.5
 30
0.0
 40
45.0
  1
3
 72
     1
 11
4005.0
 21
3150.0
 31
0.0
100
AcDbText
 73
     2
  0
LWPOLYLINE
  5
D779
330
1F
100
AcDbEntity
  8
13製作用注記
100
AcDbPolyline
 90
        4
 70
     1
 43
0.0
 10
4050.0
 20
3105.0
 10
4050.0
 20
3195.0
 10
4350.0
 20
3195.0
 10
4350.0
 20
3105.0
  0
LWPOLYLINE
  5
D77A
330
1F
100
AcDbEntity
  8
13製作用注記
100
AcDbPolyline
 90
        4
 70
     1
 43
0.0
 10
3960.0
 20
3015.0
 10
3960.0
 20
3105.0
 10
4050.0
 20
3105.0
 10
4050.0
 20
3015.0
  0
TEXT
  5
D77B
330
1F
100
AcDbEntity
  8
13製作用注記
100
AcDbText
 10
3990.375
 20
3037.5
 30
0.0
 40
45.0
  1
4
 72
     1
 11
4005.0
 21
3060.0
 31
0.0
100
AcDbText
 73
     2
  0
TEXT
  5
D77C
330
1F
100
AcDbEntity
  8
13製作用注記
100
AcDbText
 10
4141.5
 20
3127.5
 30
0.0
 40
45.0
  1
端柱
 72
     1
 11
4200.0
 21
3150.0
 31
0.0
100
AcDbText
 73
     2
  0
LWPOLYLINE
  5
D781
330
1F
100
AcDbEntity
  8
13製作用注記
100
AcDbPolyline
 90
        4
 70
     1
 43
0.0
 10
4050.0
 20
3015.0
 10
4050.0
 20
3105.0
 10
4350.0
 20
3105.0
 10
4350.0
 20
3015.0
  0
TEXT
  5
D784
330
1F
100
AcDbEntity
  8
13製作用注記
100
AcDbText
 10
4141.5
 20
3037.5
 30
0.0
 40
45.0
  1
筋交
 72
     1
 11
4200.0
 21
3060.0
 31
0.0
100
AcDbText
 73
     2
  0
LWPOLYLINE
  5
D785
330
1F
100
AcDbEntity
  8
13製作用注記
100
AcDbPolyline
 90
        4
 70
     1
 43
0.0
 10
4350.0
 20
3285.0
 10
4350.0
 20
3375.0
 10
4950.0
 20
3375.0
 10
4950.0
 20
3285.0
  0
TEXT
  5
D786
330
1F
100
AcDbEntity
  8
13製作用注記
100
AcDbText
 10
4401.375
 20
3307.5
 30
0.0
 40
45.0
  1
[80×60×20×t3.2
 72
     1
 11
4650.0
 21
3330.0
 31
0.0
100
AcDbText
 73
     2
  0
LWPOLYLINE
  5
D787
330
1F
100
AcDbEntity
  8
13製作用注記
100
AcDbPolyline
 90
        4
 70
     1
 43
0.0
 10
4350.0
 20
3195.0
 10
4350.0
 20
3285.0
 10
4950.0
 20
3285.0
 10
4950.0
 20
3195.0
  0
TEXT
  5
D788
330
1F
100
AcDbEntity
  8
13製作用注記
100
AcDbText
 10
4459.875
 20
3217.5
 30
0.0
 40
45.0
  1
L60×60×t3.2
 72
     1
 11
4650.0
 21
3240.0
 31
0.0
100
AcDbText
 73
     2
  0
LWPOLYLINE
  5
D78B
330
1F
100
AcDbEntity
  8
13製作用注記
100
AcDbPolyline
 90
        4
 70
     1
 43
0.0
 10
4350.0
 20
3105.0
 10
4350.0
 20
3195.0
 10
4950.0
 20
3195.0
 10
4950.0
 20
3105.0
  0
TEXT
  5
D78C
330
1F
100
AcDbEntity
  8
13製作用注記
100
AcDbText
 10
4459.875
 20
3127.5
 30
0.0
 40
45.0
  1
L60×60×t3.2
 72
     1
 11
4650.0
 21
3150.0
 31
0.0
100
AcDbText
 73
     2
  0
LWPOLYLINE
  5
D78F
330
1F
100
AcDbEntity
  8
13製作用注記
100
AcDbPolyline
 90
        4
 70
     1
 43
0.0
 10
4350.0
 20
3015.0
 10
4350.0
 20
3105.0
 10
4950.0
 20
3105.0
 10
4950.0
 20
3015.0
  0
TEXT
  5
D790
330
1F
100
AcDbEntity
  8
13製作用注記
100
AcDbText
 10
4562.25
 20
3037.5
 30
0.0
 40
45.0
  1
500H用
 72
     1
 11
4650.0
 21
3060.0
 31
0.0
100
AcDbText
 73
     2
  0
LWPOLYLINE
  5
D791
330
1F
100
AcDbEntity
  8
13製作用注記
100
AcDbPolyline
 90
        4
 70
     1
 43
0.0
 10
3960.0
 20
3375.0
 10
3960.0
 20
3465.0
 10
4950.0
 20
3465.0
 10
4950.0
 20
3375.0
  0
TEXT
  5
D792
330
1F
100
AcDbEntity
  8
13製作用注記
100
AcDbText
 10
4250.25
 20
3397.5
 30
0.0
 40
45.0
  1
部　材　一　覧
 72
     1
 11
4455.0
 21
3420.0
 31
0.0
100
AcDbText
 73
     2
  0
CIRCLE
  5
D886
330
1F
100
AcDbEntity
  8
13製作用注記
100
AcDbCircle
 10
1676.934371439183
 20
1638.483653451728
 30
0.0
 40
37.5
  0
TEXT
  5
D887
330
1F
100
AcDbEntity
  8
13製作用注記
100
AcDbText
 10
1662.309371439183
 20
1615.983653451728
 30
0.0
 40
45.0
  1
3
 72
     1
 11
1676.934371439183
 21
1638.483653451728
 31
0.0
100
AcDbText
 73
     2
  0
LEADER
  5
D888
330
1F
100
AcDbEntity
  8
13製作用注記
100
AcDbLeader
  3
NEMY-15
 76
     2
 10
1556.799999999998
 20
1750.000000000001
 30
0.0
 10
1649.450395288039
 20
1663.996024077041
 30
0.0
  0
CIRCLE
  5
D889
330
1F
100
AcDbEntity
  8
13製作用注記
100
AcDbCircle
 10
1814.423202882286
 20
1868.386895409526
 30
0.0
 40
37.5
  0
TEXT
  5
D88A
330
1F
100
AcDbEntity
  8
13製作用注記
100
AcDbText
 10
1799.798202882286
 20
1845.886895409526
 30
0.0
 40
45.0
  1
4
 72
     1
 11
1814.423202882286
 21
1868.386895409526
 31
0.0
100
AcDbText
 73
     2
  0
LEADER
  5
D88B
330
1F
100
AcDbEntity
  8
13製作用注記
100
AcDbLeader
  3
NEMY-15
 76
     2
 10
1694.288831443101
 20
1979.9032419578
 30
0.0
 10
1786.939226731141
 20
1893.89926603484
 30
0.0
  0
CIRCLE
  5
D88F
330
1F
100
AcDbEntity
  8
13製作用注記
100
AcDbCircle
 10
2273.065628560815
 20
1638.483653451728
 30
0.0
 40
37.5
  0
TEXT
  5
D890
330
1F
100
AcDbEntity
  8
13製作用注記
100
AcDbText
 10
2258.440628560815
 20
1615.983653451728
 30
0.0
 40
45.0
  1
3
 72
     1
 11
2273.065628560815
 21
1638.483653451728
 31
0.0
100
AcDbText
 73
     2
  0
LEADER
  5
D891
330
1F
100
AcDbEntity
  8
13製作用注記
100
AcDbLeader
  3
NEMY-15
 76
     2
 10
2393.2
 20
1750.000000000001
 30
0.0
 10
2300.54960471196
 20
1663.996024077041
 30
0.0
211
-1.0
221
0.0
231
0.0
  0
CIRCLE
  5
D8A2
330
1F
100
AcDbEntity
  8
13製作用注記
100
AcDbCircle
 10
2135.576797117712
 20
1868.386895409526
 30
0.0
 40
37.5
  0
TEXT
  5
D8A3
330
1F
100
AcDbEntity
  8
13製作用注記
100
AcDbText
 10
2120.951797117712
 20
1845.886895409526
 30
0.0
 40
45.0
  1
4
 72
     1
 11
2135.576797117712
 21
1868.386895409526
 31
0.0
100
AcDbText
 73
     2
  0
LEADER
  5
D8A4
330
1F
100
AcDbEntity
  8
13製作用注記
100
AcDbLeader
  3
NEMY-15
 76
     2
 10
2255.711168556897
 20
1979.9032419578
 30
0.0
 10
2163.060773268857
 20
1893.89926603484
 30
0.0
211
-1.0
221
0.0
231
0.0
  0
LEADER
  5
D9A1
330
1F
100
AcDbEntity
  8
01注記寸法
100
AcDbLeader
  3
NEMY-15
 76
     2
 10
3846.93234845287
 20
433.7004795614671
 30
0.0
 10
3846.93234845287
 20
298.7004795614698
 30
0.0
  0
LEADER
  5
D9A2
330
1F
100
AcDbEntity
  8
01注記寸法
100
AcDbLeader
  3
NEMY-15
 76
     2
 10
3846.93234845287
 20
298.7004795614698
 30
0.0
 10
3846.93234845287
 20
433.7004795614671
 30
0.0
  0
TEXT
  5
EC96
330
1F
100
AcDbEntity
  8
01注記寸法
100
AcDbText
 10
5277.0
 20
315.0
 30
0.0
 40
60.0
  1
ネミー株式会社
 72
     1
 11
5550.0
 21
345.0
 31
0.0
100
AcDbText
 73
     2
  0
LEADER
  5
F274
330
1F
100
AcDbEntity
  8
01注記寸法
100
AcDbLeader
  3
NEMY-15
 76
     3
 10
509.0999999999995
 20
854.625
 30
0.0
 10
595.7025403784437
 20
704.625
 30
0.0
 10
1075.702540378444
 20
704.625
 30
0.0
  0
TEXT
  5
FAB9
330
1F
100
AcDbEntity
  8
01注記寸法
100
AcDbText
 10
3614.999626525168
 20
4214.999648562787
 30
0.0
 40
60.0
  1
機器本体・防振架台取付共用仕様
 72
     1
 11
4199.999626525168
 21
4244.999648562787
 31
0.0
100
AcDbText
 73
     2
  0
LWPOLYLINE
  5
FABA
330
1F
100
AcDbEntity
  8
09図枠
100
AcDbPolyline
 90
        4
 70
     1
 43
0.0
 10
3450.0
 20
4184.999999999998
 10
3450.0
 20
4304.999999999998
 10
4950.0
 20
4304.999999999998
 10
4950.0
 20
4184.999999999998
  0
LWPOLYLINE
  5
FABB
330
1F
100
AcDbEntity
  8
09図枠
100
AcDbPolyline
 90
        4
 70
     1
 43
0.0
 10
3450.0
 20
4064.999999999998
 10
3450.0
 20
4184.999999999998
 10
4950.0
 20
4184.999999999998
 10
4950.0
 20
4064.999999999998
  0
TEXT
  5
FABC
330
1F
100
AcDbEntity
  8
01注記寸法
100
AcDbText
 10
3731.999626525168
 20
4094.999648562787
 30
0.0
 40
60.0
  1
標準/耐塩/耐重塩共用仕様
 72
     1
 11
4199.999626525168
 21
4124.999648562787
 31
0.0
100
AcDbText
 73
     2
  0
LWPOLYLINE
  5
FABD
330
1F
100
AcDbEntity
  8
09図枠
100
AcDbPolyline
 90
        4
 70
     1
 43
0.0
 10
4200.0
 20
3825.0
 10
4200.0
 20
3915.0
 10
4950.0
 20
3915.0
 10
4950.0
 20
3825.0
  0
TEXT
  5
FABE
330
1F
100
AcDbEntity
  8
01注記寸法
100
AcDbText
 10
4370.25
 20
3847.5
 30
0.0
 40
45.0
  1
防振架台仕様書
 72
     1
 11
4575.0
 21
3870.0
 31
0.0
100
AcDbText
 73
     2
  0
LWPOLYLINE
  5
FABF
330
1F
100
AcDbEntity
  8
09図枠
100
AcDbPolyline
 90
        4
 70
     1
 43
0.0
 10
4200.0
 20
3735.0
 10
4200.0
 20
3825.0
 10
4950.0
 20
3825.0
 10
4950.0
 20
3735.0
  0
TEXT
  5
FAC0
330
1F
100
AcDbEntity
  8
01注記寸法
100
AcDbText
 10
4232.775
 20
3757.5
 30
0.0
 40
45.0
  1
１－ＨＴＢ５１０（＃Ｅ２）
 41
0.9
 72
     1
 11
4575.0
 21
3780.0
 31
0.0
100
AcDbText
 73
     2
  0
LWPOLYLINE
  5
FAC5
330
1F
100
AcDbEntity
  8
09図枠
100
AcDbPolyline
 90
        4
 70
     1
 43
0.0
 10
4200.0
 20
3645.0
 10
4200.0
 20
3735.0
 10
4950.0
 20
3735.0
 10
4950.0
 20
3645.0
  0
TEXT
  5
FAC6
330
1F
100
AcDbEntity
  8
01注記寸法
100
AcDbText
 10
4232.775
 20
3667.5
 30
0.0
 40
45.0
  1
１－ＨＴＢ５１１（＃Ｅ２）
 41
0.9
 72
     1
 11
4575.0
 21
3690.0
 31
0.0
100
AcDbText
 73
     2
  0
LWPOLYLINE
  5
FAC9
330
1F
100
AcDbEntity
  8
09図枠
100
AcDbPolyline
 90
        4
 70
     1
 43
0.0
 10
4200.0
 20
3555.0
 10
4200.0
 20
3645.0
 10
4950.0
 20
3645.0
 10
4950.0
 20
3555.0
  0
TEXT
  5
FACA
330
1F
100
AcDbEntity
  8
01注記寸法
100
AcDbText
 10
4232.775
 20
3577.5
 30
0.0
 40
45.0
  1
１－ＨＴＢ５１５（＃Ｅ２）
 41
0.9
 72
     1
 11
4575.0
 21
3600.0
 31
0.0
100
AcDbText
 73
     2
  0
LWPOLYLINE
  5
FBCE
330
1F
100
AcDbEntity
  8
02実線
100
AcDbPolyline
 90
        4
 70
     1
 43
0.0
 10
1500.0
 20
2929.999999999998
 10
1500.0
 20
3704.999999999998
 10
2450.0
 20
3704.999999999998
 10
2450.0
 20
2929.999999999998
  0
LWPOLYLINE
  5
FBCF
330
1F
100
AcDbEntity
  8
03破線
100
AcDbPolyline
 90
        4
 70
     1
 43
0.0
 10
1503.200000000001
 20
2933.199999999997
 10
1503.200000000001
 20
3701.799999999997
 10
2446.799999999999
 20
3701.799999999997
 10
2446.799999999999
 20
2933.199999999997
  0
INSERT
  5
FBD0
330
1F
100
AcDbEntity
  8
02実線
100
AcDbBlockReference
  2
BH-端柱(L60)-平面
 10
1496.799999999999
 20
2925.299999999997
 30
0.0
  0
INSERT
  5
FBD1
330
1F
100
AcDbEntity
  8
02実線
100
AcDbBlockReference
  2
BH-端柱(L60)-平面
 10
1496.799999999999
 20
3709.699999999997
 30
0.0
 41
-1.0
 50
180.0
  0
INSERT
  5
FBD2
330
1F
100
AcDbEntity
  8
02実線
100
AcDbBlockReference
  2
BH-端柱(L60)-平面
 10
2453.200000000001
 20
3709.699999999997
 30
0.0
 50
180.0
  0
INSERT
  5
FBD3
330
1F
100
AcDbEntity
  8
02実線
100
AcDbBlockReference
  2
BH-端柱(L60)-平面
 10
2453.200000000001
 20
2925.299999999997
 30
0.0
 41
-1.0
  0
LINE
  5
FBD4
330
1F
100
AcDbEntity
  8
02実線
100
AcDbLine
 10
1560.0
 20
3009.999999999998
 30
0.0
 11
1560.0
 21
3624.999999999998
 31
0.0
  0
LINE
  5
FBD5
330
1F
100
AcDbEntity
  8
02実線
100
AcDbLine
 10
1500.0
 20
3624.999999999998
 30
0.0
 11
2450.0
 21
3624.999999999998
 31
0.0
  0
LINE
  5
FBD6
330
1F
100
AcDbEntity
  8
02実線
100
AcDbLine
 10
2390.0
 20
3624.999999999998
 30
0.0
 11
2390.0
 21
3009.999999999998
 31
0.0
  0
LINE
  5
FBD7
330
1F
100
AcDbEntity
  8
02実線
100
AcDbLine
 10
2450.0
 20
3009.999999999998
 30
0.0
 11
1500.0
 21
3009.999999999998
 31
0.0
  0
LINE
  5
FBD8
330
1F
100
AcDbEntity
  8
03破線
100
AcDbLine
 10
2446.799999999999
 20
3006.799999999997
 30
0.0
 11
1503.200000000001
 21
3006.799999999997
 31
0.0
  0
LINE
  5
FBD9
330
1F
100
AcDbEntity
  8
03破線
100
AcDbLine
 10
2446.799999999999
 20
3628.199999999997
 30
0.0
 11
1503.200000000001
 21
3628.199999999997
 31
0.0
  0
TEXT
  5
FBDA
330
1F
100
AcDbEntity
  8
01注記寸法
100
AcDbText
 10
1729.332930053744
 20
3873.749999999998
 30
0.0
 40
45.0
  1
機器固定ボルト孔
100
AcDbText
  0
LEADER
  5
FBDB
330
1F
100
AcDbEntity
  8
01注記寸法
100
AcDbLeader
  3
NEMY-15
 76
     3
 10
1631.000013
 20
3681.974093999998
 30
0.0
 10
1729.332930053744
 20
3854.999999999998
 30
0.0
 10
2209.332930053744
 20
3854.999999999998
 30
0.0
  0
TEXT
  5
FBDC
330
1F
100
AcDbEntity
  8
01注記寸法
100
AcDbText
 10
1729.332930053744
 20
3798.749999999998
 30
0.0
 40
45.0
  1
(4-φ16)
100
AcDbText
  0
TEXT
  5
FBDD
330
1F
100
AcDbEntity
  8
01注記寸法
100
AcDbText
 10
1612.063006033158
 20
2723.749999999998
 30
0.0
 40
45.0
  1
(4-φ16)
100
AcDbText
  0
TEXT
  5
FBDE
330
1F
100
AcDbEntity
  8
01注記寸法
100
AcDbText
 10
1612.063006033158
 20
2798.749999999998
 30
0.0
 40
45.0
  1
※防振架台固定ボルト孔
100
AcDbText
  0
DIMENSION
  5
FBDF
330
1F
100
AcDbEntity
  8
01注記寸法
100
AcDbDimension
  2
*D1239
 10
2450.0
 20
4154.999999999996
 30
0.0
 11
1975.0
 21
4192.499999999996
 31
0.0
 70
    32
 71
     5
 42
950.0
  3
NEMY-15
100
AcDbAlignedDimension
 13
1500.0
 23
3706.499999999998
 33
0.0
 14
2450.0
 24
3706.499999999997
 34
0.0
100
AcDbRotatedDimension
  0
DIMENSION
  5
FBE0
330
1F
100
AcDbEntity
  8
01注記寸法
100
AcDbDimension
  2
*D1240
 10
1200.0
 20
2929.999999999996
 30
0.0
 11
1162.5
 21
3317.499999999996
 31
0.0
 70
    32
 71
     5
 42
775.0
  3
NEMY-15
100
AcDbAlignedDimension
 13
1500.0
 23
3704.999999999996
 33
0.0
 14
1500.0
 24
2929.999999999996
 34
0.0
 50
90.0
100
AcDbRotatedDimension
  0
LWPOLYLINE
  5
FBE1
330
1F
100
AcDbEntity
  8
08非表示
100
AcDbPolyline
 90
        4
 70
     1
 43
0.0
 10
1350.0
 20
2779.999999999998
 10
1350.0
 20
3854.999999999998
 10
2600.0
 20
3854.999999999998
 10
2600.0
 20
2779.999999999998
  0
LWPOLYLINE
  5
FBE2
330
1F
100
AcDbEntity
  8
08非表示
100
AcDbPolyline
 90
        4
 70
     1
 43
0.0
 10
1200.0
 20
2629.999999999998
 10
1200.0
 20
4004.999999999998
 10
2750.0
 20
4004.999999999998
 10
2750.0
 20
2629.999999999998
  0
CIRCLE
  5
FBE3
330
1F
100
AcDbEntity
  8
13製作用注記
100
AcDbCircle
 10
2269.865628560816
 20
3352.176303904151
 30
0.0
 40
37.5
  0
TEXT
  5
FBE4
330
1F
100
AcDbEntity
  8
13製作用注記
100
AcDbText
 10
2255.240628560816
 20
3329.676303904151
 30
0.0
 40
45.0
  1
2
 72
     1
 11
2269.865628560816
 21
3352.176303904151
 31
0.0
100
AcDbText
 73
     2
  0
LEADER
  5
FBE5
330
1F
100
AcDbEntity
  8
13製作用注記
100
AcDbLeader
  3
NEMY-15
 76
     2
 10
2390.0
 20
3240.659957355877
 30
0.0
 10
2297.349604711959
 20
3326.663933278837
 30
0.0
211
-1.0
221
0.0
231
0.0
  0
CIRCLE
  5
FBE6
330
1F
100
AcDbEntity
  8
13製作用注記
100
AcDbCircle
 10
2006.178238783425
 20
3513.483653451724
 30
0.0
 40
37.5
  0
TEXT
  5
FBE7
330
1F
100
AcDbEntity
  8
13製作用注記
100
AcDbText
 10
1991.553238783425
 20
3490.983653451724
 30
0.0
 40
45.0
  1
1
 72
     1
 11
2006.178238783425
 21
3513.483653451724
 31
0.0
100
AcDbText
 73
     2
  0
LEADER
  5
FBE8
330
1F
100
AcDbEntity
  8
13製作用注記
100
AcDbLeader
  3
NEMY-15
 76
     2
 10
1886.04386734424
 20
3624.999999999998
 30
0.0
 10
1978.694262632282
 20
3538.996024077038
 30
0.0
  0
CIRCLE
  5
FBE9
330
1F
100
AcDbEntity
  8
13製作用注記
100
AcDbCircle
 10
2006.178238783425
 20
3121.516346548272
 30
0.0
 40
37.5
  0
TEXT
  5
FBEA
330
1F
100
AcDbEntity
  8
13製作用注記
100
AcDbText
 10
1991.553238783425
 20
3099.016346548272
 30
0.0
 40
45.0
  1
1
 72
     1
 11
2006.178238783425
 21
3121.516346548272
 31
0.0
100
AcDbText
 73
     2
  0
LEADER
  5
FBEB
330
1F
100
AcDbEntity
  8
13製作用注記
100
AcDbLeader
  3
NEMY-15
 76
     2
 10
1886.04386734424
 20
3009.999999999998
 30
0.0
 10
1978.694262632282
 20
3096.003975922958
 30
0.0
  0
CIRCLE
  5
FBEC
330
1F
100
AcDbEntity
  8
13製作用注記
100
AcDbCircle
 10
1680.134371439184
 20
3352.176303904151
 30
0.0
 40
37.5
  0
TEXT
  5
FBED
330
1F
100
AcDbEntity
  8
13製作用注記
100
AcDbText
 10
1665.509371439184
 20
3329.676303904151
 30
0.0
 40
45.0
  1
2
 72
     1
 11
1680.134371439184
 21
3352.176303904151
 31
0.0
100
AcDbText
 73
     2
  0
LEADER
  5
FBEE
330
1F
100
AcDbEntity
  8
13製作用注記
100
AcDbLeader
  3
NEMY-15
 76
     2
 10
1560.0
 20
3240.659957355877
 30
0.0
 10
1652.650395288041
 20
3326.663933278837
 30
0.0
  0
LEADER
  5
FBEF
330
1F
100
AcDbEntity
  8
01注記寸法
100
AcDbLeader
  3
NEMY-15
 76
     3
 10
2350.0
 20
2964.999999999998
 30
0.0
 10
2272.063006033158
 20
2779.999999999998
 30
0.0
 10
1612.063006033158
 20
2779.999999999998
 30
0.0
211
-1.0
221
0.0
231
0.0
  0
INSERT
  5
FBF0
330
1F
100
AcDbEntity
  8
11機器
100
AcDbBlockReference
  2
RAS-AP140SG他
 10
1631.0
 20
2952.974093999998
 30
0.0
  0
INSERT
  5
FBF1
330
1F
100
AcDbEntity
  8
12防振架台
100
AcDbBlockReference
  2
N-SPH950
 10
1500.0
 20
2934.999999999998
 30
0.0
  0
INSERT
  5
FBF2
330
1F
100
AcDbEntity
  8
02実線
100
AcDbBlockReference
  2
hole-φ16
 10
2319.0
 20
2952.974093999998
 30
0.0
  0
INSERT
  5
FBF3
330
1F
100
AcDbEntity
  8
10副資材
100
AcDbBlockReference
  2
平W-M12
 10
2319.0
 20
2952.974093999998
 30
0.0
  0
INSERT
  5
FBF4
330
1F
100
AcDbEntity
  8
02実線
100
AcDbBlockReference
  2
hole-φ16
 10
2350.0
 20
2964.999999999998
 30
0.0
  0
INSERT
  5
FBF5
330
1F
100
AcDbEntity
  8
10副資材
100
AcDbBlockReference
  2
平W-M12
 10
2350.0
 20
2964.999999999998
 30
0.0
  0
INSERT
  5
FBF6
330
1F
100
AcDbEntity
  8
02実線
100
AcDbBlockReference
  2
hole-φ16
 10
1600.0
 20
2964.999999999998
 30
0.0
  0
INSERT
  5
FBF7
330
1F
100
AcDbEntity
  8
10副資材
100
AcDbBlockReference
  2
平W-M12
 10
1600.0
 20
2964.999999999998
 30
0.0
  0
INSERT
  5
FBF8
330
1F
100
AcDbEntity
  8
02実線
100
AcDbBlockReference
  2
hole-φ16
 10
1631.0
 20
2952.974093999998
 30
0.0
  0
INSERT
  5
FBF9
330
1F
100
AcDbEntity
  8
10副資材
100
AcDbBlockReference
  2
平W-M12
 10
1631.0
 20
2952.974093999998
 30
0.0
  0
INSERT
  5
FBFA
330
1F
100
AcDbEntity
  8
02実線
100
AcDbBlockReference
  2
hole-φ16
 10
1631.000013
 20
3681.974093999998
 30
0.0
  0
INSERT
  5
FBFB
330
1F
100
AcDbEntity
  8
10副資材
100
AcDbBlockReference
  2
平W-M12
 10
1631.000013
 20
3681.974093999998
 30
0.0
  0
INSERT
  5
FBFC
330
1F
100
AcDbEntity
  8
02実線
100
AcDbBlockReference
  2
hole-φ16
 10
1600.0
 20
3669.999999999998
 30
0.0
  0
INSERT
  5
FBFD
330
1F
100
AcDbEntity
  8
10副資材
100
AcDbBlockReference
  2
平W-M12
 10
1600.0
 20
3669.999999999998
 30
0.0
  0
INSERT
  5
FBFE
330
1F
100
AcDbEntity
  8
02実線
100
AcDbBlockReference
  2
hole-φ16
 10
2350.0
 20
3669.999999999998
 30
0.0
  0
INSERT
  5
FBFF
330
1F
100
AcDbEntity
  8
10副資材
100
AcDbBlockReference
  2
平W-M12
 10
2350.0
 20
3669.999999999998
 30
0.0
  0
INSERT
  5
FC00
330
1F
100
AcDbEntity
  8
02実線
100
AcDbBlockReference
  2
hole-φ16
 10
2319.000013
 20
3681.974093999998
 30
0.0
  0
INSERT
  5
FC01
330
1F
100
AcDbEntity
  8
10副資材
100
AcDbBlockReference
  2
平W-M12
 10
2319.000013
 20
3681.974093999998
 30
0.0
  0
INSERT
  5
FC04
330
1F
100
AcDbEntity
  8
10副資材
100
AcDbBlockReference
  2
BH-組立ボルトセット
 10
1839.0
 20
2929.999999999996
 30
0.0
 50
270.0
  0
INSERT
  5
FC05
330
1F
100
AcDbEntity
  8
08非表示
100
AcDbBlockReference
  2
BH-筋交(柱L60)-500H-平面
 10
1857.557648750682
 20
2933.199999999996
 30
0.0
  0
DIMENSION
  5
FC06
330
1F
100
AcDbEntity
  8
01注記寸法
100
AcDbDimension
  2
*D1241
 10
1350.0
 20
3681.974093999998
 30
0.0
 11
1350.0
 21
3836.842499999998
 31
0.0
 70
   160
 71
     5
 42
23.0259060000003
  3
NEMY-15
100
AcDbAlignedDimension
 13
1500.0
 23
3704.999999999998
 33
0.0
 14
1611.000013
 24
3681.974093999998
 34
0.0
 50
90.0
100
AcDbRotatedDimension
  0
DIMENSION
  5
FC07
330
1F
100
AcDbEntity
  8
01注記寸法
100
AcDbDimension
  2
*D1242
 10
1350.0
 20
2952.974093999998
 30
0.0
 11
1312.5
 21
3317.474093999998
 31
0.0
 70
    32
 71
     5
 42
728.9999999999995
  3
NEMY-15
100
AcDbAlignedDimension
 13
1611.000013
 23
3681.974093999998
 33
0.0
 14
1611.0
 24
2952.974093999998
 34
0.0
 50
90.0
100
AcDbRotatedDimension
  0
DIMENSION
  5
FC08
330
1F
100
AcDbEntity
  8
01注記寸法
100
AcDbDimension
  2
*D1243
 10
1350.0
 20
2929.999999999998
 30
0.0
 11
1312.5
 21
2798.854999999998
 31
0.0
 70
    32
 71
     5
 42
22.97409400000016
  3
NEMY-15
100
AcDbAlignedDimension
 13
1611.0
 23
2952.974093999998
 33
0.0
 14
1500.0
 24
2929.999999999998
 34
0.0
 50
90.0
100
AcDbRotatedDimension
  0
DIMENSION
  5
FC09
330
1F
100
AcDbEntity
  8
01注記寸法
100
AcDbDimension
  2
*D1244
 10
1631.000012999999
 20
4004.999999999998
 30
0.0
 11
1565.500006499999
 21
4042.499999999998
 31
0.0
 70
    32
 71
     5
 42
131.0000129999989
  3
NEMY-15
100
AcDbAlignedDimension
 13
1500.0
 23
3706.499999999997
 33
0.0
 14
1631.000012999999
 24
3694.974093999998
 34
0.0
100
AcDbRotatedDimension
  0
DIMENSION
  5
FC0A
330
1F
100
AcDbEntity
  8
01注記寸法
100
AcDbDimension
  2
*D1245
 10
2319.000013
 20
4004.999999999998
 30
0.0
 11
1975.000012999999
 21
4042.499999999998
 31
0.0
 70
    32
 71
     5
 42
688.0000000000009
  3
NEMY-15
100
AcDbAlignedDimension
 13
1631.000012999999
 23
3694.974093999998
 33
0.0
 14
2319.000013
 24
3701.974093999998
 34
0.0
100
AcDbRotatedDimension
  0
DIMENSION
  5
FC0B
330
1F
100
AcDbEntity
  8
01注記寸法
100
AcDbDimension
  2
*D1246
 10
2450.0
 20
4004.999999999998
 30
0.0
 11
2384.5000065
 21
4042.499999999998
 31
0.0
 70
    32
 71
     5
 42
130.9999870000001
  3
NEMY-15
100
AcDbAlignedDimension
 13
2319.000013
 23
3701.974093999998
 33
0.0
 14
2450.0
 24
3706.499999999997
 34
0.0
100
AcDbRotatedDimension
  0
DIMENSION
  5
FC0C
330
1F
100
AcDbEntity
  8
01注記寸法
100
AcDbDimension
  2
*D1247
 10
2600.000000000001
 20
3669.999999999998
 30
0.0
 11
2600.000000000001
 21
3836.707499999998
 31
0.0
 70
   160
 71
     5
 42
34.9999999999991
  3
NEMY-15
100
AcDbAlignedDimension
 13
2450.0
 23
3704.999999999997
 33
0.0
 14
2370.0
 24
3669.999999999998
 34
0.0
 50
90.0
100
AcDbRotatedDimension
  0
DIMENSION
  5
FC0D
330
1F
100
AcDbEntity
  8
01注記寸法
100
AcDbDimension
  2
*D1248
 10
2600.000000000001
 20
2964.999999999998
 30
0.0
 11
2561.015000000001
 21
3317.499999999998
 31
0.0
 70
    32
  1
※ <>
 71
     5
 42
705.0
  3
NEMY-15
100
AcDbAlignedDimension
 13
2370.0
 23
3669.999999999998
 33
0.0
 14
2370.0
 24
2964.999999999998
 34
0.0
 50
90.0
100
AcDbRotatedDimension
  0
DIMENSION
  5
FC0E
330
1F
100
AcDbEntity
  8
01注記寸法
100
AcDbDimension
  2
*D1249
 10
2600.000000000001
 20
2929.999999999998
 30
0.0
 11
2562.500000000001
 21
2798.742499999998
 31
0.0
 70
    32
 71
     5
 42
34.99999999999999
  3
NEMY-15
100
AcDbAlignedDimension
 13
2370.0
 23
2964.999999999998
 33
0.0
 14
2450.0
 24
2929.999999999998
 34
0.0
 50
90.0
100
AcDbRotatedDimension
  0
DIMENSION
  5
FC0F
330
1F
100
AcDbEntity
  8
01注記寸法
100
AcDbDimension
  2
*D1250
 10
1600.0
 20
2629.999999999998
 30
0.0
 11
1550.0
 21
2629.999999999998
 31
0.0
 70
   160
 71
     5
 42
100.0
  3
NEMY-15
100
AcDbAlignedDimension
 13
1500.0
 23
2928.499999999997
 33
0.0
 14
1600.0
 24
2944.999999999998
 34
0.0
100
AcDbRotatedDimension
  0
DIMENSION
  5
FC10
330
1F
100
AcDbEntity
  8
01注記寸法
100
AcDbDimension
  2
*D1251
 10
2350.0
 20
2629.999999999998
 30
0.0
 11
1975.0
 21
2668.984999999998
 31
0.0
 70
    32
  1
※ <>
 71
     5
 42
750.0
  3
NEMY-15
100
AcDbAlignedDimension
 13
1600.0
 23
2944.999999999998
 33
0.0
 14
2350.0
 24
2951.999999999998
 34
0.0
100
AcDbRotatedDimension
  0
DIMENSION
  5
FC11
330
1F
100
AcDbEntity
  8
01注記寸法
100
AcDbDimension
  2
*D1252
 10
2450.0
 20
2629.999999999998
 30
0.0
 11
2594.87
 21
2667.499999999998
 31
0.0
 70
    32
 71
     5
 42
100.0
  3
NEMY-15
100
AcDbAlignedDimension
 13
2350.0
 23
2951.999999999998
 33
0.0
 14
2450.0
 24
2928.499999999997
 34
0.0
100
AcDbRotatedDimension
  0
LWPOLYLINE
  5
FCE4
330
1F
100
AcDbEntity
  8
08非表示
100
AcDbPolyline
 90
        4
 70
     1
 43
0.0
 10
300.0
 20
1650.000000000001
 10
300.0
 20
4154.999999999998
 10
4800.0
 20
4154.999999999998
 10
4800.0
 20
1650.000000000002
  0
LWPOLYLINE
  5
FCE5
330
1F
100
AcDbEntity
  8
08非表示
100
AcDbPolyline
 90
        4
 70
     1
 43
0.0
 10
337.5
 20
150.0
 10
337.5
 20
1031.25
 10
1350.0
 20
1031.25
 10
1350.0
 20
150.0
  0
DIMENSION
  5
FCE6
330
1F
100
AcDbEntity
  8
01注記寸法
100
AcDbDimension
  2
*D1255
 10
337.5
 20
326.625
 30
0.0
 11
300.0
 21
590.625
 31
0.0
 70
    32
 71
     5
 42
704.0
  3
NEMY-15
100
AcDbAlignedDimension
 13
509.0999999999995
 23
854.625
 33
0.0
 14
509.0999999999995
 24
326.625
 34
0.0
 50
90.0
100
AcDbRotatedDimension
1001
ACAD
1000
DSTYLE
1002
{
1070
   271
1070
     0
1070
   144
1040
1.333333333333333
1002
}
  0
DIMENSION
  5
FCF3
330
1F
100
AcDbEntity
  8
01注記寸法
100
AcDbDimension
  2
*D1256
 10
1178.400000000001
 20
1031.25
 30
0.0
 11
843.75
 21
1068.75
 31
0.0
 70
    32
 71
     5
 42
892.4000000000015
  3
NEMY-15
100
AcDbAlignedDimension
 13
509.0999999999995
 23
854.625
 33
0.0
 14
1178.400000000001
 24
854.625
 34
0.0
100
AcDbRotatedDimension
1001
ACAD
1000
DSTYLE
1002
{
1070
   271
1070
     0
1070
   144
1040
1.333333333333333
1002
}
  0
DIMENSION
  5
FD00
330
1F
100
AcDbEntity
  8
08非表示
100
AcDbDimension
  2
*D1257
 10
1350.0
 20
300.0
 30
0.0
 11
1312.5
 21
590.625
 31
0.0
 70
    32
 71
     5
 42
775.0
  3
NEMY-15
100
AcDbAlignedDimension
 13
1200.0
 23
881.25
 33
0.0
 14
1200.0
 24
300.0
 34
0.0
 50
90.0
100
AcDbRotatedDimension
1001
ACAD
1000
DSTYLE
1002
{
1070
   144
1040
1.333333333333333
1002
}
  0
DIMENSION
  5
FD0D
330
1F
100
AcDbEntity
  8
08非表示
100
AcDbDimension
  2
*D1258
 10
1200.0
 20
150.0
 30
0.0
 11
843.75
 21
187.5
 31
0.0
 70
    32
 71
     5
 42
950.0
  3
NEMY-15
100
AcDbAlignedDimension
 13
487.5
 23
298.8749999999993
 33
0.0
 14
1200.0
 24
298.8749999999993
 34
0.0
100
AcDbRotatedDimension
1001
ACAD
1000
DSTYLE
1002
{
1070
   144
1040
1.333333333333333
1002
}
  0
TEXT
  5
FD1A
330
1F
100
AcDbEntity
  8
01注記寸法
100
AcDbText
 10
1795.702540378444
 20
723.375
 30
0.0
 40
45.0
  1
アンカーボルト孔
100
AcDbText
  0
TEXT
  5
FD1B
330
1F
100
AcDbEntity
  8
01注記寸法
100
AcDbText
 10
1795.702540378444
 20
648.375
 30
0.0
 40
45.0
  1
(4-φ16)
100
AcDbText
  0
LEADER
  5
FD1C
330
1F
100
AcDbEntity
  8
01注記寸法
100
AcDbLeader
  3
NEMY-15
 76
     3
 10
1657.349999999999
 20
860.7749999999992
 30
0.0
 10
1795.702540378444
 20
704.625
 30
0.0
 10
2275.702540378444
 20
704.625
 30
0.0
  0
LWPOLYLINE
  5
FD32
330
1F
100
AcDbEntity
  8
08非表示
100
AcDbPolyline
 90
        4
 70
     1
 43
0.0
 10
1537.5
 20
150.0
 10
1537.5
 20
1031.25
 10
2550.0
 20
1031.25
 10
2550.0
 20
150.0
  0
DIMENSION
  5
FD33
330
1F
100
AcDbEntity
  8
01注記寸法
100
AcDbDimension
  2
*D1259
 10
1537.5
 20
320.4749999999995
 30
0.0
 11
1500.0
 21
590.6249999999993
 31
0.0
 70
    32
 71
     5
 42
720.3999999999996
  3
NEMY-15
100
AcDbAlignedDimension
 13
1657.349999999999
 23
860.7749999999992
 33
0.0
 14
1657.349999999999
 24
320.4749999999995
 34
0.0
 50
90.0
100
AcDbRotatedDimension
1001
ACAD
1000
DSTYLE
1002
{
1070
   271
1070
     0
1070
   144
1040
1.333333333333333
1002
}
  0
DIMENSION
  5
FD34
330
1F
100
AcDbEntity
  8
01注記寸法
100
AcDbDimension
  2
*D1260
 10
2430.150000000001
 20
1031.25
 30
0.0
 11
2043.75
 21
1068.75
 31
0.0
 70
    32
 71
     5
 42
1030.400000000001
  3
NEMY-15
100
AcDbAlignedDimension
 13
1657.349999999999
 23
860.7749999999992
 33
0.0
 14
2430.150000000001
 24
860.7749999999992
 34
0.0
100
AcDbRotatedDimension
1001
ACAD
1000
DSTYLE
1002
{
1070
   271
1070
     0
1070
   144
1040
1.333333333333333
1002
}
  0
DIMENSION
  5
FD35
330
1F
100
AcDbEntity
  8
08非表示
100
AcDbDimension
  2
*D1261
 10
2550.0
 20
300.0
 30
0.0
 11
2512.5
 21
590.625
 31
0.0
 70
    32
 71
     5
 42
775.0
  3
NEMY-15
100
AcDbAlignedDimension
 13
2400.0
 23
881.25
 33
0.0
 14
2400.0
 24
300.0
 34
0.0
 50
90.0
100
AcDbRotatedDimension
1001
ACAD
1000
DSTYLE
1002
{
1070
   144
1040
1.333333333333333
1002
}
  0
DIMENSION
  5
FD36
330
1F
100
AcDbEntity
  8
08非表示
100
AcDbDimension
  2
*D1262
 10
2400.0
 20
150.0
 30
0.0
 11
2043.75
 21
187.5
 31
0.0
 70
    32
 71
     5
 42
950.0
  3
NEMY-15
100
AcDbAlignedDimension
 13
1687.5
 23
298.8749999999993
 33
0.0
 14
2400.0
 24
298.8749999999993
 34
0.0
100
AcDbRotatedDimension
1001
ACAD
1000
DSTYLE
1002
{
1070
   144
1040
1.333333333333333
1002
}
  0
TEXT
  5
FD67
330
1F
100
AcDbEntity
  8
01注記寸法
100
AcDbText
 10
2995.702540378444
 20
723.375
 30
0.0
 40
45.0
  1
アンカーボルト孔
100
AcDbText
  0
TEXT
  5
FD68
330
1F
100
AcDbEntity
  8
01注記寸法
100
AcDbText
 10
2995.702540378444
 20
648.375
 30
0.0
 40
45.0
  1
(4-φ16)
100
AcDbText
  0
LEADER
  5
FD69
330
1F
100
AcDbEntity
  8
01注記寸法
100
AcDbLeader
  3
NEMY-15
 76
     3
 10
2909.099999999999
 20
912.5249999999992
 30
0.0
 10
2995.702540378444
 20
704.625
 30
0.0
 10
3475.702540378444
 20
704.625
 30
0.0
  0
LWPOLYLINE
  5
FD7F
330
1F
100
AcDbEntity
  8
08非表示
100
AcDbPolyline
 90
        4
 70
     1
 43
0.0
 10
2737.5
 20
150.0
 10
2737.5
 20
1031.25
 10
3750.0
 20
1031.25
 10
3750.0
 20
150.0
  0
DIMENSION
  5
FD80
330
1F
100
AcDbEntity
  8
01注記寸法
100
AcDbDimension
  2
*D1263
 10
2737.5
 20
268.7249999999995
 30
0.0
 11
2700.0
 21
590.6249999999993
 31
0.0
 70
    32
 71
     5
 42
858.3999999999996
  3
NEMY-15
100
AcDbAlignedDimension
 13
2909.099999999999
 23
912.5249999999992
 33
0.0
 14
2909.099999999999
 24
268.7249999999995
 34
0.0
 50
90.0
100
AcDbRotatedDimension
1001
ACAD
1000
DSTYLE
1002
{
1070
   271
1070
     0
1070
   144
1040
1.333333333333333
1002
}
  0
DIMENSION
  5
FD81
330
1F
100
AcDbEntity
  8
01注記寸法
100
AcDbDimension
  2
*D1264
 10
3578.400000000001
 20
1031.25
 30
0.0
 11
3243.75
 21
1068.75
 31
0.0
 70
    32
 71
     5
 42
892.4000000000015
  3
NEMY-15
100
AcDbAlignedDimension
 13
2909.099999999999
 23
912.5249999999992
 33
0.0
 14
3578.400000000001
 24
912.5249999999992
 34
0.0
100
AcDbRotatedDimension
1001
ACAD
1000
DSTYLE
1002
{
1070
   271
1070
     0
1070
   144
1040
1.333333333333333
1002
}
  0
DIMENSION
  5
FD82
330
1F
100
AcDbEntity
  8
08非表示
100
AcDbDimension
  2
*D1265
 10
3750.0
 20
300.0
 30
0.0
 11
3712.5
 21
590.625
 31
0.0
 70
    32
 71
     5
 42
775.0
  3
NEMY-15
100
AcDbAlignedDimension
 13
3600.0
 23
881.25
 33
0.0
 14
3600.0
 24
300.0
 34
0.0
 50
90.0
100
AcDbRotatedDimension
1001
ACAD
1000
DSTYLE
1002
{
1070
   144
1040
1.333333333333333
1002
}
  0
DIMENSION
  5
FD83
330
1F
100
AcDbEntity
  8
08非表示
100
AcDbDimension
  2
*D1266
 10
3600.0
 20
150.0
 30
0.0
 11
3243.75
 21
187.5
 31
0.0
 70
    32
 71
     5
 42
950.0
  3
NEMY-15
100
AcDbAlignedDimension
 13
2887.5
 23
298.8749999999993
 33
0.0
 14
3600.0
 24
298.8749999999993
 34
0.0
100
AcDbRotatedDimension
1001
ACAD
1000
DSTYLE
1002
{
1070
   144
1040
1.333333333333333
1002
}
  0
TEXT
  5
FDB6
330
1F
100
AcDbEntity
  8
01注記寸法
100
AcDbText
 10
4860.375
 20
3972.2055
 30
0.0
 40
45.0
  1
2
 72
     4
 11
4875.0
 21
3994.9305
 31
0.0
100
AcDbText
  0
LWPOLYLINE
  5
FDB7
330
1F
100
AcDbEntity
  8
01注記寸法
100
AcDbPolyline
 90
        4
 70
     0
 43
0.0
 10
4875.000000000004
 20
4036.150186134337
 10
4835.364796555424
 20
3967.5
 10
4914.635203444576
 20
3967.5
 10
4875.000000000004
 20
4036.150186134337
  0
LWPOLYLINE
  5
FDFE
330
1F
100
AcDbEntity
  8
09図枠
100
AcDbPolyline
 90
        4
 70
     1
 43
0.0
 10
4200.0
 20
3465.0
 10
4200.0
 20
3555.0
 10
4950.0
 20
3555.0
 10
4950.0
 20
3465.0
  0
TEXT
  5
FDFF
330
1F
100
AcDbEntity
  8
01注記寸法
100
AcDbText
 10
4232.775
 20
3487.5
 30
0.0
 40
45.0
  1
１－ＨＴＰ３４４（＃Ｅ２）
 41
0.9
 72
     1
 11
4575.0
 21
3510.0
 31
0.0
100
AcDbText
 73
     2
  0
TEXT
  5
FE00
330
1F
100
AcDbEntity
  8
01注記寸法
100
AcDbText
 10
4110.375
 20
3477.2055
 30
0.0
 40
45.0
  1
3
 72
     4
 11
4125.0
 21
3499.9305
 31
0.0
100
AcDbText
  0
LWPOLYLINE
  5
FE01
330
1F
100
AcDbEntity
  8
01注記寸法
100
AcDbPolyline
 90
        4
 70
     0
 43
0.0
 10
4125.000000000004
 20
3541.150186134337
 10
4085.364796555424
 20
3472.5
 10
4164.635203444576
 20
3472.5
 10
4125.000000000004
 20
3541.150186134337
  0
VIEWPORT
  5
9F0D
330
1B
100
AcDbEntity
 67
     1
  8
0
100
AcDbViewport
 10
202.5
 20
128.5
 30
0.0
 40
486.0
 41
308.4
 68
     1
 69
     1
 12
202.5
 22
128.5
 13
0.0
 23
0.0
 14
0.5
 24
0.5
 15
0.0
 25
0.0
 16
0.0
 26
0.0
 36
1.0
 17
0.0
 27
0.0
 37
0.0
 42
50.0
 43
0.0
 44
0.0
 45
308.4
 50
0.0
 51
0.0
 72
   100
 90
   557152
  1

281
     0
 71
     1
 74
     0
110
0.0
120
0.0
130
0.0
111
1.0
121
0.0
131
0.0
112
0.0
122
1.0
132
0.0
 79
     0
146
0.0
  0
VIEWPORT
  5
9F0E
330
1B
100
AcDbEntity
 67
     1
  8
0
100
AcDbViewport
 10
202.5
 20
128.5
 30
0.0
 40
324.0
 41
205.6
 68
     2
 69
     2
 12
-3224.9849078482
 22
3553.815758143106
 13
0.0
 23
0.0
 14
0.5
 24
0.5
 15
0.0
 25
0.0
 16
0.0
 26
0.0
 36
1.0
 17
0.0
 27
0.0
 37
0.0
 42
50.0
 43
0.0
 44
0.0
 45
10712.16027781073
 50
0.0
 51
0.0
 72
   100
 90
   557152
  1

281
     0
 71
     1
 74
     0
110
0.0
120
0.0
130
0.0
111
1.0
121
0.0
131
0.0
112
0.0
122
1.0
132
0.0
 79
     0
146
0.0
  0
ENDSEC
  0
SECTION
  2
OBJECTS
  0
DICTIONARY
  5
C
330
0
100
AcDbDictionary
281
     1
  3
ACAD_DETAILVIEWSTYLE
350
FAD3
  3
ACAD_GROUP
350
D
  3
ACAD_IMAGE_VARS
350
6A88
  3
ACAD_LAYOUT
350
1A
  3
ACAD_MLINESTYLE
350
17
  3
ACAD_PLOTSETTINGS
350
19
  3
ACAD_PLOTSTYLENAME
350
E
  3
ACAD_SCALELIST
350
6A4E
  3
ACAD_SECTIONVIEWSTYLE
350
FAD4
  3
AcadDim
350
C4B1
  3
AcDbVariableDictionary
350
79E
  3
APPDATA
350
6A87
  3
DWGPROPS
350
FE34
  0
DICTIONARY
  5
7A6F
330
2
100
AcDbDictionary
280
     1
281
     1
  3
ACAD_LAYERSTATES
360
7A70
  3
ACLYDICTIONARY
360
A99D
  0
DICTIONARY
  5
969E
330
1F
100
AcDbDictionary
280
     1
281
     1
  3
ACAD_SORTENTS
360
969F
  0
DICTIONARY
  5
FAD3
102
{ACAD_REACTORS
330
C
102
}
330
C
100
AcDbDictionary
281
     1
  0
DICTIONARY
  5
D
102
{ACAD_REACTORS
330
C
102
}
330
C
100
AcDbDictionary
281
     1
  3
*A1
350
BE74
  3
*A2
350
BE75
  3
*A3
350
BE76
  3
*A4
350
D6EC
  3
*A5
350
D6ED
  3
*A6
350
D6EE
  3
*A7
350
D6EF
  3
*A8
350
D6F0
  0
RASTERVARIABLES
  5
6A88
102
{ACAD_REACTORS
330
C
102
}
330
C
100
AcDbRasterVariables
 90
        0
 70
     1
 71
     1
 72
     1
  0
DICTIONARY
  5
1A
102
{ACAD_REACTORS
330
C
102
}
330
C
100
AcDbDictionary
281
     1
  3
Layout1
350
1E
  3
Model
350
22
  0
DICTIONARY
  5
17
102
{ACAD_REACTORS
330
C
102
}
330
C
100
AcDbDictionary
281
     1
  3
Standard
350
18
  0
DICTIONARY
  5
19
102
{ACAD_REACTORS
330
C
102
}
330
C
100
AcDbDictionary
281
     1
  0
ACDBDICTIONARYWDFLT
  5
E
102
{ACAD_REACTORS
330
C
102
}
330
C
100
AcDbDictionary
281
     1
  3
Normal
350
F
100
AcDbDictionaryWithDefault
340
F
  0
DICTIONARY
  5
6A4E
102
{ACAD_REACTORS
330
C
102
}
330
C
100
AcDbDictionary
281
     1
  3
A0
350
6A4F
  3
A1
350
6A50
  3
A2
350
6A51
  3
A3
350
6A52
  3
A4
350
6A53
  3
A5
350
6A54
  3
A6
350
6A55
  3
A7
350
6A56
  3
A8
350
6A57
  3
A9
350
6A58
  3
B0
350
6A59
  3
B1
350
6A5A
  3
B2
350
6A5B
  3
B3
350
6A5C
  3
B4
350
6A5D
  3
B5
350
6A5E
  3
B6
350
6A5F
  3
B7
350
6A60
  3
B8
350
6A61
  3
B9
350
6A62
  3
C0
350
6A63
  3
C1
350
6A64
  3
C2
350
6A65
  3
C3
350
6A66
  3
C4
350
6A67
  3
C5
350
6A68
  3
C6
350
6A69
  3
C7
350
6A6A
  3
C8
350
6A6B
  3
C9
350
6A6C
  3
D0
350
6A6D
  3
D1
350
6A6E
  3
D2
350
6A6F
  0
DICTIONARY
  5
FAD4
102
{ACAD_REACTORS
330
C
102
}
330
C
100
AcDbDictionary
281
     1
  0
XRECORD
  5
C4B1
102
{ACAD_REACTORS
330
C
102
}
330
C
100
AcDbXrecord
280
     1
340
0
 72
     0
 71
     0
 70
     0
 69
     0
 68
     1
 67
     3
 66
     0
 65
     0
 64
     0
 63
     3
 62
     1
 61
     0
 60
     0
 40
0.0
  0
DICTIONARY
  5
79E
102
{ACAD_REACTORS
330
C
102
}
330
C
100
AcDbDictionary
281
     1
  3
DIMASSOC
350
79F
  3
SORTENTS
350
264F
  0
DICTIONARY
  5
6A87
102
{ACAD_REACTORS
330
C
102
}
330
C
100
AcDbDictionary
281
     1
  0
XRECORD
  5
FE34
102
{ACAD_REACTORS
330
C
102
}
330
C
100
AcDbXrecord
280
     1
  1
DWGPROPS COOKIE
  2

  3

  4

  6

  7

  8
Sales
  9

300
=
301
=
302
=
303
=
304
=
305
=
306
=
307
=
308
=
309
=
 40
0.0
 41
2455859.030048461
 42
2459010.021825845
  1

 90
        0
  0
DICTIONARY
  5
7A70
102
{ACAD_REACTORS
330
7A6F
102
}
330
7A6F
100
AcDbDictionary
281
     1
  0
DICTIONARY
  5
A99D
102
{ACAD_REACTORS
330
7A6F
102
}
330
7A6F
100
AcDbDictionary
281
     1
1001
ACAD
1000
<All
  0
SORTENTSTABLE
  5
969F
102
{ACAD_REACTORS
330
969E
102
}
330
969E
100
AcDbSortentsTable
330
1F
331
0
  5
7ECC
331
7E6F
  5
7E90
331
7E74
  5
7E94
331
7E7B
  5
7EA4
331
7E88
  5
7EAB
331
7E89
  5
7EAC
331
7E8A
  5
7EAD
331
7E8B
  5
7EAE
331
7E8C
  5
7EAF
331
7E8D
  5
7EB0
331
7E8F
  5
7EB1
331
7E90
  5
7EB2
331
7E94
  5
7EB3
331
7E95
  5
7EB4
331
7E97
  5
7EB5
331
7E98
  5
7EB6
331
7EA4
  5
7EB9
331
7EA5
  5
7EBA
331
7EA6
  5
7EBB
331
7EA7
  5
7EBC
331
7EB6
  5
7ECB
331
7EB9
  5
7E6F
331
7EBE
  5
7E74
331
7EBF
  5
7E76
331
7EC0
  5
7E78
331
7EC1
  5
7E79
331
7EC2
  5
7E7B
331
7EC3
  5
7E7C
331
7EC4
  5
7E7D
331
7EC5
  5
7E7E
331
7EC6
  5
7ED0
331
7EC7
  5
7ED1
331
7EC8
  5
7ED2
331
7EC9
  5
7ED4
331
7ECA
  5
7ED5
331
7ECB
  5
7ED6
331
7ECC
  5
7ED7
331
7ECD
  5
7EDB
331
7ECE
  5
7EDC
331
7ECF
  5
7EDD
331
7ED0
  5
7EDE
331
7ED1
  5
7EDF
331
7ED2
  5
7EE0
331
7ED4
  5
7EE2
331
7ED5
  5
7EE3
331
7ED6
  5
7EE4
331
7EDA
  5
7EE8
331
7EDB
  5
7EE9
331
7EDC
  5
7EEA
331
7EDD
  5
7EEB
331
7EDE
  5
7EED
331
7EDF
  5
7EEE
331
7EE0
  5
7EEF
331
7EE2
  5
7EF3
331
7EE3
  5
7EF4
331
7EE7
  5
7EF5
331
7EE8
  5
7EF6
331
7EE9
  5
7EF8
331
7EEA
  5
7EF9
331
7EEB
  5
7EFA
331
7EED
  5
7EFE
331
7EEE
  5
7EFF
331
7EF2
  5
7F00
331
7EF3
  5
7F01
331
7EF4
  5
7F03
331
7EF5
  5
7F04
331
7EF6
  5
7F05
331
7EF8
  5
7F09
331
7EF9
  5
7F0A
331
7EFD
  5
7F0B
331
7EFE
  5
7F0C
331
7EFF
  5
7F0D
331
7F00
  5
7F12
331
7F01
  5
7F13
331
7F03
  5
7F16
331
7F04
  5
7F17
331
7F08
  5
7F1C
331
7F09
  5
7F1E
331
7F0A
  5
7F47
331
7F0B
  5
7F49
331
7F0C
  5
7F4A
331
7F0D
  5
7F4B
331
7F12
  5
7F4C
331
7F13
  5
7F4D
331
7F19
  5
7F4E
331
7F1B
  5
7F50
331
7F1C
  5
7F51
331
7F47
  5
7F52
331
7F48
  5
7F53
331
7F49
  5
7F54
331
7F4A
  5
7F55
331
7F4B
  5
7F56
331
7F4C
  5
7F57
331
7F4E
  5
7F58
331
7F4F
  5
7F59
331
7F50
  5
7F5A
331
7F51
  5
7F5C
331
7F52
  5
7F8F
331
7F53
  5
7F90
331
7F54
  5
7F91
331
7F55
  5
7F92
331
7F56
  5
7F93
331
7F57
  5
7F94
331
7F58
  5
7F95
331
7F59
  5
7F96
331
7F8D
  5
7F97
331
7F8E
  5
7F98
331
7F8F
  5
7FC2
331
7F90
  5
7FC3
331
7F91
  5
7FCA
331
7F92
  5
7FCB
331
7F93
  5
7FDE
331
7F94
  5
7FDF
331
7F95
  5
8081
331
7F96
  5
8082
331
7F97
  5
8083
331
7F98
  5
8084
331
7FC3
  5
8192
331
7FC9
  5
8193
331
7FCA
  5
8194
331
7FCB
  5
8195
331
807F
  5
8196
331
8080
  5
8197
331
8081
  5
8198
331
8082
  5
819A
331
818F
  5
819C
331
8191
  5
819D
331
8192
  5
819F
331
8193
  5
81A1
331
8194
  5
81A4
331
8195
  5
81A5
331
8196
  5
81A6
331
8197
  5
81A7
331
8199
  5
81AA
331
819A
  5
81AB
331
819C
  5
81AC
331
819D
  5
81AD
331
819F
  5
81AE
331
81A1
  5
81AF
331
81A4
  5
81B0
331
81A5
  5
81B1
331
81A6
  5
81B2
331
81A7
  5
81BA
331
81AA
  5
81BB
331
81AB
  5
81BD
331
81AC
  5
81BE
331
81AD
  5
81BF
331
81AE
  5
81C0
331
81AF
  5
81C1
331
81B0
  5
81C2
331
81B1
  5
81C3
331
81B2
  5
81C4
331
81BB
  5
81C5
331
81BC
  5
81C6
331
81BD
  5
81C7
331
81BE
  5
81C8
331
81BF
  5
81CA
331
81C0
  5
81CB
331
81C1
  5
81E8
331
81C2
  5
81F8
331
81C3
  5
821A
331
81C4
  5
821C
331
81C5
  5
86AE
331
81C6
  5
86AF
331
81C7
  5
86B0
331
81C8
  5
86B1
331
81CD
  5
86B2
331
81E7
  5
86B3
331
81E8
  5
86B4
331
81F8
  5
86B5
331
86AE
  5
86B8
331
86AF
  5
86B9
331
86B0
  5
86C4
331
86B1
  5
86C5
331
86B2
  5
86F1
331
86B3
  5
86F2
331
86B4
  5
86F3
331
86B5
  5
86F4
331
86B6
  5
86F5
331
86B7
  5
86FF
331
86F1
  5
8864
331
86F2
  5
8865
331
86F3
  5
8867
331
86FD
  5
8869
331
885B
  5
886E
331
8864
  5
8879
331
8865
  5
887A
331
8867
  5
887B
331
8869
  5
887C
331
886D
  5
896C
331
886E
  5
896D
331
886F
  5
896E
331
8C2C
  5
8C5E
331
8C2E
  5
8C5F
331
8C2F
  5
8C61
331
8C30
  5
8C63
331
8C31
  5
8E22
331
969D
  5
7E8F
331
96A0
  5
9719
331
96A1
  5
971A
331
96A2
  5
971B
331
96A3
  5
971C
331
9A59
  5
9A64
331
9A5A
  5
9A65
331
9A5B
  5
9A69
331
9A5C
  5
9A6A
331
9A60
  5
9A6B
331
9A61
  5
9A6C
331
9A62
  5
9A6D
331
9A63
  5
9A6E
331
9A64
  5
9A6F
331
9A65
  5
9A71
331
9A69
  5
9A72
331
9A6A
  5
9A73
331
9A6B
  5
9A75
331
9A6C
  5
9A76
331
9A6D
  5
9A77
331
9A6E
  5
9A78
331
9A6F
  5
9A7A
331
9A71
  5
9A7C
331
9A72
  5
9A7D
331
9A73
  5
9A7E
331
9A75
  5
9A7F
331
9A76
  5
9A80
331
9A77
  5
9A81
331
9A78
  5
9A82
331
9A7A
  5
9A83
331
9A7C
  5
9A84
331
9A7D
  5
9A85
331
9A7E
  5
9A86
331
9A7F
  5
9A87
331
9A80
  5
9A88
331
9A81
  5
9A89
331
9A82
  5
9A8A
331
9A83
  5
9A8B
331
9A84
  5
9A8C
331
9A85
  5
9A8D
331
9A86
  5
9A8E
331
9A87
  5
9A8F
331
9A88
  5
9A90
331
9A89
  5
9A91
331
9A8A
  5
9A92
331
9A8B
  5
9A93
331
9A8C
  5
9A94
331
9A8D
  5
9A95
331
9A8E
  5
9A96
331
9A8F
  5
9A97
331
9A90
  5
9A98
331
9A91
  5
9A99
331
9A92
  5
9A9A
331
9A93
  5
9A9B
331
9A94
  5
9A9C
331
9A9C
  5
9AA4
331
9A9D
  5
9AA5
331
9A9E
  5
9AA6
331
9A9F
  5
9AA7
331
9AA0
  5
9AA8
331
9AA1
  5
9AAB
331
9AA2
  5
9AAC
331
9AA3
  5
9AAD
331
9AA4
  5
9AAE
331
9AA5
  5
9AAF
331
9AA6
  5
9AB0
331
9AA7
  5
9AB1
331
9AA8
  5
9AB2
331
9AAB
  5
9AB3
331
9AAC
  5
9AB4
331
9AAD
  5
9AB5
331
9AAE
  5
9AB6
331
9AAF
  5
9AB7
331
9AB0
  5
9AB8
331
9AB1
  5
9AB9
331
9AB2
  5
9ABA
331
9AB3
  5
9ABB
331
9AB4
  5
9ABC
331
9AB5
  5
9AD7
331
9AB6
  5
9AD8
331
9AB7
  5
9AD9
331
9AB8
  5
9ADA
331
9AB9
  5
9ADB
331
9ABA
  5
9ADC
331
9ABB
  5
9ADD
331
9ABC
  5
9ADE
331
A00E
  5
A028
331
A162
  5
A40B
331
A163
  5
A40C
331
A3F3
  5
A40F
331
A948
  5
A9BF
331
A94D
  5
A9C1
331
A94E
  5
A9C2
331
A972
  5
A9C3
331
A974
  5
A9E5
331
A975
  5
A9E7
331
A9E7
  5
AA27
331
A9E8
  5
AA28
331
B716
  5
B87A
331
B719
  5
B87B
331
B71A
  5
B87C
331
B71B
  5
B87D
331
B71D
  5
B87E
331
BDFC
  5
BE04
331
BDFD
  5
BE05
331
BDFE
  5
BE06
331
BDFF
  5
BE07
331
BE00
  5
BE08
331
BE01
  5
BE09
331
BE02
  5
BE0A
331
BE03
  5
BE0B
331
BE04
  5
BE0C
331
BE05
  5
BE0D
331
BE06
  5
BE0E
331
BE07
  5
BE0F
331
BE08
  5
BE10
331
BE09
  5
BE11
331
BE0A
  5
BE12
331
BE0B
  5
BE13
331
BE0C
  5
BE14
331
BE0D
  5
BE15
331
BE0E
  5
BE16
331
BE0F
  5
BE17
331
BE10
  5
BE18
331
BE11
  5
BE19
331
BE12
  5
BE1A
331
BE13
  5
BE1B
331
BE14
  5
BE1C
331
BE15
  5
BE1D
331
BE16
  5
BE1E
331
BE17
  5
BE1F
331
BE18
  5
BE20
331
BE19
  5
BE21
331
BE1A
  5
BE22
331
BE1B
  5
BE23
331
BE1C
  5
BE24
331
BE1D
  5
BE25
331
BE1E
  5
BE26
331
BE1F
  5
BE27
331
BE20
  5
BE28
331
BE21
  5
BE29
331
BE22
  5
BE2A
331
BE23
  5
BE2B
331
BE24
  5
BE2C
331
BE25
  5
BE2D
331
BE26
  5
BE2E
331
BE27
  5
BE2F
331
BE28
  5
BE30
331
BE29
  5
BE31
331
BE2A
  5
BE32
331
BE2B
  5
BE33
331
BE2C
  5
BE34
331
BE2D
  5
BE35
331
BE2E
  5
BE36
331
BE2F
  5
BE37
331
BE30
  5
BE38
331
BE31
  5
BE39
331
BE32
  5
BE3A
331
BE33
  5
BE3B
331
BE34
  5
BE3C
331
BE35
  5
BE3D
331
BE36
  5
BE3E
331
BE37
  5
BE3F
331
BE38
  5
BE40
331
BE39
  5
BE41
331
BE3A
  5
BE42
331
BE3B
  5
BE43
331
BE3C
  5
BE44
331
BE5D
  5
BE65
331
BE62
  5
BE6A
331
BE63
  5
BE6B
331
BE64
  5
BE6C
331
BE65
  5
BE6D
331
BE67
  5
BE6F
331
BE68
  5
BE70
331
BE6B
  5
BF35
331
BE72
  5
BF3E
331
C4B5
  5
C4BD
331
C4B7
  5
C4C1
331
D023
  5
D033
331
D024
  5
D035
331
D025
  5
D039
331
D026
  5
D061
331
D027
  5
D062
331
D028
  5
D063
331
D029
  5
D064
331
D02A
  5
D065
331
D5F5
  5
D5FD
331
D62C
  5
D635
331
D62E
  5
7E7F
331
D62F
  5
7E84
331
D630
  5
7E85
331
D631
  5
7E86
331
D632
  5
7E87
331
D633
  5
7E8A
331
D634
  5
7E8B
331
D635
  5
7E8C
  0
GROUP
  5
BE74
102
{ACAD_REACTORS
330
D
102
}
330
D
100
AcDbGroup
300

 70
     1
 71
     1
340
BE01
340
BE02
340
BE03
340
BE04
340
BE05
340
BE06
340
BE07
340
BE08
340
BE09
340
BE0A
340
BE0B
  0
GROUP
  5
BE75
102
{ACAD_REACTORS
330
D
102
}
330
D
100
AcDbGroup
300

 70
     1
 71
     1
340
BE2A
340
BE2B
340
BE2C
340
BE2D
340
BE2E
340
BE2F
340
BE30
340
BE31
340
BE32
340
BE33
340
BE34
340
BE35
340
BE36
340
BE37
340
BE38
340
BE39
340
BE3A
340
BE3B
340
BE3C
  0
GROUP
  5
BE76
102
{ACAD_REACTORS
330
D
102
}
330
D
100
AcDbGroup
300

 70
     1
 71
     1
340
BE11
340
BE12
340
BE13
340
BE14
340
BE15
340
BE16
340
BE17
340
BE18
340
BE19
340
BE1A
340
BE1B
340
BE1C
340
BE1D
340
BE1E
340
BE1F
340
BE20
340
BE21
340
BE22
340
BE23
340
BE24
340
BE25
340
BE26
340
BE27
340
BE28
340
BE29
  0
GROUP
  5
D6EC
102
{ACAD_REACTORS
330
D
102
}
330
D
100
AcDbGroup
300

 70
     1
 71
     1
  0
GROUP
  5
D6ED
102
{ACAD_REACTORS
330
D
102
}
330
D
100
AcDbGroup
300

 70
     1
 71
     1
  0
GROUP
  5
D6EE
102
{ACAD_REACTORS
330
D
102
}
330
D
100
AcDbGroup
300

 70
     1
 71
     1
  0
GROUP
  5
D6EF
102
{ACAD_REACTORS
330
D
102
}
330
D
100
AcDbGroup
300

 70
     1
 71
     1
  0
GROUP
  5
D6F0
102
{ACAD_REACTORS
330
D
102
}
330
D
100
AcDbGroup
300

 70
     1
 71
     1
  0
LAYOUT
  5
1E
102
{ACAD_REACTORS
330
1A
102
}
330
1A
100
AcDbPlotSettings
  1

  2
none_device
  4
ISO_A3_(420.00_x_297.00_MM)
  6

 40
7.5
 41
20.0
 42
7.5
 43
20.0
 44
420.0
 45
297.0
 46
0.0
 47
0.0
 48
0.0
 49
0.0
140
0.0
141
0.0
142
1.0
143
1.0
 70
   688
 72
     1
 73
     0
 74
     5
  7

 75
    16
147
1.0
148
0.0
149
0.0
100
AcDbLayout
  1
Layout1
 70
     1
 71
     1
 10
0.0
 20
0.0
 11
412.5
 21
277.0
 12
0.0
 22
0.0
 32
0.0
 14
1.000000000000000E+20
 24
1.000000000000000E+20
 34
1.000000000000000E+20
 15
-1.000000000000000E+20
 25
-1.000000000000000E+20
 35
-1.000000000000000E+20
146
0.0
 13
0.0
 23
0.0
 33
0.0
 16
1.0
 26
0.0
 36
0.0
 17
0.0
 27
1.0
 37
0.0
 76
     0
330
1B
331
9F0D
  0
LAYOUT
  5
22
102
{ACAD_REACTORS
330
1A
102
}
330
1A
100
AcDbPlotSettings
  1

  2
none_device
  4
A3
  6

 40
3.174999952316284
 41
3.174999952316284
 42
3.17498779296875
 43
3.17498779296875
 44
297.0318298339844
 45
420.1583251953125
 46
-3.16
 47
-3.1
 48
-90.0
 49
-90.0
140
329.9999999999998
141
207.0
142
1.0
143
1.0
 70
 11940
 72
     1
 73
     1
 74
     4
  7
monochrome.ctb
 75
     0
147
1.0
148
90.0
149
90.0
100
AcDbLayout
  1
Model
 70
     1
 71
     0
 10
0.0
 20
0.0
 11
6300.0
 21
4455.0
 12
0.0
 22
0.0
 32
0.0
 14
0.0
 24
-255.0
 34
0.0
 15
6900.0
 25
4455.0
 35
0.0
146
0.0
 13
0.0
 23
0.0
 33
0.0
 16
1.0
 26
0.0
 36
0.0
 17
0.0
 27
1.0
 37
0.0
 76
     0
330
1F
331
7A57
  0
MLINESTYLE
  5
18
102
{ACAD_REACTORS
330
17
102
}
330
17
100
AcDbMlineStyle
  2
STANDARD
 70
     0
  3

 62
   256
 51
90.0
 52
90.0
 71
     2
 49
0.5
 62
   256
  6
BYLAYER
 49
-0.5
 62
   256
  6
BYLAYER
  0
ACDBPLACEHOLDER
  5
F
102
{ACAD_REACTORS
330
E
102
}
330
E
  0
SCALE
  5
6A4F
102
{ACAD_REACTORS
330
6A4E
102
}
330
6A4E
100
AcDbScale
 70
     0
300
1:1
140
1.0
141
1.0
290
     1
  0
SCALE
  5
6A50
102
{ACAD_REACTORS
330
6A4E
102
}
330
6A4E
100
AcDbScale
 70
     0
300
1:2
140
1.0
141
2.0
290
     0
  0
SCALE
  5
6A51
102
{ACAD_REACTORS
330
6A4E
102
}
330
6A4E
100
AcDbScale
 70
     0
300
1:4
140
1.0
141
4.0
290
     0
  0
SCALE
  5
6A52
102
{ACAD_REACTORS
330
6A4E
102
}
330
6A4E
100
AcDbScale
 70
     0
300
1:5
140
1.0
141
5.0
290
     0
  0
SCALE
  5
6A53
102
{ACAD_REACTORS
330
6A4E
102
}
330
6A4E
100
AcDbScale
 70
     0
300
1:8
140
1.0
141
8.0
290
     0
  0
SCALE
  5
6A54
102
{ACAD_REACTORS
330
6A4E
102
}
330
6A4E
100
AcDbScale
 70
     0
300
1:10
140
1.0
141
10.0
290
     0
  0
SCALE
  5
6A55
102
{ACAD_REACTORS
330
6A4E
102
}
330
6A4E
100
AcDbScale
 70
     0
300
1:16
140
1.0
141
16.0
290
     0
  0
SCALE
  5
6A56
102
{ACAD_REACTORS
330
6A4E
102
}
330
6A4E
100
AcDbScale
 70
     0
300
1:20
140
1.0
141
20.0
290
     0
  0
SCALE
  5
6A57
102
{ACAD_REACTORS
330
6A4E
102
}
330
6A4E
100
AcDbScale
 70
     0
300
1:30
140
1.0
141
30.0
290
     0
  0
SCALE
  5
6A58
102
{ACAD_REACTORS
330
6A4E
102
}
330
6A4E
100
AcDbScale
 70
     0
300
1:40
140
1.0
141
40.0
290
     0
  0
SCALE
  5
6A59
102
{ACAD_REACTORS
330
6A4E
102
}
330
6A4E
100
AcDbScale
 70
     0
300
1:50
140
1.0
141
50.0
290
     0
  0
SCALE
  5
6A5A
102
{ACAD_REACTORS
330
6A4E
102
}
330
6A4E
100
AcDbScale
 70
     0
300
1:100
140
1.0
141
100.0
290
     0
  0
SCALE
  5
6A5B
102
{ACAD_REACTORS
330
6A4E
102
}
330
6A4E
100
AcDbScale
 70
     0
300
2:1
140
2.0
141
1.0
290
     0
  0
SCALE
  5
6A5C
102
{ACAD_REACTORS
330
6A4E
102
}
330
6A4E
100
AcDbScale
 70
     0
300
4:1
140
4.0
141
1.0
290
     0
  0
SCALE
  5
6A5D
102
{ACAD_REACTORS
330
6A4E
102
}
330
6A4E
100
AcDbScale
 70
     0
300
8:1
140
8.0
141
1.0
290
     0
  0
SCALE
  5
6A5E
102
{ACAD_REACTORS
330
6A4E
102
}
330
6A4E
100
AcDbScale
 70
     0
300
10:1
140
10.0
141
1.0
290
     0
  0
SCALE
  5
6A5F
102
{ACAD_REACTORS
330
6A4E
102
}
330
6A4E
100
AcDbScale
 70
     0
300
100:1
140
100.0
141
1.0
290
     0
  0
SCALE
  5
6A60
102
{ACAD_REACTORS
330
6A4E
102
}
330
6A4E
100
AcDbScale
 70
     0
300
1/128" = 1'-0"
140
0.0078125
141
12.0
290
     0
  0
SCALE
  5
6A61
102
{ACAD_REACTORS
330
6A4E
102
}
330
6A4E
100
AcDbScale
 70
     0
300
1/64" = 1'-0"
140
0.015625
141
12.0
290
     0
  0
SCALE
  5
6A62
102
{ACAD_REACTORS
330
6A4E
102
}
330
6A4E
100
AcDbScale
 70
     0
300
1/32" = 1'-0"
140
0.03125
141
12.0
290
     0
  0
SCALE
  5
6A63
102
{ACAD_REACTORS
330
6A4E
102
}
330
6A4E
100
AcDbScale
 70
     0
300
1/16" = 1'-0"
140
0.0625
141
12.0
290
     0
  0
SCALE
  5
6A64
102
{ACAD_REACTORS
330
6A4E
102
}
330
6A4E
100
AcDbScale
 70
     0
300
3/32" = 1'-0"
140
0.09375
141
12.0
290
     0
  0
SCALE
  5
6A65
102
{ACAD_REACTORS
330
6A4E
102
}
330
6A4E
100
AcDbScale
 70
     0
300
1/8" = 1'-0"
140
0.125
141
12.0
290
     0
  0
SCALE
  5
6A66
102
{ACAD_REACTORS
330
6A4E
102
}
330
6A4E
100
AcDbScale
 70
     0
300
3/16" = 1'-0"
140
0.1875
141
12.0
290
     0
  0
SCALE
  5
6A67
102
{ACAD_REACTORS
330
6A4E
102
}
330
6A4E
100
AcDbScale
 70
     0
300
1/4" = 1'-0"
140
0.25
141
12.0
290
     0
  0
SCALE
  5
6A68
102
{ACAD_REACTORS
330
6A4E
102
}
330
6A4E
100
AcDbScale
 70
     0
300
3/8" = 1'-0"
140
0.375
141
12.0
290
     0
  0
SCALE
  5
6A69
102
{ACAD_REACTORS
330
6A4E
102
}
330
6A4E
100
AcDbScale
 70
     0
300
1/2" = 1'-0"
140
0.5
141
12.0
290
     0
  0
SCALE
  5
6A6A
102
{ACAD_REACTORS
330
6A4E
102
}
330
6A4E
100
AcDbScale
 70
     0
300
3/4" = 1'-0"
140
0.75
141
12.0
290
     0
  0
SCALE
  5
6A6B
102
{ACAD_REACTORS
330
6A4E
102
}
330
6A4E
100
AcDbScale
 70
     0
300
1" = 1'-0"
140
1.0
141
12.0
290
     0
  0
SCALE
  5
6A6C
102
{ACAD_REACTORS
330
6A4E
102
}
330
6A4E
100
AcDbScale
 70
     0
300
1-1/2" = 1'-0"
140
1.5
141
12.0
290
     0
  0
SCALE
  5
6A6D
102
{ACAD_REACTORS
330
6A4E
102
}
330
6A4E
100
AcDbScale
 70
     0
300
3" = 1'-0"
140
3.0
141
12.0
290
     0
  0
SCALE
  5
6A6E
102
{ACAD_REACTORS
330
6A4E
102
}
330
6A4E
100
AcDbScale
 70
     0
300
6" = 1'-0"
140
6.0
141
12.0
290
     0
  0
SCALE
  5
6A6F
102
{ACAD_REACTORS
330
6A4E
102
}
330
6A4E
100
AcDbScale
 70
     0
300
1'-0" = 1'-0"
140
12.0
141
12.0
290
     0
  0
DICTIONARYVAR
  5
79F
102
{ACAD_REACTORS
330
79E
102
}
330
79E
100
DictionaryVariables
280
     0
  1
1
  0
DICTIONARYVAR
  5
264F
102
{ACAD_REACTORS
330
79E
102
}
330
79E
100
DictionaryVariables
280
     0
  1
96
  0
ENDSEC
  0
EOF
