  0
SECTION
  2
HEADER
  9
$ACADVER
  1
AC1015
  9
$ACADMAINTVER
 70
     6
  9
$DWGCODEPAGE
  3
ANSI_932
  9
$INSBASE
 10
0.0
 20
0.0
 30
0.0
  9
$EXTMIN
 10
0.0
 20
-170.0
 30
0.0
  9
$EXTMAX
 10
4600.0
 20
2970.0
 30
0.0
  9
$LIMMIN
 10
0.0
 20
0.0
  9
$LIMMAX
 10
4200.0
 20
2970.0
  9
$ORTHOMODE
 70
     1
  9
$REGENMODE
 70
     1
  9
$FILLMODE
 70
     1
  9
$QTEXTMODE
 70
     0
  9
$MIRRTEXT
 70
     1
  9
$LTSCALE
 40
3.0
  9
$ATTMODE
 70
     1
  9
$TEXTSIZE
 40
30.0
  9
$TRACEWID
 40
1.0
  9
$TEXTSTYLE
  7
Standard
  9
$CLAYER
  8
01注記寸法
  9
$CELTYPE
  6
ByLayer
  9
$CECOLOR
 62
   256
  9
$CELTSCALE
 40
1.0
  9
$DISPSILH
 70
     0
  9
$DIMSCALE
 40
10.0
  9
$DIMASZ
 40
3.0
  9
$DIMEXO
 40
1.5
  9
$DIMDLI
 40
10.0
  9
$DIMRND
 40
0.0
  9
$DIMDLE
 40
0.0
  9
$DIMEXE
 40
1.0
  9
$DIMTP
 40
0.0
  9
$DIMTM
 40
0.0
  9
$DIMTXT
 40
3.0
  9
$DIMCEN
 40
1.5
  9
$DIMTSZ
 40
0.0
  9
$DIMTOL
 70
     0
  9
$DIMLIM
 70
     0
  9
$DIMTIH
 70
     0
  9
$DIMTOH
 70
     0
  9
$DIMSE1
 70
     0
  9
$DIMSE2
 70
     0
  9
$DIMTAD
 70
     1
  9
$DIMZIN
 70
     8
  9
$DIMBLK
  1
Open
  9
$DIMASO
 70
     1
  9
$DIMSHO
 70
     1
  9
$DIMPOST
  1

  9
$DIMAPOST
  1

  9
$DIMALT
 70
     0
  9
$DIMALTD
 70
     3
  9
$DIMALTF
 40
0.03937007874016
  9
$DIMLFAC
 40
1.0
  9
$DIMTOFL
 70
     1
  9
$DIMTVP
 40
0.0
  9
$DIMTIX
 70
     0
  9
$DIMSOXD
 70
     0
  9
$DIMSAH
 70
     0
  9
$DIMBLK1
  1

  9
$DIMBLK2
  1

  9
$DIMSTYLE
  2
NEMY-10
  9
$DIMCLRD
 70
     0
  9
$DIMCLRE
 70
     0
  9
$DIMCLRT
 70
     0
  9
$DIMTFAC
 40
1.0
  9
$DIMGAP
 40
1.0
  9
$DIMJUST
 70
     0
  9
$DIMSD1
 70
     0
  9
$DIMSD2
 70
     0
  9
$DIMTOLJ
 70
     0
  9
$DIMTZIN
 70
     8
  9
$DIMALTZ
 70
     0
  9
$DIMALTTZ
 70
     0
  9
$DIMUPT
 70
     0
  9
$DIMDEC
 70
     1
  9
$DIMTDEC
 70
     1
  9
$DIMALTU
 70
     2
  9
$DIMALTTD
 70
     3
  9
$DIMTXSTY
  7
Standard
  9
$DIMAUNIT
 70
     0
  9
$DIMADEC
 70
     0
  9
$DIMALTRND
 40
0.0
  9
$DIMAZIN
 70
     0
  9
$DIMDSEP
 70
    46
  9
$DIMATFIT
 70
     3
  9
$DIMFRAC
 70
     0
  9
$DIMLDRBLK
  1
Open
  9
$DIMLUNIT
 70
     2
  9
$DIMLWD
 70
    -2
  9
$DIMLWE
 70
    -2
  9
$DIMTMOVE
 70
     0
  9
$LUNITS
 70
     2
  9
$LUPREC
 70
     4
  9
$SKETCHINC
 40
1.0
  9
$FILLETRAD
 40
8.0
  9
$AUNITS
 70
     0
  9
$AUPREC
 70
     0
  9
$MENU
  1
.
  9
$ELEVATION
 40
0.0
  9
$PELEVATION
 40
0.0
  9
$THICKNESS
 40
0.0
  9
$LIMCHECK
 70
     0
  9
$CHAMFERA
 40
1.0
  9
$CHAMFERB
 40
1.0
  9
$CHAMFERC
 40
20.0
  9
$CHAMFERD
 40
0.0
  9
$SKPOLY
 70
     0
  9
$TDCREATE
 40
2455859.405048461
  9
$TDUCREATE
 40
2455859.030048461
  9
$TDUPDATE
 40
2459010.419896597
  9
$TDUUPDATE
 40
2459010.044896597
  9
$TDINDWG
 40
1.2157492593
  9
$TDUSRTIMER
 40
0.000535544
  9
$USRTIMER
 70
     1
  9
$ANGBASE
 50
0.0
  9
$ANGDIR
 70
     0
  9
$PDMODE
 70
     0
  9
$PDSIZE
 40
0.0
  9
$PLINEWID
 40
0.0
  9
$SPLFRAME
 70
     0
  9
$SPLINETYPE
 70
     6
  9
$SPLINESEGS
 70
     8
  9
$HANDSEED
  5
10463
  9
$SURFTAB1
 70
     6
  9
$SURFTAB2
 70
     6
  9
$SURFTYPE
 70
     6
  9
$SURFU
 70
     6
  9
$SURFV
 70
     6
  9
$UCSBASE
  2

  9
$UCSNAME
  2

  9
$UCSORG
 10
0.0
 20
0.0
 30
0.0
  9
$UCSXDIR
 10
1.0
 20
0.0
 30
0.0
  9
$UCSYDIR
 10
0.0
 20
1.0
 30
0.0
  9
$UCSORTHOREF
  2

  9
$UCSORTHOVIEW
 70
     0
  9
$UCSORGTOP
 10
0.0
 20
0.0
 30
0.0
  9
$UCSORGBOTTOM
 10
0.0
 20
0.0
 30
0.0
  9
$UCSORGLEFT
 10
0.0
 20
0.0
 30
0.0
  9
$UCSORGRIGHT
 10
0.0
 20
0.0
 30
0.0
  9
$UCSORGFRONT
 10
0.0
 20
0.0
 30
0.0
  9
$UCSORGBACK
 10
0.0
 20
0.0
 30
0.0
  9
$PUCSBASE
  2

  9
$PUCSNAME
  2

  9
$PUCSORG
 10
0.0
 20
0.0
 30
0.0
  9
$PUCSXDIR
 10
1.0
 20
0.0
 30
0.0
  9
$PUCSYDIR
 10
0.0
 20
1.0
 30
0.0
  9
$PUCSORTHOREF
  2

  9
$PUCSORTHOVIEW
 70
     0
  9
$PUCSORGTOP
 10
0.0
 20
0.0
 30
0.0
  9
$PUCSORGBOTTOM
 10
0.0
 20
0.0
 30
0.0
  9
$PUCSORGLEFT
 10
0.0
 20
0.0
 30
0.0
  9
$PUCSORGRIGHT
 10
0.0
 20
0.0
 30
0.0
  9
$PUCSORGFRONT
 10
0.0
 20
0.0
 30
0.0
  9
$PUCSORGBACK
 10
0.0
 20
0.0
 30
0.0
  9
$USERI1
 70
     0
  9
$USERI2
 70
     0
  9
$USERI3
 70
     0
  9
$USERI4
 70
     0
  9
$USERI5
 70
     0
  9
$USERR1
 40
0.0
  9
$USERR2
 40
0.0
  9
$USERR3
 40
0.0
  9
$USERR4
 40
0.0
  9
$USERR5
 40
0.0
  9
$WORLDVIEW
 70
     1
  9
$SHADEDGE
 70
     3
  9
$SHADEDIF
 70
    70
  9
$TILEMODE
 70
     1
  9
$MAXACTVP
 70
    64
  9
$PINSBASE
 10
0.0
 20
0.0
 30
0.0
  9
$PLIMCHECK
 70
     0
  9
$PEXTMIN
 10
1.000000000000000E+20
 20
1.000000000000000E+20
 30
1.000000000000000E+20
  9
$PEXTMAX
 10
-1.000000000000000E+20
 20
-1.000000000000000E+20
 30
-1.000000000000000E+20
  9
$PLIMMIN
 10
-7.5
 20
-20.0
  9
$PLIMMAX
 10
412.5
 20
277.0
  9
$UNITMODE
 70
     0
  9
$VISRETAIN
 70
     1
  9
$PLINEGEN
 70
     0
  9
$PSLTSCALE
 70
     1
  9
$TREEDEPTH
 70
  3020
  9
$CMLSTYLE
  2
Standard
  9
$CMLJUST
 70
     0
  9
$CMLSCALE
 40
20.0
  9
$PROXYGRAPHICS
 70
     1
  9
$MEASUREMENT
 70
     1
  9
$CELWEIGHT
370
    -1
  9
$ENDCAPS
280
     0
  9
$JOINSTYLE
280
     0
  9
$LWDISPLAY
290
     0
  9
$INSUNITS
 70
     4
  9
$HYPERLINKBASE
  1

  9
$STYLESHEET
  1
monochrome.ctb
  9
$XEDIT
290
     1
  9
$CEPSNTYPE
380
     0
  9
$PSTYLEMODE
290
     1
  9
$FINGERPRINTGUID
  2
{FDEAD578-A652-11D2-9A35-0060089B3A3F}
  9
$VERSIONGUID
  2
{11DB8456-EC16-47A0-BA21-BBDA07550E8A}
  9
$EXTNAMES
290
     1
  9
$PSVPSCALE
 40
0.0
  9
$OLESTARTUP
290
     0
  0
ENDSEC
  0
SECTION
  2
CLASSES
  0
CLASS
  1
ACDBDICTIONARYWDFLT
  2
AcDbDictionaryWithDefault
  3
ObjectDBX Classes
 90
        0
280
     0
281
     0
  0
CLASS
  1
ACDBPLACEHOLDER
  2
AcDbPlaceHolder
  3
ObjectDBX Classes
 90
        0
280
     0
281
     0
  0
CLASS
  1
LAYOUT
  2
AcDbLayout
  3
ObjectDBX Classes
 90
        0
280
     0
281
     0
  0
CLASS
  1
DICTIONARYVAR
  2
AcDbDictionaryVar
  3
ObjectDBX Classes
 90
        0
280
     0
281
     0
  0
CLASS
  1
SCALE
  2
AcDbScale
  3
ObjectDBX Classes
 90
     1153
280
     0
281
     0
  0
CLASS
  1
MATERIAL
  2
AcDbMaterial
  3
ObjectDBX Classes
 90
     1153
280
     0
281
     0
  0
CLASS
  1
VISUALSTYLE
  2
AcDbVisualStyle
  3
ObjectDBX Classes
 90
     4095
280
     0
281
     0
  0
CLASS
  1
TABLESTYLE
  2
AcDbTableStyle
  3
ObjectDBX Classes
 90
     4095
280
     0
281
     0
  0
CLASS
  1
RASTERVARIABLES
  2
AcDbRasterVariables
  3
ISM
 90
        0
280
     0
281
     0
  0
CLASS
  1
SORTENTSTABLE
  2
AcDbSortentsTable
  3
ObjectDBX Classes
 90
        0
280
     0
281
     0
  0
CLASS
  1
SUN
  2
AcDbSun
  3
SCENEOE
 90
     1153
280
     0
281
     0
  0
CLASS
  1
MLEADERSTYLE
  2
AcDbMLeaderStyle
  3
ACDB_MLEADERSTYLE_CLASS
 90
     4095
280
     0
281
     0
  0
ENDSEC
  0
SECTION
  2
TABLES
  0
TABLE
  2
VPORT
  5
8
330
0
100
AcDbSymbolTable
 70
     1
  0
VPORT
  5
7A57
330
8
100
AcDbSymbolTableRecord
100
AcDbViewportTableRecord
  2
*Active
 70
     0
 10
0.0
 20
0.0
 11
1.0
 21
1.0
 12
1830.920307692307
 22
1711.236
 13
0.0
 23
0.0
 14
10.0
 24
10.0
 15
10.0
 25
10.0
 16
0.0
 26
0.0
 36
1.0
 17
0.0
 27
0.0
 37
0.0
 40
1658.000410256411
 41
1.448916408668731
 42
50.0
 43
0.0
 44
0.0
 50
0.0
 51
0.0
 71
    16
 72
   100
 73
     1
 74
     2
 75
     0
 76
     0
 77
     0
 78
     0
281
     0
 65
     1
110
0.0
120
0.0
130
0.0
111
1.0
121
0.0
131
0.0
112
0.0
122
1.0
132
0.0
 79
     0
146
0.0
  0
ENDTAB
  0
TABLE
  2
LTYPE
  5
5
330
0
100
AcDbSymbolTable
 70
     5
  0
LTYPE
  5
14
330
5
100
AcDbSymbolTableRecord
100
AcDbLinetypeTableRecord
  2
ByBlock
 70
     0
  3

 72
    65
 73
     0
 40
0.0
  0
LTYPE
  5
15
330
5
100
AcDbSymbolTableRecord
100
AcDbLinetypeTableRecord
  2
ByLayer
 70
     0
  3

 72
    65
 73
     0
 40
0.0
  0
LTYPE
  5
16
330
5
100
AcDbSymbolTableRecord
100
AcDbLinetypeTableRecord
  2
Continuous
 70
     0
  3
Solid line
 72
    65
 73
     0
 40
0.0
  0
LTYPE
  5
BA
330
5
100
AcDbSymbolTableRecord
100
AcDbLinetypeTableRecord
  2
HIDDEN
 70
     0
  3
Hidden __ __ __ __ __ __ __ __ __ __ __ __ __ _
 72
    65
 73
     2
 40
9.524999999999999
 49
6.35
 74
     0
 49
-3.175
 74
     0
  0
LTYPE
  5
BB
330
5
100
AcDbSymbolTableRecord
100
AcDbLinetypeTableRecord
  2
PHANTOM
 70
     0
  3
Phantom ______  __  __  ______  __  __  ______
 72
    65
 73
     6
 40
63.5
 49
31.75
 74
     0
 49
-6.35
 74
     0
 49
6.35
 74
     0
 49
-6.35
 74
     0
 49
6.35
 74
     0
 49
-6.35
 74
     0
  0
LTYPE
  5
BC
330
5
100
AcDbSymbolTableRecord
100
AcDbLinetypeTableRecord
  2
CENTER
 70
     0
  3
Center ____ _ ____ _ ____ _ ____ _ ____ _ ____
 72
    65
 73
     4
 40
50.8
 49
31.75
 74
     0
 49
-6.35
 74
     0
 49
6.35
 74
     0
 49
-6.35
 74
     0
  0
LTYPE
  5
47C
330
5
100
AcDbSymbolTableRecord
100
AcDbLinetypeTableRecord
  2
DOT
 70
     0
  3
Dot . . . . . . . . . . . . . . . . . . . . . .
 72
    65
 73
     2
 40
6.35
 49
0.0
 74
     0
 49
-6.35
 74
     0
  0
ENDTAB
  0
TABLE
  2
LAYER
  5
2
102
{ACAD_XDICTIONARY
360
7A6F
102
}
330
0
100
AcDbSymbolTable
 70
    15
  0
LAYER
  5
10
330
2
100
AcDbSymbolTableRecord
100
AcDbLayerTableRecord
  2
0
 70
     0
 62
    -7
  6
Continuous
370
    -3
390
F
  0
LAYER
  5
45
330
2
100
AcDbSymbolTableRecord
100
AcDbLayerTableRecord
  2
01注記寸法
 70
     0
 62
    -7
  6
Continuous
370
     9
390
F
  0
LAYER
  5
46
330
2
100
AcDbSymbolTableRecord
100
AcDbLayerTableRecord
  2
02実線
 70
     0
 62
     2
  6
Continuous
370
    15
390
F
  0
LAYER
  5
5F
330
2
100
AcDbSymbolTableRecord
100
AcDbLayerTableRecord
  2
Defpoints
 70
     0
 62
    -7
  6
Continuous
290
     0
370
    -3
390
F
  0
LAYER
  5
7E52
330
2
100
AcDbSymbolTableRecord
100
AcDbLayerTableRecord
  2
03破線
 70
     0
 62
    -3
  6
HIDDEN
370
     9
390
F
  0
LAYER
  5
7E55
330
2
100
AcDbSymbolTableRecord
100
AcDbLayerTableRecord
  2
04一点鎖線
 70
     0
 62
   -70
  6
CENTER
370
     9
390
F
  0
LAYER
  5
7E58
330
2
100
AcDbSymbolTableRecord
100
AcDbLayerTableRecord
  2
05二点鎖線
 70
     0
 62
  -110
  6
PHANTOM
370
     9
390
F
  0
LAYER
  5
7E5B
330
2
100
AcDbSymbolTableRecord
100
AcDbLayerTableRecord
  2
06点線
 70
     0
 62
   -96
  6
DOT
370
     9
390
F
  0
LAYER
  5
7E5E
330
2
100
AcDbSymbolTableRecord
100
AcDbLayerTableRecord
  2
07その他
 70
     0
 62
    -6
  6
Continuous
370
    13
390
F
  0
LAYER
  5
7E60
330
2
100
AcDbSymbolTableRecord
100
AcDbLayerTableRecord
  2
08非表示
 70
     0
 62
    -4
  6
Continuous
290
     0
370
     0
390
F
  0
LAYER
  5
7E62
330
2
100
AcDbSymbolTableRecord
100
AcDbLayerTableRecord
  2
09図枠
 70
     0
 62
    -1
  6
Continuous
370
    30
390
F
  0
LAYER
  5
835A
330
2
100
AcDbSymbolTableRecord
100
AcDbLayerTableRecord
  2
10副資材
 70
     0
 62
   -51
  6
Continuous
290
     0
370
    -3
390
F
1001
AcAecLayerStandard
1000

1000

  0
LAYER
  5
8CAC
330
2
100
AcDbSymbolTableRecord
100
AcDbLayerTableRecord
  2
11機器
 70
     0
 62
   -11
  6
Continuous
290
     0
370
    -3
390
F
1001
AcAecLayerStandard
1000

1000

  0
LAYER
  5
8CB1
330
2
100
AcDbSymbolTableRecord
100
AcDbLayerTableRecord
  2
12防振架台
 70
     0
 62
  -190
  6
Continuous
290
     0
370
    -3
390
F
1001
AcAecLayerStandard
1000

1000

  0
LAYER
  5
A15B
330
2
100
AcDbSymbolTableRecord
100
AcDbLayerTableRecord
  2
13製作用注記
 70
     0
 62
    -5
  6
Continuous
290
     0
370
     9
390
F
1001
AcAecLayerStandard
1000

1000

  0
ENDTAB
  0
TABLE
  2
STYLE
  5
3
330
0
100
AcDbSymbolTable
 70
     2
  0
STYLE
  5
11
330
3
100
AcDbSymbolTableRecord
100
AcDbTextStyleTableRecord
  2
Standard
 70
     0
 40
0.0
 41
1.0
 50
0.0
 71
     0
 42
30.0
  3
MSGOTHIC.TTC
  4

1001
ACAD
1000
MS Gothic
1071
    32817
  0
STYLE
  5
47B
330
3
100
AcDbSymbolTableRecord
100
AcDbTextStyleTableRecord
  2

 70
     1
 40
0.0
 41
1.0
 50
0.0
 71
     0
 42
3.0
  3
ltypeshp.shx
  4

  0
ENDTAB
  0
TABLE
  2
VIEW
  5
6
330
0
100
AcDbSymbolTable
 70
     0
  0
ENDTAB
  0
TABLE
  2
UCS
  5
7
330
0
100
AcDbSymbolTable
 70
     0
  0
ENDTAB
  0
TABLE
  2
APPID
  5
9
330
0
100
AcDbSymbolTable
 70
     8
  0
APPID
  5
12
330
9
100
AcDbSymbolTableRecord
100
AcDbRegAppTableRecord
  2
ACAD
 70
     0
  0
APPID
  5
6A9E
330
9
100
AcDbSymbolTableRecord
100
AcDbRegAppTableRecord
  2
ACAD_DSTYLE_DIMRADIAL_EXTENSION
 70
     0
  0
APPID
  5
742C
330
9
100
AcDbSymbolTableRecord
100
AcDbRegAppTableRecord
  2
ACAD_PSEXT
 70
     0
  0
APPID
  5
742D
330
9
100
AcDbSymbolTableRecord
100
AcDbRegAppTableRecord
  2
ACAD_DSTYLE_DIMJAG
 70
     0
  0
APPID
  5
742E
330
9
100
AcDbSymbolTableRecord
100
AcDbRegAppTableRecord
  2
ACAD_DSTYLE_DIMTALN
 70
     0
  0
APPID
  5
835C
330
9
100
AcDbSymbolTableRecord
100
AcDbRegAppTableRecord
  2
AcAecLayerStandard
 70
     0
  0
APPID
  5
102D8
330
9
100
AcDbSymbolTableRecord
100
AcDbRegAppTableRecord
  2
ACAD_DSTYLE_DIMFLIPARROW_SYMBOL
 70
     0
  0
APPID
  5
102D9
330
9
100
AcDbSymbolTableRecord
100
AcDbRegAppTableRecord
  2
ACAD_DSTYLE_DIMFLIPARROW_WHICH_SYMBOL
 70
     0
  0
ENDTAB
  0
TABLE
  2
DIMSTYLE
  5
A
330
0
100
AcDbSymbolTable
 70
    24
100
AcDbDimStyleTable
  0
DIMSTYLE
105
73
330
A
100
AcDbSymbolTableRecord
100
AcDbDimStyleTableRecord
  2
NEMY-1
 70
     0
 41
3.0
 42
1.5
 43
10.0
 44
1.0
 73
     0
 74
     0
 77
     1
 78
     8
140
3.0
141
1.5
143
0.03937007874016
147
1.0
171
     3
172
     1
178
     0
271
     1
272
     1
274
     3
283
     0
284
     8
340
11
341
8F
342
8F
  0
DIMSTYLE
105
4DCE
330
A
100
AcDbSymbolTableRecord
100
AcDbDimStyleTableRecord
  2
NEMY-2
 70
     0
 40
2.0
 41
3.0
 42
1.5
 43
10.0
 44
1.0
 73
     0
 74
     0
 77
     1
 78
     8
140
3.0
141
1.5
143
0.03937007874016
147
1.0
171
     3
172
     1
178
     0
271
     1
272
     1
274
     3
283
     0
284
     8
340
11
341
8F
342
8F
  0
DIMSTYLE
105
4DCF
330
A
100
AcDbSymbolTableRecord
100
AcDbDimStyleTableRecord
  2
NEMY-3
 70
     0
 40
3.0
 41
3.0
 42
1.5
 43
10.0
 44
1.0
 73
     0
 74
     0
 77
     1
 78
     8
140
3.0
141
1.5
143
0.03937007874016
147
1.0
171
     3
172
     1
178
     0
271
     1
272
     1
274
     3
283
     0
284
     8
340
11
341
8F
342
8F
  0
DIMSTYLE
105
4DD0
330
A
100
AcDbSymbolTableRecord
100
AcDbDimStyleTableRecord
  2
NEMY-5
 70
     0
 40
5.0
 41
3.0
 42
1.5
 43
10.0
 44
1.0
 73
     0
 74
     0
 77
     1
 78
     8
140
3.0
141
1.5
143
0.03937007874016
147
1.0
171
     3
172
     1
178
     0
271
     1
272
     1
274
     3
283
     0
284
     8
340
11
341
8F
342
8F
  0
DIMSTYLE
105
4DD1
330
A
100
AcDbSymbolTableRecord
100
AcDbDimStyleTableRecord
  2
NEMY-8
 70
     0
 40
8.0
 41
3.0
 42
1.5
 43
10.0
 44
1.0
 73
     0
 74
     0
 77
     1
 78
     8
140
3.0
141
1.5
143
0.03937007874016
147
1.0
171
     3
172
     1
178
     0
271
     1
272
     1
274
     3
283
     0
284
     8
340
11
341
8F
342
8F
  0
DIMSTYLE
105
4DD2
330
A
100
AcDbSymbolTableRecord
100
AcDbDimStyleTableRecord
  2
NEMY-15
 70
     0
 40
15.0
 41
3.0
 42
1.5
 43
10.0
 44
1.0
 73
     0
 74
     0
 77
     1
 78
     8
140
3.0
141
1.5
143
0.03937007874016
147
1.0
171
     3
172
     1
178
     0
271
     1
272
     1
274
     3
283
     0
284
     8
340
11
341
8F
342
8F
  0
DIMSTYLE
105
4DD3
102
{ACAD_REACTORS
330
BE5B
330
BE5C
330
BE5D
330
BE62
330
BE63
330
BE64
330
BE65
330
BE67
330
BE68
330
BE6B
330
BE72
330
D6DC
330
D85E
330
D864
330
D888
330
D88B
330
D891
330
D8A4
330
D9A1
330
D9A2
330
FD0B
330
100EE
330
100EF
330
100F0
330
100F3
330
100F4
330
100F5
330
100F6
330
100F7
330
100F8
330
100F9
330
100FA
330
100FB
330
100FC
330
100FD
330
100FE
330
100FF
330
10100
330
101D1
330
101F0
330
1020C
330
10219
330
102FB
330
10308
330
10329
330
1032B
330
1032C
330
1032D
330
1032E
330
10373
330
10375
330
10376
330
10377
330
10378
102
}
330
A
100
AcDbSymbolTableRecord
100
AcDbDimStyleTableRecord
  2
NEMY-10
 70
     0
 40
10.0
 41
3.0
 42
1.5
 43
10.0
 44
1.0
 73
     0
 74
     0
 77
     1
 78
     8
140
3.0
141
1.5
143
0.03937007874016
147
1.0
171
     3
172
     1
178
     0
271
     1
272
     1
274
     3
283
     0
284
     8
340
11
341
8F
342
8F
  0
DIMSTYLE
105
4DD4
330
A
100
AcDbSymbolTableRecord
100
AcDbDimStyleTableRecord
  2
NEMY-25
 70
     0
 40
25.0
 41
3.0
 42
1.5
 43
10.0
 44
1.0
 73
     0
 74
     0
 77
     1
 78
     8
140
3.0
141
1.5
143
0.03937007874016
147
1.0
171
     3
172
     1
178
     0
271
     1
272
     1
274
     3
283
     0
284
     8
340
11
341
8F
342
8F
  0
DIMSTYLE
105
4DD5
330
A
100
AcDbSymbolTableRecord
100
AcDbDimStyleTableRecord
  2
NEMY-30
 70
     0
 40
30.0
 41
3.0
 42
1.5
 43
10.0
 44
1.0
 73
     0
 74
     0
 77
     1
 78
     8
140
3.0
141
1.5
143
0.03937007874016
147
1.0
171
     3
172
     1
178
     0
271
     1
272
     1
274
     3
283
     0
284
     8
340
11
341
8F
342
8F
  0
DIMSTYLE
105
4DD6
330
A
100
AcDbSymbolTableRecord
100
AcDbDimStyleTableRecord
  2
NEMY-50
 70
     0
 40
50.0
 41
3.0
 42
1.5
 43
10.0
 44
1.0
 73
     0
 74
     0
 77
     1
 78
     8
140
3.0
141
1.5
143
0.03937007874016
147
1.0
171
     3
172
     1
178
     0
271
     1
272
     1
274
     3
283
     0
284
     8
340
11
341
8F
342
8F
  0
DIMSTYLE
105
4E6F
330
A
100
AcDbSymbolTableRecord
100
AcDbDimStyleTableRecord
  2
NEMY-20
 70
     0
 40
20.0
 41
3.0
 42
1.5
 43
10.0
 44
1.0
 73
     0
 74
     0
 77
     1
 78
     8
140
3.0
141
1.5
143
0.03937007874016
147
1.0
171
     3
172
     1
178
     0
271
     1
272
     1
274
     3
283
     0
284
     8
340
11
341
8F
342
8F
  0
DIMSTYLE
105
4F44
330
A
100
AcDbSymbolTableRecord
100
AcDbDimStyleTableRecord
  2
NEMY-10$3
 70
     0
 40
10.0
 41
3.0
 42
1.5
 43
10.0
 44
1.0
 77
     1
 78
     8
140
3.0
141
1.5
143
0.03937007874016
147
1.0
171
     3
172
     1
178
     0
271
     1
272
     1
274
     3
283
     0
284
     8
340
11
341
8F
342
8F
  0
DIMSTYLE
105
4F45
330
A
100
AcDbSymbolTableRecord
100
AcDbDimStyleTableRecord
  2
NEMY-1$3
 70
     0
 41
3.0
 42
1.5
 43
10.0
 44
1.0
 77
     1
 78
     8
140
3.0
141
1.5
143
0.03937007874016
147
1.0
171
     3
172
     1
178
     0
271
     1
272
     1
274
     3
283
     0
284
     8
340
11
341
8F
342
8F
  0
DIMSTYLE
105
4F46
330
A
100
AcDbSymbolTableRecord
100
AcDbDimStyleTableRecord
  2
NEMY-12
 70
     0
 40
12.0
 41
3.0
 42
1.5
 43
10.0
 44
1.0
 73
     0
 74
     0
 77
     1
 78
     8
140
3.0
141
1.5
143
0.03937007874016
147
1.0
171
     3
172
     1
178
     0
271
     1
272
     1
274
     3
283
     0
284
     8
340
11
341
8F
342
8F
  0
DIMSTYLE
105
4F47
330
A
100
AcDbSymbolTableRecord
100
AcDbDimStyleTableRecord
  2
NEMY-12$3
 70
     0
 40
12.0
 41
3.0
 42
1.5
 43
10.0
 44
1.0
 77
     1
 78
     8
140
3.0
141
1.5
143
0.03937007874016
147
1.0
171
     3
172
     1
178
     0
271
     1
272
     1
274
     3
283
     0
284
     8
340
11
341
8F
342
8F
  0
DIMSTYLE
105
5E6E
330
A
100
AcDbSymbolTableRecord
100
AcDbDimStyleTableRecord
  2
NEMY-8$3
 70
     0
 40
8.0
 41
3.0
 42
1.5
 43
10.0
 44
1.0
 77
     1
 78
     8
140
3.0
141
1.5
143
0.03937007874016
147
1.0
171
     3
172
     1
178
     0
271
     1
272
     1
274
     3
283
     0
284
     8
340
11
341
8F
342
8F
  0
DIMSTYLE
105
5E6F
330
A
100
AcDbSymbolTableRecord
100
AcDbDimStyleTableRecord
  2
NEMY-50$3
 70
     0
 40
50.0
 41
3.0
 42
1.5
 43
10.0
 44
1.0
 77
     1
 78
     8
140
3.0
141
1.5
143
0.03937007874016
147
1.0
171
     3
172
     1
178
     0
271
     1
272
     1
274
     3
283
     0
284
     8
340
11
341
8F
342
8F
  0
DIMSTYLE
105
5E70
330
A
100
AcDbSymbolTableRecord
100
AcDbDimStyleTableRecord
  2
NEMY-5$3
 70
     0
 40
5.0
 41
3.0
 42
1.5
 43
10.0
 44
1.0
 77
     1
 78
     8
140
3.0
141
1.5
143
0.03937007874016
147
1.0
171
     3
172
     1
178
     0
271
     1
272
     1
274
     3
283
     0
284
     8
340
11
341
8F
342
8F
  0
DIMSTYLE
105
5E71
330
A
100
AcDbSymbolTableRecord
100
AcDbDimStyleTableRecord
  2
NEMY-30$3
 70
     0
 40
30.0
 41
3.0
 42
1.5
 43
10.0
 44
1.0
 77
     1
 78
     8
140
3.0
141
1.5
143
0.03937007874016
147
1.0
171
     3
172
     1
178
     0
271
     1
272
     1
274
     3
283
     0
284
     8
340
11
341
8F
342
8F
  0
DIMSTYLE
105
5E72
330
A
100
AcDbSymbolTableRecord
100
AcDbDimStyleTableRecord
  2
NEMY-3$3
 70
     0
 40
3.0
 41
3.0
 42
1.5
 43
10.0
 44
1.0
 77
     1
 78
     8
140
3.0
141
1.5
143
0.03937007874016
147
1.0
171
     3
172
     1
178
     0
271
     1
272
     1
274
     3
283
     0
284
     8
340
11
341
8F
342
8F
  0
DIMSTYLE
105
5E73
330
A
100
AcDbSymbolTableRecord
100
AcDbDimStyleTableRecord
  2
NEMY-25$3
 70
     0
 40
25.0
 41
3.0
 42
1.5
 43
10.0
 44
1.0
 77
     1
 78
     8
140
3.0
141
1.5
143
0.03937007874016
147
1.0
171
     3
172
     1
178
     0
271
     1
272
     1
274
     3
283
     0
284
     8
340
11
341
8F
342
8F
  0
DIMSTYLE
105
5E74
330
A
100
AcDbSymbolTableRecord
100
AcDbDimStyleTableRecord
  2
NEMY-20$3
 70
     0
 40
20.0
 41
3.0
 42
1.5
 43
10.0
 44
1.0
 77
     1
 78
     8
140
3.0
141
1.5
143
0.03937007874016
147
1.0
171
     3
172
     1
178
     0
271
     1
272
     1
274
     3
283
     0
284
     8
340
11
341
8F
342
8F
  0
DIMSTYLE
105
5E75
330
A
100
AcDbSymbolTableRecord
100
AcDbDimStyleTableRecord
  2
NEMY-2$3
 70
     0
 40
2.0
 41
3.0
 42
1.5
 43
10.0
 44
1.0
 77
     1
 78
     8
140
3.0
141
1.5
143
0.03937007874016
147
1.0
171
     3
172
     1
178
     0
271
     1
272
     1
274
     3
283
     0
284
     8
340
11
341
8F
342
8F
  0
DIMSTYLE
105
5E76
330
A
100
AcDbSymbolTableRecord
100
AcDbDimStyleTableRecord
  2
NEMY-15$3
 70
     0
 40
15.0
 41
3.0
 42
1.5
 43
10.0
 44
1.0
 77
     1
 78
     8
140
3.0
141
1.5
143
0.03937007874016
147
1.0
171
     3
172
     1
178
     0
271
     1
272
     1
274
     3
283
     0
284
     8
340
11
341
8F
342
8F
  0
ENDTAB
  0
TABLE
  2
BLOCK_RECORD
  5
1
330
0
100
AcDbSymbolTable
 70
    56
  0
BLOCK_RECORD
  5
1F
102
{ACAD_XDICTIONARY
360
969E
102
}
330
1
100
AcDbSymbolTableRecord
100
AcDbBlockTableRecord
  2
*Model_Space
340
22
  0
BLOCK_RECORD
  5
1B
330
1
100
AcDbSymbolTableRecord
100
AcDbBlockTableRecord
  2
*Paper_Space
340
1E
  0
BLOCK_RECORD
  5
8F
330
1
100
AcDbSymbolTableRecord
100
AcDbBlockTableRecord
  2
_Open
340
0
102
{BLKREFS
331
BE7D
331
BE89
331
BE95
331
BEAF
331
BEBB
331
BEE5
331
BEF1
331
BF15
331
BF21
331
10109
331
10115
331
10121
331
1013B
331
10156
331
10162
331
1016E
331
10189
331
10213
331
10220
331
10302
331
1030F
331
10335
331
10341
331
1034D
331
10359
331
1037F
331
1038B
331
10397
331
103A3
331
BE7E
331
BE8A
331
BE96
331
BEB0
331
BEBC
331
BEE6
331
BEF2
331
BF16
331
BF22
331
D6F8
331
1010A
331
10116
331
10122
331
1013C
331
10157
331
10163
331
1016F
331
1018A
331
101A4
331
101CB
331
10214
331
10221
331
10303
331
10310
331
10336
331
10342
331
1034E
331
1035A
331
10380
331
1038C
331
10398
331
103A4
331
BEA3
331
D6F9
331
1012F
331
10197
331
101B2
331
101BF
331
BEA4
331
BECA
331
10130
331
1014A
331
1017D
331
10198
331
BECB
331
1014B
331
1017E
102
}
  0
BLOCK_RECORD
  5
82EB
330
1
100
AcDbSymbolTableRecord
100
AcDbBlockTableRecord
  2
hole-φ14
340
0
102
{BLKREFS
331
FC4F
331
FC51
331
FC53
331
FC55
331
FC59
331
FC5B
331
FC5D
331
FC5F
102
}
  0
BLOCK_RECORD
  5
8366
330
1
100
AcDbSymbolTableRecord
100
AcDbBlockTableRecord
  2
平W-M10
340
0
102
{BLKREFS
331
FC4E
331
FC50
331
FC52
331
FC54
331
FC58
331
FC5A
331
FC5C
331
FC5E
102
}
  0
BLOCK_RECORD
  5
841D
330
1
100
AcDbSymbolTableRecord
100
AcDbBlockTableRecord
  2
BH-端柱補強桟(L40x15xt3.2)
340
0
102
{BLKREFS
331
843A
102
}
  0
BLOCK_RECORD
  5
842A
330
1
100
AcDbSymbolTableRecord
100
AcDbBlockTableRecord
  2
BH-端柱(L60)-500H-正面
340
0
102
{BLKREFS
331
BDFD
331
BDFF
102
}
  0
BLOCK_RECORD
  5
843D
330
1
100
AcDbSymbolTableRecord
100
AcDbBlockTableRecord
  2
BH-端柱(L60)-500H-側面
340
0
102
{BLKREFS
331
BDFE
331
BE00
102
}
  0
BLOCK_RECORD
  5
8522
330
1
100
AcDbSymbolTableRecord
100
AcDbBlockTableRecord
  2
BH-anchor-L60-背面
340
0
102
{BLKREFS
331
BE0C
331
BE0D
102
}
  0
BLOCK_RECORD
  5
8548
330
1
100
AcDbSymbolTableRecord
100
AcDbBlockTableRecord
  2
BH-anchor-L60-立面
340
0
102
{BLKREFS
331
BE0E
331
BE0F
102
}
  0
BLOCK_RECORD
  5
856D
330
1
100
AcDbSymbolTableRecord
100
AcDbBlockTableRecord
  2
BH-端柱(L60)-平面
340
0
102
{BLKREFS
331
BE40
331
BE41
331
BE42
331
BE43
331
0
331
0
331
0
331
0
331
0
331
0
331
0
331
0
331
0
331
0
331
0
331
0
102
}
  0
BLOCK_RECORD
  5
858C
330
1
100
AcDbSymbolTableRecord
100
AcDbBlockTableRecord
  2
BH-anchor-L60-平面(実線)
340
0
102
{BLKREFS
331
0
331
0
331
0
331
0
331
0
331
0
331
0
331
0
331
0
331
0
331
0
331
0
102
}
  0
BLOCK_RECORD
  5
85C5
330
1
100
AcDbSymbolTableRecord
100
AcDbBlockTableRecord
  2
BH-レベル調整ボルト
340
0
102
{BLKREFS
331
0
102
}
  0
BLOCK_RECORD
  5
9928
330
1
100
AcDbSymbolTableRecord
100
AcDbBlockTableRecord
  2
BH-筋交(柱L60)-500H
340
0
102
{BLKREFS
331
BDFC
331
BE10
102
}
  0
BLOCK_RECORD
  5
BE77
330
1
100
AcDbSymbolTableRecord
100
AcDbBlockTableRecord
  2
*D539
340
0
  0
BLOCK_RECORD
  5
BE83
330
1
100
AcDbSymbolTableRecord
100
AcDbBlockTableRecord
  2
*D540
340
0
  0
BLOCK_RECORD
  5
BE8F
330
1
100
AcDbSymbolTableRecord
100
AcDbBlockTableRecord
  2
*D541
340
0
  0
BLOCK_RECORD
  5
BE9B
330
1
100
AcDbSymbolTableRecord
100
AcDbBlockTableRecord
  2
*D542
340
0
  0
BLOCK_RECORD
  5
BEA9
330
1
100
AcDbSymbolTableRecord
100
AcDbBlockTableRecord
  2
*D543
340
0
  0
BLOCK_RECORD
  5
BEB5
330
1
100
AcDbSymbolTableRecord
100
AcDbBlockTableRecord
  2
*D544
340
0
  0
BLOCK_RECORD
  5
BEC1
330
1
100
AcDbSymbolTableRecord
100
AcDbBlockTableRecord
  2
*D545
340
0
  0
BLOCK_RECORD
  5
BEDF
330
1
100
AcDbSymbolTableRecord
100
AcDbBlockTableRecord
  2
*D547
340
0
  0
BLOCK_RECORD
  5
BEEB
330
1
100
AcDbSymbolTableRecord
100
AcDbBlockTableRecord
  2
*D548
340
0
  0
BLOCK_RECORD
  5
BF0F
330
1
100
AcDbSymbolTableRecord
100
AcDbBlockTableRecord
  2
*D551
340
0
  0
BLOCK_RECORD
  5
BF1B
330
1
100
AcDbSymbolTableRecord
100
AcDbBlockTableRecord
  2
*D552
340
0
  0
BLOCK_RECORD
  5
C041
330
1
100
AcDbSymbolTableRecord
100
AcDbBlockTableRecord
  2
_DotSmall
340
0
102
{BLKREFS
331
101B1
331
101BE
331
101A5
331
101CC
102
}
  0
BLOCK_RECORD
  5
D6F1
330
1
100
AcDbSymbolTableRecord
100
AcDbBlockTableRecord
  2
*D825
340
0
  0
BLOCK_RECORD
  5
F690
330
1
100
AcDbSymbolTableRecord
100
AcDbBlockTableRecord
  2
BH-組立ボルトセット
340
0
102
{BLKREFS
331
F6D6
331
F6DF
331
F6E1
331
F6E3
102
}
  0
BLOCK_RECORD
  5
F6DA
330
1
100
AcDbSymbolTableRecord
100
AcDbBlockTableRecord
  2
BH-筋交(柱L60)-500H-平面
340
0
102
{BLKREFS
331
F6D7
331
F6E0
331
F6E2
331
F6E4
102
}
  0
BLOCK_RECORD
  5
F988
330
1
100
AcDbSymbolTableRecord
100
AcDbBlockTableRecord
  2
1-HTA187_188_189_190
340
0
102
{BLKREFS
331
FC57
102
}
  0
BLOCK_RECORD
  5
10103
330
1
100
AcDbSymbolTableRecord
100
AcDbBlockTableRecord
  2
*D1297
340
0
  0
BLOCK_RECORD
  5
1010F
330
1
100
AcDbSymbolTableRecord
100
AcDbBlockTableRecord
  2
*D1298
340
0
  0
BLOCK_RECORD
  5
1011B
330
1
100
AcDbSymbolTableRecord
100
AcDbBlockTableRecord
  2
*D1299
340
0
  0
BLOCK_RECORD
  5
10127
330
1
100
AcDbSymbolTableRecord
100
AcDbBlockTableRecord
  2
*D1300
340
0
  0
BLOCK_RECORD
  5
10135
330
1
100
AcDbSymbolTableRecord
100
AcDbBlockTableRecord
  2
*D1301
340
0
  0
BLOCK_RECORD
  5
10141
330
1
100
AcDbSymbolTableRecord
100
AcDbBlockTableRecord
  2
*D1302
340
0
  0
BLOCK_RECORD
  5
10150
330
1
100
AcDbSymbolTableRecord
100
AcDbBlockTableRecord
  2
*D1303
340
0
  0
BLOCK_RECORD
  5
1015C
330
1
100
AcDbSymbolTableRecord
100
AcDbBlockTableRecord
  2
*D1304
340
0
  0
BLOCK_RECORD
  5
10168
330
1
100
AcDbSymbolTableRecord
100
AcDbBlockTableRecord
  2
*D1305
340
0
  0
BLOCK_RECORD
  5
10174
330
1
100
AcDbSymbolTableRecord
100
AcDbBlockTableRecord
  2
*D1306
340
0
  0
BLOCK_RECORD
  5
10183
330
1
100
AcDbSymbolTableRecord
100
AcDbBlockTableRecord
  2
*D1307
340
0
  0
BLOCK_RECORD
  5
1018F
330
1
100
AcDbSymbolTableRecord
100
AcDbBlockTableRecord
  2
*D1308
340
0
  0
BLOCK_RECORD
  5
1019D
330
1
100
AcDbSymbolTableRecord
100
AcDbBlockTableRecord
  2
*D1309
340
0
  0
BLOCK_RECORD
  5
101AA
330
1
100
AcDbSymbolTableRecord
100
AcDbBlockTableRecord
  2
*D1310
340
0
  0
BLOCK_RECORD
  5
101B7
330
1
100
AcDbSymbolTableRecord
100
AcDbBlockTableRecord
  2
*D1311
340
0
  0
BLOCK_RECORD
  5
101C4
330
1
100
AcDbSymbolTableRecord
100
AcDbBlockTableRecord
  2
*D1312
340
0
  0
BLOCK_RECORD
  5
1020D
330
1
100
AcDbSymbolTableRecord
100
AcDbBlockTableRecord
  2
*D1316
340
0
  0
BLOCK_RECORD
  5
1021A
330
1
100
AcDbSymbolTableRecord
100
AcDbBlockTableRecord
  2
*D1317
340
0
  0
BLOCK_RECORD
  5
102FC
330
1
100
AcDbSymbolTableRecord
100
AcDbBlockTableRecord
  2
*D1328
340
0
  0
BLOCK_RECORD
  5
10309
330
1
100
AcDbSymbolTableRecord
100
AcDbBlockTableRecord
  2
*D1329
340
0
  0
BLOCK_RECORD
  5
1032F
330
1
100
AcDbSymbolTableRecord
100
AcDbBlockTableRecord
  2
*D1330
340
0
  0
BLOCK_RECORD
  5
1033B
330
1
100
AcDbSymbolTableRecord
100
AcDbBlockTableRecord
  2
*D1331
340
0
  0
BLOCK_RECORD
  5
10347
330
1
100
AcDbSymbolTableRecord
100
AcDbBlockTableRecord
  2
*D1332
340
0
  0
BLOCK_RECORD
  5
10353
330
1
100
AcDbSymbolTableRecord
100
AcDbBlockTableRecord
  2
*D1333
340
0
  0
BLOCK_RECORD
  5
10379
330
1
100
AcDbSymbolTableRecord
100
AcDbBlockTableRecord
  2
*D1334
340
0
  0
BLOCK_RECORD
  5
10385
330
1
100
AcDbSymbolTableRecord
100
AcDbBlockTableRecord
  2
*D1335
340
0
  0
BLOCK_RECORD
  5
10391
330
1
100
AcDbSymbolTableRecord
100
AcDbBlockTableRecord
  2
*D1336
340
0
  0
BLOCK_RECORD
  5
1039D
330
1
100
AcDbSymbolTableRecord
100
AcDbBlockTableRecord
  2
*D1337
340
0
  0
ENDTAB
  0
ENDSEC
  0
SECTION
  2
BLOCKS
  0
BLOCK
  5
20
330
1F
100
AcDbEntity
  8
0
100
AcDbBlockBegin
  2
*Model_Space
 70
     0
 10
0.0
 20
0.0
 30
0.0
  3
*Model_Space
  1

  0
ENDBLK
  5
21
330
1F
100
AcDbEntity
  8
0
100
AcDbBlockEnd
  0
BLOCK
  5
1C
330
1B
100
AcDbEntity
 67
     1
  8
0
100
AcDbBlockBegin
  2
*Paper_Space
 70
     0
 10
0.0
 20
0.0
 30
0.0
  3
*Paper_Space
  1

  0
ENDBLK
  5
1D
330
1B
100
AcDbEntity
 67
     1
  8
0
100
AcDbBlockEnd
  0
BLOCK
  5
93
330
8F
100
AcDbEntity
  8
0
100
AcDbBlockBegin
  2
_Open
 70
     0
 10
0.0
 20
0.0
 30
0.0
  3
_Open
  1

  0
LINE
  5
90
330
8F
100
AcDbEntity
  8
01注記寸法
 62
     0
370
    -2
100
AcDbLine
 10
-1.0
 20
0.1666666666666667
 30
0.0
 11
0.0
 21
0.0
 31
0.0
  0
LINE
  5
91
330
8F
100
AcDbEntity
  8
01注記寸法
 62
     0
370
    -2
100
AcDbLine
 10
-1.0
 20
-0.1666666666666667
 30
0.0
 11
0.0
 21
0.0
 31
0.0
  0
LINE
  5
92
330
8F
100
AcDbEntity
  8
01注記寸法
 62
     0
370
    -2
100
AcDbLine
 10
0.0
 20
0.0
 30
0.0
 11
-1.0
 21
0.0
 31
0.0
  0
ENDBLK
  5
94
330
8F
100
AcDbEntity
  8
0
100
AcDbBlockEnd
  0
BLOCK
  5
82EC
330
82EB
100
AcDbEntity
  8
0
100
AcDbBlockBegin
  2
hole-φ14
 70
     0
 10
0.0
 20
0.0
 30
0.0
  3
hole-φ14
  1

  0
CIRCLE
  5
82ED
330
82EB
100
AcDbEntity
  8
02実線
100
AcDbCircle
 10
0.0
 20
0.0
 30
0.0
 40
7.0
  0
LINE
  5
82EE
330
82EB
100
AcDbEntity
  8
04一点鎖線
  6
CENTER
 48
0.2
100
AcDbLine
 10
0.0
 20
-20.0
 30
0.0
 11
0.0
 21
20.0
 31
0.0
  0
LINE
  5
82EF
330
82EB
100
AcDbEntity
  8
04一点鎖線
  6
CENTER
 48
0.2
100
AcDbLine
 10
-20.0
 20
0.0
 30
0.0
 11
20.0
 21
0.0
 31
0.0
  0
ENDBLK
  5
82F0
330
82EB
100
AcDbEntity
  8
0
100
AcDbBlockEnd
  0
BLOCK
  5
8367
330
8366
100
AcDbEntity
  8
0
100
AcDbBlockBegin
  2
平W-M10
 70
     0
 10
0.0
 20
0.0
 30
0.0
  3
平W-M10
  1

  0
TEXT
  5
8368
330
8366
100
AcDbEntity
  8
10副資材
100
AcDbText
 10
-2.92496274867317
 20
-9.299398648765873
 30
0.0
 40
3.0
  1
M10
 72
     1
 11
0.0000372513268303
 21
-7.799398648765873
 31
0.0
100
AcDbText
 73
     2
  0
CIRCLE
  5
8369
330
8366
100
AcDbEntity
  8
10副資材
100
AcDbCircle
 10
0.0
 20
0.0
 30
0.0
 40
11.0
  0
CIRCLE
  5
836A
330
8366
100
AcDbEntity
  8
10副資材
100
AcDbCircle
 10
0.0
 20
0.0
 30
0.0
 40
5.0
  0
ENDBLK
  5
836B
330
8366
100
AcDbEntity
  8
0
100
AcDbBlockEnd
  0
BLOCK
  5
841E
330
841D
100
AcDbEntity
  8
0
100
AcDbBlockBegin
  2
BH-端柱補強桟(L40x15xt3.2)
 70
     0
 10
0.0
 20
0.0
 30
0.0
  3
BH-端柱補強桟(L40x15xt3.2)
  1

  0
LINE
  5
841F
330
841D
100
AcDbEntity
  8
03破線
  6
HIDDEN
 48
0.5
100
AcDbLine
 10
3.199999999999818
 20
-3.199999999999818
 30
0.0
 11
3.199999999999818
 21
-40.0
 31
0.0
  0
LINE
  5
8420
330
841D
100
AcDbEntity
  8
03破線
  6
HIDDEN
 48
0.5
100
AcDbLine
 10
15.0
 20
0.0
 30
0.0
 11
15.0
 21
-3.199999999999818
 31
0.0
  0
LINE
  5
8421
330
841D
100
AcDbEntity
  8
03破線
  6
HIDDEN
 48
0.5
100
AcDbLine
 10
15.0
 20
-3.199999999999818
 30
0.0
 11
3.199999999999818
 21
-3.199999999999818
 31
0.0
  0
LINE
  5
8422
330
841D
100
AcDbEntity
  8
03破線
  6
HIDDEN
 48
0.5
100
AcDbLine
 10
0.0
 20
0.0
 30
0.0
 11
0.0
 21
-40.0
 31
0.0
  0
LINE
  5
8423
330
841D
100
AcDbEntity
  8
03破線
  6
HIDDEN
 48
0.5
100
AcDbLine
 10
15.0
 20
0.0
 30
0.0
 11
0.0
 21
0.0
 31
0.0
  0
LINE
  5
8424
330
841D
100
AcDbEntity
  8
03破線
  6
HIDDEN
 48
0.5
100
AcDbLine
 10
3.199999999999818
 20
-40.0
 30
0.0
 11
0.0
 21
-40.0
 31
0.0
  0
ENDBLK
  5
8425
330
841D
100
AcDbEntity
  8
0
100
AcDbBlockEnd
  0
BLOCK
  5
842B
330
842A
100
AcDbEntity
  8
0
100
AcDbBlockBegin
  2
BH-端柱(L60)-500H-正面
 70
     0
 10
0.0
 20
0.0
 30
0.0
  3
BH-端柱(L60)-500H-正面
  1

  0
LWPOLYLINE
  5
842C
330
842A
100
AcDbEntity
  8
02実線
100
AcDbPolyline
 90
        4
 70
     1
 43
0.0
 10
0.0
 20
0.0
 10
0.0
 20
497.0000000000005
 10
60.0
 20
497.0000000000005
 10
60.0
 20
0.0
  0
LINE
  5
842D
330
842A
100
AcDbEntity
  8
03破線
100
AcDbLine
 10
3.200000000000728
 20
0.0
 30
0.0
 11
3.200000000000728
 21
497.0000000000005
 31
0.0
  0
ARC
  5
842E
330
842A
100
AcDbEntity
  8
02実線
100
AcDbCircle
 10
22.00000000000091
 20
30.0
 30
0.0
 40
7.0
100
AcDbArc
 50
90.0
 51
270.0
  0
LINE
  5
842F
330
842A
100
AcDbEntity
  8
02実線
100
AcDbLine
 10
22.00000000000091
 20
23.0
 30
0.0
 11
42.00000000000091
 21
23.0
 31
0.0
  0
LINE
  5
8430
330
842A
100
AcDbEntity
  8
02実線
100
AcDbLine
 10
22.00000000000091
 20
37.0
 30
0.0
 11
42.00000000000091
 21
37.0
 31
0.0
  0
ARC
  5
8431
330
842A
100
AcDbEntity
  8
02実線
100
AcDbCircle
 10
42.00000000000091
 20
30.0
 30
0.0
 40
7.0
100
AcDbArc
 50
270.0
 51
90.0
  0
CIRCLE
  5
8432
330
842A
100
AcDbEntity
  8
02実線
100
AcDbCircle
 10
30.00000000000091
 20
215.0000000000002
 30
0.0
 40
6.5
  0
CIRCLE
  5
8433
330
842A
100
AcDbEntity
  8
02実線
100
AcDbCircle
 10
30.00000000000091
 20
466.0000000000005
 30
0.0
 40
6.5
  0
LINE
  5
8434
330
842A
100
AcDbEntity
  8
04一点鎖線
 48
0.2
100
AcDbLine
 10
59.0
 20
30.0
 30
0.0
 11
-10.0
 21
30.0
 31
0.0
  0
LINE
  5
8435
330
842A
100
AcDbEntity
  8
04一点鎖線
 48
0.2
100
AcDbLine
 10
46.5
 20
466.0000000000005
 30
0.0
 11
13.50000000000091
 21
466.0000000000005
 31
0.0
  0
LINE
  5
8436
330
842A
100
AcDbEntity
  8
04一点鎖線
 48
0.2
100
AcDbLine
 10
32.00000000000091
 20
13.0
 30
0.0
 11
32.00000000000091
 21
47.0
 31
0.0
  0
LINE
  5
8437
330
842A
100
AcDbEntity
  8
04一点鎖線
 48
0.2
100
AcDbLine
 10
30.00000000000182
 20
198.5000000000002
 30
0.0
 11
30.0
 21
231.5000000000002
 31
0.0
  0
LINE
  5
8438
330
842A
100
AcDbEntity
  8
04一点鎖線
 48
0.2
100
AcDbLine
 10
30.00000000000182
 20
449.5000000000005
 30
0.0
 11
30.0
 21
482.5000000000005
 31
0.0
  0
LINE
  5
8439
330
842A
100
AcDbEntity
  8
04一点鎖線
 48
0.2
100
AcDbLine
 10
46.5
 20
215.0000000000002
 30
0.0
 11
13.50000000000091
 21
215.0000000000002
 31
0.0
  0
INSERT
  5
843A
330
842A
100
AcDbEntity
  8
03破線
100
AcDbBlockReference
  2
BH-端柱補強桟(L40x15xt3.2)
 10
3.200000000000728
 20
250.0
 30
0.0
  0
ENDBLK
  5
843B
330
842A
100
AcDbEntity
  8
0
100
AcDbBlockEnd
  0
BLOCK
  5
843E
330
843D
100
AcDbEntity
  8
0
100
AcDbBlockBegin
  2
BH-端柱(L60)-500H-側面
 70
     0
 10
0.0
 20
0.0
 30
0.0
  3
BH-端柱(L60)-500H-側面
  1

  0
ARC
  5
843F
330
843D
100
AcDbEntity
  8
02実線
100
AcDbCircle
 10
42.00000000000091
 20
29.99999999999886
 30
0.0
 40
7.0
100
AcDbArc
 50
270.0
 51
90.0
  0
LINE
  5
8440
330
843D
100
AcDbEntity
  8
02実線
100
AcDbLine
 10
22.00000000000091
 20
36.99999999999886
 30
0.0
 11
42.00000000000091
 21
36.99999999999886
 31
0.0
  0
LINE
  5
8441
330
843D
100
AcDbEntity
  8
02実線
100
AcDbLine
 10
22.00000000000091
 20
22.99999999999886
 30
0.0
 11
42.00000000000091
 21
22.99999999999886
 31
0.0
  0
ARC
  5
8442
330
843D
100
AcDbEntity
  8
02実線
100
AcDbCircle
 10
22.00000000000091
 20
29.99999999999886
 30
0.0
 40
7.0
100
AcDbArc
 50
90.0
 51
270.0
  0
LINE
  5
8443
330
843D
100
AcDbEntity
  8
03破線
100
AcDbLine
 10
3.200000000000728
 20
-0.0000000000011369
 30
0.0
 11
3.200000000000728
 21
496.9999999999993
 31
0.0
  0
LWPOLYLINE
  5
8444
330
843D
100
AcDbEntity
  8
02実線
100
AcDbPolyline
 90
        4
 70
     1
 43
0.0
 10
0.0
 20
0.0
 10
0.0
 20
497.0000000000002
 10
60.0
 20
497.0000000000002
 10
60.0
 20
0.0
  0
CIRCLE
  5
8445
330
843D
100
AcDbEntity
  8
02実線
100
AcDbCircle
 10
34.69999999999982
 20
469.9999999999993
 30
0.0
 40
6.5
  0
CIRCLE
  5
8446
330
843D
100
AcDbEntity
  8
02実線
100
AcDbCircle
 10
34.69999999999982
 20
399.9999999999991
 30
0.0
 40
6.5
  0
LINE
  5
8447
330
843D
100
AcDbEntity
  8
04一点鎖線
 48
0.2
100
AcDbLine
 10
59.00000000000091
 20
29.99999999999886
 30
0.0
 11
-10.0
 21
29.99999999999886
 31
0.0
  0
LINE
  5
8448
330
843D
100
AcDbEntity
  8
04一点鎖線
 48
0.2
100
AcDbLine
 10
32.00000000000091
 20
12.99999999999886
 30
0.0
 11
32.00000000000091
 21
46.99999999999886
 31
0.0
  0
LINE
  5
8449
330
843D
100
AcDbEntity
  8
04一点鎖線
 48
0.2
100
AcDbLine
 10
51.20000000000073
 20
469.9999999999989
 30
0.0
 11
18.20000000000073
 21
469.9999999999989
 31
0.0
  0
LINE
  5
844A
330
843D
100
AcDbEntity
  8
04一点鎖線
 48
0.2
100
AcDbLine
 10
51.19999999999982
 20
399.9999999999991
 30
0.0
 11
18.19999999999982
 21
399.9999999999991
 31
0.0
  0
LINE
  5
844B
330
843D
100
AcDbEntity
  8
04一点鎖線
 48
0.2
100
AcDbLine
 10
34.69999999999982
 20
383.4999999999991
 30
0.0
 11
34.69999999999982
 21
416.4999999999991
 31
0.0
  0
LINE
  5
844C
330
843D
100
AcDbEntity
  8
04一点鎖線
 48
0.2
100
AcDbLine
 10
34.70000000000073
 20
453.4999999999989
 30
0.0
 11
34.70000000000073
 21
486.4999999999989
 31
0.0
  0
ENDBLK
  5
844D
330
843D
100
AcDbEntity
  8
0
100
AcDbBlockEnd
  0
BLOCK
  5
8523
330
8522
100
AcDbEntity
  8
0
100
AcDbBlockBegin
  2
BH-anchor-L60-背面
 70
     0
 10
0.0
 20
0.0
 30
0.0
  3
BH-anchor-L60-背面
  1

  0
LINE
  5
8524
330
8522
100
AcDbEntity
  8
04一点鎖線
 48
0.2
100
AcDbLine
 10
0.0
 20
-15.0
 30
0.0
 11
0.0
 21
19.5
 31
0.0
  0
LINE
  5
8525
330
8522
100
AcDbEntity
  8
03破線
100
AcDbLine
 10
-28.5
 20
4.5
 30
0.0
 11
28.5
 21
4.5
 31
0.0
  0
LINE
  5
8526
330
8522
100
AcDbEntity
  8
03破線
100
AcDbLine
 10
-28.5
 20
0.0
 30
0.0
 11
28.5
 21
0.0
 31
0.0
  0
LINE
  5
8527
330
8522
100
AcDbEntity
  8
03破線
100
AcDbLine
 10
-15.82435206036507
 20
56.11709862642329
 30
0.0
 11
4.175647939634928
 21
26.11709862642329
 31
0.0
  0
LINE
  5
8528
330
8522
100
AcDbEntity
  8
03破線
100
AcDbLine
 10
-4.175647939634928
 20
63.88290137357671
 30
0.0
 11
15.82435206036507
 21
33.88290137357671
 31
0.0
  0
ARC
  5
8529
330
8522
100
AcDbEntity
  8
03破線
100
AcDbCircle
 10
10.0
 20
30.0
 30
0.0
 40
7.0
100
AcDbArc
 50
213.6900675259766
 51
33.69006752597669
  0
ARC
  5
852A
330
8522
100
AcDbEntity
  8
03破線
100
AcDbCircle
 10
-10.0
 20
60.0
 30
0.0
 40
7.0
100
AcDbArc
 50
33.69006752597669
 51
213.6900675259766
  0
LINE
  5
852B
330
8522
100
AcDbEntity
  8
03破線
100
AcDbLine
 10
-23.5
 20
80.0
 30
0.0
 11
-28.5
 21
75.0
 31
0.0
  0
LINE
  5
852C
330
8522
100
AcDbEntity
  8
03破線
100
AcDbLine
 10
-28.5
 20
0.0
 30
0.0
 11
-28.5
 21
75.0
 31
0.0
  0
LINE
  5
852D
330
8522
100
AcDbEntity
  8
03破線
100
AcDbLine
 10
28.5
 20
75.0
 30
0.0
 11
23.5
 21
80.0
 31
0.0
  0
LINE
  5
852E
330
8522
100
AcDbEntity
  8
03破線
100
AcDbLine
 10
-23.5
 20
80.0
 30
0.0
 11
23.5
 21
80.0
 31
0.0
  0
LINE
  5
852F
330
8522
100
AcDbEntity
  8
03破線
100
AcDbLine
 10
28.5
 20
0.0
 30
0.0
 11
28.5
 21
75.0
 31
0.0
  0
ENDBLK
  5
8530
330
8522
100
AcDbEntity
  8
0
100
AcDbBlockEnd
  0
BLOCK
  5
8549
330
8548
100
AcDbEntity
  8
0
100
AcDbBlockBegin
  2
BH-anchor-L60-立面
 70
     0
 10
0.0
 20
0.0
 30
0.0
  3
BH-anchor-L60-立面
  1

  0
LINE
  5
854A
330
8548
100
AcDbEntity
  8
04一点鎖線
 48
0.2
100
AcDbLine
 10
-22.5
 20
45.0
 30
0.0
 11
-47.0
 21
45.0
 31
0.0
  0
ARC
  5
854B
330
8548
100
AcDbEntity
  8
03破線
100
AcDbCircle
 10
-29.19999999999982
 20
7.799999999999727
 30
0.0
 40
3.300000000000002
100
AcDbArc
 50
180.0
 51
270.0
  0
ARC
  5
854C
330
8548
100
AcDbEntity
  8
03破線
100
AcDbCircle
 10
-29.19999999999982
 20
7.799999999999727
 30
0.0
 40
7.800000000000002
100
AcDbArc
 50
179.9999999999967
 51
270.0
  0
LINE
  5
854D
330
8548
100
AcDbEntity
  8
03破線
100
AcDbLine
 10
-37.0
 20
80.0
 30
0.0
 11
-32.5
 21
80.0
 31
0.0
  0
LINE
  5
854E
330
8548
100
AcDbEntity
  8
03破線
100
AcDbLine
 10
23.0
 20
4.5
 30
0.0
 11
23.0
 21
0.0
 31
0.0
  0
LINE
  5
854F
330
8548
100
AcDbEntity
  8
03破線
100
AcDbLine
 10
-32.5
 20
80.0
 30
0.0
 11
-32.5
 21
7.799999999999727
 31
0.0
  0
LINE
  5
8550
330
8548
100
AcDbEntity
  8
03破線
100
AcDbLine
 10
-29.19999999999982
 20
4.5
 30
0.0
 11
23.0
 21
4.5
 31
0.0
  0
LINE
  5
8551
330
8548
100
AcDbEntity
  8
03破線
100
AcDbLine
 10
-37.0
 20
80.0
 30
0.0
 11
-37.0
 21
7.799999999999727
 31
0.0
  0
LINE
  5
8552
330
8548
100
AcDbEntity
  8
03破線
100
AcDbLine
 10
-29.19999999999982
 20
0.0
 30
0.0
 11
23.0
 21
0.0
 31
0.0
  0
LINE
  5
8553
330
8548
100
AcDbEntity
  8
04一点鎖線
 48
0.2
100
AcDbLine
 10
0.0
 20
19.5
 30
0.0
 11
0.0
 21
-15.0
 31
0.0
  0
ENDBLK
  5
8554
330
8548
100
AcDbEntity
  8
0
100
AcDbBlockEnd
  0
BLOCK
  5
856E
330
856D
100
AcDbEntity
  8
0
100
AcDbBlockBegin
  2
BH-端柱(L60)-平面
 70
     0
 10
0.0
 20
0.0
 30
0.0
  3
BH-端柱(L60)-平面
  1

  0
LINE
  5
856F
330
856D
100
AcDbEntity
  8
02実線
100
AcDbLine
 10
60.0
 20
3.199999999999818
 30
0.0
 11
60.0
 21
0.0
 31
0.0
  0
LINE
  5
8570
330
856D
100
AcDbEntity
  8
02実線
100
AcDbLine
 10
3.200000000000728
 20
3.199999999999818
 30
0.0
 11
60.0
 21
3.199999999999818
 31
0.0
  0
LINE
  5
8571
330
856D
100
AcDbEntity
  8
02実線
100
AcDbLine
 10
0.0
 20
60.0
 30
0.0
 11
3.200000000000728
 21
60.0
 31
0.0
  0
LINE
  5
8572
330
856D
100
AcDbEntity
  8
02実線
100
AcDbLine
 10
0.0
 20
0.0
 30
0.0
 11
60.0
 21
0.0
 31
0.0
  0
LINE
  5
8573
330
856D
100
AcDbEntity
  8
02実線
100
AcDbLine
 10
0.0
 20
60.0
 30
0.0
 11
0.0
 21
0.0
 31
0.0
  0
LINE
  5
8574
330
856D
100
AcDbEntity
  8
02実線
100
AcDbLine
 10
3.200000000000728
 20
60.0
 30
0.0
 11
3.200000000000728
 21
3.199999999999818
 31
0.0
  0
LINE
  5
8575
330
856D
100
AcDbEntity
  8
08非表示
100
AcDbLine
 10
3.200000000000728
 20
4.699999999999818
 30
0.0
 11
60.0
 21
4.699999999999818
 31
0.0
  0
ENDBLK
  5
8576
330
856D
100
AcDbEntity
  8
0
100
AcDbBlockEnd
  0
BLOCK
  5
858D
330
858C
100
AcDbEntity
  8
0
100
AcDbBlockBegin
  2
BH-anchor-L60-平面(実線)
 70
     0
 10
0.0
 20
0.0
 30
0.0
  3
BH-anchor-L60-平面(実線)
  1

  0
LINE
  5
858E
330
858C
100
AcDbEntity
  8
02実線
100
AcDbLine
 10
-32.5
 20
-28.5
 30
0.0
 11
-32.5
 21
28.5
 31
0.0
  0
LINE
  5
858F
330
858C
100
AcDbEntity
  8
02実線
100
AcDbLine
 10
-37.0
 20
-28.5
 30
0.0
 11
-37.0
 21
28.5
 31
0.0
  0
CIRCLE
  5
8590
330
858C
100
AcDbEntity
  8
02実線
100
AcDbCircle
 10
0.0
 20
0.0
 30
0.0
 40
8.0
  0
LINE
  5
8591
330
858C
100
AcDbEntity
  8
02実線
100
AcDbLine
 10
23.0
 20
18.5
 30
0.0
 11
13.0
 21
28.5
 31
0.0
  0
LINE
  5
8592
330
858C
100
AcDbEntity
  8
02実線
100
AcDbLine
 10
23.0
 20
-18.5
 30
0.0
 11
13.0
 21
-28.5
 31
0.0
  0
LINE
  5
8593
330
858C
100
AcDbEntity
  8
02実線
100
AcDbLine
 10
-37.0
 20
28.5
 30
0.0
 11
13.0
 21
28.5
 31
0.0
  0
LINE
  5
8594
330
858C
100
AcDbEntity
  8
02実線
100
AcDbLine
 10
-37.0
 20
-28.5
 30
0.0
 11
13.0
 21
-28.5
 31
0.0
  0
LINE
  5
8595
330
858C
100
AcDbEntity
  8
02実線
100
AcDbLine
 10
23.0
 20
-18.5
 30
0.0
 11
23.0
 21
18.5
 31
0.0
  0
ARC
  5
A0C7
330
858C
100
AcDbEntity
  8
08非表示
100
AcDbCircle
 10
-5.0
 20
0.0
 30
0.0
 40
8.0
100
AcDbArc
 50
90.0
 51
270.0
  0
ARC
  5
A0C8
330
858C
100
AcDbEntity
  8
08非表示
100
AcDbCircle
 10
5.0
 20
0.0
 30
0.0
 40
8.0
100
AcDbArc
 50
270.0
 51
90.0
  0
LINE
  5
A0C9
330
858C
100
AcDbEntity
  8
08非表示
100
AcDbLine
 10
5.0
 20
-8.0
 30
0.0
 11
-5.0
 21
-8.0
 31
0.0
  0
LINE
  5
A0CA
330
858C
100
AcDbEntity
  8
08非表示
100
AcDbLine
 10
5.0
 20
8.0
 30
0.0
 11
-5.0
 21
8.0
 31
0.0
  0
ENDBLK
  5
8596
330
858C
100
AcDbEntity
  8
0
100
AcDbBlockEnd
  0
BLOCK
  5
85C6
330
85C5
100
AcDbEntity
  8
0
100
AcDbBlockBegin
  2
BH-レベル調整ボルト
 70
     0
 10
0.0
 20
0.0
 30
0.0
  3
BH-レベル調整ボルト
  1

  0
LINE
  5
85C7
330
85C5
100
AcDbEntity
  8
04一点鎖線
  6
CENTER
 48
0.2
100
AcDbLine
 10
-28.39999999999964
 20
0.0
 30
0.0
 11
13.00000001115222
 21
0.0
 31
0.0
  0
LINE
  5
85C8
330
85C5
100
AcDbEntity
  8
02実線
100
AcDbLine
 10
-23.39999999999964
 20
-4.0
 30
0.0
 11
-17.3000000111515
 21
-4.0
 31
0.0
  0
LINE
  5
85C9
330
85C5
100
AcDbEntity
  8
02実線
100
AcDbLine
 10
-23.39999999999964
 20
4.0
 30
0.0
 11
-17.3000000111515
 21
4.0
 31
0.0
  0
LINE
  5
85CA
330
85C5
100
AcDbEntity
  8
02実線
100
AcDbLine
 10
-23.39999999999964
 20
-4.0
 30
0.0
 11
-23.39999999999964
 21
4.0
 31
0.0
  0
LINE
  5
85CB
330
85C5
100
AcDbEntity
  8
02実線
100
AcDbLine
 10
-22.39999999999964
 20
5.0
 30
0.0
 11
-17.3000000111515
 21
5.0
 31
0.0
  0
LINE
  5
85CC
330
85C5
100
AcDbEntity
  8
02実線
100
AcDbLine
 10
-22.39999999999964
 20
-5.0
 30
0.0
 11
-22.39999999999964
 21
5.0
 31
0.0
  0
LINE
  5
85CD
330
85C5
100
AcDbEntity
  8
02実線
100
AcDbLine
 10
-22.39999999999964
 20
-5.0
 30
0.0
 11
-17.3000000111515
 21
-5.0
 31
0.0
  0
LINE
  5
85CE
330
85C5
100
AcDbEntity
  8
02実線
100
AcDbLine
 10
-23.39999999999964
 20
-4.0
 30
0.0
 11
-22.39999999999964
 21
-5.0
 31
0.0
  0
LINE
  5
85CF
330
85C5
100
AcDbEntity
  8
02実線
100
AcDbLine
 10
-22.39999999999964
 20
5.0
 30
0.0
 11
-23.39999999999964
 21
4.0
 31
0.0
  0
LINE
  5
85D0
330
85C5
100
AcDbEntity
  8
02実線
100
AcDbLine
 10
-7.700000000000728
 20
11.0
 30
0.0
 11
-7.700000000000728
 21
-11.0
 31
0.0
  0
LINE
  5
85D1
330
85C5
100
AcDbEntity
  8
02実線
100
AcDbLine
 10
-9.299999999999272
 20
11.0
 30
0.0
 11
-7.700000000000728
 21
11.0
 31
0.0
  0
LINE
  5
85D2
330
85C5
100
AcDbEntity
  8
02実線
100
AcDbLine
 10
-9.299999999999272
 20
-11.0
 30
0.0
 11
-7.700000000000728
 21
-11.0
 31
0.0
  0
LINE
  5
85D3
330
85C5
100
AcDbEntity
  8
02実線
100
AcDbLine
 10
-9.299999999999272
 20
11.0
 30
0.0
 11
-9.299999999999272
 21
-11.0
 31
0.0
  0
LINE
  5
85D4
330
85C5
100
AcDbEntity
  8
02実線
100
AcDbLine
 10
-9.299999999999272
 20
9.237604307033962
 30
0.0
 11
-9.299999999999272
 21
-9.237604307033962
 31
0.0
  0
ARC
  5
85D5
330
85C5
100
AcDbEntity
  8
02実線
100
AcDbCircle
 10
-12.68119784648297
 20
6.927925269031675
 30
0.0
 40
4.618802164669552
100
AcDbArc
 50
149.9960184984644
 51
209.9960184984832
  0
ARC
  5
85D6
330
85C5
100
AcDbEntity
  8
02実線
100
AcDbCircle
 10
-12.68119784648297
 20
-6.927925269031675
 30
0.0
 40
4.618802164669552
100
AcDbArc
 50
150.0039815015167
 51
210.0039815015356
  0
ARC
  5
85D7
330
85C5
100
AcDbEntity
  8
02実線
100
AcDbCircle
 10
0.2513967268932902
 20
0.0
 30
0.0
 40
17.55139672689282
100
AcDbArc
 50
164.7424308899368
 51
195.2575691100632
  0
LINE
  5
85D8
330
85C5
100
AcDbEntity
  8
02実線
100
AcDbLine
 10
-9.299999999999272
 20
4.618802153516754
 30
0.0
 11
-16.68135832748158
 21
4.618802153516754
 31
0.0
  0
LINE
  5
85D9
330
85C5
100
AcDbEntity
  8
02実線
100
AcDbLine
 10
-17.3000000111515
 20
6.927925269031675
 30
0.0
 11
-17.3000000111515
 21
-6.927925269031675
 31
0.0
  0
LINE
  5
85DA
330
85C5
100
AcDbEntity
  8
02実線
100
AcDbLine
 10
-9.299999999999272
 20
-4.618802153516754
 30
0.0
 11
-16.68135832748158
 21
-4.618802153516754
 31
0.0
  0
LINE
  5
85DB
330
85C5
100
AcDbEntity
  8
02実線
100
AcDbLine
 10
-9.299999999999272
 20
-9.237604307033962
 30
0.0
 11
-16.68103736548437
 21
-9.237604307033962
 31
0.0
  0
LINE
  5
85DC
330
85C5
100
AcDbEntity
  8
02実線
100
AcDbLine
 10
-9.299999999999272
 20
9.237604307033962
 30
0.0
 11
-16.68103736548437
 21
9.237604307033962
 31
0.0
  0
LINE
  5
85DD
330
85C5
100
AcDbEntity
  8
02実線
100
AcDbLine
 10
0.0
 20
-11.0
 30
0.0
 11
1.600000000000364
 21
-11.0
 31
0.0
  0
LINE
  5
85DE
330
85C5
100
AcDbEntity
  8
02実線
100
AcDbLine
 10
0.0
 20
11.0
 30
0.0
 11
1.600000000000364
 21
11.0
 31
0.0
  0
LINE
  5
85DF
330
85C5
100
AcDbEntity
  8
02実線
100
AcDbLine
 10
1.600000000000364
 20
11.0
 30
0.0
 11
1.600000000000364
 21
-11.0
 31
0.0
  0
LINE
  5
85E0
330
85C5
100
AcDbEntity
  8
02実線
100
AcDbLine
 10
0.0
 20
11.0
 30
0.0
 11
0.0
 21
-11.0
 31
0.0
  0
LINE
  5
85E1
330
85C5
100
AcDbEntity
  8
02実線
100
AcDbLine
 10
1.600000000000364
 20
-4.618802153516754
 30
0.0
 11
7.381358327482303
 21
-4.618802153516754
 31
0.0
  0
LINE
  5
85E2
330
85C5
100
AcDbEntity
  8
02実線
100
AcDbLine
 10
1.600000000000364
 20
-9.237604307033962
 30
0.0
 11
7.38103736548328
 21
-9.237604307033962
 31
0.0
  0
LINE
  5
85E3
330
85C5
100
AcDbEntity
  8
02実線
100
AcDbLine
 10
8.000000011152224
 20
6.927925269031675
 30
0.0
 11
8.000000011152224
 21
-6.927925269031675
 31
0.0
  0
LINE
  5
85E4
330
85C5
100
AcDbEntity
  8
02実線
100
AcDbLine
 10
1.600000000000364
 20
4.618802153516754
 30
0.0
 11
7.381358327482303
 21
4.618802153516754
 31
0.0
  0
LINE
  5
85E5
330
85C5
100
AcDbEntity
  8
02実線
100
AcDbLine
 10
1.600000000000364
 20
9.237604307033962
 30
0.0
 11
7.38103736548328
 21
9.237604307033962
 31
0.0
  0
ARC
  5
85E6
330
85C5
100
AcDbEntity
  8
02実線
100
AcDbCircle
 10
-9.551396726892563
 20
0.0
 30
0.0
 40
17.55139672689282
100
AcDbArc
 50
344.7424308899368
 51
15.25756911006317
  0
ARC
  5
85E7
330
85C5
100
AcDbEntity
  8
02実線
100
AcDbCircle
 10
3.381197846481882
 20
-6.927925269031675
 30
0.0
 40
4.618802164669552
100
AcDbArc
 50
329.9960184984644
 51
29.99601849845809
  0
ARC
  5
85E8
330
85C5
100
AcDbEntity
  8
02実線
100
AcDbCircle
 10
3.381197846481882
 20
6.927925269031675
 30
0.0
 40
4.618802164669552
100
AcDbArc
 50
330.0039815015419
 51
30.00398150153562
  0
LINE
  5
85E9
330
85C5
100
AcDbEntity
  8
02実線
100
AcDbLine
 10
1.600000000000364
 20
9.237604307033962
 30
0.0
 11
1.600000000000364
 21
-9.237604307033962
 31
0.0
  0
ENDBLK
  5
85EA
330
85C5
100
AcDbEntity
  8
0
100
AcDbBlockEnd
  0
BLOCK
  5
9929
330
9928
100
AcDbEntity
  8
0
100
AcDbBlockBegin
  2
BH-筋交(柱L60)-500H
 70
     0
 10
0.0
 20
0.0
 30
0.0
  3
BH-筋交(柱L60)-500H
  1

  0
CIRCLE
  5
992B
330
9928
100
AcDbEntity
  8
03破線
100
AcDbCircle
 10
312.2304049160912
 20
250.0243473062876
 30
0.0
 40
6.499999999999988
  0
LINE
  5
992C
330
9928
100
AcDbEntity
  8
03破線
100
AcDbLine
 10
316.5633268549091
 20
268.6110572752962
 30
0.0
 11
-19.0843584298882
 21
-0.1651160789606365
 31
0.0
  0
CIRCLE
  5
992D
330
9928
100
AcDbEntity
  8
03破線
100
AcDbCircle
 10
0.0
 20
0.0
 30
0.0
 40
6.499999999999988
  0
LINE
  5
992E
330
9928
100
AcDbEntity
  8
03破線
100
AcDbLine
 10
-5.458031501695586
 20
-17.18167314688799
 30
0.0
 11
-21.08455320833764
 21
2.332727160368449
 31
0.0
  0
LINE
  5
992F
330
9928
100
AcDbEntity
  8
03破線
100
AcDbLine
 10
314.5631320764578
 20
271.1089005146271
 30
0.0
 11
330.1896537831008
 21
251.5945002073715
 31
0.0
  0
LINE
  5
9930
330
9928
100
AcDbEntity
  8
03破線
100
AcDbLine
 10
330.1896537831008
 20
251.5945002073715
 30
0.0
 11
329.4120780629773
 21
244.5663158045902
 31
0.0
  0
LINE
  5
9931
330
9928
100
AcDbEntity
  8
03破線
100
AcDbLine
 10
1.570152901083929
 20
-17.9592488670105
 30
0.0
 11
-5.458031501695586
 21
-17.18167314688799
 31
0.0
  0
LINE
  5
9932
330
9928
100
AcDbEntity
  8
03破線
100
AcDbLine
 10
329.4120780629773
 20
244.5663158045902
 30
0.0
 11
304.9776628862055
 21
225.0000000000005
 31
0.0
  0
LINE
  5
9933
330
9928
100
AcDbEntity
  8
03破線
100
AcDbLine
 10
-21.08455320833764
 20
2.332727160368449
 30
0.0
 11
30.0
 21
43.23964036371416
 31
0.0
  0
LINE
  5
9934
330
9928
100
AcDbEntity
  8
03破線
100
AcDbLine
 10
256.9823371137927
 20
225.0000000000005
 30
0.0
 11
314.5631320764578
 21
271.1089005146271
 31
0.0
  0
LINE
  5
9935
330
9928
100
AcDbEntity
  8
02実線
100
AcDbLine
 10
304.9776628862055
 20
225.0000000000005
 30
0.0
 11
30.0
 21
4.806483915593844
 31
0.0
  0
LINE
  5
9936
330
9928
100
AcDbEntity
  8
02実線
100
AcDbLine
 10
30.0
 20
43.23964036371416
 30
0.0
 11
256.9823371137927
 21
225.0000000000005
 31
0.0
  0
LINE
  5
9937
330
9928
100
AcDbEntity
  8
03破線
100
AcDbLine
 10
30.0
 20
4.806483915593844
 30
0.0
 11
1.570152901083929
 21
-17.9592488670105
 31
0.0
  0
ENDBLK
  5
992A
330
9928
100
AcDbEntity
  8
0
100
AcDbBlockEnd
  0
BLOCK
  5
BE78
330
BE77
100
AcDbEntity
  8
0
100
AcDbBlockBegin
  2
*D539
 70
     1
 10
0.0
 20
0.0
 30
0.0
  3
*D539
  1

  0
LINE
  5
BE7A
330
BE77
100
AcDbEntity
  8
01注記寸法
 62
     0
370
    -2
100
AcDbLine
 10
900.0
 20
2386.5
 30
0.0
 11
900.0
 21
2679.999999999998
 31
0.0
  0
LINE
  5
BE7B
330
BE77
100
AcDbEntity
  8
01注記寸法
 62
     0
370
    -2
100
AcDbLine
 10
1850.0
 20
2386.5
 30
0.0
 11
1850.0
 21
2679.999999999998
 31
0.0
  0
LINE
  5
BE7C
330
BE77
100
AcDbEntity
  8
01注記寸法
 62
     0
370
    -2
100
AcDbLine
 10
930.0
 20
2669.999999999998
 30
0.0
 11
1820.0
 21
2669.999999999998
 31
0.0
  0
INSERT
  5
BE7D
330
BE77
100
AcDbEntity
  8
01注記寸法
 62
     0
370
    -2
100
AcDbBlockReference
  2
_Open
 10
900.0
 20
2669.999999999998
 30
0.0
 41
30.0
 42
30.0
 43
30.0
 50
180.0
  0
INSERT
  5
BE7E
330
BE77
100
AcDbEntity
  8
01注記寸法
 62
     0
370
    -2
100
AcDbBlockReference
  2
_Open
 10
1850.0
 20
2669.999999999998
 30
0.0
 41
30.0
 42
30.0
 43
30.0
  0
MTEXT
  5
BE7F
330
BE77
100
AcDbEntity
  8
01注記寸法
 62
     0
100
AcDbMText
 10
1375.0
 20
2694.999999999998
 30
0.0
 40
30.0
 41
0.0
 71
     5
 72
     1
  1
950
 73
     1
 44
1.0
  0
POINT
  5
BE80
330
BE77
100
AcDbEntity
  8
Defpoints
 62
     0
100
AcDbPoint
 10
900.0
 20
2371.5
 30
0.0
  0
POINT
  5
BE81
330
BE77
100
AcDbEntity
  8
Defpoints
 62
     0
100
AcDbPoint
 10
1850.0
 20
2371.5
 30
0.0
  0
POINT
  5
BE82
330
BE77
100
AcDbEntity
  8
Defpoints
 62
     0
100
AcDbPoint
 10
1850.0
 20
2669.999999999998
 30
0.0
  0
ENDBLK
  5
BE79
330
BE77
100
AcDbEntity
  8
0
100
AcDbBlockEnd
  0
BLOCK
  5
BE84
330
BE83
100
AcDbEntity
  8
0
100
AcDbBlockBegin
  2
*D540
 70
     1
 10
0.0
 20
0.0
 30
0.0
  3
*D540
  1

  0
LINE
  5
BE86
330
BE83
100
AcDbEntity
  8
01注記寸法
 62
     0
370
    -2
100
AcDbLine
 10
885.0
 20
2369.999999999998
 30
0.0
 11
690.0
 21
2369.999999999998
 31
0.0
  0
LINE
  5
BE87
330
BE83
100
AcDbEntity
  8
01注記寸法
 62
     0
370
    -2
100
AcDbLine
 10
885.0
 20
1899.999999999998
 30
0.0
 11
690.0
 21
1899.999999999998
 31
0.0
  0
LINE
  5
BE88
330
BE83
100
AcDbEntity
  8
01注記寸法
 62
     0
370
    -2
100
AcDbLine
 10
700.0
 20
2339.999999999998
 30
0.0
 11
700.0
 21
1929.999999999998
 31
0.0
  0
INSERT
  5
BE89
330
BE83
100
AcDbEntity
  8
01注記寸法
 62
     0
370
    -2
100
AcDbBlockReference
  2
_Open
 10
700.0
 20
2369.999999999998
 30
0.0
 41
30.0
 42
30.0
 43
30.0
 50
90.0
  0
INSERT
  5
BE8A
330
BE83
100
AcDbEntity
  8
01注記寸法
 62
     0
370
    -2
100
AcDbBlockReference
  2
_Open
 10
700.0
 20
1899.999999999998
 30
0.0
 41
30.0
 42
30.0
 43
30.0
 50
270.0
  0
MTEXT
  5
BE8B
330
BE83
100
AcDbEntity
  8
01注記寸法
 62
     0
100
AcDbMText
 10
675.0
 20
2134.999999999998
 30
0.0
 40
30.0
 41
0.0
 71
     5
 72
     1
  1
470
 11
0.0
 21
1.0
 31
0.0
 73
     1
 44
1.0
  0
POINT
  5
BE8C
330
BE83
100
AcDbEntity
  8
Defpoints
 62
     0
100
AcDbPoint
 10
900.0
 20
2369.999999999998
 30
0.0
  0
POINT
  5
BE8D
330
BE83
100
AcDbEntity
  8
Defpoints
 62
     0
100
AcDbPoint
 10
900.0
 20
1899.999999999998
 30
0.0
  0
POINT
  5
BE8E
330
BE83
100
AcDbEntity
  8
Defpoints
 62
     0
100
AcDbPoint
 10
700.0
 20
1899.999999999998
 30
0.0
  0
ENDBLK
  5
BE85
330
BE83
100
AcDbEntity
  8
0
100
AcDbBlockEnd
  0
BLOCK
  5
BE90
330
BE8F
100
AcDbEntity
  8
0
100
AcDbBlockBegin
  2
*D541
 70
     1
 10
0.0
 20
0.0
 30
0.0
  3
*D541
  1

  0
LINE
  5
BE92
330
BE8F
100
AcDbEntity
  8
08非表示
 62
     0
370
    -2
100
AcDbLine
 10
2250.0
 20
1614.999999999998
 30
0.0
 11
2250.0
 21
1709.999999999998
 31
0.0
  0
LINE
  5
BE93
330
BE8F
100
AcDbEntity
  8
08非表示
 62
     0
370
    -2
100
AcDbLine
 10
2720.0
 20
1614.999999999998
 30
0.0
 11
2720.0
 21
1709.999999999998
 31
0.0
  0
LINE
  5
BE94
330
BE8F
100
AcDbEntity
  8
08非表示
 62
     0
370
    -2
100
AcDbLine
 10
2280.0
 20
1699.999999999998
 30
0.0
 11
2690.0
 21
1699.999999999998
 31
0.0
  0
INSERT
  5
BE95
330
BE8F
100
AcDbEntity
  8
08非表示
 62
     0
370
    -2
100
AcDbBlockReference
  2
_Open
 10
2250.0
 20
1699.999999999998
 30
0.0
 41
30.0
 42
30.0
 43
30.0
 50
180.0
  0
INSERT
  5
BE96
330
BE8F
100
AcDbEntity
  8
08非表示
 62
     0
370
    -2
100
AcDbBlockReference
  2
_Open
 10
2720.0
 20
1699.999999999998
 30
0.0
 41
30.0
 42
30.0
 43
30.0
  0
MTEXT
  5
BE97
330
BE8F
100
AcDbEntity
  8
08非表示
 62
     0
100
AcDbMText
 10
2485.0
 20
1724.999999999998
 30
0.0
 40
30.0
 41
0.0
 71
     5
 72
     1
  1
470
 73
     1
 44
1.0
  0
POINT
  5
BE98
330
BE8F
100
AcDbEntity
  8
Defpoints
 62
     0
100
AcDbPoint
 10
2250.0
 20
1599.999999999998
 30
0.0
  0
POINT
  5
BE99
330
BE8F
100
AcDbEntity
  8
Defpoints
 62
     0
100
AcDbPoint
 10
2720.0
 20
1599.999999999998
 30
0.0
  0
POINT
  5
BE9A
330
BE8F
100
AcDbEntity
  8
Defpoints
 62
     0
100
AcDbPoint
 10
2720.0
 20
1699.999999999998
 30
0.0
  0
ENDBLK
  5
BE91
330
BE8F
100
AcDbEntity
  8
0
100
AcDbBlockEnd
  0
BLOCK
  5
BE9C
330
BE9B
100
AcDbEntity
  8
0
100
AcDbBlockBegin
  2
*D542
 70
     1
 10
0.0
 20
0.0
 30
0.0
  3
*D542
  1

  0
LINE
  5
BE9E
330
BE9B
100
AcDbEntity
  8
13製作用注記
 62
     0
370
    -2
100
AcDbLine
 10
926.7999999999993
 20
1346.499999999998
 30
0.0
 11
926.7999999999993
 21
1399.03712822468
 31
0.0
  0
LINE
  5
BE9F
330
BE9B
100
AcDbEntity
  8
13製作用注記
 62
     0
370
    -2
100
AcDbLine
 10
896.7999999999993
 20
1346.499999999998
 30
0.0
 11
896.7999999999993
 21
1399.03712822468
 31
0.0
  0
LINE
  5
BEA0
330
BE9B
100
AcDbEntity
  8
13製作用注記
 62
     0
370
    -2
100
AcDbLine
 10
866.7999999999993
 20
1389.03712822468
 30
0.0
 11
781.0099999999993
 21
1389.03712822468
 31
0.0
  0
LINE
  5
BEA1
330
BE9B
100
AcDbEntity
  8
13製作用注記
 62
     0
370
    -2
100
AcDbLine
 10
926.7999999999993
 20
1389.03712822468
 30
0.0
 11
896.7999999999993
 21
1389.03712822468
 31
0.0
  0
LINE
  5
BEA2
330
BE9B
100
AcDbEntity
  8
13製作用注記
 62
     0
370
    -2
100
AcDbLine
 10
956.7999999999993
 20
1389.03712822468
 30
0.0
 11
986.7999999999993
 21
1389.03712822468
 31
0.0
  0
INSERT
  5
BEA3
330
BE9B
100
AcDbEntity
  8
13製作用注記
 62
     0
370
    -2
100
AcDbBlockReference
  2
_Open
 10
926.7999999999993
 20
1389.03712822468
 30
0.0
 41
30.0
 42
30.0
 43
30.0
 50
180.0
  0
INSERT
  5
BEA4
330
BE9B
100
AcDbEntity
  8
13製作用注記
 62
     0
370
    -2
100
AcDbBlockReference
  2
_Open
 10
896.7999999999993
 20
1389.03712822468
 30
0.0
 41
30.0
 42
30.0
 43
30.0
  0
MTEXT
  5
BEA5
330
BE9B
100
AcDbEntity
  8
13製作用注記
 62
     0
100
AcDbMText
 10
808.9049999999993
 20
1414.03712822468
 30
0.0
 40
30.0
 41
0.0
 71
     5
 72
     1
  1
30
 73
     1
 44
1.0
  0
POINT
  5
BEA6
330
BE9B
100
AcDbEntity
  8
Defpoints
 62
     0
100
AcDbPoint
 10
926.7999999999993
 20
1331.499999999998
 30
0.0
  0
POINT
  5
BEA7
330
BE9B
100
AcDbEntity
  8
Defpoints
 62
     0
100
AcDbPoint
 10
896.7999999999993
 20
1331.499999999998
 30
0.0
  0
POINT
  5
BEA8
330
BE9B
100
AcDbEntity
  8
Defpoints
 62
     0
100
AcDbPoint
 10
896.7999999999993
 20
1389.03712822468
 30
0.0
  0
ENDBLK
  5
BE9D
330
BE9B
100
AcDbEntity
  8
0
100
AcDbBlockEnd
  0
BLOCK
  5
BEAA
330
BEA9
100
AcDbEntity
  8
0
100
AcDbBlockBegin
  2
*D543
 70
     1
 10
0.0
 20
0.0
 30
0.0
  3
*D543
  1

  0
LINE
  5
BEAC
330
BEA9
100
AcDbEntity
  8
13製作用注記
 62
     0
370
    -2
100
AcDbLine
 10
881.7999999999993
 20
1099.999999999998
 30
0.0
 11
786.7999999999993
 21
1099.999999999998
 31
0.0
  0
LINE
  5
BEAD
330
BEA9
100
AcDbEntity
  8
13製作用注記
 62
     0
370
    -2
100
AcDbLine
 10
895.2999999999993
 20
1314.999999999998
 30
0.0
 11
786.7999999999993
 21
1314.999999999998
 31
0.0
  0
LINE
  5
BEAE
330
BEA9
100
AcDbEntity
  8
13製作用注記
 62
     0
370
    -2
100
AcDbLine
 10
796.7999999999993
 20
1129.999999999998
 30
0.0
 11
796.7999999999993
 21
1284.999999999998
 31
0.0
  0
INSERT
  5
BEAF
330
BEA9
100
AcDbEntity
  8
13製作用注記
 62
     0
370
    -2
100
AcDbBlockReference
  2
_Open
 10
796.7999999999993
 20
1099.999999999998
 30
0.0
 41
30.0
 42
30.0
 43
30.0
 50
270.0
  0
INSERT
  5
BEB0
330
BEA9
100
AcDbEntity
  8
13製作用注記
 62
     0
370
    -2
100
AcDbBlockReference
  2
_Open
 10
796.7999999999993
 20
1314.999999999998
 30
0.0
 41
30.0
 42
30.0
 43
30.0
 50
90.0
  0
MTEXT
  5
BEB1
330
BEA9
100
AcDbEntity
  8
13製作用注記
 62
     0
100
AcDbMText
 10
771.7999999999993
 20
1207.499999999998
 30
0.0
 40
30.0
 41
0.0
 71
     5
 72
     1
  1
215
 11
0.0
 21
1.0
 31
0.0
 73
     1
 44
1.0
  0
POINT
  5
BEB2
330
BEA9
100
AcDbEntity
  8
Defpoints
 62
     0
100
AcDbPoint
 10
896.7999999999993
 20
1099.999999999998
 30
0.0
  0
POINT
  5
BEB3
330
BEA9
100
AcDbEntity
  8
Defpoints
 62
     0
100
AcDbPoint
 10
910.2999999999993
 20
1314.999999999998
 30
0.0
  0
POINT
  5
BEB4
330
BEA9
100
AcDbEntity
  8
Defpoints
 62
     0
100
AcDbPoint
 10
796.7999999999993
 20
1314.999999999998
 30
0.0
  0
ENDBLK
  5
BEAB
330
BEA9
100
AcDbEntity
  8
0
100
AcDbBlockEnd
  0
BLOCK
  5
BEB6
330
BEB5
100
AcDbEntity
  8
0
100
AcDbBlockBegin
  2
*D544
 70
     1
 10
0.0
 20
0.0
 30
0.0
  3
*D544
  1

  0
LINE
  5
BEB8
330
BEB5
100
AcDbEntity
  8
01注記寸法
 62
     0
370
    -2
100
AcDbLine
 10
881.7999999999993
 20
1099.999999999998
 30
0.0
 11
690.0
 21
1099.999999999998
 31
0.0
  0
LINE
  5
BEB9
330
BEB5
100
AcDbEntity
  8
01注記寸法
 62
     0
370
    -2
100
AcDbLine
 10
885.0
 20
1599.999999999998
 30
0.0
 11
690.0
 21
1599.999999999998
 31
0.0
  0
LINE
  5
BEBA
330
BEB5
100
AcDbEntity
  8
01注記寸法
 62
     0
370
    -2
100
AcDbLine
 10
700.0
 20
1129.999999999998
 30
0.0
 11
700.0
 21
1569.999999999998
 31
0.0
  0
INSERT
  5
BEBB
330
BEB5
100
AcDbEntity
  8
01注記寸法
 62
     0
370
    -2
100
AcDbBlockReference
  2
_Open
 10
700.0
 20
1099.999999999998
 30
0.0
 41
30.0
 42
30.0
 43
30.0
 50
270.0
  0
INSERT
  5
BEBC
330
BEB5
100
AcDbEntity
  8
01注記寸法
 62
     0
370
    -2
100
AcDbBlockReference
  2
_Open
 10
700.0
 20
1599.999999999998
 30
0.0
 41
30.0
 42
30.0
 43
30.0
 50
90.0
  0
MTEXT
  5
BEBD
330
BEB5
100
AcDbEntity
  8
01注記寸法
 62
     0
100
AcDbMText
 10
675.0
 20
1349.999999999998
 30
0.0
 40
30.0
 41
0.0
 71
     5
 72
     1
  1
500
 11
0.0
 21
1.0
 31
0.0
 73
     1
 44
1.0
  0
POINT
  5
BEBE
330
BEB5
100
AcDbEntity
  8
Defpoints
 62
     0
100
AcDbPoint
 10
896.7999999999993
 20
1099.999999999998
 30
0.0
  0
POINT
  5
BEBF
330
BEB5
100
AcDbEntity
  8
Defpoints
 62
     0
100
AcDbPoint
 10
900.0
 20
1599.999999999998
 30
0.0
  0
POINT
  5
BEC0
330
BEB5
100
AcDbEntity
  8
Defpoints
 62
     0
100
AcDbPoint
 10
700.0
 20
1599.999999999998
 30
0.0
  0
ENDBLK
  5
BEB7
330
BEB5
100
AcDbEntity
  8
0
100
AcDbBlockEnd
  0
BLOCK
  5
BEC2
330
BEC1
100
AcDbEntity
  8
0
100
AcDbBlockBegin
  2
*D545
 70
     1
 10
0.0
 20
0.0
 30
0.0
  3
*D545
  1

  0
LINE
  5
BEC4
330
BEC1
100
AcDbEntity
  8
13製作用注記
 62
     0
370
    -2
100
AcDbLine
 10
1270.5
 20
1564.999999999998
 30
0.0
 11
1289.341452661847
 21
1564.999999999998
 31
0.0
  0
LINE
  5
BEC5
330
BEC1
100
AcDbEntity
  8
13製作用注記
 62
     0
370
    -2
100
AcDbLine
 10
1270.5
 20
1599.999999999998
 30
0.0
 11
1289.341452661847
 21
1599.999999999998
 31
0.0
  0
LINE
  5
BEC6
330
BEC1
100
AcDbEntity
  8
13製作用注記
 62
     0
370
    -2
100
AcDbLine
 10
1279.341452661847
 20
1564.999999999998
 30
0.0
 11
1279.341452661847
 21
1449.989999999998
 31
0.0
  0
LINE
  5
BEC7
330
BEC1
100
AcDbEntity
  8
13製作用注記
 62
     0
370
    -2
100
AcDbLine
 10
1279.341452661847
 20
1564.999999999998
 30
0.0
 11
1279.341452661847
 21
1599.999999999998
 31
0.0
  0
LINE
  5
BEC8
330
BEC1
100
AcDbEntity
  8
13製作用注記
 62
     0
370
    -2
100
AcDbLine
 10
1279.341452661847
 20
1534.999999999998
 30
0.0
 11
1279.341452661847
 21
1504.999999999998
 31
0.0
  0
LINE
  5
BEC9
330
BEC1
100
AcDbEntity
  8
13製作用注記
 62
     0
370
    -2
100
AcDbLine
 10
1279.341452661847
 20
1629.999999999998
 30
0.0
 11
1279.341452661847
 21
1659.999999999998
 31
0.0
  0
INSERT
  5
BECA
330
BEC1
100
AcDbEntity
  8
13製作用注記
 62
     0
370
    -2
100
AcDbBlockReference
  2
_Open
 10
1279.341452661847
 20
1564.999999999998
 30
0.0
 41
30.0
 42
30.0
 43
30.0
 50
90.0
  0
INSERT
  5
BECB
330
BEC1
100
AcDbEntity
  8
13製作用注記
 62
     0
370
    -2
100
AcDbBlockReference
  2
_Open
 10
1279.341452661847
 20
1599.999999999998
 30
0.0
 41
30.0
 42
30.0
 43
30.0
 50
270.0
  0
MTEXT
  5
BECC
330
BEC1
100
AcDbEntity
  8
13製作用注記
 62
     0
100
AcDbMText
 10
1254.341452661847
 20
1477.494999999998
 30
0.0
 40
30.0
 41
0.0
 71
     5
 72
     1
  1
35
 11
0.0
 21
1.0
 31
0.0
 73
     1
 44
1.0
  0
POINT
  5
BECD
330
BEC1
100
AcDbEntity
  8
Defpoints
 62
     0
100
AcDbPoint
 10
1255.5
 20
1564.999999999998
 30
0.0
  0
POINT
  5
BECE
330
BEC1
100
AcDbEntity
  8
Defpoints
 62
     0
100
AcDbPoint
 10
1255.5
 20
1599.999999999998
 30
0.0
  0
POINT
  5
BECF
330
BEC1
100
AcDbEntity
  8
Defpoints
 62
     0
100
AcDbPoint
 10
1279.341452661847
 20
1599.999999999998
 30
0.0
  0
ENDBLK
  5
BEC3
330
BEC1
100
AcDbEntity
  8
0
100
AcDbBlockEnd
  0
BLOCK
  5
BEE0
330
BEDF
100
AcDbEntity
  8
0
100
AcDbBlockBegin
  2
*D547
 70
     1
 10
0.0
 20
0.0
 30
0.0
  3
*D547
  1

  0
LINE
  5
BEE2
330
BEDF
100
AcDbEntity
  8
13製作用注記
 62
     0
370
    -2
100
AcDbLine
 10
900.0
 20
1614.999999999998
 30
0.0
 11
900.0
 21
1644.590488668675
 31
0.0
  0
LINE
  5
BEE3
330
BEDF
100
AcDbEntity
  8
13製作用注記
 62
     0
370
    -2
100
AcDbLine
 10
1239.0
 20
1596.499999999998
 30
0.0
 11
1239.0
 21
1644.590488668675
 31
0.0
  0
LINE
  5
BEE4
330
BEDF
100
AcDbEntity
  8
13製作用注記
 62
     0
370
    -2
100
AcDbLine
 10
930.0
 20
1634.590488668675
 30
0.0
 11
1209.0
 21
1634.590488668675
 31
0.0
  0
INSERT
  5
BEE5
330
BEDF
100
AcDbEntity
  8
13製作用注記
 62
     0
370
    -2
100
AcDbBlockReference
  2
_Open
 10
900.0
 20
1634.590488668675
 30
0.0
 41
30.0
 42
30.0
 43
30.0
 50
180.0
  0
INSERT
  5
BEE6
330
BEDF
100
AcDbEntity
  8
13製作用注記
 62
     0
370
    -2
100
AcDbBlockReference
  2
_Open
 10
1239.0
 20
1634.590488668675
 30
0.0
 41
30.0
 42
30.0
 43
30.0
  0
MTEXT
  5
BEE7
330
BEDF
100
AcDbEntity
  8
13製作用注記
 62
     0
100
AcDbMText
 10
1069.5
 20
1659.590488668675
 30
0.0
 40
30.0
 41
0.0
 71
     5
 72
     1
  1
339
 73
     1
 44
1.0
  0
POINT
  5
BEE8
330
BEDF
100
AcDbEntity
  8
Defpoints
 62
     0
100
AcDbPoint
 10
900.0
 20
1599.999999999998
 30
0.0
  0
POINT
  5
BEE9
330
BEDF
100
AcDbEntity
  8
Defpoints
 62
     0
100
AcDbPoint
 10
1239.0
 20
1581.499999999998
 30
0.0
  0
POINT
  5
BEEA
330
BEDF
100
AcDbEntity
  8
Defpoints
 62
     0
100
AcDbPoint
 10
1239.0
 20
1634.590488668675
 30
0.0
  0
ENDBLK
  5
BEE1
330
BEDF
100
AcDbEntity
  8
0
100
AcDbBlockEnd
  0
BLOCK
  5
BEEC
330
BEEB
100
AcDbEntity
  8
0
100
AcDbBlockBegin
  2
*D548
 70
     1
 10
0.0
 20
0.0
 30
0.0
  3
*D548
  1

  0
LINE
  5
BEEE
330
BEEB
100
AcDbEntity
  8
13製作用注記
 62
     0
370
    -2
100
AcDbLine
 10
1239.0
 20
1596.499999999998
 30
0.0
 11
1239.0
 21
1644.590488668675
 31
0.0
  0
LINE
  5
BEEF
330
BEEB
100
AcDbEntity
  8
13製作用注記
 62
     0
370
    -2
100
AcDbLine
 10
1511.0
 20
1596.499999999998
 30
0.0
 11
1511.0
 21
1644.590488668675
 31
0.0
  0
LINE
  5
BEF0
330
BEEB
100
AcDbEntity
  8
13製作用注記
 62
     0
370
    -2
100
AcDbLine
 10
1269.0
 20
1634.590488668675
 30
0.0
 11
1481.0
 21
1634.590488668675
 31
0.0
  0
INSERT
  5
BEF1
330
BEEB
100
AcDbEntity
  8
13製作用注記
 62
     0
370
    -2
100
AcDbBlockReference
  2
_Open
 10
1239.0
 20
1634.590488668675
 30
0.0
 41
30.0
 42
30.0
 43
30.0
 50
180.0
  0
INSERT
  5
BEF2
330
BEEB
100
AcDbEntity
  8
13製作用注記
 62
     0
370
    -2
100
AcDbBlockReference
  2
_Open
 10
1511.0
 20
1634.590488668675
 30
0.0
 41
30.0
 42
30.0
 43
30.0
  0
MTEXT
  5
BEF3
330
BEEB
100
AcDbEntity
  8
13製作用注記
 62
     0
100
AcDbMText
 10
1375.0
 20
1659.590488668675
 30
0.0
 40
30.0
 41
0.0
 71
     5
 72
     1
  1
272
 73
     1
 44
1.0
  0
POINT
  5
BEF4
330
BEEB
100
AcDbEntity
  8
Defpoints
 62
     0
100
AcDbPoint
 10
1239.0
 20
1581.499999999998
 30
0.0
  0
POINT
  5
BEF5
330
BEEB
100
AcDbEntity
  8
Defpoints
 62
     0
100
AcDbPoint
 10
1511.0
 20
1581.499999999998
 30
0.0
  0
POINT
  5
BEF6
330
BEEB
100
AcDbEntity
  8
Defpoints
 62
     0
100
AcDbPoint
 10
1511.0
 20
1634.590488668675
 30
0.0
  0
ENDBLK
  5
BEED
330
BEEB
100
AcDbEntity
  8
0
100
AcDbBlockEnd
  0
BLOCK
  5
BF10
330
BF0F
100
AcDbEntity
  8
0
100
AcDbBlockBegin
  2
*D551
 70
     1
 10
0.0
 20
0.0
 30
0.0
  3
*D551
  1

  0
LINE
  5
BF12
330
BF0F
100
AcDbEntity
  8
13製作用注記
 62
     0
370
    -2
100
AcDbLine
 10
1511.0
 20
1596.499999999998
 30
0.0
 11
1511.0
 21
1644.590488668675
 31
0.0
  0
LINE
  5
BF13
330
BF0F
100
AcDbEntity
  8
13製作用注記
 62
     0
370
    -2
100
AcDbLine
 10
1850.0
 20
1614.999999999998
 30
0.0
 11
1850.0
 21
1644.590488668675
 31
0.0
  0
LINE
  5
BF14
330
BF0F
100
AcDbEntity
  8
13製作用注記
 62
     0
370
    -2
100
AcDbLine
 10
1541.0
 20
1634.590488668675
 30
0.0
 11
1820.0
 21
1634.590488668675
 31
0.0
  0
INSERT
  5
BF15
330
BF0F
100
AcDbEntity
  8
13製作用注記
 62
     0
370
    -2
100
AcDbBlockReference
  2
_Open
 10
1511.0
 20
1634.590488668675
 30
0.0
 41
30.0
 42
30.0
 43
30.0
 50
180.0
  0
INSERT
  5
BF16
330
BF0F
100
AcDbEntity
  8
13製作用注記
 62
     0
370
    -2
100
AcDbBlockReference
  2
_Open
 10
1850.0
 20
1634.590488668675
 30
0.0
 41
30.0
 42
30.0
 43
30.0
  0
MTEXT
  5
BF17
330
BF0F
100
AcDbEntity
  8
13製作用注記
 62
     0
100
AcDbMText
 10
1680.5
 20
1659.590488668675
 30
0.0
 40
30.0
 41
0.0
 71
     5
 72
     1
  1
339
 73
     1
 44
1.0
  0
POINT
  5
BF18
330
BF0F
100
AcDbEntity
  8
Defpoints
 62
     0
100
AcDbPoint
 10
1511.0
 20
1581.499999999998
 30
0.0
  0
POINT
  5
BF19
330
BF0F
100
AcDbEntity
  8
Defpoints
 62
     0
100
AcDbPoint
 10
1850.0
 20
1599.999999999998
 30
0.0
  0
POINT
  5
BF1A
330
BF0F
100
AcDbEntity
  8
Defpoints
 62
     0
100
AcDbPoint
 10
1850.0
 20
1634.590488668675
 30
0.0
  0
ENDBLK
  5
BF11
330
BF0F
100
AcDbEntity
  8
0
100
AcDbBlockEnd
  0
BLOCK
  5
BF1C
330
BF1B
100
AcDbEntity
  8
0
100
AcDbBlockBegin
  2
*D552
 70
     1
 10
0.0
 20
0.0
 30
0.0
  3
*D552
  1

  0
LINE
  5
BF1E
330
BF1B
100
AcDbEntity
  8
01注記寸法
 62
     0
370
    -2
100
AcDbLine
 10
2230.299999999999
 20
1100.0
 30
0.0
 11
2138.5
 21
1100.0
 31
0.0
  0
LINE
  5
BF1F
330
BF1B
100
AcDbEntity
  8
01注記寸法
 62
     0
370
    -2
100
AcDbLine
 10
2241.000000000002
 20
1349.999999999998
 30
0.0
 11
2138.5
 21
1349.999999999998
 31
0.0
  0
LINE
  5
BF20
330
BF1B
100
AcDbEntity
  8
01注記寸法
 62
     0
370
    -2
100
AcDbLine
 10
2148.5
 20
1130.0
 30
0.0
 11
2148.5
 21
1319.999999999998
 31
0.0
  0
INSERT
  5
BF21
330
BF1B
100
AcDbEntity
  8
01注記寸法
 62
     0
370
    -2
100
AcDbBlockReference
  2
_Open
 10
2148.5
 20
1100.0
 30
0.0
 41
30.0
 42
30.0
 43
30.0
 50
270.0
  0
INSERT
  5
BF22
330
BF1B
100
AcDbEntity
  8
01注記寸法
 62
     0
370
    -2
100
AcDbBlockReference
  2
_Open
 10
2148.5
 20
1349.999999999998
 30
0.0
 41
30.0
 42
30.0
 43
30.0
 50
90.0
  0
MTEXT
  5
BF23
330
BF1B
100
AcDbEntity
  8
01注記寸法
 62
     0
100
AcDbMText
 10
2123.5
 20
1224.999999999999
 30
0.0
 40
30.0
 41
0.0
 71
     5
 72
     1
  1
250
 11
0.0
 21
1.0
 31
0.0
 73
     1
 44
1.0
  0
POINT
  5
BF24
330
BF1B
100
AcDbEntity
  8
Defpoints
 62
     0
100
AcDbPoint
 10
2245.299999999999
 20
1100.0
 30
0.0
  0
POINT
  5
BF25
330
BF1B
100
AcDbEntity
  8
Defpoints
 62
     0
100
AcDbPoint
 10
2256.000000000002
 20
1349.999999999998
 30
0.0
  0
POINT
  5
BF26
330
BF1B
100
AcDbEntity
  8
Defpoints
 62
     0
100
AcDbPoint
 10
2148.5
 20
1349.999999999998
 30
0.0
  0
ENDBLK
  5
BF1D
330
BF1B
100
AcDbEntity
  8
0
100
AcDbBlockEnd
  0
BLOCK
  5
C042
330
C041
100
AcDbEntity
  8
0
100
AcDbBlockBegin
  2
_DotSmall
 70
     0
 10
0.0
 20
0.0
 30
0.0
  3
_DotSmall
  1

  0
LWPOLYLINE
  5
C044
330
C041
100
AcDbEntity
  8
0
  6
ByBlock
 62
     0
100
AcDbPolyline
 90
        2
 70
     1
 43
0.5
 10
-0.0625
 20
0.0
 42
1.0
 10
0.0625
 20
0.0
 42
1.0
  0
ENDBLK
  5
C043
330
C041
100
AcDbEntity
  8
0
100
AcDbBlockEnd
  0
BLOCK
  5
D6F2
330
D6F1
100
AcDbEntity
  8
0
100
AcDbBlockBegin
  2
*D825
 70
     1
 10
0.0
 20
0.0
 30
0.0
  3
*D825
  1

  0
LINE
  5
D6F4
330
D6F1
100
AcDbEntity
  8
01注記寸法
 62
     0
370
    -2
100
AcDbLine
 10
2998.945876303434
 20
289.1336530409826
 30
0.0
 11
2918.353113124998
 21
289.1336530409826
 31
0.0
  0
LINE
  5
D6F5
330
D6F1
100
AcDbEntity
  8
01注記寸法
 62
     0
370
    -2
100
AcDbLine
 10
2998.945876303434
 20
199.1336530409799
 30
0.0
 11
2918.353113124998
 21
199.1336530409799
 31
0.0
  0
LINE
  5
D6F6
330
D6F1
100
AcDbEntity
  8
01注記寸法
 62
     0
370
    -2
100
AcDbLine
 10
2928.353113124998
 20
289.1336530409826
 30
0.0
 11
2928.353113124998
 21
492.5236530409834
 31
0.0
  0
LINE
  5
D6F7
330
D6F1
100
AcDbEntity
  8
01注記寸法
 62
     0
370
    -2
100
AcDbLine
 10
2928.353113124998
 20
259.1336530409826
 30
0.0
 11
2928.353113124998
 21
229.1336530409799
 31
0.0
  0
INSERT
  5
D6F8
330
D6F1
100
AcDbEntity
  8
01注記寸法
 62
     0
370
    -2
100
AcDbBlockReference
  2
_Open
 10
2928.353113124998
 20
289.1336530409826
 30
0.0
 41
30.0
 42
30.0
 43
30.0
 50
90.0
  0
INSERT
  5
D6F9
330
D6F1
100
AcDbEntity
  8
01注記寸法
 62
     0
370
    -2
100
AcDbBlockReference
  2
_Open
 10
2928.353113124998
 20
199.1336530409799
 30
0.0
 41
30.0
 42
30.0
 43
30.0
 50
270.0
  0
MTEXT
  5
D6FA
330
D6F1
100
AcDbEntity
  8
01注記寸法
 62
     0
100
AcDbMText
 10
2903.353113124998
 20
405.8286530409832
 30
0.0
 40
30.0
 41
0.0
 71
     5
 72
     1
  1
MAX 30mm
 11
0.0
 21
1.0
 31
0.0
 73
     1
 44
1.0
  0
POINT
  5
D6FB
330
D6F1
100
AcDbEntity
  8
Defpoints
 62
     0
100
AcDbPoint
 10
3013.945876303434
 20
289.1336530409826
 30
0.0
  0
POINT
  5
D6FC
330
D6F1
100
AcDbEntity
  8
Defpoints
 62
     0
100
AcDbPoint
 10
3013.945876303434
 20
199.1336530409799
 30
0.0
  0
POINT
  5
D6FD
330
D6F1
100
AcDbEntity
  8
Defpoints
 62
     0
100
AcDbPoint
 10
2928.353113124998
 20
199.1336530409799
 30
0.0
  0
ENDBLK
  5
D6F3
330
D6F1
100
AcDbEntity
  8
0
100
AcDbBlockEnd
  0
BLOCK
  5
F6A9
330
F690
100
AcDbEntity
  8
0
100
AcDbBlockBegin
  2
BH-組立ボルトセット
 70
     0
 10
0.0
 20
0.0
 30
0.0
  3
BH-組立ボルトセット
  1

  0
LINE
  5
F691
330
F690
100
AcDbEntity
  8
10副資材
100
AcDbLine
 10
-15.0
 20
9.237604307034417
 30
0.0
 11
-8.0
 21
9.237604307034417
 31
0.0
  0
LINE
  5
F692
330
F690
100
AcDbEntity
  8
10副資材
100
AcDbLine
 10
-8.0
 20
9.237604307034417
 30
0.0
 11
-8.0
 21
-9.237604307034417
 31
0.0
  0
LINE
  5
F693
330
F690
100
AcDbEntity
  8
10副資材
100
AcDbLine
 10
-15.0
 20
-9.237604307034417
 30
0.0
 11
-8.0
 21
-9.237604307034417
 31
0.0
  0
LINE
  5
F694
330
F690
100
AcDbEntity
  8
10副資材
100
AcDbLine
 10
-16.0
 20
6.928203230274448
 30
0.0
 11
-16.0
 21
-6.928203230274448
 31
0.0
  0
LINE
  5
F695
330
F690
100
AcDbEntity
  8
10副資材
100
AcDbLine
 10
-15.0
 20
4.618802153516299
 30
0.0
 11
-8.0
 21
4.618802153516299
 31
0.0
  0
LINE
  5
F696
330
F690
100
AcDbEntity
  8
10副資材
100
AcDbLine
 10
-15.0
 20
-4.618802153516299
 30
0.0
 11
-8.0
 21
-4.618802153516299
 31
0.0
  0
ARC
  5
F697
330
F690
100
AcDbEntity
  8
10副資材
100
AcDbCircle
 10
-4.833333333332121
 20
0.0
 30
0.0
 40
11.16666666666642
100
AcDbArc
 50
155.5673023205475
 51
204.4326976794525
  0
ARC
  5
F698
330
F690
100
AcDbEntity
  8
10副資材
100
AcDbCircle
 10
-12.83333333333212
 20
6.928203230274448
 30
0.0
 40
3.166666666666948
100
AcDbArc
 50
133.173551107244
 51
226.8264488927094
  0
ARC
  5
F699
330
F690
100
AcDbEntity
  8
10副資材
100
AcDbCircle
 10
-12.83333333333212
 20
-6.928203230274448
 30
0.0
 40
3.166666666666948
100
AcDbArc
 50
133.1735511072906
 51
226.826448892756
  0
LWPOLYLINE
  5
F69A
330
F690
100
AcDbEntity
  8
10副資材
100
AcDbPolyline
 90
        4
 70
     1
 43
0.0
 10
-8.0
 20
-14.0
 10
-8.0
 20
14.0
 10
-6.399999999999636
 20
14.0
 10
-6.399999999999636
 20
-14.0
  0
LINE
  5
F69B
330
F690
100
AcDbEntity
  8
10副資材
100
AcDbLine
 10
7.000000000001819
 20
9.237604307034417
 30
0.0
 11
1.600000000000364
 21
9.237604307034417
 31
0.0
  0
LINE
  5
F69C
330
F690
100
AcDbEntity
  8
10副資材
100
AcDbLine
 10
1.600000000000364
 20
9.237604307034417
 30
0.0
 11
1.600000000000364
 21
-9.237604307034417
 31
0.0
  0
LINE
  5
F69D
330
F690
100
AcDbEntity
  8
10副資材
100
AcDbLine
 10
7.000000000001819
 20
-9.237604307034417
 30
0.0
 11
1.600000000000364
 21
-9.237604307034417
 31
0.0
  0
LINE
  5
F69E
330
F690
100
AcDbEntity
  8
10副資材
100
AcDbLine
 10
8.000000000001819
 20
6.928203230274448
 30
0.0
 11
8.000000000001819
 21
-6.928203230274448
 31
0.0
  0
LINE
  5
F69F
330
F690
100
AcDbEntity
  8
10副資材
100
AcDbLine
 10
7.000000000001819
 20
4.618802153516299
 30
0.0
 11
1.600000000000364
 21
4.618802153516299
 31
0.0
  0
LINE
  5
F6A0
330
F690
100
AcDbEntity
  8
10副資材
100
AcDbLine
 10
7.000000000001819
 20
-4.618802153516299
 30
0.0
 11
1.600000000000364
 21
-4.618802153516299
 31
0.0
  0
ARC
  5
F6A1
330
F690
100
AcDbEntity
  8
10副資材
100
AcDbCircle
 10
-3.16666666666606
 20
0.0
 30
0.0
 40
11.16666666666642
100
AcDbArc
 50
335.5673023205475
 51
24.43269767945252
  0
ARC
  5
F6A2
330
F690
100
AcDbEntity
  8
10副資材
100
AcDbCircle
 10
4.83333333333394
 20
6.928203230274448
 30
0.0
 40
3.166666666666948
100
AcDbArc
 50
313.1735511072793
 51
46.82644889276722
  0
ARC
  5
F6A3
330
F690
100
AcDbEntity
  8
10副資材
100
AcDbCircle
 10
4.83333333333394
 20
-6.928203230274448
 30
0.0
 40
3.166666666666948
100
AcDbArc
 50
313.1735511072328
 51
46.8264488927207
  0
LWPOLYLINE
  5
F6A4
330
F690
100
AcDbEntity
  8
10副資材
100
AcDbPolyline
 90
        4
 70
     1
 43
0.0
 10
0.0
 20
-14.0
 10
0.0
 20
14.0
 10
1.600000000000364
 20
14.0
 10
1.600000000000364
 20
-14.0
  0
LWPOLYLINE
  5
F6A5
330
F690
100
AcDbEntity
  8
10副資材
100
AcDbPolyline
 90
        6
 70
     1
 43
0.0
 10
-25.0
 20
-4.0
 10
-25.0
 20
4.0
 10
-24.0
 20
5.0
 10
0.0
 20
5.0
 10
0.0
 20
-5.0
 10
-24.0
 20
-5.0
  0
LINE
  5
F6A6
330
F690
100
AcDbEntity
  8
10副資材
100
AcDbLine
 10
-24.0
 20
5.0
 30
0.0
 11
-24.0
 21
-5.0
 31
0.0
  0
LINE
  5
F6A7
330
F690
100
AcDbEntity
  8
10副資材
100
AcDbLine
 10
-25.0
 20
4.0
 30
0.0
 11
0.0
 21
4.0
 31
0.0
  0
LINE
  5
F6A8
330
F690
100
AcDbEntity
  8
10副資材
100
AcDbLine
 10
-25.0
 20
-4.0
 30
0.0
 11
0.0
 21
-4.0
 31
0.0
  0
ENDBLK
  5
F6AA
330
F690
100
AcDbEntity
  8
0
100
AcDbBlockEnd
  0
BLOCK
  5
F6DB
330
F6DA
100
AcDbEntity
  8
0
100
AcDbBlockBegin
  2
BH-筋交(柱L60)-500H-平面
 70
     0
 10
0.0
 20
0.0
 30
0.0
  3
BH-筋交(柱L60)-500H-平面
  1

  0
LWPOLYLINE
  5
F6DD
330
F6DA
100
AcDbEntity
  8
08非表示
100
AcDbPolyline
 90
        4
 70
     1
 43
0.0
 10
-351.8422019590198
 20
0.0
 10
-351.8422019590198
 20
15.0
 10
-0.5679949675813987
 20
15.0
 10
-0.5679949675813987
 20
0.0
  0
LINE
  5
F6DE
330
F6DA
100
AcDbEntity
  8
08非表示
100
AcDbLine
 10
-0.5679949675813987
 20
3.199999999999818
 30
0.0
 11
-351.8422019590198
 21
3.199999999999818
 31
0.0
  0
ENDBLK
  5
F6DC
330
F6DA
100
AcDbEntity
  8
0
100
AcDbBlockEnd
  0
BLOCK
  5
F993
330
F988
100
AcDbEntity
  8
0
100
AcDbBlockBegin
  2
1-HTA187_188_189_190
 70
     0
 10
0.0
 20
0.0
 30
0.0
  3
1-HTA187_188_189_190
  1

  0
LWPOLYLINE
  5
F989
330
F988
100
AcDbEntity
  8
12防振架台
100
AcDbPolyline
 90
        4
 70
     1
 43
0.0
 10
0.0
 20
0.0
 10
0.0
 20
470.0
 10
950.0
 20
470.0
 10
950.0
 20
0.0
  0
LWPOLYLINE
  5
F98A
330
F988
100
AcDbEntity
  8
12防振架台
100
AcDbPolyline
 90
        4
 70
     1
 43
0.0
 10
60.0
 20
60.0
 10
60.0
 20
410.0
 10
890.0
 20
410.0
 10
890.0
 20
60.0
  0
CIRCLE
  5
F98B
330
F988
100
AcDbEntity
  8
12防振架台
100
AcDbCircle
 10
100.0
 20
30.0
 30
0.0
 40
7.0
  0
CIRCLE
  5
F98C
330
F988
100
AcDbEntity
  8
12防振架台
100
AcDbCircle
 10
175.0
 20
30.0
 30
0.0
 40
7.0
  0
CIRCLE
  5
F98D
330
F988
100
AcDbEntity
  8
12防振架台
100
AcDbCircle
 10
100.0
 20
440.0
 30
0.0
 40
7.0
  0
CIRCLE
  5
F98E
330
F988
100
AcDbEntity
  8
12防振架台
100
AcDbCircle
 10
175.0
 20
440.0
 30
0.0
 40
7.0
  0
CIRCLE
  5
F98F
330
F988
100
AcDbEntity
  8
12防振架台
100
AcDbCircle
 10
850.0
 20
30.0
 30
0.0
 40
7.0
  0
CIRCLE
  5
F990
330
F988
100
AcDbEntity
  8
12防振架台
100
AcDbCircle
 10
775.0
 20
30.0
 30
0.0
 40
7.0
  0
CIRCLE
  5
F991
330
F988
100
AcDbEntity
  8
12防振架台
100
AcDbCircle
 10
850.0
 20
440.0
 30
0.0
 40
7.0
  0
CIRCLE
  5
F992
330
F988
100
AcDbEntity
  8
12防振架台
100
AcDbCircle
 10
775.0
 20
440.0
 30
0.0
 40
7.0
  0
ENDBLK
  5
F994
330
F988
100
AcDbEntity
  8
0
100
AcDbBlockEnd
  0
BLOCK
  5
10104
330
10103
100
AcDbEntity
  8
0
100
AcDbBlockBegin
  2
*D1297
 70
     1
 10
0.0
 20
0.0
 30
0.0
  3
*D1297
  1

  0
LINE
  5
10106
330
10103
100
AcDbEntity
  8
01注記寸法
 62
     0
370
    -2
100
AcDbLine
 10
900.0
 20
1883.499999999999
 30
0.0
 11
900.0
 21
1689.999999999998
 31
0.0
  0
LINE
  5
10107
330
10103
100
AcDbEntity
  8
01注記寸法
 62
     0
370
    -2
100
AcDbLine
 10
1000.0
 20
1894.999999999998
 30
0.0
 11
1000.0
 21
1689.999999999998
 31
0.0
  0
LINE
  5
10108
330
10103
100
AcDbEntity
  8
01注記寸法
 62
     0
370
    -2
100
AcDbLine
 10
930.0
 20
1699.999999999998
 30
0.0
 11
970.0
 21
1699.999999999998
 31
0.0
  0
INSERT
  5
10109
330
10103
100
AcDbEntity
  8
01注記寸法
 62
     0
370
    -2
100
AcDbBlockReference
  2
_Open
 10
900.0
 20
1699.999999999998
 30
0.0
 41
30.0
 42
30.0
 43
30.0
 50
180.0
  0
INSERT
  5
1010A
330
10103
100
AcDbEntity
  8
01注記寸法
 62
     0
370
    -2
100
AcDbBlockReference
  2
_Open
 10
1000.0
 20
1699.999999999998
 30
0.0
 41
30.0
 42
30.0
 43
30.0
  0
MTEXT
  5
1010B
330
10103
100
AcDbEntity
  8
01注記寸法
 62
     0
100
AcDbMText
 10
950.0
 20
1724.999999999998
 30
0.0
 40
30.0
 41
0.0
 71
     5
 72
     1
  1
100
 73
     1
 44
1.0
  0
POINT
  5
1010C
330
10103
100
AcDbEntity
  8
Defpoints
 62
     0
100
AcDbPoint
 10
900.0
 20
1898.499999999999
 30
0.0
  0
POINT
  5
1010D
330
10103
100
AcDbEntity
  8
Defpoints
 62
     0
100
AcDbPoint
 10
1000.0
 20
1909.999999999998
 30
0.0
  0
POINT
  5
1010E
330
10103
100
AcDbEntity
  8
Defpoints
 62
     0
100
AcDbPoint
 10
1000.0
 20
1699.999999999998
 30
0.0
  0
ENDBLK
  5
10105
330
10103
100
AcDbEntity
  8
0
100
AcDbBlockEnd
  0
BLOCK
  5
10110
330
1010F
100
AcDbEntity
  8
0
100
AcDbBlockBegin
  2
*D1298
 70
     1
 10
0.0
 20
0.0
 30
0.0
  3
*D1298
  1

  0
LINE
  5
10112
330
1010F
100
AcDbEntity
  8
01注記寸法
 62
     0
370
    -2
100
AcDbLine
 10
1000.0
 20
1894.999999999998
 30
0.0
 11
1000.0
 21
1689.999999999998
 31
0.0
  0
LINE
  5
10113
330
1010F
100
AcDbEntity
  8
01注記寸法
 62
     0
370
    -2
100
AcDbLine
 10
1750.0
 20
1894.999999999998
 30
0.0
 11
1750.0
 21
1689.999999999998
 31
0.0
  0
LINE
  5
10114
330
1010F
100
AcDbEntity
  8
01注記寸法
 62
     0
370
    -2
100
AcDbLine
 10
1030.0
 20
1699.999999999998
 30
0.0
 11
1720.0
 21
1699.999999999998
 31
0.0
  0
INSERT
  5
10115
330
1010F
100
AcDbEntity
  8
01注記寸法
 62
     0
370
    -2
100
AcDbBlockReference
  2
_Open
 10
1000.0
 20
1699.999999999998
 30
0.0
 41
30.0
 42
30.0
 43
30.0
 50
180.0
  0
INSERT
  5
10116
330
1010F
100
AcDbEntity
  8
01注記寸法
 62
     0
370
    -2
100
AcDbBlockReference
  2
_Open
 10
1750.0
 20
1699.999999999998
 30
0.0
 41
30.0
 42
30.0
 43
30.0
  0
MTEXT
  5
10117
330
1010F
100
AcDbEntity
  8
01注記寸法
 62
     0
100
AcDbMText
 10
1375.0
 20
1725.989999999998
 30
0.0
 40
30.0
 41
0.0
 71
     5
 72
     1
  1
※ 750
 73
     1
 44
1.0
  0
POINT
  5
10118
330
1010F
100
AcDbEntity
  8
Defpoints
 62
     0
100
AcDbPoint
 10
1000.0
 20
1909.999999999998
 30
0.0
  0
POINT
  5
10119
330
1010F
100
AcDbEntity
  8
Defpoints
 62
     0
100
AcDbPoint
 10
1750.0
 20
1909.999999999998
 30
0.0
  0
POINT
  5
1011A
330
1010F
100
AcDbEntity
  8
Defpoints
 62
     0
100
AcDbPoint
 10
1750.0
 20
1699.999999999998
 30
0.0
  0
ENDBLK
  5
10111
330
1010F
100
AcDbEntity
  8
0
100
AcDbBlockEnd
  0
BLOCK
  5
1011C
330
1011B
100
AcDbEntity
  8
0
100
AcDbBlockBegin
  2
*D1299
 70
     1
 10
0.0
 20
0.0
 30
0.0
  3
*D1299
  1

  0
LINE
  5
1011E
330
1011B
100
AcDbEntity
  8
01注記寸法
 62
     0
370
    -2
100
AcDbLine
 10
1750.0
 20
1894.999999999998
 30
0.0
 11
1750.0
 21
1689.999999999998
 31
0.0
  0
LINE
  5
1011F
330
1011B
100
AcDbEntity
  8
01注記寸法
 62
     0
370
    -2
100
AcDbLine
 10
1850.0
 20
1883.499999999999
 30
0.0
 11
1850.0
 21
1689.999999999998
 31
0.0
  0
LINE
  5
10120
330
1011B
100
AcDbEntity
  8
01注記寸法
 62
     0
370
    -2
100
AcDbLine
 10
1780.0
 20
1699.999999999998
 30
0.0
 11
1820.0
 21
1699.999999999998
 31
0.0
  0
INSERT
  5
10121
330
1011B
100
AcDbEntity
  8
01注記寸法
 62
     0
370
    -2
100
AcDbBlockReference
  2
_Open
 10
1750.0
 20
1699.999999999998
 30
0.0
 41
30.0
 42
30.0
 43
30.0
 50
180.0
  0
INSERT
  5
10122
330
1011B
100
AcDbEntity
  8
01注記寸法
 62
     0
370
    -2
100
AcDbBlockReference
  2
_Open
 10
1850.0
 20
1699.999999999998
 30
0.0
 41
30.0
 42
30.0
 43
30.0
  0
MTEXT
  5
10123
330
1011B
100
AcDbEntity
  8
01注記寸法
 62
     0
100
AcDbMText
 10
1800.0
 20
1724.999999999998
 30
0.0
 40
30.0
 41
0.0
 71
     5
 72
     1
  1
100
 73
     1
 44
1.0
  0
POINT
  5
10124
330
1011B
100
AcDbEntity
  8
Defpoints
 62
     0
100
AcDbPoint
 10
1750.0
 20
1909.999999999998
 30
0.0
  0
POINT
  5
10125
330
1011B
100
AcDbEntity
  8
Defpoints
 62
     0
100
AcDbPoint
 10
1850.0
 20
1898.499999999999
 30
0.0
  0
POINT
  5
10126
330
1011B
100
AcDbEntity
  8
Defpoints
 62
     0
100
AcDbPoint
 10
1850.0
 20
1699.999999999998
 30
0.0
  0
ENDBLK
  5
1011D
330
1011B
100
AcDbEntity
  8
0
100
AcDbBlockEnd
  0
BLOCK
  5
10128
330
10127
100
AcDbEntity
  8
0
100
AcDbBlockBegin
  2
*D1300
 70
     1
 10
0.0
 20
0.0
 30
0.0
  3
*D1300
  1

  0
LINE
  5
1012A
330
10127
100
AcDbEntity
  8
01注記寸法
 62
     0
370
    -2
100
AcDbLine
 10
965.0
 20
1929.999999999998
 30
0.0
 11
790.0
 21
1929.999999999998
 31
0.0
  0
LINE
  5
1012B
330
10127
100
AcDbEntity
  8
01注記寸法
 62
     0
370
    -2
100
AcDbLine
 10
885.0
 20
1899.999999999998
 30
0.0
 11
790.0
 21
1899.999999999998
 31
0.0
  0
LINE
  5
1012C
330
10127
100
AcDbEntity
  8
01注記寸法
 62
     0
370
    -2
100
AcDbLine
 10
800.0
 20
1869.999999999998
 30
0.0
 11
800.0
 21
1784.209999999998
 31
0.0
  0
LINE
  5
1012D
330
10127
100
AcDbEntity
  8
01注記寸法
 62
     0
370
    -2
100
AcDbLine
 10
800.0
 20
1929.999999999998
 30
0.0
 11
800.0
 21
1899.999999999998
 31
0.0
  0
LINE
  5
1012E
330
10127
100
AcDbEntity
  8
01注記寸法
 62
     0
370
    -2
100
AcDbLine
 10
800.0
 20
1959.999999999998
 30
0.0
 11
800.0
 21
1989.999999999998
 31
0.0
  0
INSERT
  5
1012F
330
10127
100
AcDbEntity
  8
01注記寸法
 62
     0
370
    -2
100
AcDbBlockReference
  2
_Open
 10
800.0
 20
1929.999999999998
 30
0.0
 41
30.0
 42
30.0
 43
30.0
 50
270.0
  0
INSERT
  5
10130
330
10127
100
AcDbEntity
  8
01注記寸法
 62
     0
370
    -2
100
AcDbBlockReference
  2
_Open
 10
800.0
 20
1899.999999999998
 30
0.0
 41
30.0
 42
30.0
 43
30.0
 50
90.0
  0
MTEXT
  5
10131
330
10127
100
AcDbEntity
  8
01注記寸法
 62
     0
100
AcDbMText
 10
775.0
 20
1812.104999999998
 30
0.0
 40
30.0
 41
0.0
 71
     5
 72
     1
  1
30
 11
0.0
 21
1.0
 31
0.0
 73
     1
 44
1.0
  0
POINT
  5
10132
330
10127
100
AcDbEntity
  8
Defpoints
 62
     0
100
AcDbPoint
 10
980.0
 20
1929.999999999998
 30
0.0
  0
POINT
  5
10133
330
10127
100
AcDbEntity
  8
Defpoints
 62
     0
100
AcDbPoint
 10
900.0
 20
1899.999999999998
 30
0.0
  0
POINT
  5
10134
330
10127
100
AcDbEntity
  8
Defpoints
 62
     0
100
AcDbPoint
 10
800.0
 20
1899.999999999998
 30
0.0
  0
ENDBLK
  5
10129
330
10127
100
AcDbEntity
  8
0
100
AcDbBlockEnd
  0
BLOCK
  5
10136
330
10135
100
AcDbEntity
  8
0
100
AcDbBlockBegin
  2
*D1301
 70
     1
 10
0.0
 20
0.0
 30
0.0
  3
*D1301
  1

  0
LINE
  5
10138
330
10135
100
AcDbEntity
  8
01注記寸法
 62
     0
370
    -2
100
AcDbLine
 10
965.0
 20
2339.999999999998
 30
0.0
 11
790.0
 21
2339.999999999998
 31
0.0
  0
LINE
  5
10139
330
10135
100
AcDbEntity
  8
01注記寸法
 62
     0
370
    -2
100
AcDbLine
 10
965.0
 20
1929.999999999998
 30
0.0
 11
790.0
 21
1929.999999999998
 31
0.0
  0
LINE
  5
1013A
330
10135
100
AcDbEntity
  8
01注記寸法
 62
     0
370
    -2
100
AcDbLine
 10
800.0
 20
2309.999999999998
 30
0.0
 11
800.0
 21
1959.999999999998
 31
0.0
  0
INSERT
  5
1013B
330
10135
100
AcDbEntity
  8
01注記寸法
 62
     0
370
    -2
100
AcDbBlockReference
  2
_Open
 10
800.0
 20
2339.999999999998
 30
0.0
 41
30.0
 42
30.0
 43
30.0
 50
90.0
  0
INSERT
  5
1013C
330
10135
100
AcDbEntity
  8
01注記寸法
 62
     0
370
    -2
100
AcDbBlockReference
  2
_Open
 10
800.0
 20
1929.999999999998
 30
0.0
 41
30.0
 42
30.0
 43
30.0
 50
270.0
  0
MTEXT
  5
1013D
330
10135
100
AcDbEntity
  8
01注記寸法
 62
     0
100
AcDbMText
 10
775.0
 20
2134.999999999998
 30
0.0
 40
30.0
 41
0.0
 71
     5
 72
     1
  1
410
 11
0.0
 21
1.0
 31
0.0
 73
     1
 44
1.0
  0
POINT
  5
1013E
330
10135
100
AcDbEntity
  8
Defpoints
 62
     0
100
AcDbPoint
 10
980.0
 20
2339.999999999998
 30
0.0
  0
POINT
  5
1013F
330
10135
100
AcDbEntity
  8
Defpoints
 62
     0
100
AcDbPoint
 10
980.0
 20
1929.999999999998
 30
0.0
  0
POINT
  5
10140
330
10135
100
AcDbEntity
  8
Defpoints
 62
     0
100
AcDbPoint
 10
800.0
 20
1929.999999999998
 30
0.0
  0
ENDBLK
  5
10137
330
10135
100
AcDbEntity
  8
0
100
AcDbBlockEnd
  0
BLOCK
  5
10142
330
10141
100
AcDbEntity
  8
0
100
AcDbBlockBegin
  2
*D1302
 70
     1
 10
0.0
 20
0.0
 30
0.0
  3
*D1302
  1

  0
LINE
  5
10144
330
10141
100
AcDbEntity
  8
01注記寸法
 62
     0
370
    -2
100
AcDbLine
 10
885.0
 20
2369.999999999998
 30
0.0
 11
790.0
 21
2369.999999999998
 31
0.0
  0
LINE
  5
10145
330
10141
100
AcDbEntity
  8
01注記寸法
 62
     0
370
    -2
100
AcDbLine
 10
965.0
 20
2339.999999999998
 30
0.0
 11
790.0
 21
2339.999999999998
 31
0.0
  0
LINE
  5
10146
330
10141
100
AcDbEntity
  8
01注記寸法
 62
     0
370
    -2
100
AcDbLine
 10
800.0
 20
2369.999999999998
 30
0.0
 11
800.0
 21
2485.789999999998
 31
0.0
  0
LINE
  5
10147
330
10141
100
AcDbEntity
  8
01注記寸法
 62
     0
370
    -2
100
AcDbLine
 10
800.0
 20
2369.999999999998
 30
0.0
 11
800.0
 21
2339.999999999998
 31
0.0
  0
LINE
  5
10148
330
10141
100
AcDbEntity
  8
01注記寸法
 62
     0
370
    -2
100
AcDbLine
 10
800.0
 20
2399.999999999998
 30
0.0
 11
800.0
 21
2429.999999999998
 31
0.0
  0
LINE
  5
10149
330
10141
100
AcDbEntity
  8
01注記寸法
 62
     0
370
    -2
100
AcDbLine
 10
800.0
 20
2309.999999999998
 30
0.0
 11
800.0
 21
2279.999999999998
 31
0.0
  0
INSERT
  5
1014A
330
10141
100
AcDbEntity
  8
01注記寸法
 62
     0
370
    -2
100
AcDbBlockReference
  2
_Open
 10
800.0
 20
2369.999999999998
 30
0.0
 41
30.0
 42
30.0
 43
30.0
 50
270.0
  0
INSERT
  5
1014B
330
10141
100
AcDbEntity
  8
01注記寸法
 62
     0
370
    -2
100
AcDbBlockReference
  2
_Open
 10
800.0
 20
2339.999999999998
 30
0.0
 41
30.0
 42
30.0
 43
30.0
 50
90.0
  0
MTEXT
  5
1014C
330
10141
100
AcDbEntity
  8
01注記寸法
 62
     0
100
AcDbMText
 10
775.0
 20
2457.894999999998
 30
0.0
 40
30.0
 41
0.0
 71
     5
 72
     1
  1
30
 11
0.0
 21
1.0
 31
0.0
 73
     1
 44
1.0
  0
POINT
  5
1014D
330
10141
100
AcDbEntity
  8
Defpoints
 62
     0
100
AcDbPoint
 10
900.0
 20
2369.999999999998
 30
0.0
  0
POINT
  5
1014E
330
10141
100
AcDbEntity
  8
Defpoints
 62
     0
100
AcDbPoint
 10
980.0
 20
2339.999999999998
 30
0.0
  0
POINT
  5
1014F
330
10141
100
AcDbEntity
  8
Defpoints
 62
     0
100
AcDbPoint
 10
800.0
 20
2339.999999999998
 30
0.0
  0
ENDBLK
  5
10143
330
10141
100
AcDbEntity
  8
0
100
AcDbBlockEnd
  0
BLOCK
  5
10151
330
10150
100
AcDbEntity
  8
0
100
AcDbBlockBegin
  2
*D1303
 70
     1
 10
0.0
 20
0.0
 30
0.0
  3
*D1303
  1

  0
LINE
  5
10153
330
10150
100
AcDbEntity
  8
01注記寸法
 62
     0
370
    -2
100
AcDbLine
 10
900.0
 20
2386.499999999999
 30
0.0
 11
900.0
 21
2579.999999999998
 31
0.0
  0
LINE
  5
10154
330
10150
100
AcDbEntity
  8
01注記寸法
 62
     0
370
    -2
100
AcDbLine
 10
1075.0
 20
2374.999999999998
 30
0.0
 11
1075.0
 21
2579.999999999998
 31
0.0
  0
LINE
  5
10155
330
10150
100
AcDbEntity
  8
01注記寸法
 62
     0
370
    -2
100
AcDbLine
 10
930.0
 20
2569.999999999998
 30
0.0
 11
1045.0
 21
2569.999999999998
 31
0.0
  0
INSERT
  5
10156
330
10150
100
AcDbEntity
  8
01注記寸法
 62
     0
370
    -2
100
AcDbBlockReference
  2
_Open
 10
900.0
 20
2569.999999999998
 30
0.0
 41
30.0
 42
30.0
 43
30.0
 50
180.0
  0
INSERT
  5
10157
330
10150
100
AcDbEntity
  8
01注記寸法
 62
     0
370
    -2
100
AcDbBlockReference
  2
_Open
 10
1075.0
 20
2569.999999999998
 30
0.0
 41
30.0
 42
30.0
 43
30.0
  0
MTEXT
  5
10158
330
10150
100
AcDbEntity
  8
01注記寸法
 62
     0
100
AcDbMText
 10
987.5
 20
2594.999999999998
 30
0.0
 40
30.0
 41
0.0
 71
     5
 72
     1
  1
175
 73
     1
 44
1.0
  0
POINT
  5
10159
330
10150
100
AcDbEntity
  8
Defpoints
 62
     0
100
AcDbPoint
 10
900.0
 20
2371.499999999999
 30
0.0
  0
POINT
  5
1015A
330
10150
100
AcDbEntity
  8
Defpoints
 62
     0
100
AcDbPoint
 10
1075.0
 20
2359.999999999998
 30
0.0
  0
POINT
  5
1015B
330
10150
100
AcDbEntity
  8
Defpoints
 62
     0
100
AcDbPoint
 10
1075.0
 20
2569.999999999998
 30
0.0
  0
ENDBLK
  5
10152
330
10150
100
AcDbEntity
  8
0
100
AcDbBlockEnd
  0
BLOCK
  5
1015D
330
1015C
100
AcDbEntity
  8
0
100
AcDbBlockBegin
  2
*D1304
 70
     1
 10
0.0
 20
0.0
 30
0.0
  3
*D1304
  1

  0
LINE
  5
1015F
330
1015C
100
AcDbEntity
  8
01注記寸法
 62
     0
370
    -2
100
AcDbLine
 10
1075.0
 20
2374.999999999998
 30
0.0
 11
1075.0
 21
2579.999999999998
 31
0.0
  0
LINE
  5
10160
330
1015C
100
AcDbEntity
  8
01注記寸法
 62
     0
370
    -2
100
AcDbLine
 10
1675.0
 20
2374.999999999998
 30
0.0
 11
1675.0
 21
2579.999999999998
 31
0.0
  0
LINE
  5
10161
330
1015C
100
AcDbEntity
  8
01注記寸法
 62
     0
370
    -2
100
AcDbLine
 10
1105.0
 20
2569.999999999998
 30
0.0
 11
1645.0
 21
2569.999999999998
 31
0.0
  0
INSERT
  5
10162
330
1015C
100
AcDbEntity
  8
01注記寸法
 62
     0
370
    -2
100
AcDbBlockReference
  2
_Open
 10
1075.0
 20
2569.999999999998
 30
0.0
 41
30.0
 42
30.0
 43
30.0
 50
180.0
  0
INSERT
  5
10163
330
1015C
100
AcDbEntity
  8
01注記寸法
 62
     0
370
    -2
100
AcDbBlockReference
  2
_Open
 10
1675.0
 20
2569.999999999998
 30
0.0
 41
30.0
 42
30.0
 43
30.0
  0
MTEXT
  5
10164
330
1015C
100
AcDbEntity
  8
01注記寸法
 62
     0
100
AcDbMText
 10
1375.0
 20
2594.999999999998
 30
0.0
 40
30.0
 41
0.0
 71
     5
 72
     1
  1
600
 73
     1
 44
1.0
  0
POINT
  5
10165
330
1015C
100
AcDbEntity
  8
Defpoints
 62
     0
100
AcDbPoint
 10
1075.0
 20
2359.999999999998
 30
0.0
  0
POINT
  5
10166
330
1015C
100
AcDbEntity
  8
Defpoints
 62
     0
100
AcDbPoint
 10
1675.0
 20
2359.999999999998
 30
0.0
  0
POINT
  5
10167
330
1015C
100
AcDbEntity
  8
Defpoints
 62
     0
100
AcDbPoint
 10
1675.0
 20
2569.999999999998
 30
0.0
  0
ENDBLK
  5
1015E
330
1015C
100
AcDbEntity
  8
0
100
AcDbBlockEnd
  0
BLOCK
  5
10169
330
10168
100
AcDbEntity
  8
0
100
AcDbBlockBegin
  2
*D1305
 70
     1
 10
0.0
 20
0.0
 30
0.0
  3
*D1305
  1

  0
LINE
  5
1016B
330
10168
100
AcDbEntity
  8
01注記寸法
 62
     0
370
    -2
100
AcDbLine
 10
1675.0
 20
2374.999999999998
 30
0.0
 11
1675.0
 21
2579.999999999998
 31
0.0
  0
LINE
  5
1016C
330
10168
100
AcDbEntity
  8
01注記寸法
 62
     0
370
    -2
100
AcDbLine
 10
1850.0
 20
2386.499999999999
 30
0.0
 11
1850.0
 21
2579.999999999998
 31
0.0
  0
LINE
  5
1016D
330
10168
100
AcDbEntity
  8
01注記寸法
 62
     0
370
    -2
100
AcDbLine
 10
1705.0
 20
2569.999999999998
 30
0.0
 11
1820.0
 21
2569.999999999998
 31
0.0
  0
INSERT
  5
1016E
330
10168
100
AcDbEntity
  8
01注記寸法
 62
     0
370
    -2
100
AcDbBlockReference
  2
_Open
 10
1675.0
 20
2569.999999999998
 30
0.0
 41
30.0
 42
30.0
 43
30.0
 50
180.0
  0
INSERT
  5
1016F
330
10168
100
AcDbEntity
  8
01注記寸法
 62
     0
370
    -2
100
AcDbBlockReference
  2
_Open
 10
1850.0
 20
2569.999999999998
 30
0.0
 41
30.0
 42
30.0
 43
30.0
  0
MTEXT
  5
10170
330
10168
100
AcDbEntity
  8
01注記寸法
 62
     0
100
AcDbMText
 10
1762.5
 20
2594.999999999998
 30
0.0
 40
30.0
 41
0.0
 71
     5
 72
     1
  1
175
 73
     1
 44
1.0
  0
POINT
  5
10171
330
10168
100
AcDbEntity
  8
Defpoints
 62
     0
100
AcDbPoint
 10
1675.0
 20
2359.999999999998
 30
0.0
  0
POINT
  5
10172
330
10168
100
AcDbEntity
  8
Defpoints
 62
     0
100
AcDbPoint
 10
1850.0
 20
2371.499999999999
 30
0.0
  0
POINT
  5
10173
330
10168
100
AcDbEntity
  8
Defpoints
 62
     0
100
AcDbPoint
 10
1850.0
 20
2569.999999999998
 30
0.0
  0
ENDBLK
  5
1016A
330
10168
100
AcDbEntity
  8
0
100
AcDbBlockEnd
  0
BLOCK
  5
10175
330
10174
100
AcDbEntity
  8
0
100
AcDbBlockBegin
  2
*D1306
 70
     1
 10
0.0
 20
0.0
 30
0.0
  3
*D1306
  1

  0
LINE
  5
10177
330
10174
100
AcDbEntity
  8
01注記寸法
 62
     0
370
    -2
100
AcDbLine
 10
1865.0
 20
2369.999999999998
 30
0.0
 11
2060.0
 21
2369.999999999998
 31
0.0
  0
LINE
  5
10178
330
10174
100
AcDbEntity
  8
01注記寸法
 62
     0
370
    -2
100
AcDbLine
 10
1785.0
 20
2339.999999999998
 30
0.0
 11
2060.0
 21
2339.999999999998
 31
0.0
  0
LINE
  5
10179
330
10174
100
AcDbEntity
  8
01注記寸法
 62
     0
370
    -2
100
AcDbLine
 10
2050.0
 20
2369.999999999998
 30
0.0
 11
2050.0
 21
2485.789999999998
 31
0.0
  0
LINE
  5
1017A
330
10174
100
AcDbEntity
  8
01注記寸法
 62
     0
370
    -2
100
AcDbLine
 10
2050.0
 20
2369.999999999998
 30
0.0
 11
2050.0
 21
2339.999999999998
 31
0.0
  0
LINE
  5
1017B
330
10174
100
AcDbEntity
  8
01注記寸法
 62
     0
370
    -2
100
AcDbLine
 10
2050.0
 20
2399.999999999998
 30
0.0
 11
2050.0
 21
2429.999999999998
 31
0.0
  0
LINE
  5
1017C
330
10174
100
AcDbEntity
  8
01注記寸法
 62
     0
370
    -2
100
AcDbLine
 10
2050.0
 20
2309.999999999998
 30
0.0
 11
2050.0
 21
2279.999999999998
 31
0.0
  0
INSERT
  5
1017D
330
10174
100
AcDbEntity
  8
01注記寸法
 62
     0
370
    -2
100
AcDbBlockReference
  2
_Open
 10
2050.0
 20
2369.999999999998
 30
0.0
 41
30.0
 42
30.0
 43
30.0
 50
270.0
  0
INSERT
  5
1017E
330
10174
100
AcDbEntity
  8
01注記寸法
 62
     0
370
    -2
100
AcDbBlockReference
  2
_Open
 10
2050.0
 20
2339.999999999998
 30
0.0
 41
30.0
 42
30.0
 43
30.0
 50
90.0
  0
MTEXT
  5
1017F
330
10174
100
AcDbEntity
  8
01注記寸法
 62
     0
100
AcDbMText
 10
2025.0
 20
2457.894999999998
 30
0.0
 40
30.0
 41
0.0
 71
     5
 72
     1
  1
30
 11
0.0
 21
1.0
 31
0.0
 73
     1
 44
1.0
  0
POINT
  5
10180
330
10174
100
AcDbEntity
  8
Defpoints
 62
     0
100
AcDbPoint
 10
1850.0
 20
2369.999999999998
 30
0.0
  0
POINT
  5
10181
330
10174
100
AcDbEntity
  8
Defpoints
 62
     0
100
AcDbPoint
 10
1770.0
 20
2339.999999999998
 30
0.0
  0
POINT
  5
10182
330
10174
100
AcDbEntity
  8
Defpoints
 62
     0
100
AcDbPoint
 10
2050.0
 20
2339.999999999998
 30
0.0
  0
ENDBLK
  5
10176
330
10174
100
AcDbEntity
  8
0
100
AcDbBlockEnd
  0
BLOCK
  5
10184
330
10183
100
AcDbEntity
  8
0
100
AcDbBlockBegin
  2
*D1307
 70
     1
 10
0.0
 20
0.0
 30
0.0
  3
*D1307
  1

  0
LINE
  5
10186
330
10183
100
AcDbEntity
  8
01注記寸法
 62
     0
370
    -2
100
AcDbLine
 10
1785.0
 20
2339.999999999998
 30
0.0
 11
2060.0
 21
2339.999999999998
 31
0.0
  0
LINE
  5
10187
330
10183
100
AcDbEntity
  8
01注記寸法
 62
     0
370
    -2
100
AcDbLine
 10
1785.0
 20
1929.999999999998
 30
0.0
 11
2060.0
 21
1929.999999999998
 31
0.0
  0
LINE
  5
10188
330
10183
100
AcDbEntity
  8
01注記寸法
 62
     0
370
    -2
100
AcDbLine
 10
2050.0
 20
2309.999999999998
 30
0.0
 11
2050.0
 21
1959.999999999998
 31
0.0
  0
INSERT
  5
10189
330
10183
100
AcDbEntity
  8
01注記寸法
 62
     0
370
    -2
100
AcDbBlockReference
  2
_Open
 10
2050.0
 20
2339.999999999998
 30
0.0
 41
30.0
 42
30.0
 43
30.0
 50
90.0
  0
INSERT
  5
1018A
330
10183
100
AcDbEntity
  8
01注記寸法
 62
     0
370
    -2
100
AcDbBlockReference
  2
_Open
 10
2050.0
 20
1929.999999999998
 30
0.0
 41
30.0
 42
30.0
 43
30.0
 50
270.0
  0
MTEXT
  5
1018B
330
10183
100
AcDbEntity
  8
01注記寸法
 62
     0
100
AcDbMText
 10
2024.01
 20
2134.999999999998
 30
0.0
 40
30.0
 41
0.0
 71
     5
 72
     1
  1
※ 410
 11
0.0
 21
1.0
 31
0.0
 73
     1
 44
1.0
  0
POINT
  5
1018C
330
10183
100
AcDbEntity
  8
Defpoints
 62
     0
100
AcDbPoint
 10
1770.0
 20
2339.999999999998
 30
0.0
  0
POINT
  5
1018D
330
10183
100
AcDbEntity
  8
Defpoints
 62
     0
100
AcDbPoint
 10
1770.0
 20
1929.999999999998
 30
0.0
  0
POINT
  5
1018E
330
10183
100
AcDbEntity
  8
Defpoints
 62
     0
100
AcDbPoint
 10
2050.0
 20
1929.999999999998
 30
0.0
  0
ENDBLK
  5
10185
330
10183
100
AcDbEntity
  8
0
100
AcDbBlockEnd
  0
BLOCK
  5
10190
330
1018F
100
AcDbEntity
  8
0
100
AcDbBlockBegin
  2
*D1308
 70
     1
 10
0.0
 20
0.0
 30
0.0
  3
*D1308
  1

  0
LINE
  5
10192
330
1018F
100
AcDbEntity
  8
01注記寸法
 62
     0
370
    -2
100
AcDbLine
 10
1785.0
 20
1929.999999999998
 30
0.0
 11
2060.0
 21
1929.999999999998
 31
0.0
  0
LINE
  5
10193
330
1018F
100
AcDbEntity
  8
01注記寸法
 62
     0
370
    -2
100
AcDbLine
 10
1865.0
 20
1899.999999999999
 30
0.0
 11
2060.0
 21
1899.999999999999
 31
0.0
  0
LINE
  5
10194
330
1018F
100
AcDbEntity
  8
01注記寸法
 62
     0
370
    -2
100
AcDbLine
 10
2050.0
 20
1869.999999999999
 30
0.0
 11
2050.0
 21
1784.209999999999
 31
0.0
  0
LINE
  5
10195
330
1018F
100
AcDbEntity
  8
01注記寸法
 62
     0
370
    -2
100
AcDbLine
 10
2050.0
 20
1929.999999999998
 30
0.0
 11
2050.0
 21
1899.999999999999
 31
0.0
  0
LINE
  5
10196
330
1018F
100
AcDbEntity
  8
01注記寸法
 62
     0
370
    -2
100
AcDbLine
 10
2050.0
 20
1959.999999999998
 30
0.0
 11
2050.0
 21
1989.999999999998
 31
0.0
  0
INSERT
  5
10197
330
1018F
100
AcDbEntity
  8
01注記寸法
 62
     0
370
    -2
100
AcDbBlockReference
  2
_Open
 10
2050.0
 20
1929.999999999998
 30
0.0
 41
30.0
 42
30.0
 43
30.0
 50
270.0
  0
INSERT
  5
10198
330
1018F
100
AcDbEntity
  8
01注記寸法
 62
     0
370
    -2
100
AcDbBlockReference
  2
_Open
 10
2050.0
 20
1899.999999999999
 30
0.0
 41
30.0
 42
30.0
 43
30.0
 50
90.0
  0
MTEXT
  5
10199
330
1018F
100
AcDbEntity
  8
01注記寸法
 62
     0
100
AcDbMText
 10
2025.0
 20
1812.104999999999
 30
0.0
 40
30.0
 41
0.0
 71
     5
 72
     1
  1
30
 11
0.0
 21
1.0
 31
0.0
 73
     1
 44
1.0
  0
POINT
  5
1019A
330
1018F
100
AcDbEntity
  8
Defpoints
 62
     0
100
AcDbPoint
 10
1770.0
 20
1929.999999999998
 30
0.0
  0
POINT
  5
1019B
330
1018F
100
AcDbEntity
  8
Defpoints
 62
     0
100
AcDbPoint
 10
1850.0
 20
1899.999999999999
 30
0.0
  0
POINT
  5
1019C
330
1018F
100
AcDbEntity
  8
Defpoints
 62
     0
100
AcDbPoint
 10
2050.0
 20
1899.999999999999
 30
0.0
  0
ENDBLK
  5
10191
330
1018F
100
AcDbEntity
  8
0
100
AcDbBlockEnd
  0
BLOCK
  5
1019E
330
1019D
100
AcDbEntity
  8
0
100
AcDbBlockBegin
  2
*D1309
 70
     1
 10
0.0
 20
0.0
 30
0.0
  3
*D1309
  1

  0
LINE
  5
101A0
330
1019D
100
AcDbEntity
  8
01注記寸法
 62
     0
370
    -2
100
AcDbLine
 10
1790.0
 20
2149.999999999998
 30
0.0
 11
1790.0
 21
2183.810713298546
 31
0.0
  0
LINE
  5
101A1
330
1019D
100
AcDbEntity
  8
01注記寸法
 62
     0
370
    -2
100
AcDbLine
 10
1712.0
 20
2149.999999999998
 30
0.0
 11
1712.0
 21
2183.810713298546
 31
0.0
  0
LINE
  5
101A2
330
1019D
100
AcDbEntity
  8
01注記寸法
 62
     0
370
    -2
100
AcDbLine
 10
1790.0
 20
2173.810713298546
 30
0.0
 11
1712.0
 21
2173.810713298546
 31
0.0
  0
LINE
  5
101A3
330
1019D
100
AcDbEntity
  8
01注記寸法
 62
     0
370
    -2
100
AcDbLine
 10
1820.0
 20
2173.810713298546
 30
0.0
 11
1850.0
 21
2173.810713298546
 31
0.0
  0
INSERT
  5
101A4
330
1019D
100
AcDbEntity
  8
01注記寸法
 62
     0
370
    -2
100
AcDbBlockReference
  2
_Open
 10
1790.0
 20
2173.810713298546
 30
0.0
 41
30.0
 42
30.0
 43
30.0
 50
180.0
  0
INSERT
  5
101A5
330
1019D
100
AcDbEntity
  8
01注記寸法
 62
     0
370
    -2
100
AcDbBlockReference
  2
_DotSmall
 10
1712.0
 20
2173.810713298546
 30
0.0
 41
30.0
 42
30.0
 43
30.0
 50
90.0
  0
MTEXT
  5
101A6
330
1019D
100
AcDbEntity
  8
01注記寸法
 62
     0
100
AcDbMText
 10
1751.0
 20
2198.810713298546
 30
0.0
 40
30.0
 41
0.0
 71
     5
 72
     1
  1
78
 73
     1
 44
1.0
  0
POINT
  5
101A7
330
1019D
100
AcDbEntity
  8
Defpoints
 62
     0
100
AcDbPoint
 10
1790.0
 20
2134.999999999998
 30
0.0
  0
POINT
  5
101A8
330
1019D
100
AcDbEntity
  8
Defpoints
 62
     0
100
AcDbPoint
 10
1712.0
 20
2134.999999999998
 30
0.0
  0
POINT
  5
101A9
330
1019D
100
AcDbEntity
  8
Defpoints
 62
     0
100
AcDbPoint
 10
1712.0
 20
2173.810713298546
 30
0.0
  0
ENDBLK
  5
1019F
330
1019D
100
AcDbEntity
  8
0
100
AcDbBlockEnd
  0
BLOCK
  5
101AB
330
101AA
100
AcDbEntity
  8
0
100
AcDbBlockBegin
  2
*D1310
 70
     1
 10
0.0
 20
0.0
 30
0.0
  3
*D1310
  1

  0
LINE
  5
101AD
330
101AA
100
AcDbEntity
  8
01注記寸法
 62
     0
370
    -2
100
AcDbLine
 10
1712.0
 20
2149.999999999998
 30
0.0
 11
1712.0
 21
2183.810713298546
 31
0.0
  0
LINE
  5
101AE
330
101AA
100
AcDbEntity
  8
01注記寸法
 62
     0
370
    -2
100
AcDbLine
 10
1637.0
 20
2149.999999999998
 30
0.0
 11
1637.0
 21
2183.810713298546
 31
0.0
  0
LINE
  5
101AF
330
101AA
100
AcDbEntity
  8
01注記寸法
 62
     0
370
    -2
100
AcDbLine
 10
1712.0
 20
2173.810713298546
 30
0.0
 11
1637.0
 21
2173.810713298546
 31
0.0
  0
LINE
  5
101B0
330
101AA
100
AcDbEntity
  8
01注記寸法
 62
     0
370
    -2
100
AcDbLine
 10
1607.0
 20
2173.810713298546
 30
0.0
 11
1577.0
 21
2173.810713298546
 31
0.0
  0
INSERT
  5
101B1
330
101AA
100
AcDbEntity
  8
01注記寸法
 62
     0
370
    -2
100
AcDbBlockReference
  2
_DotSmall
 10
1712.0
 20
2173.810713298546
 30
0.0
 41
30.0
 42
30.0
 43
30.0
 50
270.0
  0
INSERT
  5
101B2
330
101AA
100
AcDbEntity
  8
01注記寸法
 62
     0
370
    -2
100
AcDbBlockReference
  2
_Open
 10
1637.0
 20
2173.810713298546
 30
0.0
 41
30.0
 42
30.0
 43
30.0
  0
MTEXT
  5
101B3
330
101AA
100
AcDbEntity
  8
01注記寸法
 62
     0
100
AcDbMText
 10
1674.5
 20
2198.810713298546
 30
0.0
 40
30.0
 41
0.0
 71
     5
 72
     1
  1
75
 73
     1
 44
1.0
  0
POINT
  5
101B4
330
101AA
100
AcDbEntity
  8
Defpoints
 62
     0
100
AcDbPoint
 10
1712.0
 20
2134.999999999998
 30
0.0
  0
POINT
  5
101B5
330
101AA
100
AcDbEntity
  8
Defpoints
 62
     0
100
AcDbPoint
 10
1637.0
 20
2134.999999999998
 30
0.0
  0
POINT
  5
101B6
330
101AA
100
AcDbEntity
  8
Defpoints
 62
     0
100
AcDbPoint
 10
1637.0
 20
2173.810713298546
 30
0.0
  0
ENDBLK
  5
101AC
330
101AA
100
AcDbEntity
  8
0
100
AcDbBlockEnd
  0
BLOCK
  5
101B8
330
101B7
100
AcDbEntity
  8
0
100
AcDbBlockBegin
  2
*D1311
 70
     1
 10
0.0
 20
0.0
 30
0.0
  3
*D1311
  1

  0
LINE
  5
101BA
330
101B7
100
AcDbEntity
  8
01注記寸法
 62
     0
370
    -2
100
AcDbLine
 10
1038.0
 20
2149.999999999998
 30
0.0
 11
1038.0
 21
2183.810713298546
 31
0.0
  0
LINE
  5
101BB
330
101B7
100
AcDbEntity
  8
01注記寸法
 62
     0
370
    -2
100
AcDbLine
 10
1113.0
 20
2149.999999999998
 30
0.0
 11
1113.0
 21
2183.810713298546
 31
0.0
  0
LINE
  5
101BC
330
101B7
100
AcDbEntity
  8
01注記寸法
 62
     0
370
    -2
100
AcDbLine
 10
1038.0
 20
2173.810713298546
 30
0.0
 11
1113.0
 21
2173.810713298546
 31
0.0
  0
LINE
  5
101BD
330
101B7
100
AcDbEntity
  8
01注記寸法
 62
     0
370
    -2
100
AcDbLine
 10
1143.0
 20
2173.810713298546
 30
0.0
 11
1173.0
 21
2173.810713298546
 31
0.0
  0
INSERT
  5
101BE
330
101B7
100
AcDbEntity
  8
01注記寸法
 62
     0
370
    -2
100
AcDbBlockReference
  2
_DotSmall
 10
1038.0
 20
2173.810713298546
 30
0.0
 41
30.0
 42
30.0
 43
30.0
 50
90.0
  0
INSERT
  5
101BF
330
101B7
100
AcDbEntity
  8
01注記寸法
 62
     0
370
    -2
100
AcDbBlockReference
  2
_Open
 10
1113.0
 20
2173.810713298546
 30
0.0
 41
30.0
 42
30.0
 43
30.0
 50
180.0
  0
MTEXT
  5
101C0
330
101B7
100
AcDbEntity
  8
01注記寸法
 62
     0
100
AcDbMText
 10
1075.5
 20
2198.810713298546
 30
0.0
 40
30.0
 41
0.0
 71
     5
 72
     1
  1
75
 73
     1
 44
1.0
  0
POINT
  5
101C1
330
101B7
100
AcDbEntity
  8
Defpoints
 62
     0
100
AcDbPoint
 10
1038.0
 20
2134.999999999998
 30
0.0
  0
POINT
  5
101C2
330
101B7
100
AcDbEntity
  8
Defpoints
 62
     0
100
AcDbPoint
 10
1113.0
 20
2134.999999999998
 30
0.0
  0
POINT
  5
101C3
330
101B7
100
AcDbEntity
  8
Defpoints
 62
     0
100
AcDbPoint
 10
1113.0
 20
2173.810713298546
 30
0.0
  0
ENDBLK
  5
101B9
330
101B7
100
AcDbEntity
  8
0
100
AcDbBlockEnd
  0
BLOCK
  5
101C5
330
101C4
100
AcDbEntity
  8
0
100
AcDbBlockBegin
  2
*D1312
 70
     1
 10
0.0
 20
0.0
 30
0.0
  3
*D1312
  1

  0
LINE
  5
101C7
330
101C4
100
AcDbEntity
  8
01注記寸法
 62
     0
370
    -2
100
AcDbLine
 10
960.0
 20
2149.999999999998
 30
0.0
 11
960.0
 21
2183.810713298546
 31
0.0
  0
LINE
  5
101C8
330
101C4
100
AcDbEntity
  8
01注記寸法
 62
     0
370
    -2
100
AcDbLine
 10
1038.0
 20
2149.999999999998
 30
0.0
 11
1038.0
 21
2183.810713298546
 31
0.0
  0
LINE
  5
101C9
330
101C4
100
AcDbEntity
  8
01注記寸法
 62
     0
370
    -2
100
AcDbLine
 10
960.0
 20
2173.810713298546
 30
0.0
 11
1038.0
 21
2173.810713298546
 31
0.0
  0
LINE
  5
101CA
330
101C4
100
AcDbEntity
  8
01注記寸法
 62
     0
370
    -2
100
AcDbLine
 10
930.0
 20
2173.810713298546
 30
0.0
 11
900.0
 21
2173.810713298546
 31
0.0
  0
INSERT
  5
101CB
330
101C4
100
AcDbEntity
  8
01注記寸法
 62
     0
370
    -2
100
AcDbBlockReference
  2
_Open
 10
960.0
 20
2173.810713298546
 30
0.0
 41
30.0
 42
30.0
 43
30.0
  0
INSERT
  5
101CC
330
101C4
100
AcDbEntity
  8
01注記寸法
 62
     0
370
    -2
100
AcDbBlockReference
  2
_DotSmall
 10
1038.0
 20
2173.810713298546
 30
0.0
 41
30.0
 42
30.0
 43
30.0
 50
270.0
  0
MTEXT
  5
101CD
330
101C4
100
AcDbEntity
  8
01注記寸法
 62
     0
100
AcDbMText
 10
999.0
 20
2198.810713298546
 30
0.0
 40
30.0
 41
0.0
 71
     5
 72
     1
  1
78
 73
     1
 44
1.0
  0
POINT
  5
101CE
330
101C4
100
AcDbEntity
  8
Defpoints
 62
     0
100
AcDbPoint
 10
960.0
 20
2134.999999999998
 30
0.0
  0
POINT
  5
101CF
330
101C4
100
AcDbEntity
  8
Defpoints
 62
     0
100
AcDbPoint
 10
1038.0
 20
2134.999999999998
 30
0.0
  0
POINT
  5
101D0
330
101C4
100
AcDbEntity
  8
Defpoints
 62
     0
100
AcDbPoint
 10
1038.0
 20
2173.810713298546
 30
0.0
  0
ENDBLK
  5
101C6
330
101C4
100
AcDbEntity
  8
0
100
AcDbBlockEnd
  0
BLOCK
  5
1020E
330
1020D
100
AcDbEntity
  8
0
100
AcDbBlockBegin
  2
*D1316
 70
     1
 10
0.0
 20
0.0
 30
0.0
  3
*D1316
  1

  0
LINE
  5
10210
330
1020D
100
AcDbEntity
  8
08非表示
 62
     0
370
    -2
100
AcDbLine
 10
279.3164859555886
 20
444.061911931951
 30
0.0
 11
279.3164859555886
 21
446.0418370376395
 31
0.0
  0
LINE
  5
10211
330
1020D
100
AcDbEntity
  8
08非表示
 62
     0
370
    -2
100
AcDbLine
 10
754.3164859555886
 20
444.061911931951
 30
0.0
 11
754.3164859555886
 21
446.0418370376395
 31
0.0
  0
LINE
  5
10212
330
1020D
100
AcDbEntity
  8
08非表示
 62
     0
370
    -2
100
AcDbLine
 10
309.3164859555886
 20
436.0418370376395
 30
0.0
 11
724.3164859555886
 21
436.0418370376395
 31
0.0
  0
INSERT
  5
10213
330
1020D
100
AcDbEntity
  8
08非表示
 62
     0
370
    -2
100
AcDbBlockReference
  2
_Open
 10
279.3164859555886
 20
436.0418370376395
 30
0.0
 41
30.0
 42
30.0
 43
30.0
 50
180.0
  0
INSERT
  5
10214
330
1020D
100
AcDbEntity
  8
08非表示
 62
     0
370
    -2
100
AcDbBlockReference
  2
_Open
 10
754.3164859555886
 20
436.0418370376395
 30
0.0
 41
30.0
 42
30.0
 43
30.0
  0
MTEXT
  5
10215
330
1020D
100
AcDbEntity
  8
08非表示
 62
     0
100
AcDbMText
 10
516.8164859555886
 20
461.0418370376395
 30
0.0
 40
30.0
 41
0.0
 71
     5
 72
     1
  1
950
 73
     1
 44
1.0
  0
POINT
  5
10216
330
1020D
100
AcDbEntity
  8
Defpoints
 62
     0
100
AcDbPoint
 10
279.3164859555886
 20
429.061911931951
 30
0.0
  0
POINT
  5
10217
330
1020D
100
AcDbEntity
  8
Defpoints
 62
     0
100
AcDbPoint
 10
754.3164859555886
 20
429.061911931951
 30
0.0
  0
POINT
  5
10218
330
1020D
100
AcDbEntity
  8
Defpoints
 62
     0
100
AcDbPoint
 10
754.3164859555886
 20
436.0418370376395
 30
0.0
  0
ENDBLK
  5
1020F
330
1020D
100
AcDbEntity
  8
0
100
AcDbBlockEnd
  0
BLOCK
  5
1021B
330
1021A
100
AcDbEntity
  8
0
100
AcDbBlockBegin
  2
*D1317
 70
     1
 10
0.0
 20
0.0
 30
0.0
  3
*D1317
  1

  0
LINE
  5
1021D
330
1021A
100
AcDbEntity
  8
08非表示
 62
     0
370
    -2
100
AcDbLine
 10
651.3705765943059
 20
607.8789339628629
 30
0.0
 11
617.9809885130189
 21
607.8789339628629
 31
0.0
  0
LINE
  5
1021E
330
1021A
100
AcDbEntity
  8
08非表示
 62
     0
370
    -2
100
AcDbLine
 10
651.3705765943059
 20
372.8789339628629
 30
0.0
 11
617.9809885130189
 21
372.8789339628629
 31
0.0
  0
LINE
  5
1021F
330
1021A
100
AcDbEntity
  8
08非表示
 62
     0
370
    -2
100
AcDbLine
 10
627.9809885130189
 20
577.8789339628629
 30
0.0
 11
627.9809885130189
 21
402.8789339628629
 31
0.0
  0
INSERT
  5
10220
330
1021A
100
AcDbEntity
  8
08非表示
 62
     0
370
    -2
100
AcDbBlockReference
  2
_Open
 10
627.9809885130189
 20
607.8789339628629
 30
0.0
 41
30.0
 42
30.0
 43
30.0
 50
90.0
  0
INSERT
  5
10221
330
1021A
100
AcDbEntity
  8
08非表示
 62
     0
370
    -2
100
AcDbBlockReference
  2
_Open
 10
627.9809885130189
 20
372.8789339628629
 30
0.0
 41
30.0
 42
30.0
 43
30.0
 50
270.0
  0
MTEXT
  5
10222
330
1021A
100
AcDbEntity
  8
08非表示
 62
     0
100
AcDbMText
 10
602.9809885130189
 20
490.3789339628629
 30
0.0
 40
30.0
 41
0.0
 71
     5
 72
     1
  1
470
 11
0.0
 21
1.0
 31
0.0
 73
     1
 44
1.0
  0
POINT
  5
10223
330
1021A
100
AcDbEntity
  8
Defpoints
 62
     0
100
AcDbPoint
 10
666.3705765943059
 20
607.8789339628629
 30
0.0
  0
POINT
  5
10224
330
1021A
100
AcDbEntity
  8
Defpoints
 62
     0
100
AcDbPoint
 10
666.3705765943059
 20
372.8789339628629
 30
0.0
  0
POINT
  5
10225
330
1021A
100
AcDbEntity
  8
Defpoints
 62
     0
100
AcDbPoint
 10
627.9809885130189
 20
372.8789339628629
 30
0.0
  0
ENDBLK
  5
1021C
330
1021A
100
AcDbEntity
  8
0
100
AcDbBlockEnd
  0
BLOCK
  5
102FD
330
102FC
100
AcDbEntity
  8
0
100
AcDbBlockBegin
  2
*D1328
 70
     1
 10
0.0
 20
0.0
 30
0.0
  3
*D1328
  1

  0
LINE
  5
102FF
330
102FC
100
AcDbEntity
  8
01注記寸法
 62
     0
370
    -2
100
AcDbLine
 10
278.7164859555883
 20
590.1289339628629
 30
0.0
 11
169.3164859555886
 21
590.1289339628629
 31
0.0
  0
LINE
  5
10300
330
102FC
100
AcDbEntity
  8
01注記寸法
 62
     0
370
    -2
100
AcDbLine
 10
278.7164859555883
 20
390.6289339628629
 30
0.0
 11
169.3164859555886
 21
390.6289339628629
 31
0.0
  0
LINE
  5
10301
330
102FC
100
AcDbEntity
  8
01注記寸法
 62
     0
370
    -2
100
AcDbLine
 10
179.3164859555886
 20
560.1289339628629
 30
0.0
 11
179.3164859555886
 21
420.6289339628629
 31
0.0
  0
INSERT
  5
10302
330
102FC
100
AcDbEntity
  8
01注記寸法
 62
     0
370
    -2
100
AcDbBlockReference
  2
_Open
 10
179.3164859555886
 20
590.1289339628629
 30
0.0
 41
30.0
 42
30.0
 43
30.0
 50
90.0
  0
INSERT
  5
10303
330
102FC
100
AcDbEntity
  8
01注記寸法
 62
     0
370
    -2
100
AcDbBlockReference
  2
_Open
 10
179.3164859555886
 20
390.6289339628629
 30
0.0
 41
30.0
 42
30.0
 43
30.0
 50
270.0
  0
MTEXT
  5
10304
330
102FC
100
AcDbEntity
  8
01注記寸法
 62
     0
100
AcDbMText
 10
154.3164859555886
 20
490.3789339628629
 30
0.0
 40
30.0
 41
0.0
 71
     5
 72
     1
  1
399
 11
0.0
 21
1.0
 31
0.0
 73
     1
 44
1.0
  0
POINT
  5
10305
330
102FC
100
AcDbEntity
  8
Defpoints
 62
     0
100
AcDbPoint
 10
293.7164859555883
 20
590.1289339628629
 30
0.0
  0
POINT
  5
10306
330
102FC
100
AcDbEntity
  8
Defpoints
 62
     0
100
AcDbPoint
 10
293.7164859555883
 20
390.6289339628629
 30
0.0
  0
POINT
  5
10307
330
102FC
100
AcDbEntity
  8
Defpoints
 62
     0
100
AcDbPoint
 10
179.3164859555886
 20
390.6289339628629
 30
0.0
  0
ENDBLK
  5
102FE
330
102FC
100
AcDbEntity
  8
0
100
AcDbBlockEnd
  0
BLOCK
  5
1030A
330
10309
100
AcDbEntity
  8
0
100
AcDbBlockBegin
  2
*D1329
 70
     1
 10
0.0
 20
0.0
 30
0.0
  3
*D1329
  1

  0
LINE
  5
1030C
330
10309
100
AcDbEntity
  8
01注記寸法
 62
     0
370
    -2
100
AcDbLine
 10
293.7164859555883
 20
605.1289339628629
 30
0.0
 11
293.7164859555883
 21
717.8789339628629
 31
0.0
  0
LINE
  5
1030D
330
10309
100
AcDbEntity
  8
01注記寸法
 62
     0
370
    -2
100
AcDbLine
 10
739.916485955589
 20
605.1289339628629
 30
0.0
 11
739.916485955589
 21
717.8789339628629
 31
0.0
  0
LINE
  5
1030E
330
10309
100
AcDbEntity
  8
01注記寸法
 62
     0
370
    -2
100
AcDbLine
 10
323.7164859555883
 20
707.8789339628629
 30
0.0
 11
709.916485955589
 21
707.8789339628629
 31
0.0
  0
INSERT
  5
1030F
330
10309
100
AcDbEntity
  8
01注記寸法
 62
     0
370
    -2
100
AcDbBlockReference
  2
_Open
 10
293.7164859555883
 20
707.8789339628629
 30
0.0
 41
30.0
 42
30.0
 43
30.0
 50
180.0
  0
INSERT
  5
10310
330
10309
100
AcDbEntity
  8
01注記寸法
 62
     0
370
    -2
100
AcDbBlockReference
  2
_Open
 10
739.916485955589
 20
707.8789339628629
 30
0.0
 41
30.0
 42
30.0
 43
30.0
  0
MTEXT
  5
10311
330
10309
100
AcDbEntity
  8
01注記寸法
 62
     0
100
AcDbMText
 10
516.8164859555886
 20
732.8789339628629
 30
0.0
 40
30.0
 41
0.0
 71
     5
 72
     1
  1
892
 73
     1
 44
1.0
  0
POINT
  5
10312
330
10309
100
AcDbEntity
  8
Defpoints
 62
     0
100
AcDbPoint
 10
293.7164859555883
 20
590.1289339628629
 30
0.0
  0
POINT
  5
10313
330
10309
100
AcDbEntity
  8
Defpoints
 62
     0
100
AcDbPoint
 10
739.916485955589
 20
590.1289339628629
 30
0.0
  0
POINT
  5
10314
330
10309
100
AcDbEntity
  8
Defpoints
 62
     0
100
AcDbPoint
 10
739.916485955589
 20
707.8789339628629
 30
0.0
  0
ENDBLK
  5
1030B
330
10309
100
AcDbEntity
  8
0
100
AcDbBlockEnd
  0
BLOCK
  5
10330
330
1032F
100
AcDbEntity
  8
0
100
AcDbBlockBegin
  2
*D1330
 70
     1
 10
0.0
 20
0.0
 30
0.0
  3
*D1330
  1

  0
LINE
  5
10332
330
1032F
100
AcDbEntity
  8
08非表示
 62
     0
370
    -2
100
AcDbLine
 10
1079.316485955589
 20
444.061911931951
 30
0.0
 11
1079.316485955589
 21
446.0418370376395
 31
0.0
  0
LINE
  5
10333
330
1032F
100
AcDbEntity
  8
08非表示
 62
     0
370
    -2
100
AcDbLine
 10
1554.316485955589
 20
444.061911931951
 30
0.0
 11
1554.316485955589
 21
446.0418370376395
 31
0.0
  0
LINE
  5
10334
330
1032F
100
AcDbEntity
  8
08非表示
 62
     0
370
    -2
100
AcDbLine
 10
1109.316485955589
 20
436.0418370376395
 30
0.0
 11
1524.316485955589
 21
436.0418370376395
 31
0.0
  0
INSERT
  5
10335
330
1032F
100
AcDbEntity
  8
08非表示
 62
     0
370
    -2
100
AcDbBlockReference
  2
_Open
 10
1079.316485955589
 20
436.0418370376395
 30
0.0
 41
30.0
 42
30.0
 43
30.0
 50
180.0
  0
INSERT
  5
10336
330
1032F
100
AcDbEntity
  8
08非表示
 62
     0
370
    -2
100
AcDbBlockReference
  2
_Open
 10
1554.316485955589
 20
436.0418370376395
 30
0.0
 41
30.0
 42
30.0
 43
30.0
  0
MTEXT
  5
10337
330
1032F
100
AcDbEntity
  8
08非表示
 62
     0
100
AcDbMText
 10
1316.816485955589
 20
461.0418370376395
 30
0.0
 40
30.0
 41
0.0
 71
     5
 72
     1
  1
950
 73
     1
 44
1.0
  0
POINT
  5
10338
330
1032F
100
AcDbEntity
  8
Defpoints
 62
     0
100
AcDbPoint
 10
1079.316485955589
 20
429.061911931951
 30
0.0
  0
POINT
  5
10339
330
1032F
100
AcDbEntity
  8
Defpoints
 62
     0
100
AcDbPoint
 10
1554.316485955589
 20
429.061911931951
 30
0.0
  0
POINT
  5
1033A
330
1032F
100
AcDbEntity
  8
Defpoints
 62
     0
100
AcDbPoint
 10
1554.316485955589
 20
436.0418370376395
 30
0.0
  0
ENDBLK
  5
10331
330
1032F
100
AcDbEntity
  8
0
100
AcDbBlockEnd
  0
BLOCK
  5
1033C
330
1033B
100
AcDbEntity
  8
0
100
AcDbBlockBegin
  2
*D1331
 70
     1
 10
0.0
 20
0.0
 30
0.0
  3
*D1331
  1

  0
LINE
  5
1033E
330
1033B
100
AcDbEntity
  8
08非表示
 62
     0
370
    -2
100
AcDbLine
 10
1451.370576594306
 20
607.8789339628629
 30
0.0
 11
1417.980988513019
 21
607.8789339628629
 31
0.0
  0
LINE
  5
1033F
330
1033B
100
AcDbEntity
  8
08非表示
 62
     0
370
    -2
100
AcDbLine
 10
1451.370576594306
 20
372.8789339628629
 30
0.0
 11
1417.980988513019
 21
372.8789339628629
 31
0.0
  0
LINE
  5
10340
330
1033B
100
AcDbEntity
  8
08非表示
 62
     0
370
    -2
100
AcDbLine
 10
1427.980988513019
 20
577.8789339628629
 30
0.0
 11
1427.980988513019
 21
402.8789339628629
 31
0.0
  0
INSERT
  5
10341
330
1033B
100
AcDbEntity
  8
08非表示
 62
     0
370
    -2
100
AcDbBlockReference
  2
_Open
 10
1427.980988513019
 20
607.8789339628629
 30
0.0
 41
30.0
 42
30.0
 43
30.0
 50
90.0
  0
INSERT
  5
10342
330
1033B
100
AcDbEntity
  8
08非表示
 62
     0
370
    -2
100
AcDbBlockReference
  2
_Open
 10
1427.980988513019
 20
372.8789339628629
 30
0.0
 41
30.0
 42
30.0
 43
30.0
 50
270.0
  0
MTEXT
  5
10343
330
1033B
100
AcDbEntity
  8
08非表示
 62
     0
100
AcDbMText
 10
1402.980988513019
 20
490.3789339628629
 30
0.0
 40
30.0
 41
0.0
 71
     5
 72
     1
  1
470
 11
0.0
 21
1.0
 31
0.0
 73
     1
 44
1.0
  0
POINT
  5
10344
330
1033B
100
AcDbEntity
  8
Defpoints
 62
     0
100
AcDbPoint
 10
1466.370576594306
 20
607.8789339628629
 30
0.0
  0
POINT
  5
10345
330
1033B
100
AcDbEntity
  8
Defpoints
 62
     0
100
AcDbPoint
 10
1466.370576594306
 20
372.8789339628629
 30
0.0
  0
POINT
  5
10346
330
1033B
100
AcDbEntity
  8
Defpoints
 62
     0
100
AcDbPoint
 10
1427.980988513019
 20
372.8789339628629
 30
0.0
  0
ENDBLK
  5
1033D
330
1033B
100
AcDbEntity
  8
0
100
AcDbBlockEnd
  0
BLOCK
  5
10348
330
10347
100
AcDbEntity
  8
0
100
AcDbBlockBegin
  2
*D1332
 70
     1
 10
0.0
 20
0.0
 30
0.0
  3
*D1332
  1

  0
LINE
  5
1034A
330
10347
100
AcDbEntity
  8
01注記寸法
 62
     0
370
    -2
100
AcDbLine
 10
1044.216485955588
 20
594.2289339628633
 30
0.0
 11
969.3164859555886
 21
594.2289339628633
 31
0.0
  0
LINE
  5
1034B
330
10347
100
AcDbEntity
  8
01注記寸法
 62
     0
370
    -2
100
AcDbLine
 10
1044.216485955588
 20
386.5289339628634
 30
0.0
 11
969.3164859555886
 21
386.5289339628634
 31
0.0
  0
LINE
  5
1034C
330
10347
100
AcDbEntity
  8
01注記寸法
 62
     0
370
    -2
100
AcDbLine
 10
979.3164859555886
 20
564.2289339628633
 30
0.0
 11
979.3164859555886
 21
416.5289339628634
 31
0.0
  0
INSERT
  5
1034D
330
10347
100
AcDbEntity
  8
01注記寸法
 62
     0
370
    -2
100
AcDbBlockReference
  2
_Open
 10
979.3164859555886
 20
594.2289339628633
 30
0.0
 41
30.0
 42
30.0
 43
30.0
 50
90.0
  0
INSERT
  5
1034E
330
10347
100
AcDbEntity
  8
01注記寸法
 62
     0
370
    -2
100
AcDbBlockReference
  2
_Open
 10
979.3164859555886
 20
386.5289339628634
 30
0.0
 41
30.0
 42
30.0
 43
30.0
 50
270.0
  0
MTEXT
  5
1034F
330
10347
100
AcDbEntity
  8
01注記寸法
 62
     0
100
AcDbMText
 10
954.3164859555886
 20
490.3789339628634
 30
0.0
 40
30.0
 41
0.0
 71
     5
 72
     1
  1
415
 11
0.0
 21
1.0
 31
0.0
 73
     1
 44
1.0
  0
POINT
  5
10350
330
10347
100
AcDbEntity
  8
Defpoints
 62
     0
100
AcDbPoint
 10
1059.216485955588
 20
594.2289339628633
 30
0.0
  0
POINT
  5
10351
330
10347
100
AcDbEntity
  8
Defpoints
 62
     0
100
AcDbPoint
 10
1059.216485955588
 20
386.5289339628634
 30
0.0
  0
POINT
  5
10352
330
10347
100
AcDbEntity
  8
Defpoints
 62
     0
100
AcDbPoint
 10
979.3164859555886
 20
386.5289339628634
 30
0.0
  0
ENDBLK
  5
10349
330
10347
100
AcDbEntity
  8
0
100
AcDbBlockEnd
  0
BLOCK
  5
10354
330
10353
100
AcDbEntity
  8
0
100
AcDbBlockBegin
  2
*D1333
 70
     1
 10
0.0
 20
0.0
 30
0.0
  3
*D1333
  1

  0
LINE
  5
10356
330
10353
100
AcDbEntity
  8
01注記寸法
 62
     0
370
    -2
100
AcDbLine
 10
1059.216485955588
 20
609.2289339628633
 30
0.0
 11
1059.216485955588
 21
717.8789339628629
 31
0.0
  0
LINE
  5
10357
330
10353
100
AcDbEntity
  8
01注記寸法
 62
     0
370
    -2
100
AcDbLine
 10
1574.416485955589
 20
609.2289339628633
 30
0.0
 11
1574.416485955589
 21
717.8789339628629
 31
0.0
  0
LINE
  5
10358
330
10353
100
AcDbEntity
  8
01注記寸法
 62
     0
370
    -2
100
AcDbLine
 10
1089.216485955588
 20
707.8789339628629
 30
0.0
 11
1544.416485955589
 21
707.8789339628629
 31
0.0
  0
INSERT
  5
10359
330
10353
100
AcDbEntity
  8
01注記寸法
 62
     0
370
    -2
100
AcDbBlockReference
  2
_Open
 10
1059.216485955588
 20
707.8789339628629
 30
0.0
 41
30.0
 42
30.0
 43
30.0
 50
180.0
  0
INSERT
  5
1035A
330
10353
100
AcDbEntity
  8
01注記寸法
 62
     0
370
    -2
100
AcDbBlockReference
  2
_Open
 10
1574.416485955589
 20
707.8789339628629
 30
0.0
 41
30.0
 42
30.0
 43
30.0
  0
MTEXT
  5
1035B
330
10353
100
AcDbEntity
  8
01注記寸法
 62
     0
100
AcDbMText
 10
1316.816485955589
 20
732.8789339628629
 30
0.0
 40
30.0
 41
0.0
 71
     5
 72
     1
  1
1030
 73
     1
 44
1.0
  0
POINT
  5
1035C
330
10353
100
AcDbEntity
  8
Defpoints
 62
     0
100
AcDbPoint
 10
1059.216485955588
 20
594.2289339628633
 30
0.0
  0
POINT
  5
1035D
330
10353
100
AcDbEntity
  8
Defpoints
 62
     0
100
AcDbPoint
 10
1574.416485955589
 20
594.2289339628633
 30
0.0
  0
POINT
  5
1035E
330
10353
100
AcDbEntity
  8
Defpoints
 62
     0
100
AcDbPoint
 10
1574.416485955589
 20
707.8789339628629
 30
0.0
  0
ENDBLK
  5
10355
330
10353
100
AcDbEntity
  8
0
100
AcDbBlockEnd
  0
BLOCK
  5
1037A
330
10379
100
AcDbEntity
  8
0
100
AcDbBlockBegin
  2
*D1334
 70
     1
 10
0.0
 20
0.0
 30
0.0
  3
*D1334
  1

  0
LINE
  5
1037C
330
10379
100
AcDbEntity
  8
08非表示
 62
     0
370
    -2
100
AcDbLine
 10
1879.316485955589
 20
444.061911931951
 30
0.0
 11
1879.316485955589
 21
446.0418370376395
 31
0.0
  0
LINE
  5
1037D
330
10379
100
AcDbEntity
  8
08非表示
 62
     0
370
    -2
100
AcDbLine
 10
2354.316485955589
 20
444.061911931951
 30
0.0
 11
2354.316485955589
 21
446.0418370376395
 31
0.0
  0
LINE
  5
1037E
330
10379
100
AcDbEntity
  8
08非表示
 62
     0
370
    -2
100
AcDbLine
 10
1909.316485955589
 20
436.0418370376395
 30
0.0
 11
2324.316485955589
 21
436.0418370376395
 31
0.0
  0
INSERT
  5
1037F
330
10379
100
AcDbEntity
  8
08非表示
 62
     0
370
    -2
100
AcDbBlockReference
  2
_Open
 10
1879.316485955589
 20
436.0418370376395
 30
0.0
 41
30.0
 42
30.0
 43
30.0
 50
180.0
  0
INSERT
  5
10380
330
10379
100
AcDbEntity
  8
08非表示
 62
     0
370
    -2
100
AcDbBlockReference
  2
_Open
 10
2354.316485955589
 20
436.0418370376395
 30
0.0
 41
30.0
 42
30.0
 43
30.0
  0
MTEXT
  5
10381
330
10379
100
AcDbEntity
  8
08非表示
 62
     0
100
AcDbMText
 10
2116.816485955589
 20
461.0418370376395
 30
0.0
 40
30.0
 41
0.0
 71
     5
 72
     1
  1
950
 73
     1
 44
1.0
  0
POINT
  5
10382
330
10379
100
AcDbEntity
  8
Defpoints
 62
     0
100
AcDbPoint
 10
1879.316485955589
 20
429.061911931951
 30
0.0
  0
POINT
  5
10383
330
10379
100
AcDbEntity
  8
Defpoints
 62
     0
100
AcDbPoint
 10
2354.316485955589
 20
429.061911931951
 30
0.0
  0
POINT
  5
10384
330
10379
100
AcDbEntity
  8
Defpoints
 62
     0
100
AcDbPoint
 10
2354.316485955589
 20
436.0418370376395
 30
0.0
  0
ENDBLK
  5
1037B
330
10379
100
AcDbEntity
  8
0
100
AcDbBlockEnd
  0
BLOCK
  5
10386
330
10385
100
AcDbEntity
  8
0
100
AcDbBlockBegin
  2
*D1335
 70
     1
 10
0.0
 20
0.0
 30
0.0
  3
*D1335
  1

  0
LINE
  5
10388
330
10385
100
AcDbEntity
  8
08非表示
 62
     0
370
    -2
100
AcDbLine
 10
2251.370576594306
 20
607.8789339628629
 30
0.0
 11
2217.980988513019
 21
607.8789339628629
 31
0.0
  0
LINE
  5
10389
330
10385
100
AcDbEntity
  8
08非表示
 62
     0
370
    -2
100
AcDbLine
 10
2251.370576594306
 20
372.8789339628629
 30
0.0
 11
2217.980988513019
 21
372.8789339628629
 31
0.0
  0
LINE
  5
1038A
330
10385
100
AcDbEntity
  8
08非表示
 62
     0
370
    -2
100
AcDbLine
 10
2227.980988513019
 20
577.8789339628629
 30
0.0
 11
2227.980988513019
 21
402.8789339628629
 31
0.0
  0
INSERT
  5
1038B
330
10385
100
AcDbEntity
  8
08非表示
 62
     0
370
    -2
100
AcDbBlockReference
  2
_Open
 10
2227.980988513019
 20
607.8789339628629
 30
0.0
 41
30.0
 42
30.0
 43
30.0
 50
90.0
  0
INSERT
  5
1038C
330
10385
100
AcDbEntity
  8
08非表示
 62
     0
370
    -2
100
AcDbBlockReference
  2
_Open
 10
2227.980988513019
 20
372.8789339628629
 30
0.0
 41
30.0
 42
30.0
 43
30.0
 50
270.0
  0
MTEXT
  5
1038D
330
10385
100
AcDbEntity
  8
08非表示
 62
     0
100
AcDbMText
 10
2202.980988513019
 20
490.3789339628629
 30
0.0
 40
30.0
 41
0.0
 71
     5
 72
     1
  1
470
 11
0.0
 21
1.0
 31
0.0
 73
     1
 44
1.0
  0
POINT
  5
1038E
330
10385
100
AcDbEntity
  8
Defpoints
 62
     0
100
AcDbPoint
 10
2266.370576594306
 20
607.8789339628629
 30
0.0
  0
POINT
  5
1038F
330
10385
100
AcDbEntity
  8
Defpoints
 62
     0
100
AcDbPoint
 10
2266.370576594306
 20
372.8789339628629
 30
0.0
  0
POINT
  5
10390
330
10385
100
AcDbEntity
  8
Defpoints
 62
     0
100
AcDbPoint
 10
2227.980988513019
 20
372.8789339628629
 30
0.0
  0
ENDBLK
  5
10387
330
10385
100
AcDbEntity
  8
0
100
AcDbBlockEnd
  0
BLOCK
  5
10392
330
10391
100
AcDbEntity
  8
0
100
AcDbBlockBegin
  2
*D1336
 70
     1
 10
0.0
 20
0.0
 30
0.0
  3
*D1336
  1

  0
LINE
  5
10394
330
10391
100
AcDbEntity
  8
01注記寸法
 62
     0
370
    -2
100
AcDbLine
 10
1878.716485955588
 20
628.7289339628633
 30
0.0
 11
1769.316485955589
 21
628.7289339628633
 31
0.0
  0
LINE
  5
10395
330
10391
100
AcDbEntity
  8
01注記寸法
 62
     0
370
    -2
100
AcDbLine
 10
1878.716485955588
 20
352.0289339628634
 30
0.0
 11
1769.316485955589
 21
352.0289339628634
 31
0.0
  0
LINE
  5
10396
330
10391
100
AcDbEntity
  8
01注記寸法
 62
     0
370
    -2
100
AcDbLine
 10
1779.316485955589
 20
598.7289339628633
 30
0.0
 11
1779.316485955589
 21
382.0289339628634
 31
0.0
  0
INSERT
  5
10397
330
10391
100
AcDbEntity
  8
01注記寸法
 62
     0
370
    -2
100
AcDbBlockReference
  2
_Open
 10
1779.316485955589
 20
628.7289339628633
 30
0.0
 41
30.0
 42
30.0
 43
30.0
 50
90.0
  0
INSERT
  5
10398
330
10391
100
AcDbEntity
  8
01注記寸法
 62
     0
370
    -2
100
AcDbBlockReference
  2
_Open
 10
1779.316485955589
 20
352.0289339628634
 30
0.0
 41
30.0
 42
30.0
 43
30.0
 50
270.0
  0
MTEXT
  5
10399
330
10391
100
AcDbEntity
  8
01注記寸法
 62
     0
100
AcDbMText
 10
1754.316485955589
 20
490.3789339628634
 30
0.0
 40
30.0
 41
0.0
 71
     5
 72
     1
  1
553
 11
0.0
 21
1.0
 31
0.0
 73
     1
 44
1.0
  0
POINT
  5
1039A
330
10391
100
AcDbEntity
  8
Defpoints
 62
     0
100
AcDbPoint
 10
1893.716485955588
 20
628.7289339628633
 30
0.0
  0
POINT
  5
1039B
330
10391
100
AcDbEntity
  8
Defpoints
 62
     0
100
AcDbPoint
 10
1893.716485955588
 20
352.0289339628634
 30
0.0
  0
POINT
  5
1039C
330
10391
100
AcDbEntity
  8
Defpoints
 62
     0
100
AcDbPoint
 10
1779.316485955589
 20
352.0289339628634
 30
0.0
  0
ENDBLK
  5
10393
330
10391
100
AcDbEntity
  8
0
100
AcDbBlockEnd
  0
BLOCK
  5
1039E
330
1039D
100
AcDbEntity
  8
0
100
AcDbBlockBegin
  2
*D1337
 70
     1
 10
0.0
 20
0.0
 30
0.0
  3
*D1337
  1

  0
LINE
  5
103A0
330
1039D
100
AcDbEntity
  8
01注記寸法
 62
     0
370
    -2
100
AcDbLine
 10
1893.716485955588
 20
643.7289339628633
 30
0.0
 11
1893.716485955588
 21
717.8789339628629
 31
0.0
  0
LINE
  5
103A1
330
1039D
100
AcDbEntity
  8
01注記寸法
 62
     0
370
    -2
100
AcDbLine
 10
2339.916485955589
 20
643.7289339628633
 30
0.0
 11
2339.916485955589
 21
717.8789339628629
 31
0.0
  0
LINE
  5
103A2
330
1039D
100
AcDbEntity
  8
01注記寸法
 62
     0
370
    -2
100
AcDbLine
 10
1923.716485955588
 20
707.8789339628629
 30
0.0
 11
2309.916485955589
 21
707.8789339628629
 31
0.0
  0
INSERT
  5
103A3
330
1039D
100
AcDbEntity
  8
01注記寸法
 62
     0
370
    -2
100
AcDbBlockReference
  2
_Open
 10
1893.716485955588
 20
707.8789339628629
 30
0.0
 41
30.0
 42
30.0
 43
30.0
 50
180.0
  0
INSERT
  5
103A4
330
1039D
100
AcDbEntity
  8
01注記寸法
 62
     0
370
    -2
100
AcDbBlockReference
  2
_Open
 10
2339.916485955589
 20
707.8789339628629
 30
0.0
 41
30.0
 42
30.0
 43
30.0
  0
MTEXT
  5
103A5
330
1039D
100
AcDbEntity
  8
01注記寸法
 62
     0
100
AcDbMText
 10
2116.816485955589
 20
732.8789339628629
 30
0.0
 40
30.0
 41
0.0
 71
     5
 72
     1
  1
892
 73
     1
 44
1.0
  0
POINT
  5
103A6
330
1039D
100
AcDbEntity
  8
Defpoints
 62
     0
100
AcDbPoint
 10
1893.716485955588
 20
628.7289339628633
 30
0.0
  0
POINT
  5
103A7
330
1039D
100
AcDbEntity
  8
Defpoints
 62
     0
100
AcDbPoint
 10
2339.916485955589
 20
628.7289339628633
 30
0.0
  0
POINT
  5
103A8
330
1039D
100
AcDbEntity
  8
Defpoints
 62
     0
100
AcDbPoint
 10
2339.916485955589
 20
707.8789339628629
 30
0.0
  0
ENDBLK
  5
1039F
330
1039D
100
AcDbEntity
  8
0
100
AcDbBlockEnd
  0
ENDSEC
  0
SECTION
  2
ENTITIES
  0
LWPOLYLINE
  5
7E6F
330
1F
100
AcDbEntity
  8
08非表示
  6
PHANTOM
100
AcDbPolyline
 90
        4
 70
     1
 43
0.0
 10
0.0
 20
0.0
 10
0.0
 20
2970.0
 10
4200.0
 20
2970.0
 10
4200.0
 20
0.0
  0
LWPOLYLINE
  5
7E74
330
1F
100
AcDbEntity
  8
09図枠
100
AcDbPolyline
 90
        4
 70
     1
 43
0.0
 10
100.0
 20
100.0
 10
100.0
 20
2870.0
 10
4100.0
 20
2870.0
 10
4100.0
 20
100.0
  0
LWPOLYLINE
  5
7E7B
330
1F
100
AcDbEntity
  8
09図枠
100
AcDbPolyline
 90
        4
 70
     1
 43
0.0
 10
3300.0
 20
2710.0
 10
3300.0
 20
2870.0
 10
4100.0
 20
2870.0
 10
4100.0
 20
2710.0
  0
TEXT
  5
7E7E
330
1F
100
AcDbEntity
  8
01注記寸法
100
AcDbText
 10
2409.999751016778
 20
2729.999765708526
 30
0.0
 40
40.0
  1
機器本体・防振架台取付共用仕様
 72
     1
 11
2799.999751016778
 21
2749.999765708526
 31
0.0
100
AcDbText
 73
     2
  0
LWPOLYLINE
  5
7E7F
330
1F
100
AcDbEntity
  8
09図枠
100
AcDbPolyline
 90
        4
 70
     1
 43
0.0
 10
2300.0
 20
2710.0
 10
2300.0
 20
2790.0
 10
3300.0
 20
2790.0
 10
3300.0
 20
2710.0
  0
LWPOLYLINE
  5
7E84
330
1F
100
AcDbEntity
  8
09図枠
100
AcDbPolyline
 90
        4
 70
     1
 43
0.0
 10
2300.0
 20
2790.0
 10
2300.0
 20
2870.0
 10
3300.0
 20
2870.0
 10
3300.0
 20
2790.0
  0
TEXT
  5
7E85
330
1F
100
AcDbEntity
  8
01注記寸法
100
AcDbText
 10
2487.999751016778
 20
2809.999765708526
 30
0.0
 40
40.0
  1
標準/耐塩/耐重塩共用仕様
 72
     1
 11
2799.999751016778
 21
2829.999765708526
 31
0.0
100
AcDbText
 73
     2
  0
LWPOLYLINE
  5
7E88
330
1F
100
AcDbEntity
  8
09図枠
100
AcDbPolyline
 90
        4
 70
     1
 43
0.0
 10
3460.0
 20
2630.0
 10
3460.0
 20
2710.0
 10
4100.0
 20
2710.0
 10
4100.0
 20
2630.0
  0
LWPOLYLINE
  5
7E89
330
1F
100
AcDbEntity
  8
09図枠
100
AcDbPolyline
 90
        4
 70
     1
 43
0.0
 10
3300.0
 20
2630.0
 10
3300.0
 20
2710.0
 10
3460.0
 20
2710.0
 10
3460.0
 20
2630.0
  0
TEXT
  5
7E8A
330
1F
100
AcDbEntity
  8
01注記寸法
100
AcDbText
 10
3328.0
 20
2650.0
 30
0.0
 40
40.0
  1
型式
 72
     1
 11
3380.0
 21
2670.0
 31
0.0
100
AcDbText
 73
     2
  0
TEXT
  5
7E8B
330
1F
100
AcDbEntity
  8
01注記寸法
100
AcDbText
 10
3494.0
 20
2650.0
 30
0.0
 40
40.0
  1
Ｎ－ＢＨＨ９５４Ｒ－５
 72
     1
 11
3780.0
 21
2670.0
 31
0.0
100
AcDbText
 73
     2
  0
LWPOLYLINE
  5
7E8C
330
1F
100
AcDbEntity
  8
09図枠
100
AcDbPolyline
 90
        4
 70
     1
 43
0.0
 10
3300.0
 20
2430.0
 10
3300.0
 20
2630.0
 10
4100.0
 20
2630.0
 10
4100.0
 20
2430.0
  0
LINE
  5
7E8D
330
1F
100
AcDbEntity
  8
01注記寸法
  6
HIDDEN
100
AcDbLine
 10
3300.0
 20
2510.0
 30
0.0
 11
4100.0
 21
2510.0
 31
0.0
  0
TEXT
  5
7E8F
330
1F
100
AcDbEntity
  8
01注記寸法
100
AcDbText
 10
3330.0
 20
2555.0
 30
0.0
 40
30.0
  1
機器
 11
3330.0
 21
2570.0
 31
0.0
100
AcDbText
 73
     2
  0
TEXT
  5
7E90
330
1F
100
AcDbEntity
  8
01注記寸法
100
AcDbText
 10
3330.0
 20
2455.0
 30
0.0
 40
30.0
  1
機器質量
 11
3330.0
 21
2470.0
 31
0.0
100
AcDbText
 73
     2
  0
LWPOLYLINE
  5
7E94
330
1F
100
AcDbEntity
  8
09図枠
100
AcDbPolyline
 90
        4
 70
     1
 43
0.0
 10
3300.0
 20
2250.0
 10
3300.0
 20
2430.0
 10
4100.0
 20
2430.0
 10
4100.0
 20
2250.0
  0
TEXT
  5
7E95
330
1F
100
AcDbEntity
  8
01注記寸法
100
AcDbText
 10
3330.0
 20
2355.0
 30
0.0
 40
30.0
  1
現場名
 11
3330.0
 21
2370.0
 31
0.0
100
AcDbText
 73
     2
  0
LINE
  5
7E97
330
1F
100
AcDbEntity
  8
01注記寸法
  6
HIDDEN
100
AcDbLine
 10
3300.0
 20
2310.0
 30
0.0
 11
4100.0
 21
2310.0
 31
0.0
  0
TEXT
  5
7E98
330
1F
100
AcDbEntity
  8
01注記寸法
100
AcDbText
 10
3330.0
 20
2265.0
 30
0.0
 40
30.0
  1
系統名
 11
3330.0
 21
2280.0
 31
0.0
100
AcDbText
 73
     2
  0
LWPOLYLINE
  5
7EA4
330
1F
100
AcDbEntity
  8
09図枠
100
AcDbPolyline
 90
        4
 70
     1
 43
0.0
 10
3460.0
 20
100.0
 10
3460.0
 20
180.0
 10
4100.0
 20
180.0
 10
4100.0
 20
100.0
  0
LWPOLYLINE
  5
7EA5
330
1F
100
AcDbEntity
  8
09図枠
100
AcDbPolyline
 90
        4
 70
     1
 43
0.0
 10
3300.0
 20
100.0
 10
3300.0
 20
180.0
 10
3460.0
 20
180.0
 10
3460.0
 20
100.0
  0
TEXT
  5
7EA6
330
1F
100
AcDbEntity
  8
01注記寸法
100
AcDbText
 10
3328.0
 20
120.0
 30
0.0
 40
40.0
  1
図番
 72
     1
 11
3380.0
 21
140.0
 31
0.0
100
AcDbText
 73
     2
  0
TEXT
  5
7EA7
330
1F
100
AcDbEntity
  8
01注記寸法
100
AcDbText
 10
3475.8
 20
120.0
 30
0.0
 40
40.0
  1
３－ＨＴＲ１２４＃Ｂ１－５
 41
0.9
 72
     1
 11
3780.0
 21
140.0
 31
0.0
100
AcDbText
 73
     2
  0
LWPOLYLINE
  5
7EB6
330
1F
100
AcDbEntity
  8
09図枠
100
AcDbPolyline
 90
        4
 70
     1
 43
0.0
 10
3300.0
 20
180.0
 10
3300.0
 20
280.0
 10
4100.0
 20
280.0
 10
4100.0
 20
180.0
  0
LWPOLYLINE
  5
7EB9
330
1F
100
AcDbEntity
  8
09図枠
100
AcDbPolyline
 90
        4
 70
     1
 43
0.0
 10
3300.0
 20
280.0
 10
3300.0
 20
420.0
 10
4100.0
 20
420.0
 10
4100.0
 20
280.0
  0
TEXT
  5
7EBE
330
1F
100
AcDbEntity
  8
01注記寸法
100
AcDbText
 10
3371.5
 20
375.0
 30
0.0
 40
30.0
  1
承認日
 72
     1
 11
3430.0
 21
390.0
 31
0.0
100
AcDbText
 73
     2
  0
TEXT
  5
7EBF
330
1F
100
AcDbEntity
  8
01注記寸法
100
AcDbText
 10
3611.0
 20
375.0
 30
0.0
 40
30.0
  1
承認
 72
     1
 11
3650.0
 21
390.0
 31
0.0
100
AcDbText
 73
     2
  0
TEXT
  5
7EC0
330
1F
100
AcDbEntity
  8
01注記寸法
100
AcDbText
 10
3791.0
 20
375.0
 30
0.0
 40
30.0
  1
設計
 72
     1
 11
3830.0
 21
390.0
 31
0.0
100
AcDbText
 73
     2
  0
TEXT
  5
7EC1
330
1F
100
AcDbEntity
  8
01注記寸法
100
AcDbText
 10
3971.0
 20
375.0
 30
0.0
 40
30.0
  1
作図
 72
     1
 11
4010.0
 21
390.0
 31
0.0
100
AcDbText
 73
     2
  0
TEXT
  5
7EC2
330
1F
100
AcDbEntity
  8
01注記寸法
100
AcDbText
 10
3342.25
 20
305.0
 30
0.0
 40
30.0
  1
'16.07.05
 72
     1
 11
3430.0
 21
320.0
 31
0.0
100
AcDbText
 73
     2
  0
TEXT
  5
7EC3
330
1F
100
AcDbEntity
  8
01注記寸法
100
AcDbText
 10
3611.0
 20
305.0
 30
0.0
 40
30.0
  1
加納
 72
     1
 11
3650.0
 21
320.0
 31
0.0
100
AcDbText
 73
     2
  0
TEXT
  5
7EC4
330
1F
100
AcDbEntity
  8
01注記寸法
100
AcDbText
 10
3791.0
 20
305.0
 30
0.0
 40
30.0
  1
内野
 72
     1
 11
3830.0
 21
320.0
 31
0.0
100
AcDbText
 73
     2
  0
TEXT
  5
7EC5
330
1F
100
AcDbEntity
  8
01注記寸法
100
AcDbText
 10
3971.0
 20
305.0
 30
0.0
 40
30.0
  1
内野
 72
     1
 11
4010.0
 21
320.0
 31
0.0
100
AcDbText
 73
     2
  0
LWPOLYLINE
  5
7EC6
330
1F
100
AcDbEntity
  8
01注記寸法
100
AcDbPolyline
 90
        4
 70
     1
 43
0.0
 10
3300.0
 20
720.0
 10
3300.0
 20
780.0
 10
3400.0
 20
780.0
 10
3400.0
 20
720.0
  0
LWPOLYLINE
  5
7EC7
330
1F
100
AcDbEntity
  8
01注記寸法
100
AcDbPolyline
 90
        4
 70
     1
 43
0.0
 10
4250.0
 20
720.0
 10
4250.0
 20
780.0
 10
4350.0
 20
780.0
 10
4350.0
 20
720.0
  0
LWPOLYLINE
  5
7EC8
330
1F
100
AcDbEntity
  8
01注記寸法
100
AcDbPolyline
 90
        4
 70
     1
 43
0.0
 10
3400.0
 20
720.0
 10
3400.0
 20
780.0
 10
3600.0
 20
780.0
 10
3600.0
 20
720.0
  0
LWPOLYLINE
  5
7EC9
330
1F
100
AcDbEntity
  8
01注記寸法
100
AcDbPolyline
 90
        4
 70
     1
 43
0.0
 10
3600.0
 20
720.0
 10
3600.0
 20
780.0
 10
4100.0
 20
780.0
 10
4100.0
 20
720.0
  0
TEXT
  5
7ECA
330
1F
100
AcDbEntity
  8
01注記寸法
100
AcDbText
 10
3311.0
 20
735.0
 30
0.0
 40
30.0
  1
番号
 72
     1
 11
3350.0
 21
750.0
 31
0.0
100
AcDbText
 73
     2
  0
TEXT
  5
7ECB
330
1F
100
AcDbEntity
  8
01注記寸法
100
AcDbText
 10
4261.0
 20
735.0
 30
0.0
 40
30.0
  1
担当
 72
     1
 11
4300.0
 21
750.0
 31
0.0
100
AcDbText
 73
     2
  0
TEXT
  5
7ECC
330
1F
100
AcDbEntity
  8
01注記寸法
100
AcDbText
 10
3461.0
 20
735.0
 30
0.0
 40
30.0
  1
日付
 72
     1
 11
3500.0
 21
750.0
 31
0.0
100
AcDbText
 73
     2
  0
TEXT
  5
7ECD
330
1F
100
AcDbEntity
  8
01注記寸法
100
AcDbText
 10
3772.0
 20
735.0
 30
0.0
 40
30.0
  1
改訂記事
 72
     1
 11
3850.0
 21
750.0
 31
0.0
100
AcDbText
 73
     2
  0
LWPOLYLINE
  5
7ECE
330
1F
100
AcDbEntity
  8
01注記寸法
100
AcDbPolyline
 90
        4
 70
     1
 43
0.0
 10
3300.0
 20
660.0
 10
3300.0
 20
720.0
 10
3400.0
 20
720.0
 10
3400.0
 20
660.0
  0
LWPOLYLINE
  5
7ECF
330
1F
100
AcDbEntity
  8
01注記寸法
100
AcDbPolyline
 90
        4
 70
     1
 43
0.0
 10
4250.0
 20
660.0
 10
4250.0
 20
720.0
 10
4350.0
 20
720.0
 10
4350.0
 20
660.0
  0
LWPOLYLINE
  5
7ED0
330
1F
100
AcDbEntity
  8
01注記寸法
100
AcDbPolyline
 90
        4
 70
     1
 43
0.0
 10
3400.0
 20
660.0
 10
3400.0
 20
720.0
 10
3600.0
 20
720.0
 10
3600.0
 20
660.0
  0
LWPOLYLINE
  5
7ED1
330
1F
100
AcDbEntity
  8
01注記寸法
100
AcDbPolyline
 90
        4
 70
     1
 43
0.0
 10
3600.0
 20
660.0
 10
3600.0
 20
720.0
 10
4100.0
 20
720.0
 10
4100.0
 20
660.0
  0
TEXT
  5
7ED2
330
1F
100
AcDbEntity
  8
01注記寸法
100
AcDbText
 10
4261.0
 20
675.0
 30
0.0
 40
30.0
  1
内野
 72
     1
 11
4300.0
 21
690.0
 31
0.0
100
AcDbText
 73
     2
  0
TEXT
  5
7ED4
330
1F
100
AcDbEntity
  8
01注記寸法
100
AcDbText
 10
3412.25
 20
675.0001
 30
0.0
 40
30.0
  1
'17.04.11
 72
     1
 11
3500.0
 21
690.0001
 31
0.0
100
AcDbText
 73
     2
  0
TEXT
  5
7ED5
330
1F
100
AcDbEntity
  8
01注記寸法
100
AcDbText
 10
3694.0
 20
675.000075415428
 30
0.0
 40
30.0
  1
適用防振架台追加
 72
     1
 11
3850.0
 21
690.000075415428
 31
0.0
100
AcDbText
 73
     2
  0
TEXT
  5
7ED6
330
1F
100
AcDbEntity
  8
01注記寸法
100
AcDbText
 10
3340.250000000002
 20
668.1365675940957
 30
0.0
 40
30.0
  1
1
 72
     4
 11
3350.000000000002
 21
683.2865675940957
 31
0.0
100
AcDbText
  0
LWPOLYLINE
  5
7EDA
330
1F
100
AcDbEntity
  8
09図枠
100
AcDbPolyline
 90
        4
 70
     1
 43
0.0
 10
3300.0
 20
780.0
 10
3300.0
 20
2250.0
 10
4100.0
 20
2250.0
 10
4100.0
 20
780.0
  0
LWPOLYLINE
  5
7EDB
330
1F
100
AcDbEntity
  8
09図枠
100
AcDbPolyline
 90
        4
 70
     1
 43
0.0
 10
3300.0
 20
420.0
 10
3300.0
 20
780.0
 10
4100.0
 20
780.0
 10
4100.0
 20
420.0
  0
LWPOLYLINE
  5
7EDC
330
1F
100
AcDbEntity
  8
01注記寸法
100
AcDbPolyline
 90
        4
 70
     1
 43
0.0
 10
3300.0
 20
600.0
 10
3300.0
 20
660.0
 10
3400.0
 20
660.0
 10
3400.0
 20
600.0
  0
LWPOLYLINE
  5
7EDD
330
1F
100
AcDbEntity
  8
01注記寸法
100
AcDbPolyline
 90
        4
 70
     1
 43
0.0
 10
4250.0
 20
600.0
 10
4250.0
 20
660.0
 10
4350.0
 20
660.0
 10
4350.0
 20
600.0
  0
LWPOLYLINE
  5
7EDE
330
1F
100
AcDbEntity
  8
01注記寸法
100
AcDbPolyline
 90
        4
 70
     1
 43
0.0
 10
3400.0
 20
600.0
 10
3400.0
 20
660.0
 10
3600.0
 20
660.0
 10
3600.0
 20
600.0
  0
LWPOLYLINE
  5
7EDF
330
1F
100
AcDbEntity
  8
01注記寸法
100
AcDbPolyline
 90
        4
 70
     1
 43
0.0
 10
3600.0
 20
600.0
 10
3600.0
 20
660.0
 10
4100.0
 20
660.0
 10
4100.0
 20
600.0
  0
TEXT
  5
7EE0
330
1F
100
AcDbEntity
  8
01注記寸法
100
AcDbText
 10
4261.0
 20
615.0
 30
0.0
 40
30.0
  1
内野
 72
     1
 11
4300.0
 21
630.0
 31
0.0
100
AcDbText
 73
     2
  0
TEXT
  5
7EE2
330
1F
100
AcDbEntity
  8
01注記寸法
100
AcDbText
 10
3694.0
 20
615.000075415428
 30
0.0
 40
30.0
  1
適用防振架台追加
 72
     1
 11
3850.0
 21
630.000075415428
 31
0.0
100
AcDbText
 73
     2
  0
TEXT
  5
7EE3
330
1F
100
AcDbEntity
  8
01注記寸法
100
AcDbText
 10
3340.25
 20
608.1370000000003
 30
0.0
 40
30.0
  1
2
 72
     4
 11
3350.0
 21
623.2870000000003
 31
0.0
100
AcDbText
  0
LWPOLYLINE
  5
7EE7
330
1F
100
AcDbEntity
  8
01注記寸法
100
AcDbPolyline
 90
        4
 70
     1
 43
0.0
 10
3300.0
 20
540.0
 10
3300.0
 20
600.0
 10
3400.0
 20
600.0
 10
3400.0
 20
540.0
  0
LWPOLYLINE
  5
7EE8
330
1F
100
AcDbEntity
  8
01注記寸法
100
AcDbPolyline
 90
        4
 70
     1
 43
0.0
 10
4250.0
 20
540.0
 10
4250.0
 20
600.0
 10
4350.0
 20
600.0
 10
4350.0
 20
540.0
  0
LWPOLYLINE
  5
7EE9
330
1F
100
AcDbEntity
  8
01注記寸法
100
AcDbPolyline
 90
        4
 70
     1
 43
0.0
 10
3400.0
 20
540.0
 10
3400.0
 20
600.0
 10
3600.0
 20
600.0
 10
3600.0
 20
540.0
  0
LWPOLYLINE
  5
7EEA
330
1F
100
AcDbEntity
  8
01注記寸法
100
AcDbPolyline
 90
        4
 70
     1
 43
0.0
 10
3600.0
 20
540.0
 10
3600.0
 20
600.0
 10
4100.0
 20
600.0
 10
4100.0
 20
540.0
  0
TEXT
  5
7EEB
330
1F
100
AcDbEntity
  8
01注記寸法
100
AcDbText
 10
4261.0
 20
555.0
 30
0.0
 40
30.0
  1
担当
 72
     1
 11
4300.0
 21
570.0
 31
0.0
100
AcDbText
 73
     2
  0
TEXT
  5
7EED
330
1F
100
AcDbEntity
  8
08非表示
100
AcDbText
 10
3801.25
 20
555.000075415428
 30
0.0
 40
30.0
  1
*****
 72
     1
 11
3850.0
 21
570.000075415428
 31
0.0
100
AcDbText
 73
     2
  0
TEXT
  5
7EEE
330
1F
100
AcDbEntity
  8
08非表示
100
AcDbText
 10
3340.25
 20
548.1370000000003
 30
0.0
 40
30.0
  1
3
 72
     4
 11
3350.0
 21
563.2870000000003
 31
0.0
100
AcDbText
  0
LWPOLYLINE
  5
7EF2
330
1F
100
AcDbEntity
  8
01注記寸法
100
AcDbPolyline
 90
        4
 70
     1
 43
0.0
 10
3300.0
 20
480.0
 10
3300.0
 20
540.0
 10
3400.0
 20
540.0
 10
3400.0
 20
480.0
  0
LWPOLYLINE
  5
7EF3
330
1F
100
AcDbEntity
  8
01注記寸法
100
AcDbPolyline
 90
        4
 70
     1
 43
0.0
 10
4250.0
 20
480.0
 10
4250.0
 20
540.0
 10
4350.0
 20
540.0
 10
4350.0
 20
480.0
  0
LWPOLYLINE
  5
7EF4
330
1F
100
AcDbEntity
  8
01注記寸法
100
AcDbPolyline
 90
        4
 70
     1
 43
0.0
 10
3400.0
 20
480.0
 10
3400.0
 20
540.0
 10
3600.0
 20
540.0
 10
3600.0
 20
480.0
  0
LWPOLYLINE
  5
7EF5
330
1F
100
AcDbEntity
  8
01注記寸法
100
AcDbPolyline
 90
        4
 70
     1
 43
0.0
 10
3600.0
 20
480.0
 10
3600.0
 20
540.0
 10
4100.0
 20
540.0
 10
4100.0
 20
480.0
  0
TEXT
  5
7EF6
330
1F
100
AcDbEntity
  8
01注記寸法
100
AcDbText
 10
4261.0
 20
495.0
 30
0.0
 40
30.0
  1
担当
 72
     1
 11
4300.0
 21
510.0
 31
0.0
100
AcDbText
 73
     2
  0
TEXT
  5
7EF8
330
1F
100
AcDbEntity
  8
08非表示
100
AcDbText
 10
3801.25
 20
495.000075415428
 30
0.0
 40
30.0
  1
*****
 72
     1
 11
3850.0
 21
510.000075415428
 31
0.0
100
AcDbText
 73
     2
  0
TEXT
  5
7EF9
330
1F
100
AcDbEntity
  8
08非表示
100
AcDbText
 10
3340.25
 20
488.1370000000003
 30
0.0
 40
30.0
  1
4
 72
     4
 11
3350.0
 21
503.2870000000003
 31
0.0
100
AcDbText
  0
LWPOLYLINE
  5
7EFD
330
1F
100
AcDbEntity
  8
01注記寸法
100
AcDbPolyline
 90
        4
 70
     1
 43
0.0
 10
3300.0
 20
420.0
 10
3300.0
 20
480.0
 10
3400.0
 20
480.0
 10
3400.0
 20
420.0
  0
LWPOLYLINE
  5
7EFE
330
1F
100
AcDbEntity
  8
01注記寸法
100
AcDbPolyline
 90
        4
 70
     1
 43
0.0
 10
4250.0
 20
420.0
 10
4250.0
 20
480.0
 10
4350.0
 20
480.0
 10
4350.0
 20
420.0
  0
LWPOLYLINE
  5
7EFF
330
1F
100
AcDbEntity
  8
01注記寸法
100
AcDbPolyline
 90
        4
 70
     1
 43
0.0
 10
3400.0
 20
420.0
 10
3400.0
 20
480.0
 10
3600.0
 20
480.0
 10
3600.0
 20
420.0
  0
LWPOLYLINE
  5
7F00
330
1F
100
AcDbEntity
  8
01注記寸法
100
AcDbPolyline
 90
        4
 70
     1
 43
0.0
 10
3600.0
 20
420.0
 10
3600.0
 20
480.0
 10
4100.0
 20
480.0
 10
4100.0
 20
420.0
  0
TEXT
  5
7F01
330
1F
100
AcDbEntity
  8
01注記寸法
100
AcDbText
 10
4261.0
 20
435.0
 30
0.0
 40
30.0
  1
担当
 72
     1
 11
4300.0
 21
450.0
 31
0.0
100
AcDbText
 73
     2
  0
TEXT
  5
7F03
330
1F
100
AcDbEntity
  8
08非表示
100
AcDbText
 10
3801.25
 20
435.000075415428
 30
0.0
 40
30.0
  1
*****
 72
     1
 11
3850.0
 21
450.000075415428
 31
0.0
100
AcDbText
 73
     2
  0
TEXT
  5
7F04
330
1F
100
AcDbEntity
  8
08非表示
100
AcDbText
 10
3340.25
 20
428.1370000000003
 30
0.0
 40
30.0
  1
5
 72
     4
 11
3350.0
 21
443.2870000000003
 31
0.0
100
AcDbText
  0
ARC
  5
7F08
330
1F
100
AcDbEntity
  8
09図枠
100
AcDbCircle
 10
3340.0
 20
2210.0
 30
0.0
 40
30.0
100
AcDbArc
 50
90.0
 51
270.0
  0
ARC
  5
7F09
330
1F
100
AcDbEntity
  8
09図枠
100
AcDbCircle
 10
3480.0
 20
2210.0
 30
0.0
 40
30.0
100
AcDbArc
 50
270.0
 51
90.0
  0
LINE
  5
7F0A
330
1F
100
AcDbEntity
  8
09図枠
100
AcDbLine
 10
3340.0
 20
2240.0
 30
0.0
 11
3480.0
 21
2240.0
 31
0.0
  0
LINE
  5
7F0B
330
1F
100
AcDbEntity
  8
09図枠
100
AcDbLine
 10
3340.0
 20
2180.0
 30
0.0
 11
3480.0
 21
2180.0
 31
0.0
  0
TEXT
  5
7F0C
330
1F
100
AcDbEntity
  8
01注記寸法
100
AcDbText
 10
3371.0
 20
2195.0
 30
0.0
 40
30.0
  1
仕様
 72
     1
 11
3410.0
 21
2210.0
 31
0.0
100
AcDbText
 73
     2
  0
TEXT
  5
7F0D
330
1F
100
AcDbEntity
  8
01注記寸法
100
AcDbText
 10
3330.0
 20
2135.0
 30
0.0
 40
30.0
  1
架台質量
 11
3330.0
 21
2150.0
 31
0.0
100
AcDbText
 73
     2
  0
TEXT
  5
7F12
330
1F
100
AcDbEntity
  8
01注記寸法
100
AcDbText
 10
4041.0
 20
2135.0
 30
0.0
 40
30.0
  1
kg
 72
     2
 11
4080.0
 21
2150.0
 31
0.0
100
AcDbText
 73
     2
  0
TEXT
  5
7F13
330
1F
100
AcDbEntity
  8
01注記寸法
100
AcDbText
 10
3981.0
 20
2135.0
 30
0.0
 40
30.0
  1
20
 72
     2
 11
4020.0
 21
2150.0
 31
0.0
100
AcDbText
 73
     2
  0
LINE
  5
7F19
330
1F
100
AcDbEntity
  8
01注記寸法
100
AcDbLine
 10
4100.0
 20
2120.0
 30
0.0
 11
3300.0
 21
2120.0
 31
0.0
  0
TEXT
  5
7F1B
330
1F
100
AcDbEntity
  8
01注記寸法
100
AcDbText
 10
3330.0
 20
2075.0
 30
0.0
 40
30.0
  1
材質
 11
3330.0
 21
2090.0
 31
0.0
100
AcDbText
 73
     2
  0
TEXT
  5
7F1C
330
1F
100
AcDbEntity
  8
01注記寸法
100
AcDbText
 10
3904.5
 20
2075.0
 30
0.0
 40
30.0
  1
SS400相当
 72
     2
 11
4080.0
 21
2090.0
 31
0.0
100
AcDbText
 73
     2
  0
LINE
  5
7F47
330
1F
100
AcDbEntity
  8
09図枠
100
AcDbLine
 10
4100.0
 20
1450.0
 30
0.0
 11
3300.0
 21
1450.0
 31
0.0
  0
LINE
  5
7F48
330
1F
100
AcDbEntity
  8
09図枠
100
AcDbLine
 10
3340.0
 20
1440.0
 30
0.0
 11
3480.0
 21
1440.0
 31
0.0
  0
ARC
  5
7F49
330
1F
100
AcDbEntity
  8
09図枠
100
AcDbCircle
 10
3480.0
 20
1410.0
 30
0.0
 40
30.0
100
AcDbArc
 50
270.0
 51
90.0
  0
TEXT
  5
7F4A
330
1F
100
AcDbEntity
  8
01注記寸法
100
AcDbText
 10
3351.500198931677
 20
1395.0
 30
0.0
 40
30.0
  1
その他
 72
     1
 11
3410.000198931677
 21
1410.0
 31
0.0
100
AcDbText
 73
     2
  0
LINE
  5
7F4B
330
1F
100
AcDbEntity
  8
09図枠
100
AcDbLine
 10
3340.0
 20
1380.0
 30
0.0
 11
3480.0
 21
1380.0
 31
0.0
  0
ARC
  5
7F4C
330
1F
100
AcDbEntity
  8
09図枠
100
AcDbCircle
 10
3340.0
 20
1410.0
 30
0.0
 40
30.0
100
AcDbArc
 50
90.0
 51
270.0
  0
LWPOLYLINE
  5
7F4E
330
1F
100
AcDbEntity
  8
01注記寸法
100
AcDbPolyline
 90
        4
 70
     1
 43
0.0
 10
3900.0
 20
-110.0
 10
3900.0
 20
-50.0
 10
4000.0
 20
-50.0
 10
4000.0
 20
-110.0
  0
LWPOLYLINE
  5
7F4F
330
1F
100
AcDbEntity
  8
01注記寸法
100
AcDbPolyline
 90
        4
 70
     1
 43
0.0
 10
3200.0
 20
-110.0
 10
3200.0
 20
-50.0
 10
3400.0
 20
-50.0
 10
3400.0
 20
-110.0
  0
LWPOLYLINE
  5
7F50
330
1F
100
AcDbEntity
  8
01注記寸法
100
AcDbPolyline
 90
        4
 70
     1
 43
0.0
 10
3400.0
 20
-110.0
 10
3400.0
 20
-50.0
 10
3900.0
 20
-50.0
 10
3900.0
 20
-110.0
  0
TEXT
  5
7F51
330
1F
100
AcDbEntity
  8
01注記寸法
100
AcDbText
 10
3911.0
 20
-95.0
 30
0.0
 40
30.0
  1
担当
 72
     1
 11
3950.0
 21
-80.0
 31
0.0
100
AcDbText
 73
     2
  0
TEXT
  5
7F52
330
1F
100
AcDbEntity
  8
01注記寸法
100
AcDbText
 10
3261.0
 20
-95.0
 30
0.0
 40
30.0
  1
日付
 72
     1
 11
3300.0
 21
-80.0
 31
0.0
100
AcDbText
 73
     2
  0
TEXT
  5
7F53
330
1F
100
AcDbEntity
  8
01注記寸法
100
AcDbText
 10
3474.5
 20
-95.0
 30
0.0
 40
30.0
  1
社内都合による改訂
 72
     1
 11
3650.0
 21
-80.0
 31
0.0
100
AcDbText
 73
     2
  0
LWPOLYLINE
  5
7F54
330
1F
100
AcDbEntity
  8
01注記寸法
100
AcDbPolyline
 90
        4
 70
     1
 43
0.0
 10
3900.0
 20
-170.0
 10
3900.0
 20
-110.0
 10
4000.0
 20
-110.0
 10
4000.0
 20
-170.0
  0
LWPOLYLINE
  5
7F55
330
1F
100
AcDbEntity
  8
01注記寸法
100
AcDbPolyline
 90
        4
 70
     1
 43
0.0
 10
3200.0
 20
-170.0
 10
3200.0
 20
-110.0
 10
3400.0
 20
-110.0
 10
3400.0
 20
-170.0
  0
LWPOLYLINE
  5
7F56
330
1F
100
AcDbEntity
  8
01注記寸法
100
AcDbPolyline
 90
        4
 70
     1
 43
0.0
 10
3400.0
 20
-170.0
 10
3400.0
 20
-110.0
 10
3900.0
 20
-110.0
 10
3900.0
 20
-170.0
  0
TEXT
  5
7F57
330
1F
100
AcDbEntity
  8
01注記寸法
100
AcDbText
 10
3911.0
 20
-155.0
 30
0.0
 40
30.0
  1
担当
 72
     1
 11
3950.0
 21
-140.0
 31
0.0
100
AcDbText
 73
     2
  0
TEXT
  5
7F58
330
1F
100
AcDbEntity
  8
01注記寸法
100
AcDbText
 10
3212.25
 20
-154.9998953774398
 30
0.0
 40
30.0
  1
'yy.mm.dd
 72
     1
 11
3300.0
 21
-139.9998953774398
 31
0.0
100
AcDbText
 73
     2
  0
TEXT
  5
7F59
330
1F
100
AcDbEntity
  8
01注記寸法
100
AcDbText
 10
3601.25
 20
-154.999924584572
 30
0.0
 40
30.0
  1
*****
 72
     1
 11
3650.0
 21
-139.999924584572
 31
0.0
100
AcDbText
 73
     2
  0
LWPOLYLINE
  5
7F8D
330
1F
100
AcDbEntity
  8
01注記寸法
100
AcDbPolyline
 90
        4
 70
     1
 43
0.0
 10
4350.0
 20
720.0
 10
4350.0
 20
780.0
 10
4550.0
 20
780.0
 10
4550.0
 20
720.0
  0
TEXT
  5
7F8E
330
1F
100
AcDbEntity
  8
01注記寸法
100
AcDbText
 10
4391.5
 20
735.000328543565
 30
0.0
 40
30.0
  1
依頼書
 72
     1
 11
4450.0
 21
750.000328543565
 31
0.0
100
AcDbText
 73
     2
  0
LWPOLYLINE
  5
7F8F
330
1F
100
AcDbEntity
  8
01注記寸法
100
AcDbPolyline
 90
        4
 70
     1
 43
0.0
 10
4350.0
 20
660.0
 10
4350.0
 20
720.0
 10
4550.0
 20
720.0
 10
4550.0
 20
660.0
  0
TEXT
  5
7F90
330
1F
100
AcDbEntity
  8
01注記寸法
100
AcDbText
 10
4362.25
 20
675.000328543565
 30
0.0
 40
30.0
  1
T1703333B
 72
     1
 11
4450.0
 21
690.000328543565
 31
0.0
100
AcDbText
 73
     2
  0
TEXT
  5
7F91
330
1F
100
AcDbEntity
  8
01注記寸法
100
AcDbText
 10
4372.0
 20
615.000075415428
 30
0.0
 40
30.0
  1
T1705014
 72
     1
 11
4450.0
 21
630.000075415428
 31
0.0
100
AcDbText
 73
     2
  0
LWPOLYLINE
  5
7F92
330
1F
100
AcDbEntity
  8
01注記寸法
100
AcDbPolyline
 90
        4
 70
     1
 43
0.0
 10
4350.0
 20
600.0
 10
4350.0
 20
660.0
 10
4550.0
 20
660.0
 10
4550.0
 20
600.0
  0
TEXT
  5
7F93
330
1F
100
AcDbEntity
  8
01注記寸法
100
AcDbText
 10
4391.5
 20
555.000075415428
 30
0.0
 40
30.0
  1
******
 72
     1
 11
4450.0
 21
570.000075415428
 31
0.0
100
AcDbText
 73
     2
  0
LWPOLYLINE
  5
7F94
330
1F
100
AcDbEntity
  8
01注記寸法
100
AcDbPolyline
 90
        4
 70
     1
 43
0.0
 10
4350.0
 20
540.0
 10
4350.0
 20
600.0
 10
4550.0
 20
600.0
 10
4550.0
 20
540.0
  0
TEXT
  5
7F95
330
1F
100
AcDbEntity
  8
01注記寸法
100
AcDbText
 10
4391.5
 20
495.000075415428
 30
0.0
 40
30.0
  1
******
 72
     1
 11
4450.0
 21
510.000075415428
 31
0.0
100
AcDbText
 73
     2
  0
LWPOLYLINE
  5
7F96
330
1F
100
AcDbEntity
  8
01注記寸法
100
AcDbPolyline
 90
        4
 70
     1
 43
0.0
 10
4350.0
 20
480.0
 10
4350.0
 20
540.0
 10
4550.0
 20
540.0
 10
4550.0
 20
480.0
  0
TEXT
  5
7F97
330
1F
100
AcDbEntity
  8
01注記寸法
100
AcDbText
 10
4391.5
 20
435.000075415428
 30
0.0
 40
30.0
  1
******
 72
     1
 11
4450.0
 21
450.000075415428
 31
0.0
100
AcDbText
 73
     2
  0
LWPOLYLINE
  5
7F98
330
1F
100
AcDbEntity
  8
01注記寸法
100
AcDbPolyline
 90
        4
 70
     1
 43
0.0
 10
4350.0
 20
420.0
 10
4350.0
 20
480.0
 10
4550.0
 20
480.0
 10
4550.0
 20
420.0
  0
TEXT
  5
7FC3
330
1F
100
AcDbEntity
  8
01注記寸法
100
AcDbText
 10
3330.0
 20
1275.0
 30
0.0
 40
30.0
  1
　底面全体で水平面に設置してください。
 11
3330.0
 21
1290.0
 31
0.0
100
AcDbText
 73
     2
  0
TEXT
  5
7FC9
330
1F
100
AcDbEntity
  8
01注記寸法
100
AcDbText
 10
130.0
 20
55.0
 30
0.0
 40
30.0
  1
A3
 11
130.0
 21
70.0
 31
0.0
100
AcDbText
 73
     2
  0
TEXT
  5
7FCA
330
1F
100
AcDbEntity
  8
01注記寸法
100
AcDbText
 10
230.0
 20
55.0
 30
0.0
 40
30.0
  1
SCALE=
 11
230.0
 21
70.0
 31
0.0
100
AcDbText
 73
     2
  0
TEXT
  5
7FCB
330
1F
100
AcDbEntity
  8
01注記寸法
100
AcDbText
 10
360.0
 20
55.0
 30
0.0
 40
30.0
  1
1:10
 11
360.0
 21
70.0
 31
0.0
100
AcDbText
 73
     2
  0
LWPOLYLINE
  5
807F
330
1F
100
AcDbEntity
  8
01注記寸法
100
AcDbPolyline
 90
        4
 70
     1
 43
0.0
 10
4000.0
 20
-110.0
 10
4000.0
 20
-50.0
 10
4200.0
 20
-50.0
 10
4200.0
 20
-110.0
  0
TEXT
  5
8080
330
1F
100
AcDbEntity
  8
01注記寸法
100
AcDbText
 10
4041.5
 20
-94.99967145643495
 30
0.0
 40
30.0
  1
依頼書
 72
     1
 11
4100.0
 21
-79.99967145643495
 31
0.0
100
AcDbText
 73
     2
  0
LWPOLYLINE
  5
8081
330
1F
100
AcDbEntity
  8
01注記寸法
100
AcDbPolyline
 90
        4
 70
     1
 43
0.0
 10
4000.0
 20
-170.0
 10
4000.0
 20
-110.0
 10
4200.0
 20
-110.0
 10
4200.0
 20
-170.0
  0
TEXT
  5
8082
330
1F
100
AcDbEntity
  8
01注記寸法
100
AcDbText
 10
4041.5
 20
-154.999671456435
 30
0.0
 40
30.0
  1
******
 72
     1
 11
4100.0
 21
-139.999671456435
 31
0.0
100
AcDbText
 73
     2
  0
TEXT
  5
818F
330
1F
100
AcDbEntity
  8
01注記寸法
100
AcDbText
 10
3330.000198931677
 20
2015.0
 30
0.0
 40
30.0
  1
表面処理
 11
3330.000198931677
 21
2030.0
 31
0.0
100
AcDbText
 73
     2
  0
LINE
  5
8191
330
1F
100
AcDbEntity
  8
09図枠
100
AcDbLine
 10
4100.0
 20
1880.0
 30
0.0
 11
3300.0
 21
1880.0
 31
0.0
  0
TEXT
  5
8192
330
1F
100
AcDbEntity
  8
01注記寸法
100
AcDbText
 10
3807.000198931677
 20
2015.0
 30
0.0
 40
30.0
  1
溶融亜鉛めっき
 72
     2
 11
4080.000198931677
 21
2030.0
 31
0.0
100
AcDbText
 73
     2
  0
TEXT
  5
8193
330
1F
100
AcDbEntity
  8
01注記寸法
100
AcDbText
 10
3885.000198931677
 20
1955.0
 30
0.0
 40
30.0
  1
2種・HDZ45
 72
     2
 11
4080.000198931677
 21
1970.0
 31
0.0
100
AcDbText
 73
     2
  0
LINE
  5
8194
330
1F
100
AcDbEntity
  8
09図枠
100
AcDbLine
 10
3340.0
 20
1810.0
 30
0.0
 11
3480.0
 21
1810.0
 31
0.0
  0
ARC
  5
8195
330
1F
100
AcDbEntity
  8
09図枠
100
AcDbCircle
 10
3480.0
 20
1840.0
 30
0.0
 40
30.0
100
AcDbArc
 50
270.0
 51
90.0
  0
LINE
  5
8196
330
1F
100
AcDbEntity
  8
09図枠
100
AcDbLine
 10
3340.0
 20
1870.0
 30
0.0
 11
3480.0
 21
1870.0
 31
0.0
  0
TEXT
  5
8197
330
1F
100
AcDbEntity
  8
01注記寸法
100
AcDbText
 10
3351.500198931677
 20
1825.0
 30
0.0
 40
30.0
  1
付属品
 72
     1
 11
3410.000198931677
 21
1840.0
 31
0.0
100
AcDbText
 73
     2
  0
ARC
  5
8199
330
1F
100
AcDbEntity
  8
09図枠
100
AcDbCircle
 10
3340.0
 20
1840.0
 30
0.0
 40
30.0
100
AcDbArc
 50
90.0
 51
270.0
  0
TEXT
  5
819A
330
1F
100
AcDbEntity
  8
01注記寸法
100
AcDbText
 10
3330.000198931677
 20
1765.0
 30
0.0
 40
30.0
  1
機器固定ボルト
 11
3330.000198931677
 21
1780.0
 31
0.0
100
AcDbText
 73
     2
  0
TEXT
  5
819C
330
1F
100
AcDbEntity
  8
01注記寸法
100
AcDbText
 10
3807.000198931677
 20
1765.0
 30
0.0
 40
30.0
  1
溶融亜鉛めっき
 72
     2
 11
4080.000198931677
 21
1780.0
 31
0.0
100
AcDbText
 73
     2
  0
TEXT
  5
819D
330
1F
100
AcDbEntity
  8
01注記寸法
100
AcDbText
 10
3963.000198931677
 20
1705.0
 30
0.0
 40
30.0
  1
セット
 72
     2
 11
4080.000198931677
 21
1720.0
 31
0.0
100
AcDbText
 73
     2
  0
TEXT
  5
819F
330
1F
100
AcDbEntity
  8
01注記寸法
100
AcDbText
 10
3360.0
 20
1705.0
 30
0.0
 40
30.0
  1
M10×40L
 11
3360.0
 21
1720.0
 31
0.0
100
AcDbText
 73
     2
  0
TEXT
  5
81A1
330
1F
100
AcDbEntity
  8
01注記寸法
100
AcDbText
 10
3935.5002
 20
1705.0
 30
0.0
 40
30.0
  1
4
 72
     2
 11
3955.0002
 21
1720.0
 31
0.0
100
AcDbText
 73
     2
  0
TEXT
  5
81A4
330
1F
100
AcDbEntity
  8
01注記寸法
100
AcDbText
 10
3540.0
 20
1705.0
 30
0.0
 40
30.0
  1
(平W×2,NT×2付)
 11
3540.0
 21
1720.0
 31
0.0
100
AcDbText
 73
     2
  0
TEXT
  5
81A5
330
1F
100
AcDbEntity
  8
01注記寸法
100
AcDbText
 10
3935.500198931677
 20
1585.0
 30
0.0
 40
30.0
  1
4
 72
     2
 11
3955.000198931677
 21
1600.0
 31
0.0
100
AcDbText
 73
     2
  0
TEXT
  5
81A6
330
1F
100
AcDbEntity
  8
01注記寸法
100
AcDbText
 10
3963.000198931677
 20
1585.0
 30
0.0
 40
30.0
  1
セット
 72
     2
 11
4080.000198931677
 21
1600.0
 31
0.0
100
AcDbText
 73
     2
  0
TEXT
  5
81A7
330
1F
100
AcDbEntity
  8
01注記寸法
100
AcDbText
 10
3807.000198931677
 20
1645.0
 30
0.0
 40
30.0
  1
溶融亜鉛めっき
 72
     2
 11
4080.000198931677
 21
1660.0
 31
0.0
100
AcDbText
 73
     2
  0
TEXT
  5
81AA
330
1F
100
AcDbEntity
  8
01注記寸法
100
AcDbText
 10
3540.0
 20
1585.0
 30
0.0
 40
30.0
  1
(平W,角W,NT×2付)
 11
3540.0
 21
1600.0
 31
0.0
100
AcDbText
 73
     2
  0
TEXT
  5
81AB
330
1F
100
AcDbEntity
  8
01注記寸法
100
AcDbText
 10
3360.0
 20
1585.0
 30
0.0
 40
30.0
  1
M10×70L
 11
3360.0
 21
1600.0
 31
0.0
100
AcDbText
 73
     2
  0
TEXT
  5
81AC
330
1F
100
AcDbEntity
  8
01注記寸法
100
AcDbText
 10
3330.000198931677
 20
1645.0
 30
0.0
 40
30.0
  1
防振架台固定ボルト
 11
3330.000198931677
 21
1660.0
 31
0.0
100
AcDbText
 73
     2
  0
TEXT
  5
81AD
330
1F
100
AcDbEntity
  8
08非表示
100
AcDbText
 10
3330.000198931677
 20
1525.0
 30
0.0
 40
30.0
  1
架台連結ボルト
 11
3330.000198931677
 21
1540.0
 31
0.0
100
AcDbText
 73
     2
  0
TEXT
  5
81AE
330
1F
100
AcDbEntity
  8
08非表示
100
AcDbText
 10
3360.0
 20
1465.0
 30
0.0
 40
30.0
  1
M16×40L
 11
3360.0
 21
1480.0
 31
0.0
100
AcDbText
 73
     2
  0
TEXT
  5
81AF
330
1F
100
AcDbEntity
  8
08非表示
100
AcDbText
 10
3540.0
 20
1465.0
 30
0.0
 40
30.0
  1
(平W×2,NT×2付)
 11
3540.0
 21
1480.0
 31
0.0
100
AcDbText
 73
     2
  0
TEXT
  5
81B0
330
1F
100
AcDbEntity
  8
08非表示
100
AcDbText
 10
3807.000198931677
 20
1525.0
 30
0.0
 40
30.0
  1
溶融亜鉛めっき
 72
     2
 11
4080.000198931677
 21
1540.0
 31
0.0
100
AcDbText
 73
     2
  0
TEXT
  5
81B1
330
1F
100
AcDbEntity
  8
08非表示
100
AcDbText
 10
3935.500198931677
 20
1465.0
 30
0.0
 40
30.0
  1
4
 72
     2
 11
3955.000198931677
 21
1480.0
 31
0.0
100
AcDbText
 73
     2
  0
TEXT
  5
81B2
330
1F
100
AcDbEntity
  8
08非表示
100
AcDbText
 10
3963.000198931677
 20
1465.0
 30
0.0
 40
30.0
  1
セット
 72
     2
 11
4080.000198931677
 21
1480.0
 31
0.0
100
AcDbText
 73
     2
  0
TEXT
  5
81BB
330
1F
100
AcDbEntity
  8
01注記寸法
100
AcDbText
 10
3330.0
 20
1895.0
 30
0.0
 40
30.0
  1
耐震基準
 11
3330.0
 21
1910.0
 31
0.0
100
AcDbText
 73
     2
  0
TEXT
  5
81BC
330
1F
100
AcDbEntity
  8
01注記寸法
100
AcDbText
 10
4002.0
 20
1895.0
 30
0.0
 40
30.0
  1
2.0G
 72
     2
 11
4080.0
 21
1910.0
 31
0.0
100
AcDbText
 73
     2
  0
CIRCLE
  5
81BD
330
1F
100
AcDbEntity
  8
08非表示
100
AcDbCircle
 10
3565.0
 20
1840.0
 30
0.0
 40
25.0
  0
TEXT
  5
81BE
330
1F
100
AcDbEntity
  8
08非表示
100
AcDbText
 10
3555.25
 20
1825.0
 30
0.0
 40
30.0
  1
A
 72
     1
 11
3565.0
 21
1840.0
 31
0.0
100
AcDbText
 73
     2
  0
CIRCLE
  5
81BF
330
1F
100
AcDbEntity
  8
08非表示
100
AcDbCircle
 10
3615.0
 20
1840.0
 30
0.0
 40
25.0
  0
TEXT
  5
81C0
330
1F
100
AcDbEntity
  8
08非表示
100
AcDbText
 10
3605.25
 20
1825.0
 30
0.0
 40
30.0
  1
B
 72
     1
 11
3615.0
 21
1840.0
 31
0.0
100
AcDbText
 73
     2
  0
CIRCLE
  5
81C1
330
1F
100
AcDbEntity
  8
08非表示
100
AcDbCircle
 10
3665.0
 20
1840.0
 30
0.0
 40
25.0
  0
TEXT
  5
81C2
330
1F
100
AcDbEntity
  8
08非表示
100
AcDbText
 10
3655.25
 20
1825.0
 30
0.0
 40
30.0
  1
C
 72
     1
 11
3665.0
 21
1840.0
 31
0.0
100
AcDbText
 73
     2
  0
CIRCLE
  5
81C3
330
1F
100
AcDbEntity
  8
08非表示
100
AcDbCircle
 10
3715.0
 20
1840.0
 30
0.0
 40
25.0
  0
TEXT
  5
81C4
330
1F
100
AcDbEntity
  8
08非表示
100
AcDbText
 10
3705.25
 20
1825.0
 30
0.0
 40
30.0
  1
1
 72
     1
 11
3715.0
 21
1840.0
 31
0.0
100
AcDbText
 73
     2
  0
TEXT
  5
81C5
330
1F
100
AcDbEntity
  8
08非表示
100
AcDbText
 10
3755.25
 20
1825.0
 30
0.0
 40
30.0
  1
2
 72
     1
 11
3765.0
 21
1840.0
 31
0.0
100
AcDbText
 73
     2
  0
CIRCLE
  5
81C6
330
1F
100
AcDbEntity
  8
08非表示
100
AcDbCircle
 10
3765.0
 20
1840.0
 30
0.0
 40
25.0
  0
TEXT
  5
81C7
330
1F
100
AcDbEntity
  8
08非表示
100
AcDbText
 10
3805.25
 20
1825.0
 30
0.0
 40
30.0
  1
3
 72
     1
 11
3815.0
 21
1840.0
 31
0.0
100
AcDbText
 73
     2
  0
CIRCLE
  5
81C8
330
1F
100
AcDbEntity
  8
08非表示
100
AcDbCircle
 10
3815.0
 20
1840.0
 30
0.0
 40
25.0
  0
LINE
  5
81CD
330
1F
100
AcDbEntity
  8
01注記寸法
100
AcDbLine
 10
4100.0
 20
1940.0
 30
0.0
 11
3300.0
 21
1940.0
 31
0.0
  0
TEXT
  5
81E7
330
1F
100
AcDbEntity
  8
01注記寸法
100
AcDbText
 10
3330.0
 20
1215.0
 30
0.0
 40
30.0
  1
2.アンカーボルトは含まれておりません。
 11
3330.0
 21
1230.0
 31
0.0
100
AcDbText
 73
     2
  0
TEXT
  5
81E8
330
1F
100
AcDbEntity
  8
01注記寸法
100
AcDbText
 10
3330.0
 20
1155.0
 30
0.0
 40
30.0
  1
　先様にてご用意ください。
 11
3330.0
 21
1170.0
 31
0.0
100
AcDbText
 73
     2
  0
TEXT
  5
81F8
330
1F
100
AcDbEntity
  8
01注記寸法
100
AcDbText
 10
3330.0
 20
1335.0
 30
0.0
 40
30.0
  1
1.架台の据付
 11
3330.0
 21
1350.0
 31
0.0
100
AcDbText
 73
     2
  0
LINE
  5
86AE
330
1F
100
AcDbEntity
  8
08非表示
100
AcDbLine
 10
4100.0
 20
2060.0
 30
0.0
 11
3300.0
 21
2060.0
 31
0.0
  0
LINE
  5
86AF
330
1F
100
AcDbEntity
  8
08非表示
100
AcDbLine
 10
4250.0
 20
690.0
 30
0.0
 11
4100.0
 21
690.0
 31
0.0
  0
LINE
  5
86B0
330
1F
100
AcDbEntity
  8
08非表示
100
AcDbLine
 10
4250.0
 20
630.0
 30
0.0
 11
4100.0
 21
630.0
 31
0.0
  0
LINE
  5
86B1
330
1F
100
AcDbEntity
  8
08非表示
100
AcDbLine
 10
4250.0
 20
570.0
 30
0.0
 11
4100.0
 21
570.0
 31
0.0
  0
LINE
  5
86B2
330
1F
100
AcDbEntity
  8
08非表示
100
AcDbLine
 10
4250.0
 20
510.0
 30
0.0
 11
4100.0
 21
510.0
 31
0.0
  0
LINE
  5
86B3
330
1F
100
AcDbEntity
  8
08非表示
100
AcDbLine
 10
4250.0
 20
450.0
 30
0.0
 11
4100.0
 21
450.0
 31
0.0
  0
TEXT
  5
86B4
330
1F
100
AcDbEntity
  8
01注記寸法
100
AcDbText
 10
3412.25
 20
615.0001
 30
0.0
 40
30.0
  1
'17.05.26
 72
     1
 11
3500.0
 21
630.0001
 31
0.0
100
AcDbText
 73
     2
  0
TEXT
  5
86B5
330
1F
100
AcDbEntity
  8
08非表示
100
AcDbText
 10
3412.25
 20
555.0001
 30
0.0
 40
30.0
  1
'yy.mm.dd
 72
     1
 11
3500.0
 21
570.0001
 31
0.0
100
AcDbText
 73
     2
  0
TEXT
  5
86B6
330
1F
100
AcDbEntity
  8
08非表示
100
AcDbText
 10
3412.25
 20
495.0001
 30
0.0
 40
30.0
  1
'yy.mm.dd
 72
     1
 11
3500.0
 21
510.0001
 31
0.0
100
AcDbText
 73
     2
  0
TEXT
  5
86B7
330
1F
100
AcDbEntity
  8
08非表示
100
AcDbText
 10
3412.25
 20
435.0001
 30
0.0
 40
30.0
  1
'yy.mm.dd
 72
     1
 11
3500.0
 21
450.0001
 31
0.0
100
AcDbText
 73
     2
  0
LWPOLYLINE
  5
86F1
330
1F
100
AcDbEntity
  8
01注記寸法
100
AcDbPolyline
 90
        4
 70
     1
 43
0.0
 10
0.0
 20
-110.0
 10
0.0
 20
-50.0
 10
500.0
 20
-50.0
 10
500.0
 20
-110.0
  0
TEXT
  5
86F2
330
1F
100
AcDbEntity
  8
01注記寸法
100
AcDbText
 10
172.0
 20
-95.0
 30
0.0
 40
30.0
  1
適用機種
 72
     1
 11
250.0
 21
-80.0
 31
0.0
100
AcDbText
 73
     2
  0
LWPOLYLINE
  5
86F3
330
1F
100
AcDbEntity
  8
01注記寸法
100
AcDbPolyline
 90
        4
 70
     1
 43
0.0
 10
0.0
 20
-170.0
 10
0.0
 20
-110.0
 10
500.0
 20
-110.0
 10
500.0
 20
-170.0
  0
TEXT
  5
86FD
330
1F
100
AcDbEntity
  8
01注記寸法
100
AcDbText
 10
10.0
 20
-155.0
 30
0.0
 40
30.0
  1
*****
 11
10.0
 21
-140.0
 31
0.0
100
AcDbText
 73
     2
  0
TEXT
  5
885B
330
1F
100
AcDbEntity
  8
01注記寸法
100
AcDbText
 10
3407.5
 20
2765.0
 30
0.0
 40
50.0
  1
高置ＢＨ架台仕様書
 72
     1
 11
3700.0
 21
2790.0
 31
0.0
100
AcDbText
 73
     2
  0
TEXT
  5
8864
330
1F
100
AcDbEntity
  8
08非表示
100
AcDbText
 10
3676.0
 20
2580.0
 30
0.0
 40
40.0
  1
メーカー
 72
     1
 11
3780.0
 21
2600.0
 31
0.0
100
AcDbText
 73
     2
  0
TEXT
  5
8865
330
1F
100
AcDbEntity
  8
08非表示
100
AcDbText
 10
3702.0
 20
2520.0
 30
0.0
 40
40.0
  1
機種名
 72
     1
 11
3780.0
 21
2540.0
 31
0.0
100
AcDbText
 73
     2
  0
TEXT
  5
8867
330
1F
100
AcDbEntity
  8
08非表示
100
AcDbText
 10
3721.5
 20
2455.0
 30
0.0
 40
30.0
  1
*** kg
 72
     1
 11
3780.0
 21
2470.0
 31
0.0
100
AcDbText
 73
     2
  0
TEXT
  5
8869
330
1F
100
AcDbEntity
  8
08非表示
100
AcDbText
 10
3731.25
 20
2265.0
 30
0.0
 40
30.0
  1
*****
 72
     1
 11
3780.0
 21
2280.0
 31
0.0
100
AcDbText
 73
     2
  0
TEXT
  5
886D
330
1F
100
AcDbEntity
  8
08非表示
100
AcDbText
 10
3672.75
 20
2355.0
 30
0.0
 40
30.0
  1
現場名(1行)
 72
     1
 11
3780.0
 21
2370.0
 31
0.0
100
AcDbText
 73
     2
  0
TEXT
  5
886E
330
1F
100
AcDbEntity
  8
08非表示
100
AcDbText
 10
3653.25
 20
2385.0
 30
0.0
 40
30.0
  1
現場名(1/2行)
 72
     1
 11
3780.0
 21
2400.0
 31
0.0
100
AcDbText
 73
     2
  0
TEXT
  5
886F
330
1F
100
AcDbEntity
  8
08非表示
100
AcDbText
 10
3653.25
 20
2325.0
 30
0.0
 40
30.0
  1
現場名(2/2行)
 72
     1
 11
3780.0
 21
2340.0
 31
0.0
100
AcDbText
 73
     2
  0
LWPOLYLINE
  5
8C2C
330
1F
100
AcDbEntity
  8
01注記寸法
100
AcDbPolyline
 90
        4
 70
     1
 43
0.0
 10
4250.0
 20
290.0
 10
4250.0
 20
350.0
 10
4350.0
 20
350.0
 10
4350.0
 20
290.0
  0
TEXT
  5
8C2E
330
1F
100
AcDbEntity
  8
01注記寸法
100
AcDbText
 10
4372.0
 20
305.000075415428
 30
0.0
 40
30.0
  1
T1606314
 72
     1
 11
4450.0
 21
320.000075415428
 31
0.0
100
AcDbText
 73
     2
  0
LWPOLYLINE
  5
8C2F
330
1F
100
AcDbEntity
  8
01注記寸法
100
AcDbPolyline
 90
        4
 70
     1
 43
0.0
 10
4350.0
 20
290.0
 10
4350.0
 20
350.0
 10
4550.0
 20
350.0
 10
4550.0
 20
290.0
  0
LINE
  5
8C30
330
1F
100
AcDbEntity
  8
08非表示
100
AcDbLine
 10
4250.0
 20
320.0
 30
0.0
 11
4100.0
 21
320.0
 31
0.0
  0
LINE
  5
8C31
330
1F
100
AcDbEntity
  8
01注記寸法
100
AcDbLine
 10
4250.0
 20
290.0
 30
0.0
 11
4350.0
 21
350.0
 31
0.0
  0
LWPOLYLINE
  5
969D
330
1F
100
AcDbEntity
  8
01注記寸法
100
AcDbPolyline
 90
        4
 70
     0
 43
0.0
 10
3350.000000000002
 20
710.7667907562245
 10
3323.576531036949
 20
665.0
 10
3376.423468963051
 20
665.0
 10
3350.000000000002
 20
710.7667907562245
  0
LWPOLYLINE
  5
96A0
330
1F
100
AcDbEntity
  8
01注記寸法
100
AcDbPolyline
 90
        4
 70
     0
 43
0.0
 10
3350.000000000002
 20
650.7667907562245
 10
3323.576531036949
 20
605.0
 10
3376.423468963051
 20
605.0
 10
3350.000000000002
 20
650.7667907562245
  0
LWPOLYLINE
  5
96A1
330
1F
100
AcDbEntity
  8
08非表示
100
AcDbPolyline
 90
        4
 70
     0
 43
0.0
 10
3350.000000000002
 20
590.7667907562245
 10
3323.576531036949
 20
545.0
 10
3376.423468963051
 20
545.0
 10
3350.000000000002
 20
590.7667907562245
  0
LWPOLYLINE
  5
96A2
330
1F
100
AcDbEntity
  8
08非表示
100
AcDbPolyline
 90
        4
 70
     0
 43
0.0
 10
3350.000000000002
 20
530.7667907562245
 10
3323.576531036949
 20
485.0
 10
3376.423468963051
 20
485.0
 10
3350.000000000002
 20
530.7667907562245
  0
LWPOLYLINE
  5
96A3
330
1F
100
AcDbEntity
  8
08非表示
100
AcDbPolyline
 90
        4
 70
     0
 43
0.0
 10
3350.000000000002
 20
470.7667907562245
 10
3323.576531036949
 20
425.0
 10
3376.423468963051
 20
425.0
 10
3350.000000000002
 20
470.7667907562245
  0
LINE
  5
9A59
330
1F
100
AcDbEntity
  8
08非表示
100
AcDbLine
 10
4080.0
 20
2120.0
 30
0.0
 11
4080.0
 21
2180.0
 31
0.0
  0
LINE
  5
9A5B
330
1F
100
AcDbEntity
  8
08非表示
100
AcDbLine
 10
3330.0
 20
2180.0
 30
0.0
 11
3330.0
 21
2120.0
 31
0.0
  0
LINE
  5
9A5C
330
1F
100
AcDbEntity
  8
08非表示
100
AcDbLine
 10
4020.0
 20
2120.0
 30
0.0
 11
4020.0
 21
2180.0
 31
0.0
  0
LINE
  5
9A60
330
1F
100
AcDbEntity
  8
08非表示
100
AcDbLine
 10
4080.0
 20
2060.0
 30
0.0
 11
4080.0
 21
2120.0
 31
0.0
  0
LINE
  5
9A62
330
1F
100
AcDbEntity
  8
08非表示
100
AcDbLine
 10
3330.0
 20
2120.0
 30
0.0
 11
3330.0
 21
2060.0
 31
0.0
  0
LINE
  5
9A63
330
1F
100
AcDbEntity
  8
08非表示
100
AcDbLine
 10
3330.0
 20
2000.0
 30
0.0
 11
3330.0
 21
1940.0
 31
0.0
  0
LINE
  5
9A65
330
1F
100
AcDbEntity
  8
08非表示
100
AcDbLine
 10
4080.0
 20
1940.0
 30
0.0
 11
4080.0
 21
2000.0
 31
0.0
  0
LINE
  5
9A69
330
1F
100
AcDbEntity
  8
08非表示
100
AcDbLine
 10
3330.0
 20
1940.0
 30
0.0
 11
3330.0
 21
1880.0
 31
0.0
  0
LINE
  5
9A6B
330
1F
100
AcDbEntity
  8
08非表示
100
AcDbLine
 10
4080.0
 20
1880.0
 30
0.0
 11
4080.0
 21
1940.0
 31
0.0
  0
LINE
  5
9A6C
330
1F
100
AcDbEntity
  8
08非表示
100
AcDbLine
 10
4080.0
 20
2000.0
 30
0.0
 11
4080.0
 21
2060.0
 31
0.0
  0
LINE
  5
9A6E
330
1F
100
AcDbEntity
  8
08非表示
100
AcDbLine
 10
3330.0
 20
2060.0
 30
0.0
 11
3330.0
 21
2000.0
 31
0.0
  0
LINE
  5
9A6F
330
1F
100
AcDbEntity
  8
08非表示
100
AcDbLine
 10
4100.0
 20
2180.0
 30
0.0
 11
3300.0
 21
2180.0
 31
0.0
  0
LINE
  5
9A72
330
1F
100
AcDbEntity
  8
08非表示
100
AcDbLine
 10
3540.0
 20
1450.0
 30
0.0
 11
3540.0
 21
1510.0
 31
0.0
  0
LINE
  5
9A73
330
1F
100
AcDbEntity
  8
08非表示
100
AcDbLine
 10
4080.0
 20
1450.0
 30
0.0
 11
4080.0
 21
1510.0
 31
0.0
  0
LINE
  5
9A75
330
1F
100
AcDbEntity
  8
08非表示
100
AcDbLine
 10
3955.0
 20
1450.0
 30
0.0
 11
3955.0
 21
1510.0
 31
0.0
  0
LINE
  5
9A76
330
1F
100
AcDbEntity
  8
08非表示
100
AcDbLine
 10
3360.0
 20
1510.0
 30
0.0
 11
3360.0
 21
1450.0
 31
0.0
  0
LINE
  5
9A77
330
1F
100
AcDbEntity
  8
08非表示
100
AcDbLine
 10
3330.0
 20
1570.0
 30
0.0
 11
3330.0
 21
1510.0
 31
0.0
  0
LINE
  5
9A7A
330
1F
100
AcDbEntity
  8
08非表示
100
AcDbLine
 10
4080.0
 20
1510.0
 30
0.0
 11
4080.0
 21
1570.0
 31
0.0
  0
LINE
  5
9A7C
330
1F
100
AcDbEntity
  8
08非表示
100
AcDbLine
 10
3300.0
 20
2000.0
 30
0.0
 11
4100.0
 21
2000.0
 31
0.0
  0
LINE
  5
9A7D
330
1F
100
AcDbEntity
  8
08非表示
100
AcDbLine
 10
3300.0
 20
1510.0
 30
0.0
 11
4100.0
 21
1510.0
 31
0.0
  0
LINE
  5
9A7E
330
1F
100
AcDbEntity
  8
08非表示
100
AcDbLine
 10
3300.0
 20
1570.0
 30
0.0
 11
4100.0
 21
1570.0
 31
0.0
  0
LINE
  5
9A7F
330
1F
100
AcDbEntity
  8
08非表示
100
AcDbLine
 10
3330.0
 20
1690.0
 30
0.0
 11
3330.0
 21
1630.0
 31
0.0
  0
LINE
  5
9A80
330
1F
100
AcDbEntity
  8
08非表示
100
AcDbLine
 10
3300.0
 20
1690.0
 30
0.0
 11
4100.0
 21
1690.0
 31
0.0
  0
LINE
  5
9A83
330
1F
100
AcDbEntity
  8
08非表示
100
AcDbLine
 10
3300.0
 20
1630.0
 30
0.0
 11
4100.0
 21
1630.0
 31
0.0
  0
LINE
  5
9A84
330
1F
100
AcDbEntity
  8
08非表示
100
AcDbLine
 10
3360.0
 20
1630.0
 30
0.0
 11
3360.0
 21
1570.0
 31
0.0
  0
LINE
  5
9A85
330
1F
100
AcDbEntity
  8
08非表示
100
AcDbLine
 10
3540.0
 20
1570.0
 30
0.0
 11
3540.0
 21
1630.0
 31
0.0
  0
LINE
  5
9A86
330
1F
100
AcDbEntity
  8
08非表示
100
AcDbLine
 10
3955.0
 20
1570.0
 30
0.0
 11
3955.0
 21
1630.0
 31
0.0
  0
LINE
  5
9A87
330
1F
100
AcDbEntity
  8
08非表示
100
AcDbLine
 10
4080.0
 20
1570.0
 30
0.0
 11
4080.0
 21
1630.0
 31
0.0
  0
LINE
  5
9A88
330
1F
100
AcDbEntity
  8
08非表示
100
AcDbLine
 10
4080.0
 20
1630.0
 30
0.0
 11
4080.0
 21
1690.0
 31
0.0
  0
LINE
  5
9A89
330
1F
100
AcDbEntity
  8
08非表示
100
AcDbLine
 10
3330.0
 20
1810.0
 30
0.0
 11
3330.0
 21
1750.0
 31
0.0
  0
LINE
  5
9A8A
330
1F
100
AcDbEntity
  8
08非表示
100
AcDbLine
 10
3300.0
 20
1810.0
 30
0.0
 11
4100.0
 21
1810.0
 31
0.0
  0
LINE
  5
9A8D
330
1F
100
AcDbEntity
  8
08非表示
100
AcDbLine
 10
3300.0
 20
1750.0
 30
0.0
 11
4100.0
 21
1750.0
 31
0.0
  0
LINE
  5
9A8E
330
1F
100
AcDbEntity
  8
08非表示
100
AcDbLine
 10
3360.0
 20
1750.0
 30
0.0
 11
3360.0
 21
1690.0
 31
0.0
  0
LINE
  5
9A8F
330
1F
100
AcDbEntity
  8
08非表示
100
AcDbLine
 10
3540.0
 20
1690.0
 30
0.0
 11
3540.0
 21
1750.0
 31
0.0
  0
LINE
  5
9A90
330
1F
100
AcDbEntity
  8
08非表示
100
AcDbLine
 10
3955.0
 20
1690.0
 30
0.0
 11
3955.0
 21
1750.0
 31
0.0
  0
LINE
  5
9A91
330
1F
100
AcDbEntity
  8
08非表示
100
AcDbLine
 10
4080.0
 20
1690.0
 30
0.0
 11
4080.0
 21
1750.0
 31
0.0
  0
LINE
  5
9A92
330
1F
100
AcDbEntity
  8
08非表示
100
AcDbLine
 10
4080.0
 20
1750.0
 30
0.0
 11
4080.0
 21
1810.0
 31
0.0
  0
LINE
  5
9A93
330
1F
100
AcDbEntity
  8
08非表示
100
AcDbLine
 10
3300.0
 20
1840.0
 30
0.0
 11
4100.0
 21
1840.0
 31
0.0
  0
LINE
  5
9A94
330
1F
100
AcDbEntity
  8
08非表示
100
AcDbLine
 10
4100.0
 20
2210.0
 30
0.0
 11
3300.0
 21
2210.0
 31
0.0
  0
LINE
  5
9A9C
330
1F
100
AcDbEntity
  8
08非表示
100
AcDbLine
 10
3300.0
 20
1380.0
 30
0.0
 11
4100.0
 21
1380.0
 31
0.0
  0
LINE
  5
9A9E
330
1F
100
AcDbEntity
  8
08非表示
100
AcDbLine
 10
3300.0
 20
1320.0
 30
0.0
 11
4100.0
 21
1320.0
 31
0.0
  0
LINE
  5
9AA0
330
1F
100
AcDbEntity
  8
08非表示
100
AcDbLine
 10
3300.0
 20
1260.0
 30
0.0
 11
4100.0
 21
1260.0
 31
0.0
  0
LINE
  5
9AA2
330
1F
100
AcDbEntity
  8
08非表示
100
AcDbLine
 10
3300.0
 20
1200.0
 30
0.0
 11
4100.0
 21
1200.0
 31
0.0
  0
LINE
  5
9AA4
330
1F
100
AcDbEntity
  8
08非表示
100
AcDbLine
 10
3300.0
 20
1140.0
 30
0.0
 11
4100.0
 21
1140.0
 31
0.0
  0
LINE
  5
9AA5
330
1F
100
AcDbEntity
  8
08非表示
100
AcDbLine
 10
3330.0
 20
1380.0
 30
0.0
 11
3330.0
 21
1320.0
 31
0.0
  0
LINE
  5
9AA6
330
1F
100
AcDbEntity
  8
08非表示
100
AcDbLine
 10
3330.0
 20
1320.0
 30
0.0
 11
3330.0
 21
1260.0
 31
0.0
  0
LINE
  5
9AA7
330
1F
100
AcDbEntity
  8
08非表示
100
AcDbLine
 10
3330.0
 20
1260.0
 30
0.0
 11
3330.0
 21
1200.0
 31
0.0
  0
LINE
  5
9AA8
330
1F
100
AcDbEntity
  8
08非表示
100
AcDbLine
 10
3330.0
 20
1200.0
 30
0.0
 11
3330.0
 21
1140.0
 31
0.0
  0
LINE
  5
9AAB
330
1F
100
AcDbEntity
  8
08非表示
100
AcDbLine
 10
3330.0
 20
2310.0
 30
0.0
 11
3330.0
 21
2250.0
 31
0.0
  0
LINE
  5
9AAC
330
1F
100
AcDbEntity
  8
08非表示
100
AcDbLine
 10
3300.0
 20
2280.0
 30
0.0
 11
4100.0
 21
2280.0
 31
0.0
  0
LINE
  5
9AAD
330
1F
100
AcDbEntity
  8
08非表示
100
AcDbLine
 10
3330.0
 20
2510.0
 30
0.0
 11
3330.0
 21
2430.0
 31
0.0
  0
LINE
  5
9AAE
330
1F
100
AcDbEntity
  8
08非表示
100
AcDbLine
 10
3300.0
 20
2470.0
 30
0.0
 11
4100.0
 21
2470.0
 31
0.0
  0
LINE
  5
9AAF
330
1F
100
AcDbEntity
  8
08非表示
100
AcDbLine
 10
3330.0
 20
2570.0
 30
0.0
 11
3330.0
 21
2510.0
 31
0.0
  0
LINE
  5
9AB0
330
1F
100
AcDbEntity
  8
08非表示
100
AcDbLine
 10
3300.0
 20
2540.0
 30
0.0
 11
4100.0
 21
2540.0
 31
0.0
  0
LINE
  5
9AB1
330
1F
100
AcDbEntity
  8
08非表示
100
AcDbLine
 10
3300.0
 20
2570.0
 30
0.0
 11
4100.0
 21
2570.0
 31
0.0
  0
LINE
  5
9AB2
330
1F
100
AcDbEntity
  8
08非表示
100
AcDbLine
 10
3330.0
 20
2600.0
 30
0.0
 11
3330.0
 21
2540.0
 31
0.0
  0
LINE
  5
9AB3
330
1F
100
AcDbEntity
  8
08非表示
100
AcDbLine
 10
3300.0
 20
2600.0
 30
0.0
 11
4100.0
 21
2600.0
 31
0.0
  0
LINE
  5
9AB4
330
1F
100
AcDbEntity
  8
08非表示
100
AcDbLine
 10
3330.0
 20
2630.0
 30
0.0
 11
3330.0
 21
2570.0
 31
0.0
  0
LINE
  5
9AB5
330
1F
100
AcDbEntity
  8
08非表示
100
AcDbLine
 10
3300.0
 20
2370.0
 30
0.0
 11
4100.0
 21
2370.0
 31
0.0
  0
LINE
  5
9AB6
330
1F
100
AcDbEntity
  8
08非表示
100
AcDbLine
 10
3330.0
 20
2400.0
 30
0.0
 11
3330.0
 21
2340.0
 31
0.0
  0
LINE
  5
9AB7
330
1F
100
AcDbEntity
  8
08非表示
100
AcDbLine
 10
3300.0
 20
2400.0
 30
0.0
 11
4100.0
 21
2400.0
 31
0.0
  0
LINE
  5
9AB8
330
1F
100
AcDbEntity
  8
08非表示
100
AcDbLine
 10
3300.0
 20
2340.0
 30
0.0
 11
4100.0
 21
2340.0
 31
0.0
  0
LINE
  5
9AB9
330
1F
100
AcDbEntity
  8
08非表示
100
AcDbLine
 10
3460.0
 20
2670.0
 30
0.0
 11
4100.0
 21
2670.0
 31
0.0
  0
LINE
  5
9ABA
330
1F
100
AcDbEntity
  8
08非表示
100
AcDbLine
 10
3780.0
 20
2710.0
 30
0.0
 11
3780.0
 21
2630.0
 31
0.0
  0
LINE
  5
9ABB
330
1F
100
AcDbEntity
  8
08非表示
100
AcDbLine
 10
3780.0
 20
2630.0
 30
0.0
 11
3780.0
 21
2430.0
 31
0.0
  0
LINE
  5
9ABC
330
1F
100
AcDbEntity
  8
08非表示
100
AcDbLine
 10
3780.0
 20
2430.0
 30
0.0
 11
3780.0
 21
2250.0
 31
0.0
  0
LINE
  5
A00E
330
1F
100
AcDbEntity
  8
08非表示
100
AcDbLine
 10
500.0
 20
-50.0
 30
0.0
 11
550.0
 21
-50.0
 31
0.0
  0
TEXT
  5
A162
330
1F
100
AcDbEntity
  8
13製作用注記
100
AcDbText
 10
154.9996887709727
 20
2894.999707135657
 30
0.0
 40
50.0
  1
製作用詳細図
 72
     1
 11
349.9996887709727
 21
2919.999707135657
 31
0.0
100
AcDbText
 73
     2
  0
LWPOLYLINE
  5
A163
330
1F
100
AcDbEntity
  8
13製作用注記
370
    30
100
AcDbPolyline
 90
        4
 70
     1
 43
0.0
 10
100.0
 20
2870.0
 10
100.0
 20
2970.0
 10
600.0000000000002
 20
2970.0
 10
600.0000000000002
 20
2870.0
  0
TEXT
  5
A3F3
330
1F
100
AcDbEntity
  8
08非表示
100
AcDbText
 10
3615.0
 20
5.48015625
 30
0.0
 40
30.0
  1
仕様書フォーム：2016年05月27日
 72
     2
 11
4200.0
 21
0.0
 31
0.0
100
AcDbText
 73
     1
  0
LWPOLYLINE
  5
A948
330
1F
100
AcDbEntity
  8
01注記寸法
100
AcDbPolyline
 90
        4
 70
     1
 43
0.0
 10
4250.0
 20
2910.0
 10
4250.0
 20
2970.0
 10
4600.0
 20
2970.0
 10
4600.0
 20
2910.0
  0
TEXT
  5
A94D
330
1F
100
AcDbEntity
  8
01注記寸法
100
AcDbText
 10
4270.0
 20
2925.0
 30
0.0
 40
30.0
  1
機器脚   t=
 11
4270.0
 21
2940.0
 31
0.0
100
AcDbText
 73
     2
  0
LINE
  5
A94E
330
1F
100
AcDbEntity
  8
08非表示
100
AcDbLine
 10
4500.0
 20
2910.0
 30
0.0
 11
4500.0
 21
2970.0
 31
0.0
  0
LWPOLYLINE
  5
A972
330
1F
100
AcDbEntity
  8
01注記寸法
100
AcDbPolyline
 90
        4
 70
     1
 43
0.0
 10
4250.0
 20
2850.0
 10
4250.0
 20
2910.0
 10
4600.0
 20
2910.0
 10
4600.0
 20
2850.0
  0
TEXT
  5
A974
330
1F
100
AcDbEntity
  8
01注記寸法
100
AcDbText
 10
4270.0
 20
2865.0
 30
0.0
 40
30.0
  1
アンカー M=
 11
4270.0
 21
2880.0
 31
0.0
100
AcDbText
 73
     2
  0
LINE
  5
A975
330
1F
100
AcDbEntity
  8
08非表示
100
AcDbLine
 10
4500.0
 20
2850.0
 30
0.0
 11
4500.0
 21
2910.0
 31
0.0
  0
TEXT
  5
A9E7
330
1F
100
AcDbEntity
  8
01注記寸法
100
AcDbText
 10
4520.75
 20
2925.0
 30
0.0
 40
30.0
  1
3.6
 72
     1
 11
4550.0
 21
2940.0
 31
0.0
100
AcDbText
 73
     2
  0
TEXT
  5
A9E8
330
1F
100
AcDbEntity
  8
01注記寸法
100
AcDbText
 10
4530.5
 20
2865.0
 30
0.0
 40
30.0
  1
12
 72
     1
 11
4550.0
 21
2880.0
 31
0.0
100
AcDbText
 73
     2
  0
LWPOLYLINE
  5
B716
330
1F
100
AcDbEntity
  8
01注記寸法
100
AcDbPolyline
 90
        4
 70
     1
 43
0.0
 10
3100.0
 20
-170.0
 10
3100.0
 20
-110.0
 10
3200.0
 20
-110.0
 10
3200.0
 20
-170.0
  0
TEXT
  5
B719
330
1F
100
AcDbEntity
  8
01注記寸法
100
AcDbText
 10
3111.0
 20
-95.0
 30
0.0
 40
30.0
  1
番号
 72
     1
 11
3150.0
 21
-80.0
 31
0.0
100
AcDbText
 73
     2
  0
LWPOLYLINE
  5
B71A
330
1F
100
AcDbEntity
  8
01注記寸法
100
AcDbPolyline
 90
        4
 70
     1
 43
0.0
 10
3100.0
 20
-110.0
 10
3100.0
 20
-50.0
 10
3200.0
 20
-50.0
 10
3200.0
 20
-110.0
  0
LWPOLYLINE
  5
B71B
330
1F
100
AcDbEntity
  8
01注記寸法
100
AcDbPolyline
 90
        4
 70
     1
 43
0.0
 10
3130.0
 20
-160.0
 10
3130.0
 20
-120.0
 10
3170.0
 20
-120.0
 10
3170.0
 20
-160.0
  0
TEXT
  5
B71D
330
1F
100
AcDbEntity
  8
01注記寸法
100
AcDbText
 10
3140.25
 20
-155.0
 30
0.0
 40
30.0
  1
1
 72
     1
 11
3150.0
 21
-140.0
 31
0.0
100
AcDbText
 73
     2
  0
INSERT
  5
BDFC
330
1F
100
AcDbEntity
  8
02実線
100
AcDbBlockReference
  2
BH-筋交(柱L60)-500H
 10
926.7999999999993
 20
1315.0
 30
0.0
  0
INSERT
  5
BDFD
330
1F
100
AcDbEntity
  8
02実線
100
AcDbBlockReference
  2
BH-端柱(L60)-500H-正面
 10
896.7999999999993
 20
1099.999999999998
 30
0.0
  0
INSERT
  5
BDFE
330
1F
100
AcDbEntity
  8
02実線
100
AcDbBlockReference
  2
BH-端柱(L60)-500H-側面
 10
2245.299999999999
 20
1100.0
 30
0.0
  0
INSERT
  5
BDFF
330
1F
100
AcDbEntity
  8
02実線
100
AcDbBlockReference
  2
BH-端柱(L60)-500H-正面
 10
1853.200000000001
 20
1099.999999999998
 30
0.0
 41
-1.0
  0
INSERT
  5
BE00
330
1F
100
AcDbEntity
  8
02実線
100
AcDbBlockReference
  2
BH-端柱(L60)-500H-側面
 10
2724.700000000001
 20
1100.0
 30
0.0
 41
-1.0
  0
LWPOLYLINE
  5
BE01
102
{ACAD_REACTORS
330
BE74
102
}
330
1F
100
AcDbEntity
  8
08非表示
100
AcDbPolyline
 90
        4
 70
     1
 43
0.0
 10
2714.000000000002
 20
1309.999999999998
 10
2714.000000000002
 20
1349.999999999998
 10
2724.700000000003
 20
1349.999999999998
 10
2724.700000000003
 20
1309.999999999998
  0
LWPOLYLINE
  5
BE02
102
{ACAD_REACTORS
330
BE74
102
}
330
1F
100
AcDbEntity
  8
08非表示
100
AcDbPolyline
 90
        4
 70
     1
 43
0.0
 10
2256.000000000002
 20
1309.999999999998
 10
2256.000000000002
 20
1349.999999999998
 10
2245.299999999999
 20
1349.999999999998
 10
2245.299999999999
 20
1309.999999999998
  0
LINE
  5
BE03
102
{ACAD_REACTORS
330
BE74
102
}
330
1F
100
AcDbEntity
  8
03破線
100
AcDbLine
 10
2256.000000000002
 20
1309.999999999998
 30
0.0
 11
2305.300000000001
 21
1309.999999999998
 31
0.0
  0
LINE
  5
BE04
102
{ACAD_REACTORS
330
BE74
102
}
330
1F
100
AcDbEntity
  8
03破線
100
AcDbLine
 10
2256.000000000002
 20
1349.999999999998
 30
0.0
 11
2305.300000000001
 21
1349.999999999998
 31
0.0
  0
LINE
  5
BE05
102
{ACAD_REACTORS
330
BE74
102
}
330
1F
100
AcDbEntity
  8
03破線
100
AcDbLine
 10
2256.000000000002
 20
1309.999999999998
 30
0.0
 11
2256.000000000002
 21
1349.999999999998
 31
0.0
  0
LINE
  5
BE06
102
{ACAD_REACTORS
330
BE74
102
}
330
1F
100
AcDbEntity
  8
03破線
100
AcDbLine
 10
2714.000000000002
 20
1309.999999999998
 30
0.0
 11
2664.700000000003
 21
1309.999999999998
 31
0.0
  0
LINE
  5
BE07
102
{ACAD_REACTORS
330
BE74
102
}
330
1F
100
AcDbEntity
  8
03破線
100
AcDbLine
 10
2714.000000000002
 20
1349.999999999998
 30
0.0
 11
2664.700000000003
 21
1349.999999999998
 31
0.0
  0
LINE
  5
BE08
102
{ACAD_REACTORS
330
BE74
102
}
330
1F
100
AcDbEntity
  8
03破線
100
AcDbLine
 10
2714.000000000002
 20
1309.999999999998
 30
0.0
 11
2714.000000000002
 21
1349.999999999998
 31
0.0
  0
LINE
  5
BE09
102
{ACAD_REACTORS
330
BE74
102
}
330
1F
100
AcDbEntity
  8
02実線
100
AcDbLine
 10
2664.700000000003
 20
1349.999999999998
 30
0.0
 11
2305.300000000001
 21
1349.999999999998
 31
0.0
  0
LINE
  5
BE0A
102
{ACAD_REACTORS
330
BE74
102
}
330
1F
100
AcDbEntity
  8
03破線
100
AcDbLine
 10
2714.000000000002
 20
1346.799999999999
 30
0.0
 11
2256.000000000002
 21
1346.799999999999
 31
0.0
  0
LINE
  5
BE0B
102
{ACAD_REACTORS
330
BE74
102
}
330
1F
100
AcDbEntity
  8
02実線
100
AcDbLine
 10
2664.700000000003
 20
1309.999999999998
 30
0.0
 11
2305.300000000001
 21
1309.999999999998
 31
0.0
  0
INSERT
  5
BE0C
330
1F
100
AcDbEntity
  8
03破線
100
AcDbBlockReference
  2
BH-anchor-L60-背面
 10
1821.200000000001
 20
1099.999999999998
 30
0.0
  0
INSERT
  5
BE0D
330
1F
100
AcDbEntity
  8
03破線
100
AcDbBlockReference
  2
BH-anchor-L60-背面
 10
928.7999999999993
 20
1099.999999999998
 30
0.0
  0
INSERT
  5
BE0E
330
1F
100
AcDbEntity
  8
03破線
100
AcDbBlockReference
  2
BH-anchor-L60-立面
 10
2684.5
 20
1100.0
 30
0.0
 41
-1.0
  0
INSERT
  5
BE0F
330
1F
100
AcDbEntity
  8
03破線
100
AcDbBlockReference
  2
BH-anchor-L60-立面
 10
2285.5
 20
1100.0
 30
0.0
  0
INSERT
  5
BE10
330
1F
100
AcDbEntity
  8
02実線
100
AcDbBlockReference
  2
BH-筋交(柱L60)-500H
 10
1823.200000000001
 20
1315.0
 30
0.0
 41
-1.0
  0
LWPOLYLINE
  5
BE11
102
{ACAD_REACTORS
330
BE76
102
}
330
1F
100
AcDbEntity
  8
03破線
100
AcDbPolyline
 90
        4
 70
     0
 43
0.0
 10
903.1999999999971
 20
1549.999999999998
 10
903.1999999999971
 20
1596.799999999999
 10
1846.799999999999
 20
1596.799999999999
 10
1846.799999999999
 20
1549.999999999998
  0
LINE
  5
BE12
102
{ACAD_REACTORS
330
BE76
102
}
330
1F
100
AcDbEntity
  8
03破線
100
AcDbLine
 10
903.1999999999971
 20
1549.999999999998
 30
0.0
 11
920.0
 21
1539.999999999998
 31
0.0
  0
LINE
  5
BE13
102
{ACAD_REACTORS
330
BE76
102
}
330
1F
100
AcDbEntity
  8
03破線
100
AcDbLine
 10
1846.799999999999
 20
1549.999999999998
 30
0.0
 11
1830.0
 21
1539.999999999998
 31
0.0
  0
LINE
  5
BE14
102
{ACAD_REACTORS
330
BE76
102
}
330
1F
100
AcDbEntity
  8
03破線
100
AcDbLine
 10
900.0
 20
1596.999999999998
 30
0.0
 11
900.0
 21
1549.999999999998
 31
0.0
  0
LINE
  5
BE15
102
{ACAD_REACTORS
330
BE76
102
}
330
1F
100
AcDbEntity
  8
03破線
100
AcDbLine
 10
1846.799999999999
 20
1549.999999999998
 30
0.0
 11
1850.0
 21
1549.999999999998
 31
0.0
  0
LINE
  5
BE16
102
{ACAD_REACTORS
330
BE76
102
}
330
1F
100
AcDbEntity
  8
03破線
100
AcDbLine
 10
903.1999999999971
 20
1549.999999999998
 30
0.0
 11
900.0
 21
1549.999999999998
 31
0.0
  0
LINE
  5
BE17
102
{ACAD_REACTORS
330
BE76
102
}
330
1F
100
AcDbEntity
  8
03破線
100
AcDbLine
 10
938.5
 20
1559.499999999998
 30
0.0
 11
921.5
 21
1559.499999999998
 31
0.0
  0
LINE
  5
BE18
102
{ACAD_REACTORS
330
BE76
102
}
330
1F
100
AcDbEntity
  8
03破線
100
AcDbLine
 10
938.5
 20
1572.499999999998
 30
0.0
 11
921.5
 21
1572.499999999998
 31
0.0
  0
ARC
  5
BE19
102
{ACAD_REACTORS
330
BE76
102
}
330
1F
100
AcDbEntity
  8
03破線
100
AcDbCircle
 10
938.5
 20
1565.999999999998
 30
0.0
 40
6.5
100
AcDbArc
 50
270.0
 51
90.0
  0
ARC
  5
BE1A
102
{ACAD_REACTORS
330
BE76
102
}
330
1F
100
AcDbEntity
  8
03破線
100
AcDbCircle
 10
921.5
 20
1565.999999999998
 30
0.0
 40
6.5
100
AcDbArc
 50
90.0
 51
270.0
  0
CIRCLE
  5
BE1B
102
{ACAD_REACTORS
330
BE76
102
}
330
1F
100
AcDbEntity
  8
02実線
100
AcDbCircle
 10
1239.0
 20
1564.999999999998
 30
0.0
 40
6.5
  0
CIRCLE
  5
BE1C
102
{ACAD_REACTORS
330
BE76
102
}
330
1F
100
AcDbEntity
  8
02実線
100
AcDbCircle
 10
1511.0
 20
1564.999999999998
 30
0.0
 40
6.5
  0
ARC
  5
BE1D
102
{ACAD_REACTORS
330
BE76
102
}
330
1F
100
AcDbEntity
  8
03破線
100
AcDbCircle
 10
1828.5
 20
1565.999999999998
 30
0.0
 40
6.5
100
AcDbArc
 50
270.0
 51
90.0
  0
ARC
  5
BE1E
102
{ACAD_REACTORS
330
BE76
102
}
330
1F
100
AcDbEntity
  8
03破線
100
AcDbCircle
 10
1811.5
 20
1565.999999999998
 30
0.0
 40
6.5
100
AcDbArc
 50
90.0
 51
270.0
  0
LINE
  5
BE1F
102
{ACAD_REACTORS
330
BE76
102
}
330
1F
100
AcDbEntity
  8
03破線
100
AcDbLine
 10
1811.5
 20
1572.499999999998
 30
0.0
 11
1828.5
 21
1572.499999999998
 31
0.0
  0
LINE
  5
BE20
102
{ACAD_REACTORS
330
BE76
102
}
330
1F
100
AcDbEntity
  8
03破線
100
AcDbLine
 10
1811.5
 20
1559.499999999998
 30
0.0
 11
1828.5
 21
1559.499999999998
 31
0.0
  0
LWPOLYLINE
  5
BE21
102
{ACAD_REACTORS
330
BE76
102
}
330
1F
100
AcDbEntity
  8
03破線
100
AcDbPolyline
 90
        2
 70
   128
 43
0.0
 10
956.7999999999993
 20
1539.999999999998
 10
920.0
 20
1539.999999999998
  0
LWPOLYLINE
  5
BE22
102
{ACAD_REACTORS
330
BE76
102
}
330
1F
100
AcDbEntity
  8
03破線
100
AcDbPolyline
 90
        2
 70
     0
 43
0.0
 10
1830.0
 20
1539.999999999998
 10
1793.200000000001
 20
1539.999999999998
  0
LWPOLYLINE
  5
BE23
102
{ACAD_REACTORS
330
BE76
102
}
330
1F
100
AcDbEntity
  8
02実線
100
AcDbPolyline
 90
        2
 70
     0
 43
0.0
 10
1793.200000000001
 20
1539.999999999998
 10
956.7999999999993
 20
1539.999999999998
  0
LWPOLYLINE
  5
BE24
102
{ACAD_REACTORS
330
BE76
102
}
330
1F
100
AcDbEntity
  8
03破線
100
AcDbPolyline
 90
        2
 70
     0
 43
0.0
 10
1850.0
 20
1596.999999999998
 10
1850.0
 20
1549.999999999998
  0
LWPOLYLINE
  5
BE25
102
{ACAD_REACTORS
330
BE76
102
}
330
1F
100
AcDbEntity
  8
02実線
100
AcDbPolyline
 90
        4
 70
     0
 43
0.0
 10
900.0
 20
1596.999999999998
 10
900.0
 20
1599.999999999998
 10
1850.0
 20
1599.999999999998
 10
1850.0
 20
1596.999999999998
  0
LINE
  5
BE26
102
{ACAD_REACTORS
330
BE76
102
}
330
1F
100
AcDbEntity
  8
04一点鎖線
 48
0.2
100
AcDbLine
 10
1239.0
 20
1581.499999999998
 30
0.0
 11
1239.0
 21
1548.499999999998
 31
0.0
  0
LINE
  5
BE27
102
{ACAD_REACTORS
330
BE76
102
}
330
1F
100
AcDbEntity
  8
04一点鎖線
 48
0.2
100
AcDbLine
 10
1255.5
 20
1564.999999999998
 30
0.0
 11
1222.5
 21
1564.999999999998
 31
0.0
  0
LINE
  5
BE28
102
{ACAD_REACTORS
330
BE76
102
}
330
1F
100
AcDbEntity
  8
04一点鎖線
 48
0.2
100
AcDbLine
 10
1511.0
 20
1581.499999999998
 30
0.0
 11
1511.0
 21
1548.499999999998
 31
0.0
  0
LINE
  5
BE29
102
{ACAD_REACTORS
330
BE76
102
}
330
1F
100
AcDbEntity
  8
04一点鎖線
 48
0.2
100
AcDbLine
 10
1527.5
 20
1564.999999999998
 30
0.0
 11
1494.5
 21
1564.999999999998
 31
0.0
  0
LWPOLYLINE
  5
BE2A
102
{ACAD_REACTORS
330
BE75
102
}
330
1F
100
AcDbEntity
  8
03破線
  6
HIDDEN
100
AcDbPolyline
 90
        4
 70
     0
 43
0.0
 10
2253.200000000001
 20
1549.999999999998
 10
2253.200000000001
 20
1596.799999999999
 10
2716.799999999999
 20
1596.799999999999
 10
2716.799999999999
 20
1549.999999999998
  0
LWPOLYLINE
  5
BE2B
102
{ACAD_REACTORS
330
BE75
102
}
330
1F
100
AcDbEntity
  8
02実線
100
AcDbPolyline
 90
        2
 70
     0
 43
0.0
 10
2660.0
 20
1539.999999999998
 10
2310.0
 20
1539.999999999998
  0
LINE
  5
BE2C
102
{ACAD_REACTORS
330
BE75
102
}
330
1F
100
AcDbEntity
  8
02実線
100
AcDbLine
 10
2310.0
 20
1539.999999999998
 30
0.0
 11
2310.0
 21
1549.999999999998
 31
0.0
  0
LINE
  5
BE2D
102
{ACAD_REACTORS
330
BE75
102
}
330
1F
100
AcDbEntity
  8
02実線
100
AcDbLine
 10
2660.0
 20
1539.999999999998
 30
0.0
 11
2660.0
 21
1549.999999999998
 31
0.0
  0
CIRCLE
  5
BE2E
102
{ACAD_REACTORS
330
BE75
102
}
330
1F
100
AcDbEntity
  8
02実線
100
AcDbCircle
 10
2350.0
 20
1569.999999999998
 30
0.0
 40
6.5
  0
CIRCLE
  5
BE2F
102
{ACAD_REACTORS
330
BE75
102
}
330
1F
100
AcDbEntity
  8
02実線
100
AcDbCircle
 10
2280.0
 20
1569.999999999998
 30
0.0
 40
6.5
  0
CIRCLE
  5
BE30
102
{ACAD_REACTORS
330
BE75
102
}
330
1F
100
AcDbEntity
  8
02実線
100
AcDbCircle
 10
2690.0
 20
1569.999999999998
 30
0.0
 40
6.5
  0
CIRCLE
  5
BE31
102
{ACAD_REACTORS
330
BE75
102
}
330
1F
100
AcDbEntity
  8
02実線
100
AcDbCircle
 10
2620.0
 20
1569.999999999998
 30
0.0
 40
6.5
  0
LINE
  5
BE32
102
{ACAD_REACTORS
330
BE75
102
}
330
1F
100
AcDbEntity
  8
02実線
100
AcDbLine
 10
2310.0
 20
1549.999999999998
 30
0.0
 11
2305.299999999999
 21
1549.999999999998
 31
0.0
  0
LWPOLYLINE
  5
BE33
102
{ACAD_REACTORS
330
BE75
102
}
330
1F
100
AcDbEntity
  8
03破線
  6
HIDDEN
100
AcDbPolyline
 90
        2
 70
     0
 43
0.0
 10
2250.0
 20
1549.999999999998
 10
2250.0
 20
1597.0
  0
LINE
  5
BE34
102
{ACAD_REACTORS
330
BE75
102
}
330
1F
100
AcDbEntity
  8
03破線
  6
HIDDEN
100
AcDbLine
 10
2305.299999999999
 20
1549.999999999998
 30
0.0
 11
2250.0
 21
1549.999999999998
 31
0.0
  0
LWPOLYLINE
  5
BE35
102
{ACAD_REACTORS
330
BE75
102
}
330
1F
100
AcDbEntity
  8
02実線
100
AcDbPolyline
 90
        4
 70
     0
 43
0.0
 10
2250.0
 20
1597.0
 10
2250.0
 20
1599.999999999998
 10
2720.0
 20
1599.999999999998
 10
2720.0
 20
1597.0
  0
LINE
  5
BE36
102
{ACAD_REACTORS
330
BE75
102
}
330
1F
100
AcDbEntity
  8
02実線
100
AcDbLine
 10
2660.0
 20
1549.999999999998
 30
0.0
 11
2664.700000000001
 21
1549.999999999998
 31
0.0
  0
LWPOLYLINE
  5
BE37
102
{ACAD_REACTORS
330
BE75
102
}
330
1F
100
AcDbEntity
  8
03破線
  6
HIDDEN
100
AcDbPolyline
 90
        2
 70
     0
 43
0.0
 10
2720.0
 20
1597.0
 10
2720.0
 20
1549.999999999998
  0
LINE
  5
BE38
102
{ACAD_REACTORS
330
BE75
102
}
330
1F
100
AcDbEntity
  8
03破線
  6
HIDDEN
100
AcDbLine
 10
2664.700000000001
 20
1549.999999999998
 30
0.0
 11
2720.0
 21
1549.999999999998
 31
0.0
  0
LINE
  5
BE39
102
{ACAD_REACTORS
330
BE75
102
}
330
1F
100
AcDbEntity
  8
04一点鎖線
 48
0.2
100
AcDbLine
 10
2636.5
 20
1569.999999999998
 30
0.0
 11
2603.5
 21
1569.999999999998
 31
0.0
  0
LINE
  5
BE3A
102
{ACAD_REACTORS
330
BE75
102
}
330
1F
100
AcDbEntity
  8
04一点鎖線
 48
0.2
100
AcDbLine
 10
2620.0
 20
1553.499999999998
 30
0.0
 11
2620.0
 21
1586.499999999998
 31
0.0
  0
LINE
  5
BE3B
102
{ACAD_REACTORS
330
BE75
102
}
330
1F
100
AcDbEntity
  8
04一点鎖線
 48
0.2
100
AcDbLine
 10
2366.5
 20
1569.999999999998
 30
0.0
 11
2333.5
 21
1569.999999999998
 31
0.0
  0
LINE
  5
BE3C
102
{ACAD_REACTORS
330
BE75
102
}
330
1F
100
AcDbEntity
  8
04一点鎖線
 48
0.2
100
AcDbLine
 10
2350.0
 20
1553.499999999998
 30
0.0
 11
2350.0
 21
1586.499999999998
 31
0.0
  0
LWPOLYLINE
  5
BE3D
330
1F
100
AcDbEntity
  8
02実線
100
AcDbPolyline
 90
        4
 70
     1
 43
0.0
 10
900.0
 20
1899.999999999998
 10
900.0
 20
2369.999999999998
 10
1850.0
 20
2369.999999999998
 10
1850.0
 20
1899.999999999998
  0
LWPOLYLINE
  5
BE3F
330
1F
100
AcDbEntity
  8
03破線
100
AcDbPolyline
 90
        4
 70
     1
 43
0.0
 10
903.2000000000007
 20
1903.199999999998
 10
903.2000000000007
 20
2366.799999999999
 10
1846.799999999999
 20
2366.799999999999
 10
1846.799999999999
 20
1903.199999999998
  0
INSERT
  5
BE40
330
1F
100
AcDbEntity
  8
02実線
100
AcDbBlockReference
  2
BH-端柱(L60)-平面
 10
896.7999999999993
 20
1895.299999999999
 30
0.0
  0
INSERT
  5
BE41
330
1F
100
AcDbEntity
  8
02実線
100
AcDbBlockReference
  2
BH-端柱(L60)-平面
 10
896.7999999999993
 20
2374.699999999998
 30
0.0
 41
-1.0
 50
180.0
  0
INSERT
  5
BE42
330
1F
100
AcDbEntity
  8
02実線
100
AcDbBlockReference
  2
BH-端柱(L60)-平面
 10
1853.200000000001
 20
2374.699999999998
 30
0.0
 50
180.0
  0
INSERT
  5
BE43
330
1F
100
AcDbEntity
  8
02実線
100
AcDbBlockReference
  2
BH-端柱(L60)-平面
 10
1853.200000000001
 20
1895.299999999999
 30
0.0
 41
-1.0
  0
DIMENSION
  5
BE5B
330
1F
100
AcDbEntity
  8
01注記寸法
100
AcDbDimension
  2
*D539
 10
1850.0
 20
2669.999999999998
 30
0.0
 11
1375.0
 21
2694.999999999998
 31
0.0
 70
    32
 71
     5
 42
950.0
  3
NEMY-10
100
AcDbAlignedDimension
 13
900.0
 23
2371.5
 33
0.0
 14
1850.0
 24
2371.5
 34
0.0
100
AcDbRotatedDimension
  0
DIMENSION
  5
BE5C
330
1F
100
AcDbEntity
  8
01注記寸法
100
AcDbDimension
  2
*D540
 10
700.0
 20
1899.999999999998
 30
0.0
 11
675.0
 21
2134.999999999998
 31
0.0
 70
    32
 71
     5
 42
470.0
  3
NEMY-10
100
AcDbAlignedDimension
 13
900.0
 23
2369.999999999998
 33
0.0
 14
900.0
 24
1899.999999999998
 34
0.0
 50
90.0
100
AcDbRotatedDimension
  0
DIMENSION
  5
BE5D
330
1F
100
AcDbEntity
  8
08非表示
100
AcDbDimension
  2
*D541
 10
2720.0
 20
1699.999999999998
 30
0.0
 11
2485.0
 21
1724.999999999998
 31
0.0
 70
    32
 71
     5
 42
470.0
  3
NEMY-10
100
AcDbAlignedDimension
 13
2250.0
 23
1599.999999999998
 33
0.0
 14
2720.0
 24
1599.999999999998
 34
0.0
100
AcDbRotatedDimension
  0
DIMENSION
  5
BE62
330
1F
100
AcDbEntity
  8
13製作用注記
100
AcDbDimension
  2
*D542
 10
896.7999999999993
 20
1389.03712822468
 30
0.0
 11
808.9049999999993
 21
1414.03712822468
 31
0.0
 70
    32
 71
     5
 42
30.0
  3
NEMY-10
100
AcDbAlignedDimension
 13
926.7999999999993
 23
1331.499999999998
 33
0.0
 14
896.7999999999993
 24
1331.499999999998
 34
0.0
100
AcDbRotatedDimension
  0
DIMENSION
  5
BE63
330
1F
100
AcDbEntity
  8
13製作用注記
100
AcDbDimension
  2
*D543
 10
796.7999999999993
 20
1314.999999999998
 30
0.0
 11
771.7999999999993
 21
1207.499999999998
 31
0.0
 70
    32
 71
     5
 42
215.0
  3
NEMY-10
100
AcDbAlignedDimension
 13
896.7999999999993
 23
1099.999999999998
 33
0.0
 14
910.2999999999993
 24
1314.999999999998
 34
0.0
 50
90.0
100
AcDbRotatedDimension
  0
DIMENSION
  5
BE64
330
1F
100
AcDbEntity
  8
01注記寸法
100
AcDbDimension
  2
*D544
 10
700.0
 20
1599.999999999998
 30
0.0
 11
675.0
 21
1349.999999999998
 31
0.0
 70
    32
 71
     5
 42
500.0
  3
NEMY-10
100
AcDbAlignedDimension
 13
896.7999999999993
 23
1099.999999999998
 33
0.0
 14
900.0
 24
1599.999999999998
 34
0.0
 50
90.0
100
AcDbRotatedDimension
  0
DIMENSION
  5
BE65
330
1F
100
AcDbEntity
  8
13製作用注記
100
AcDbDimension
  2
*D545
 10
1279.341452661847
 20
1599.999999999998
 30
0.0
 11
1279.341452661847
 21
1477.494999999998
 31
0.0
 70
   160
 71
     5
 42
35.0
  3
NEMY-10
100
AcDbAlignedDimension
 13
1255.5
 23
1564.999999999998
 33
0.0
 14
1255.5
 24
1599.999999999998
 34
0.0
 50
90.0
100
AcDbRotatedDimension
  0
DIMENSION
  5
BE67
330
1F
100
AcDbEntity
  8
13製作用注記
100
AcDbDimension
  2
*D547
 10
1239.0
 20
1634.590488668675
 30
0.0
 11
1069.5
 21
1659.590488668675
 31
0.0
 70
    32
 71
     5
 42
339.0
  3
NEMY-10
100
AcDbAlignedDimension
 13
900.0
 23
1599.999999999998
 33
0.0
 14
1239.0
 24
1581.499999999998
 34
0.0
100
AcDbRotatedDimension
  0
DIMENSION
  5
BE68
330
1F
100
AcDbEntity
  8
13製作用注記
100
AcDbDimension
  2
*D548
 10
1511.0
 20
1634.590488668675
 30
0.0
 11
1375.0
 21
1659.590488668675
 31
0.0
 70
    32
 71
     5
 42
272.0
  3
NEMY-10
100
AcDbAlignedDimension
 13
1239.0
 23
1581.499999999998
 33
0.0
 14
1511.0
 24
1581.499999999998
 34
0.0
100
AcDbRotatedDimension
  0
DIMENSION
  5
BE6B
330
1F
100
AcDbEntity
  8
13製作用注記
100
AcDbDimension
  2
*D551
 10
1850.0
 20
1634.590488668675
 30
0.0
 11
1680.5
 21
1659.590488668675
 31
0.0
 70
    32
 71
     5
 42
339.0
  3
NEMY-10
100
AcDbAlignedDimension
 13
1511.0
 23
1581.499999999998
 33
0.0
 14
1850.0
 24
1599.999999999998
 34
0.0
100
AcDbRotatedDimension
  0
DIMENSION
  5
BE72
330
1F
100
AcDbEntity
  8
01注記寸法
100
AcDbDimension
  2
*D552
 10
2148.5
 20
1349.999999999998
 30
0.0
 11
2123.5
 21
1224.999999999999
 31
0.0
 70
    32
 71
     5
 42
249.9999999999982
  3
NEMY-10
100
AcDbAlignedDimension
 13
2245.299999999999
 23
1100.0
 33
0.0
 14
2256.000000000002
 24
1349.999999999998
 34
0.0
 50
90.0
100
AcDbRotatedDimension
  0
TEXT
  5
D023
330
1F
100
AcDbEntity
  8
01注記寸法
100
AcDbText
 10
3330.0
 20
1095.0
 30
0.0
 40
30.0
  1
3.品質改善のため製品の仕様は予告無く
 11
3330.0
 21
1110.0
 31
0.0
100
AcDbText
 73
     2
  0
TEXT
  5
D024
330
1F
100
AcDbEntity
  8
01注記寸法
100
AcDbText
 10
3330.0
 20
1035.0
 30
0.0
 40
30.0
  1
　変更する場合があります。
 11
3330.0
 21
1050.0
 31
0.0
100
AcDbText
 73
     2
  0
LINE
  5
D026
330
1F
100
AcDbEntity
  8
08非表示
100
AcDbLine
 10
3300.0
 20
1080.0
 30
0.0
 11
4100.0
 21
1080.0
 31
0.0
  0
LINE
  5
D028
330
1F
100
AcDbEntity
  8
08非表示
100
AcDbLine
 10
3300.0
 20
1020.0
 30
0.0
 11
4100.0
 21
1020.0
 31
0.0
  0
LINE
  5
D029
330
1F
100
AcDbEntity
  8
08非表示
100
AcDbLine
 10
3330.0
 20
1140.0
 30
0.0
 11
3330.0
 21
1080.0
 31
0.0
  0
LINE
  5
D02A
330
1F
100
AcDbEntity
  8
08非表示
100
AcDbLine
 10
3330.0
 20
1080.0
 30
0.0
 11
3330.0
 21
1020.0
 31
0.0
  0
LWPOLYLINE
  5
D0B8
330
1F
100
AcDbEntity
  8
08非表示
100
AcDbPolyline
 90
        4
 70
     1
 43
0.0
 10
800.0
 20
1799.999999999998
 10
800.0
 20
2469.999999999998
 10
1950.0
 20
2469.999999999998
 10
1950.0
 20
1799.999999999998
  0
LWPOLYLINE
  5
D0B9
330
1F
100
AcDbEntity
  8
08非表示
100
AcDbPolyline
 90
        4
 70
     1
 43
0.0
 10
700.0
 20
1699.999999999998
 10
700.0
 20
2569.999999999998
 10
2050.0
 20
2569.999999999998
 10
2050.0
 20
1699.999999999998
  0
LWPOLYLINE
  5
D5F5
330
1F
100
AcDbEntity
  8
09図枠
100
AcDbPolyline
 90
        4
 70
     1
 43
0.0
 10
100.0
 20
100.0
 10
100.0
 20
1000.000000000001
 10
3300.0
 20
1000.000000000001
 10
3300.0
 20
100.0
  0
LWPOLYLINE
  5
D62C
330
1F
100
AcDbEntity
  8
09図枠
100
AcDbPolyline
 90
        4
 70
     1
 43
0.0
 10
100.0
 20
1000.000000000001
 10
100.0
 20
2869.999999999999
 10
3300.0
 20
2869.999999999999
 10
3300.0
 20
1000.000000000001
  0
LWPOLYLINE
  5
D62E
330
1F
100
AcDbEntity
  8
01注記寸法
100
AcDbPolyline
 90
        4
 70
     1
 43
0.0
 10
3300.0
 20
280.0
 10
3300.0
 20
359.9999999999999
 10
3560.0
 20
359.9999999999999
 10
3560.0
 20
280.0
  0
LWPOLYLINE
  5
D62F
330
1F
100
AcDbEntity
  8
01注記寸法
100
AcDbPolyline
 90
        4
 70
     1
 43
0.0
 10
3560.0
 20
280.0
 10
3560.0
 20
360.0
 10
3740.0
 20
360.0
 10
3740.0
 20
280.0
  0
LWPOLYLINE
  5
D630
330
1F
100
AcDbEntity
  8
01注記寸法
100
AcDbPolyline
 90
        4
 70
     1
 43
0.0
 10
3740.0
 20
280.0
 10
3740.0
 20
360.0
 10
3920.0
 20
360.0
 10
3920.0
 20
280.0
  0
LWPOLYLINE
  5
D631
330
1F
100
AcDbEntity
  8
01注記寸法
100
AcDbPolyline
 90
        4
 70
     1
 43
0.0
 10
3920.0
 20
280.0
 10
3920.0
 20
360.0
 10
4100.0
 20
360.0
 10
4100.0
 20
280.0
  0
LWPOLYLINE
  5
D632
330
1F
100
AcDbEntity
  8
01注記寸法
100
AcDbPolyline
 90
        4
 70
     1
 43
0.0
 10
3300.0
 20
360.0
 10
3300.0
 20
419.9999999999998
 10
3560.0
 20
419.9999999999998
 10
3560.0
 20
360.0
  0
LWPOLYLINE
  5
D633
330
1F
100
AcDbEntity
  8
01注記寸法
100
AcDbPolyline
 90
        4
 70
     1
 43
0.0
 10
3560.0
 20
359.9999999999999
 10
3560.0
 20
419.9999999999999
 10
3740.0
 20
419.9999999999999
 10
3740.0
 20
359.9999999999999
  0
LWPOLYLINE
  5
D634
330
1F
100
AcDbEntity
  8
01注記寸法
100
AcDbPolyline
 90
        4
 70
     1
 43
0.0
 10
3740.0
 20
359.9999999999999
 10
3740.0
 20
419.9999999999999
 10
3920.0
 20
419.9999999999999
 10
3920.0
 20
359.9999999999999
  0
LWPOLYLINE
  5
D635
330
1F
100
AcDbEntity
  8
01注記寸法
100
AcDbPolyline
 90
        4
 70
     1
 43
0.0
 10
3920.0
 20
360.0
 10
3920.0
 20
419.9999999999999
 10
4100.0
 20
419.9999999999999
 10
4100.0
 20
360.0
  0
LWPOLYLINE
  5
D6C7
330
1F
100
AcDbEntity
  8
09図枠
100
AcDbPolyline
 90
        4
 70
     1
 43
0.0
 10
100.0
 20
100.0
 10
100.0
 20
1000.000000000001
 10
3300.0
 20
1000.000000000001
 10
3300.0
 20
100.0
  0
LINE
  5
D6D6
330
1F
100
AcDbEntity
  8
04一点鎖線
  6
CENTER
 48
0.2
100
AcDbLine
 10
3082.945876303434
 20
220.1336530409799
 30
0.0
 11
3082.945876303434
 21
191.6336530409799
 31
0.0
  0
DIMENSION
  5
D6DC
330
1F
100
AcDbEntity
  8
01注記寸法
100
AcDbDimension
  2
*D825
 10
2928.353113124998
 20
199.1336530409799
 30
0.0
 11
2928.353113124998
 21
405.8286530409832
 31
0.0
 70
   160
  1
MAX 30mm
 71
     5
 42
90.00000000000273
  3
NEMY-10
100
AcDbAlignedDimension
 13
3013.945876303434
 23
289.1336530409826
 33
0.0
 14
3013.945876303434
 24
199.1336530409799
 34
0.0
 50
90.0
100
AcDbRotatedDimension
  0
LINE
  5
D6DD
330
1F
100
AcDbEntity
  8
04一点鎖線
  6
CENTER
 48
0.2
100
AcDbLine
 10
2710.621565635247
 20
220.1336530409799
 30
0.0
 11
2710.621565635247
 21
191.6336530409799
 31
0.0
  0
TEXT
  5
D6DE
330
1F
100
AcDbEntity
  8
01注記寸法
100
AcDbText
 10
2530.0
 20
905.0
 30
0.0
 40
30.0
  1
<レベル調整>
 11
2530.0
 21
920.0
 31
0.0
100
AcDbText
 73
     2
  0
TEXT
  5
D6DF
330
1F
100
AcDbEntity
  8
01注記寸法
100
AcDbText
 10
2530.0
 20
845.0
 30
0.0
 40
30.0
  1
アンカー金具を上下にスライドさせて
 11
2530.0
 21
860.0
 31
0.0
100
AcDbText
 73
     2
  0
LWPOLYLINE
  5
D6E0
330
1F
100
AcDbEntity
  8
09図枠
100
AcDbPolyline
 90
        4
 70
     1
 43
0.0
 10
2500.0
 20
100.0
 10
2500.0
 20
1000.0
 10
3300.0
 20
1000.0
 10
3300.0
 20
100.0
  0
TEXT
  5
D6E1
330
1F
100
AcDbEntity
  8
01注記寸法
100
AcDbText
 10
2530.0
 20
785.0
 30
0.0
 40
30.0
  1
レベルを調整します。
 11
2530.0
 21
800.0
 31
0.0
100
AcDbText
 73
     2
  0
TEXT
  5
D6E2
330
1F
100
AcDbEntity
  8
01注記寸法
100
AcDbText
 10
2530.0
 20
725.0
 30
0.0
 40
30.0
  1
架台全体の嵩上げには使用しないで
 11
2530.0
 21
740.0
 31
0.0
100
AcDbText
 73
     2
  0
TEXT
  5
D6E3
330
1F
100
AcDbEntity
  8
01注記寸法
100
AcDbText
 10
930.0
 20
905.0
 30
0.0
 40
30.0
  1
アンカー金具取付（Ｂ）
 11
930.0
 21
920.0
 31
0.0
100
AcDbText
 73
     2
  0
TEXT
  5
D6E4
330
1F
100
AcDbEntity
  8
01注記寸法
100
AcDbText
 10
1730.0
 20
905.0
 30
0.0
 40
30.0
  1
アンカー金具取付（Ｃ）
 11
1730.0
 21
920.0
 31
0.0
100
AcDbText
 73
     2
  0
LINE
  5
D6E5
330
1F
100
AcDbEntity
  8
01注記寸法
100
AcDbLine
 10
900.0
 20
100.0
 30
0.0
 11
900.0
 21
1000.0
 31
0.0
  0
LINE
  5
D6E6
330
1F
100
AcDbEntity
  8
01注記寸法
100
AcDbLine
 10
1700.0
 20
100.0
 30
0.0
 11
1700.0
 21
1000.0
 31
0.0
  0
TEXT
  5
D6E7
330
1F
100
AcDbEntity
  8
01注記寸法
100
AcDbText
 10
130.0
 20
905.0
 30
0.0
 40
30.0
  1
アンカー金具取付（Ａ）
 11
130.0
 21
920.0
 31
0.0
100
AcDbText
 73
     2
  0
TEXT
  5
D6E8
330
1F
100
AcDbEntity
  8
01注記寸法
100
AcDbText
 10
130.0
 20
955.0
 30
0.0
 40
30.0
  1
<アンカー寸法図>
 11
130.0
 21
970.0
 31
0.0
100
AcDbText
 73
     2
  0
TEXT
  5
D6E9
330
1F
100
AcDbEntity
  8
01注記寸法
100
AcDbText
 10
480.0
 20
955.0
 30
0.0
 40
30.0
  1
SCALE=
 11
480.0
 21
970.0
 31
0.0
100
AcDbText
 73
     2
  0
TEXT
  5
D6EA
330
1F
100
AcDbEntity
  8
01注記寸法
100
AcDbText
 10
610.0
 20
955.0
 30
0.0
 40
30.0
  1
1:20
 11
610.0
 21
970.0
 31
0.0
100
AcDbText
 73
     2
  0
TEXT
  5
D6EB
330
1F
100
AcDbEntity
  8
01注記寸法
100
AcDbText
 10
2530.0
 20
665.0
 30
0.0
 40
30.0
  1
ください。
 11
2530.0
 21
680.0
 31
0.0
100
AcDbText
 73
     2
  0
LWPOLYLINE
  5
D793
330
1F
100
AcDbEntity
  8
13製作用注記
100
AcDbPolyline
 90
        4
 70
     1
 43
0.0
 10
2700.0
 20
2170.0
 10
2700.0
 20
2230.0
 10
2900.0
 20
2230.0
 10
2900.0
 20
2170.0
  0
LWPOLYLINE
  5
D794
330
1F
100
AcDbEntity
  8
13製作用注記
100
AcDbPolyline
 90
        4
 70
     1
 43
0.0
 10
2640.0
 20
2170.0
 10
2640.0
 20
2230.0
 10
2700.0
 20
2230.0
 10
2700.0
 20
2170.0
  0
TEXT
  5
D795
330
1F
100
AcDbEntity
  8
13製作用注記
100
AcDbText
 10
2660.25
 20
2185.0
 30
0.0
 40
30.0
  1
1
 72
     1
 11
2670.0
 21
2200.0
 31
0.0
100
AcDbText
 73
     2
  0
TEXT
  5
D796
330
1F
100
AcDbEntity
  8
13製作用注記
100
AcDbText
 10
2741.5
 20
2185.0
 30
0.0
 40
30.0
  1
梁長手
 72
     1
 11
2800.0
 21
2200.0
 31
0.0
100
AcDbText
 73
     2
  0
LWPOLYLINE
  5
D797
330
1F
100
AcDbEntity
  8
13製作用注記
100
AcDbPolyline
 90
        4
 70
     1
 43
0.0
 10
2700.0
 20
2110.0
 10
2700.0
 20
2170.0
 10
2900.0
 20
2170.0
 10
2900.0
 20
2110.0
  0
LWPOLYLINE
  5
D798
330
1F
100
AcDbEntity
  8
13製作用注記
100
AcDbPolyline
 90
        4
 70
     1
 43
0.0
 10
2640.0
 20
2110.0
 10
2640.0
 20
2170.0
 10
2700.0
 20
2170.0
 10
2700.0
 20
2110.0
  0
TEXT
  5
D799
330
1F
100
AcDbEntity
  8
13製作用注記
100
AcDbText
 10
2660.25
 20
2125.0
 30
0.0
 40
30.0
  1
2
 72
     1
 11
2670.0
 21
2140.0
 31
0.0
100
AcDbText
 73
     2
  0
TEXT
  5
D79A
330
1F
100
AcDbEntity
  8
13製作用注記
100
AcDbText
 10
2741.5
 20
2125.0
 30
0.0
 40
30.0
  1
梁短手
 72
     1
 11
2800.0
 21
2140.0
 31
0.0
100
AcDbText
 73
     2
  0
LWPOLYLINE
  5
D79B
330
1F
100
AcDbEntity
  8
13製作用注記
100
AcDbPolyline
 90
        4
 70
     1
 43
0.0
 10
2700.0
 20
2050.0
 10
2700.0
 20
2110.0
 10
2900.0
 20
2110.0
 10
2900.0
 20
2050.0
  0
LWPOLYLINE
  5
D79C
330
1F
100
AcDbEntity
  8
13製作用注記
100
AcDbPolyline
 90
        4
 70
     1
 43
0.0
 10
2640.0
 20
2050.0
 10
2640.0
 20
2110.0
 10
2700.0
 20
2110.0
 10
2700.0
 20
2050.0
  0
TEXT
  5
D79D
330
1F
100
AcDbEntity
  8
13製作用注記
100
AcDbText
 10
2660.25
 20
2065.0
 30
0.0
 40
30.0
  1
3
 72
     1
 11
2670.0
 21
2080.0
 31
0.0
100
AcDbText
 73
     2
  0
TEXT
  5
D79E
330
1F
100
AcDbEntity
  8
13製作用注記
100
AcDbText
 10
2761.0
 20
2065.0
 30
0.0
 40
30.0
  1
中桟
 72
     1
 11
2800.0
 21
2080.0
 31
0.0
100
AcDbText
 73
     2
  0
LWPOLYLINE
  5
D79F
330
1F
100
AcDbEntity
  8
13製作用注記
100
AcDbPolyline
 90
        4
 70
     1
 43
0.0
 10
2700.0
 20
1990.0
 10
2700.0
 20
2050.0
 10
2900.0
 20
2050.0
 10
2900.0
 20
1990.0
  0
LWPOLYLINE
  5
D7A0
330
1F
100
AcDbEntity
  8
13製作用注記
100
AcDbPolyline
 90
        4
 70
     1
 43
0.0
 10
2640.0
 20
1990.0
 10
2640.0
 20
2050.0
 10
2700.0
 20
2050.0
 10
2700.0
 20
1990.0
  0
TEXT
  5
D7A1
330
1F
100
AcDbEntity
  8
13製作用注記
100
AcDbText
 10
2660.25
 20
2005.0
 30
0.0
 40
30.0
  1
4
 72
     1
 11
2670.0
 21
2020.0
 31
0.0
100
AcDbText
 73
     2
  0
TEXT
  5
D7A2
330
1F
100
AcDbEntity
  8
13製作用注記
100
AcDbText
 10
2761.0
 20
2005.0
 30
0.0
 40
30.0
  1
端柱
 72
     1
 11
2800.0
 21
2020.0
 31
0.0
100
AcDbText
 73
     2
  0
LWPOLYLINE
  5
D7A4
330
1F
100
AcDbEntity
  8
13製作用注記
100
AcDbPolyline
 90
        4
 70
     1
 43
0.0
 10
2640.0
 20
1930.0
 10
2640.0
 20
1990.0
 10
2700.0
 20
1990.0
 10
2700.0
 20
1930.0
  0
TEXT
  5
D7A5
330
1F
100
AcDbEntity
  8
13製作用注記
100
AcDbText
 10
2660.25
 20
1945.0
 30
0.0
 40
30.0
  1
5
 72
     1
 11
2670.0
 21
1960.0
 31
0.0
100
AcDbText
 73
     2
  0
LWPOLYLINE
  5
D7A7
330
1F
100
AcDbEntity
  8
13製作用注記
100
AcDbPolyline
 90
        4
 70
     1
 43
0.0
 10
2700.0
 20
1930.0
 10
2700.0
 20
1990.0
 10
2900.0
 20
1990.0
 10
2900.0
 20
1930.0
  0
TEXT
  5
D7AA
330
1F
100
AcDbEntity
  8
13製作用注記
100
AcDbText
 10
2761.0
 20
1945.0
 30
0.0
 40
30.0
  1
筋交
 72
     1
 11
2800.0
 21
1960.0
 31
0.0
100
AcDbText
 73
     2
  0
LWPOLYLINE
  5
D7AB
330
1F
100
AcDbEntity
  8
13製作用注記
100
AcDbPolyline
 90
        4
 70
     1
 43
0.0
 10
2900.0
 20
2170.0
 10
2900.0
 20
2230.0
 10
3300.0
 20
2230.0
 10
3300.0
 20
2170.0
  0
TEXT
  5
D7AC
330
1F
100
AcDbEntity
  8
13製作用注記
100
AcDbText
 10
2973.25
 20
2185.0
 30
0.0
 40
30.0
  1
L60×60×t3.2
 72
     1
 11
3100.0
 21
2200.0
 31
0.0
100
AcDbText
 73
     2
  0
LWPOLYLINE
  5
D7AD
330
1F
100
AcDbEntity
  8
13製作用注記
100
AcDbPolyline
 90
        4
 70
     1
 43
0.0
 10
2900.0
 20
2110.0
 10
2900.0
 20
2170.0
 10
3300.0
 20
2170.0
 10
3300.0
 20
2110.0
  0
TEXT
  5
D7AE
330
1F
100
AcDbEntity
  8
13製作用注記
100
AcDbText
 10
2973.25
 20
2125.0
 30
0.0
 40
30.0
  1
L60×60×t3.2
 72
     1
 11
3100.0
 21
2140.0
 31
0.0
100
AcDbText
 73
     2
  0
LWPOLYLINE
  5
D7AF
330
1F
100
AcDbEntity
  8
13製作用注記
100
AcDbPolyline
 90
        4
 70
     1
 43
0.0
 10
2900.0
 20
2050.0
 10
2900.0
 20
2110.0
 10
3300.0
 20
2110.0
 10
3300.0
 20
2050.0
  0
TEXT
  5
D7B0
330
1F
100
AcDbEntity
  8
13製作用注記
100
AcDbText
 10
3031.75
 20
2065.0
 30
0.0
 40
30.0
  1
t3.2x75
 72
     1
 11
3100.0
 21
2080.0
 31
0.0
100
AcDbText
 73
     2
  0
LWPOLYLINE
  5
D7B1
330
1F
100
AcDbEntity
  8
13製作用注記
100
AcDbPolyline
 90
        4
 70
     1
 43
0.0
 10
2900.0
 20
1990.0
 10
2900.0
 20
2050.0
 10
3300.0
 20
2050.0
 10
3300.0
 20
1990.0
  0
TEXT
  5
D7B2
330
1F
100
AcDbEntity
  8
13製作用注記
100
AcDbText
 10
2973.25
 20
2005.0
 30
0.0
 40
30.0
  1
L60×60×t3.2
 72
     1
 11
3100.0
 21
2020.0
 31
0.0
100
AcDbText
 73
     2
  0
LWPOLYLINE
  5
D7B5
330
1F
100
AcDbEntity
  8
13製作用注記
100
AcDbPolyline
 90
        4
 70
     1
 43
0.0
 10
2900.0
 20
1930.0
 10
2900.0
 20
1990.0
 10
3300.0
 20
1990.0
 10
3300.0
 20
1930.0
  0
TEXT
  5
D7B6
330
1F
100
AcDbEntity
  8
13製作用注記
100
AcDbText
 10
3041.5
 20
1945.0
 30
0.0
 40
30.0
  1
500H用
 72
     1
 11
3100.0
 21
1960.0
 31
0.0
100
AcDbText
 73
     2
  0
LWPOLYLINE
  5
D7B7
330
1F
100
AcDbEntity
  8
13製作用注記
100
AcDbPolyline
 90
        4
 70
     1
 43
0.0
 10
2640.0
 20
2230.0
 10
2640.0
 20
2290.0
 10
3300.0
 20
2290.0
 10
3300.0
 20
2230.0
  0
TEXT
  5
D7B8
330
1F
100
AcDbEntity
  8
13製作用注記
100
AcDbText
 10
2833.5
 20
2245.0
 30
0.0
 40
30.0
  1
部　材　一　覧
 72
     1
 11
2970.0
 21
2260.0
 31
0.0
100
AcDbText
 73
     2
  0
CIRCLE
  5
D85C
330
1F
100
AcDbEntity
  8
13製作用注記
100
AcDbCircle
 10
1366.133448303697
 20
2235.655768967815
 30
0.0
 40
25.0
  0
TEXT
  5
D85D
330
1F
100
AcDbEntity
  8
13製作用注記
100
AcDbText
 10
1356.383448303697
 20
2220.655768967815
 30
0.0
 40
30.0
  1
1
 72
     1
 11
1366.133448303697
 21
2235.655768967815
 31
0.0
100
AcDbText
 73
     2
  0
LEADER
  5
D85E
330
1F
100
AcDbEntity
  8
13製作用注記
100
AcDbLeader
  3
NEMY-10
 76
     2
 10
1286.04386734424
 20
2309.999999999998
 30
0.0
 10
1347.810797536267
 20
2252.664016051358
 30
0.0
  0
CIRCLE
  5
D862
330
1F
100
AcDbEntity
  8
13製作用注記
100
AcDbCircle
 10
1930.089580959457
 20
2194.34423103218
 30
0.0
 40
25.0
  0
TEXT
  5
D863
330
1F
100
AcDbEntity
  8
13製作用注記
100
AcDbText
 10
1920.339580959457
 20
2179.34423103218
 30
0.0
 40
30.0
  1
2
 72
     1
 11
1930.089580959457
 21
2194.34423103218
 31
0.0
100
AcDbText
 73
     2
  0
LEADER
  5
D864
330
1F
100
AcDbEntity
  8
13製作用注記
100
AcDbLeader
  3
NEMY-10
 76
     2
 10
1850.0
 20
2119.999999999998
 30
0.0
 10
1911.766930192027
 20
2177.335983948638
 30
0.0
  0
CIRCLE
  5
D886
330
1F
100
AcDbEntity
  8
13製作用注記
100
AcDbCircle
 10
1036.889580959456
 20
1125.655768967815
 30
0.0
 40
25.0
  0
TEXT
  5
D887
330
1F
100
AcDbEntity
  8
13製作用注記
100
AcDbText
 10
1027.139580959456
 20
1110.655768967815
 30
0.0
 40
30.0
  1
4
 72
     1
 11
1036.889580959456
 21
1125.655768967815
 31
0.0
100
AcDbText
 73
     2
  0
LEADER
  5
D888
330
1F
100
AcDbEntity
  8
13製作用注記
100
AcDbLeader
  3
NEMY-10
 76
     2
 10
956.7999999999993
 20
1199.999999999998
 30
0.0
 10
1018.566930192026
 20
1142.664016051358
 30
0.0
  0
CIRCLE
  5
D889
330
1F
100
AcDbEntity
  8
13製作用注記
100
AcDbCircle
 10
1174.378412402559
 20
1355.559010925614
 30
0.0
 40
25.0
  0
TEXT
  5
D88A
330
1F
100
AcDbEntity
  8
13製作用注記
100
AcDbText
 10
1164.628412402559
 20
1340.559010925614
 30
0.0
 40
30.0
  1
5
 72
     1
 11
1174.378412402559
 21
1355.559010925614
 31
0.0
100
AcDbText
 73
     2
  0
LEADER
  5
D88B
330
1F
100
AcDbEntity
  8
13製作用注記
100
AcDbLeader
  3
NEMY-10
 76
     2
 10
1094.288831443102
 20
1429.903241957797
 30
0.0
 10
1156.055761635129
 20
1372.567258009156
 30
0.0
  0
CIRCLE
  5
D88F
330
1F
100
AcDbEntity
  8
13製作用注記
100
AcDbCircle
 10
1713.110419040544
 20
1125.655768967815
 30
0.0
 40
25.0
  0
TEXT
  5
D890
330
1F
100
AcDbEntity
  8
13製作用注記
100
AcDbText
 10
1703.360419040544
 20
1110.655768967815
 30
0.0
 40
30.0
  1
4
 72
     1
 11
1713.110419040544
 21
1125.655768967815
 31
0.0
100
AcDbText
 73
     2
  0
LEADER
  5
D891
330
1F
100
AcDbEntity
  8
13製作用注記
100
AcDbLeader
  3
NEMY-10
 76
     2
 10
1793.200000000001
 20
1199.999999999998
 30
0.0
 10
1731.433069807974
 20
1142.664016051358
 30
0.0
211
-1.0
221
0.0
231
0.0
  0
CIRCLE
  5
D8A2
330
1F
100
AcDbEntity
  8
13製作用注記
100
AcDbCircle
 10
1575.621587597441
 20
1355.559010925614
 30
0.0
 40
25.0
  0
TEXT
  5
D8A3
330
1F
100
AcDbEntity
  8
13製作用注記
100
AcDbText
 10
1565.871587597441
 20
1340.559010925614
 30
0.0
 40
30.0
  1
5
 72
     1
 11
1575.621587597441
 21
1355.559010925614
 31
0.0
100
AcDbText
 73
     2
  0
LEADER
  5
D8A4
330
1F
100
AcDbEntity
  8
13製作用注記
100
AcDbLeader
  3
NEMY-10
 76
     2
 10
1655.711168556898
 20
1429.903241957797
 30
0.0
 10
1593.944238364871
 20
1372.567258009156
 30
0.0
211
-1.0
221
0.0
231
0.0
  0
LEADER
  5
D9A1
330
1F
100
AcDbEntity
  8
01注記寸法
100
AcDbLeader
  3
NEMY-10
 76
     2
 10
2564.621565635247
 20
289.1336530409781
 30
0.0
 10
2564.621565635247
 20
199.1336530409799
 30
0.0
  0
LEADER
  5
D9A2
330
1F
100
AcDbEntity
  8
01注記寸法
100
AcDbLeader
  3
NEMY-10
 76
     2
 10
2564.621565635247
 20
199.1336530409799
 30
0.0
 10
2564.621565635247
 20
289.1336530409781
 30
0.0
  0
TEXT
  5
EC96
330
1F
100
AcDbEntity
  8
01注記寸法
100
AcDbText
 10
3518.0
 20
210.0
 30
0.0
 40
40.0
  1
ネミー株式会社
 72
     1
 11
3700.0
 21
230.0
 31
0.0
100
AcDbText
 73
     2
  0
INSERT
  5
F6D6
330
1F
100
AcDbEntity
  8
10副資材
100
AcDbBlockReference
  2
BH-組立ボルトセット
 10
1239.0
 20
1899.999999999998
 30
0.0
 50
270.0
  0
INSERT
  5
F6D7
330
1F
100
AcDbEntity
  8
08非表示
100
AcDbBlockReference
  2
BH-筋交(柱L60)-500H-平面
 10
1257.557648750682
 20
1903.199999999998
 30
0.0
  0
INSERT
  5
F6DF
330
1F
100
AcDbEntity
  8
10副資材
100
AcDbBlockReference
  2
BH-組立ボルトセット
 10
1239.0
 20
2369.999999999998
 30
0.0
 41
-1.0
 50
270.0
  0
INSERT
  5
F6E0
330
1F
100
AcDbEntity
  8
08非表示
100
AcDbBlockReference
  2
BH-筋交(柱L60)-500H-平面
 10
1257.557648750682
 20
2366.799999999998
 30
0.0
 41
-1.0
 50
180.0
  0
INSERT
  5
F6E1
330
1F
100
AcDbEntity
  8
10副資材
100
AcDbBlockReference
  2
BH-組立ボルトセット
 10
1511.0
 20
2369.999999999998
 30
0.0
 50
90.00000000000001
  0
INSERT
  5
F6E2
330
1F
100
AcDbEntity
  8
08非表示
100
AcDbBlockReference
  2
BH-筋交(柱L60)-500H-平面
 10
1492.442351249318
 20
2366.799999999998
 30
0.0
 50
180.0
  0
INSERT
  5
F6E3
330
1F
100
AcDbEntity
  8
10副資材
100
AcDbBlockReference
  2
BH-組立ボルトセット
 10
1511.0
 20
1899.999999999998
 30
0.0
 41
-1.0
 50
89.99999999999994
  0
INSERT
  5
F6E4
330
1F
100
AcDbEntity
  8
08非表示
100
AcDbBlockReference
  2
BH-筋交(柱L60)-500H-平面
 10
1492.442351249318
 20
1903.199999999998
 30
0.0
 41
-1.0
  0
LWPOLYLINE
  5
F940
330
1F
100
AcDbEntity
  8
09図枠
100
AcDbPolyline
 90
        4
 70
     1
 43
0.0
 10
2800.0
 20
2650.0
 10
2800.0
 20
2710.0
 10
3300.0
 20
2710.0
 10
3300.0
 20
2650.0
  0
TEXT
  5
F944
330
1F
100
AcDbEntity
  8
01注記寸法
100
AcDbText
 10
2933.0
 20
2665.0
 30
0.0
 40
30.0
  1
適用防振架台
 72
     1
 11
3050.0
 21
2680.0
 31
0.0
100
AcDbText
 73
     2
  0
LWPOLYLINE
  5
F946
330
1F
100
AcDbEntity
  8
09図枠
100
AcDbPolyline
 90
        4
 70
     1
 43
0.0
 10
2800.0
 20
2590.0
 10
2800.0
 20
2650.0
 10
3300.0
 20
2650.0
 10
3300.0
 20
2590.0
  0
TEXT
  5
F948
330
1F
100
AcDbEntity
  8
01注記寸法
100
AcDbText
 10
2862.8
 20
2605.0
 30
0.0
 40
30.0
  1
１－ＨＴＡ１８７(＃Ｅ２)
 41
0.8
 72
     1
 11
3050.0
 21
2620.0
 31
0.0
100
AcDbText
 73
     2
  0
INSERT
  5
FC4E
330
1F
100
AcDbEntity
  8
10副資材
100
AcDbBlockReference
  2
平W-M10
 10
1000.0
 20
1929.999999999998
 30
0.0
  0
INSERT
  5
FC4F
330
1F
100
AcDbEntity
  8
02実線
100
AcDbBlockReference
  2
hole-φ14
 10
1000.0
 20
1929.999999999998
 30
0.0
  0
INSERT
  5
FC50
330
1F
100
AcDbEntity
  8
10副資材
100
AcDbBlockReference
  2
平W-M10
 10
1075.0
 20
1929.999999999998
 30
0.0
  0
INSERT
  5
FC51
330
1F
100
AcDbEntity
  8
02実線
100
AcDbBlockReference
  2
hole-φ14
 10
1075.0
 20
1929.999999999998
 30
0.0
  0
INSERT
  5
FC52
330
1F
100
AcDbEntity
  8
10副資材
100
AcDbBlockReference
  2
平W-M10
 10
1675.0
 20
1929.999999999998
 30
0.0
  0
INSERT
  5
FC53
330
1F
100
AcDbEntity
  8
02実線
100
AcDbBlockReference
  2
hole-φ14
 10
1675.0
 20
1929.999999999998
 30
0.0
  0
INSERT
  5
FC54
330
1F
100
AcDbEntity
  8
10副資材
100
AcDbBlockReference
  2
平W-M10
 10
1750.0
 20
1929.999999999998
 30
0.0
  0
INSERT
  5
FC55
330
1F
100
AcDbEntity
  8
02実線
100
AcDbBlockReference
  2
hole-φ14
 10
1750.0
 20
1929.999999999998
 30
0.0
  0
INSERT
  5
FC57
330
1F
100
AcDbEntity
  8
12防振架台
100
AcDbBlockReference
  2
1-HTA187_188_189_190
 10
900.0
 20
1899.999999999998
 30
0.0
  0
INSERT
  5
FC58
330
1F
100
AcDbEntity
  8
10副資材
100
AcDbBlockReference
  2
平W-M10
 10
1000.0
 20
2339.999999999998
 30
0.0
  0
INSERT
  5
FC59
330
1F
100
AcDbEntity
  8
02実線
100
AcDbBlockReference
  2
hole-φ14
 10
1000.0
 20
2339.999999999998
 30
0.0
  0
INSERT
  5
FC5A
330
1F
100
AcDbEntity
  8
10副資材
100
AcDbBlockReference
  2
平W-M10
 10
1075.0
 20
2339.999999999998
 30
0.0
  0
INSERT
  5
FC5B
330
1F
100
AcDbEntity
  8
02実線
100
AcDbBlockReference
  2
hole-φ14
 10
1075.0
 20
2339.999999999998
 30
0.0
  0
INSERT
  5
FC5C
330
1F
100
AcDbEntity
  8
10副資材
100
AcDbBlockReference
  2
平W-M10
 10
1675.0
 20
2339.999999999998
 30
0.0
  0
INSERT
  5
FC5D
330
1F
100
AcDbEntity
  8
02実線
100
AcDbBlockReference
  2
hole-φ14
 10
1675.0
 20
2339.999999999998
 30
0.0
  0
INSERT
  5
FC5E
330
1F
100
AcDbEntity
  8
10副資材
100
AcDbBlockReference
  2
平W-M10
 10
1750.0
 20
2339.999999999998
 30
0.0
  0
INSERT
  5
FC5F
330
1F
100
AcDbEntity
  8
02実線
100
AcDbBlockReference
  2
hole-φ14
 10
1750.0
 20
2339.999999999998
 30
0.0
  0
LINE
  5
FCB3
330
1F
100
AcDbEntity
  8
04一点鎖線
100
AcDbLine
 10
1075.0
 20
1609.999999999998
 30
0.0
 11
1075.0
 21
1586.799999999999
 31
0.0
  0
LINE
  5
FCB6
330
1F
100
AcDbEntity
  8
04一点鎖線
100
AcDbLine
 10
1000.0
 20
1609.999999999998
 30
0.0
 11
1000.0
 21
1586.799999999999
 31
0.0
  0
LINE
  5
FCB9
330
1F
100
AcDbEntity
  8
04一点鎖線
100
AcDbLine
 10
1750.0
 20
1609.999999999998
 30
0.0
 11
1750.0
 21
1586.799999999999
 31
0.0
  0
LINE
  5
FCBA
330
1F
100
AcDbEntity
  8
04一点鎖線
100
AcDbLine
 10
1675.0
 20
1609.999999999998
 30
0.0
 11
1675.0
 21
1586.799999999999
 31
0.0
  0
LINE
  5
FCBF
330
1F
100
AcDbEntity
  8
04一点鎖線
100
AcDbLine
 10
2280.0
 20
1609.999999999998
 30
0.0
 11
2280.0
 21
1586.799999999999
 31
0.0
  0
LINE
  5
FCC0
330
1F
100
AcDbEntity
  8
04一点鎖線
100
AcDbLine
 10
2690.0
 20
1609.999999999998
 30
0.0
 11
2690.0
 21
1586.799999999999
 31
0.0
  0
LWPOLYLINE
  5
FCFB
330
1F
100
AcDbEntity
  8
02実線
100
AcDbPolyline
 90
        4
 70
     1
 43
0.0
 10
1790.0
 20
1959.999999999998
 10
1790.0
 20
2309.999999999998
 10
1712.0
 20
2309.999999999998
 10
1712.0
 20
1959.999999999998
  0
LWPOLYLINE
  5
FCFC
330
1F
100
AcDbEntity
  8
02実線
100
AcDbPolyline
 90
        4
 70
     1
 43
0.0
 10
1113.0
 20
1959.999999999998
 10
1113.0
 20
2309.999999999998
 10
1637.0
 20
2309.999999999998
 10
1637.0
 20
1959.999999999998
  0
LWPOLYLINE
  5
FCFD
330
1F
100
AcDbEntity
  8
02実線
100
AcDbPolyline
 90
        4
 70
     1
 43
0.0
 10
960.0
 20
1959.999999999998
 10
960.0
 20
2309.999999999998
 10
1038.0
 20
2309.999999999998
 10
1038.0
 20
1959.999999999998
  0
CIRCLE
  5
FD09
330
1F
100
AcDbEntity
  8
13製作用注記
100
AcDbCircle
 10
1195.089580959457
 20
2122.941223813425
 30
0.0
 40
25.0
  0
TEXT
  5
FD0A
330
1F
100
AcDbEntity
  8
13製作用注記
100
AcDbText
 10
1185.339580959457
 20
2107.941223813425
 30
0.0
 40
30.0
  1
3
 72
     1
 11
1195.089580959457
 21
2122.941223813425
 31
0.0
100
AcDbText
 73
     2
  0
LEADER
  5
FD0B
330
1F
100
AcDbEntity
  8
13製作用注記
100
AcDbLeader
  3
NEMY-10
 76
     2
 10
1115.0
 20
2048.596992781243
 30
0.0
 10
1176.766930192027
 20
2105.932976729883
 30
0.0
  0
DIMENSION
  5
100EE
330
1F
100
AcDbEntity
  8
01注記寸法
100
AcDbDimension
  2
*D1297
 10
1000.0
 20
1699.999999999998
 30
0.0
 11
950.0
 21
1724.999999999998
 31
0.0
 70
    32
 71
     5
 42
100.0
  3
NEMY-10
100
AcDbAlignedDimension
 13
900.0
 23
1898.499999999999
 33
0.0
 14
1000.0
 24
1909.999999999998
 34
0.0
100
AcDbRotatedDimension
  0
DIMENSION
  5
100EF
330
1F
100
AcDbEntity
  8
01注記寸法
100
AcDbDimension
  2
*D1298
 10
1750.0
 20
1699.999999999998
 30
0.0
 11
1375.0
 21
1725.989999999998
 31
0.0
 70
    32
  1
※ <>
 71
     5
 42
750.0
  3
NEMY-10
100
AcDbAlignedDimension
 13
1000.0
 23
1909.999999999998
 33
0.0
 14
1750.0
 24
1909.999999999998
 34
0.0
100
AcDbRotatedDimension
  0
DIMENSION
  5
100F0
330
1F
100
AcDbEntity
  8
01注記寸法
100
AcDbDimension
  2
*D1299
 10
1850.0
 20
1699.999999999998
 30
0.0
 11
1800.0
 21
1724.999999999998
 31
0.0
 70
    32
 71
     5
 42
100.0
  3
NEMY-10
100
AcDbAlignedDimension
 13
1750.0
 23
1909.999999999998
 33
0.0
 14
1850.0
 24
1898.499999999999
 34
0.0
100
AcDbRotatedDimension
  0
TEXT
  5
100F1
330
1F
100
AcDbEntity
  8
01注記寸法
100
AcDbText
 10
1069.051233375085
 20
1762.499999999998
 30
0.0
 40
30.0
  1
(4-φ14)
100
AcDbText
  0
TEXT
  5
100F2
330
1F
100
AcDbEntity
  8
01注記寸法
100
AcDbText
 10
1069.051233375085
 20
1812.499999999998
 30
0.0
 40
30.0
  1
※防振架台固定ボルト孔
100
AcDbText
  0
DIMENSION
  5
100F3
330
1F
100
AcDbEntity
  8
01注記寸法
100
AcDbDimension
  2
*D1300
 10
800.0
 20
1899.999999999998
 30
0.0
 11
775.0
 21
1812.104999999998
 31
0.0
 70
    32
 71
     5
 42
30.0
  3
NEMY-10
100
AcDbAlignedDimension
 13
980.0
 23
1929.999999999998
 33
0.0
 14
900.0
 24
1899.999999999998
 34
0.0
 50
90.0
100
AcDbRotatedDimension
  0
DIMENSION
  5
100F4
330
1F
100
AcDbEntity
  8
01注記寸法
100
AcDbDimension
  2
*D1301
 10
800.0
 20
1929.999999999998
 30
0.0
 11
775.0
 21
2134.999999999998
 31
0.0
 70
    32
 71
     5
 42
410.0
  3
NEMY-10
100
AcDbAlignedDimension
 13
980.0
 23
2339.999999999998
 33
0.0
 14
980.0
 24
1929.999999999998
 34
0.0
 50
90.0
100
AcDbRotatedDimension
  0
DIMENSION
  5
100F5
330
1F
100
AcDbEntity
  8
01注記寸法
100
AcDbDimension
  2
*D1302
 10
800.0
 20
2339.999999999998
 30
0.0
 11
800.0
 21
2457.894999999998
 31
0.0
 70
   160
 71
     5
 42
30.0
  3
NEMY-10
100
AcDbAlignedDimension
 13
900.0
 23
2369.999999999998
 33
0.0
 14
980.0
 24
2339.999999999998
 34
0.0
 50
90.0
100
AcDbRotatedDimension
  0
DIMENSION
  5
100F6
330
1F
100
AcDbEntity
  8
01注記寸法
100
AcDbDimension
  2
*D1303
 10
1075.0
 20
2569.999999999998
 30
0.0
 11
987.5
 21
2594.999999999998
 31
0.0
 70
    32
 71
     5
 42
175.0
  3
NEMY-10
100
AcDbAlignedDimension
 13
900.0
 23
2371.499999999999
 33
0.0
 14
1075.0
 24
2359.999999999998
 34
0.0
100
AcDbRotatedDimension
  0
DIMENSION
  5
100F7
330
1F
100
AcDbEntity
  8
01注記寸法
100
AcDbDimension
  2
*D1304
 10
1675.0
 20
2569.999999999998
 30
0.0
 11
1375.0
 21
2594.999999999998
 31
0.0
 70
    32
 71
     5
 42
600.0
  3
NEMY-10
100
AcDbAlignedDimension
 13
1075.0
 23
2359.999999999998
 33
0.0
 14
1675.0
 24
2359.999999999998
 34
0.0
100
AcDbRotatedDimension
  0
DIMENSION
  5
100F8
330
1F
100
AcDbEntity
  8
01注記寸法
100
AcDbDimension
  2
*D1305
 10
1850.0
 20
2569.999999999998
 30
0.0
 11
1762.5
 21
2594.999999999998
 31
0.0
 70
    32
 71
     5
 42
175.0
  3
NEMY-10
100
AcDbAlignedDimension
 13
1675.0
 23
2359.999999999998
 33
0.0
 14
1850.0
 24
2371.499999999999
 34
0.0
100
AcDbRotatedDimension
  0
DIMENSION
  5
100F9
330
1F
100
AcDbEntity
  8
01注記寸法
100
AcDbDimension
  2
*D1306
 10
2050.0
 20
2339.999999999998
 30
0.0
 11
2050.0
 21
2457.894999999998
 31
0.0
 70
   160
 71
     5
 42
30.0
  3
NEMY-10
100
AcDbAlignedDimension
 13
1850.0
 23
2369.999999999998
 33
0.0
 14
1770.0
 24
2339.999999999998
 34
0.0
 50
90.0
100
AcDbRotatedDimension
  0
DIMENSION
  5
100FA
330
1F
100
AcDbEntity
  8
01注記寸法
100
AcDbDimension
  2
*D1307
 10
2050.0
 20
1929.999999999998
 30
0.0
 11
2024.01
 21
2134.999999999998
 31
0.0
 70
    32
  1
※ <>
 71
     5
 42
410.0
  3
NEMY-10
100
AcDbAlignedDimension
 13
1770.0
 23
2339.999999999998
 33
0.0
 14
1770.0
 24
1929.999999999998
 34
0.0
 50
90.0
100
AcDbRotatedDimension
  0
DIMENSION
  5
100FB
330
1F
100
AcDbEntity
  8
01注記寸法
100
AcDbDimension
  2
*D1308
 10
2050.0
 20
1899.999999999999
 30
0.0
 11
2025.0
 21
1812.104999999999
 31
0.0
 70
    32
 71
     5
 42
29.99999999999909
  3
NEMY-10
100
AcDbAlignedDimension
 13
1770.0
 23
1929.999999999998
 33
0.0
 14
1850.0
 24
1899.999999999999
 34
0.0
 50
90.0
100
AcDbRotatedDimension
  0
DIMENSION
  5
100FC
330
1F
100
AcDbEntity
  8
01注記寸法
100
AcDbDimension
  2
*D1309
 10
1712.0
 20
2173.810713298546
 30
0.0
 11
1751.0
 21
2173.810713298546
 31
0.0
 70
   160
 71
     5
 42
78.0
  3
NEMY-10
100
AcDbAlignedDimension
 13
1790.0
 23
2134.999999999998
 33
0.0
 14
1712.0
 24
2134.999999999998
 34
0.0
100
AcDbRotatedDimension
1001
ACAD
1000
DSTYLE
1002
{
1070
   173
1070
     1
1070
   342
1005
0
1070
   344
1005
C041
1070
   343
1005
8F
1002
}
1001
ACAD_DSTYLE_DIMFLIPARROW_SYMBOL
1070
   385
1070
     0
1001
ACAD_DSTYLE_DIMFLIPARROW_WHICH_SYMBOL
1070
   386
1070
     3
  0
DIMENSION
  5
100FD
330
1F
100
AcDbEntity
  8
01注記寸法
100
AcDbDimension
  2
*D1310
 10
1637.0
 20
2173.810713298546
 30
0.0
 11
1674.5
 21
2173.810713298546
 31
0.0
 70
   160
 71
     5
 42
75.0
  3
NEMY-10
100
AcDbAlignedDimension
 13
1712.0
 23
2134.999999999998
 33
0.0
 14
1637.0
 24
2134.999999999998
 34
0.0
100
AcDbRotatedDimension
1001
ACAD
1000
DSTYLE
1002
{
1070
   173
1070
     1
1070
   342
1005
0
1070
   344
1005
8F
1070
   343
1005
C041
1002
}
1001
ACAD_DSTYLE_DIMFLIPARROW_SYMBOL
1070
   385
1070
     0
1001
ACAD_DSTYLE_DIMFLIPARROW_WHICH_SYMBOL
1070
   386
1070
     3
  0
DIMENSION
  5
100FE
330
1F
100
AcDbEntity
  8
01注記寸法
100
AcDbDimension
  2
*D1311
 10
1113.0
 20
2173.810713298546
 30
0.0
 11
1075.5
 21
2173.810713298546
 31
0.0
 70
   160
 71
     5
 42
75.0
  3
NEMY-10
100
AcDbAlignedDimension
 13
1038.0
 23
2134.999999999998
 33
0.0
 14
1113.0
 24
2134.999999999998
 34
0.0
100
AcDbRotatedDimension
1001
ACAD
1000
DSTYLE
1002
{
1070
   173
1070
     1
1070
   342
1005
0
1070
   344
1005
8F
1070
   343
1005
C041
1002
}
1001
ACAD_DSTYLE_DIMFLIPARROW_SYMBOL
1070
   385
1070
     0
1001
ACAD_DSTYLE_DIMFLIPARROW_WHICH_SYMBOL
1070
   386
1070
     3
  0
DIMENSION
  5
100FF
330
1F
100
AcDbEntity
  8
01注記寸法
100
AcDbDimension
  2
*D1312
 10
1038.0
 20
2173.810713298546
 30
0.0
 11
999.0
 21
2173.810713298546
 31
0.0
 70
   160
 71
     5
 42
78.0
  3
NEMY-10
100
AcDbAlignedDimension
 13
960.0
 23
2134.999999999998
 33
0.0
 14
1038.0
 24
2134.999999999998
 34
0.0
100
AcDbRotatedDimension
1001
ACAD
1000
DSTYLE
1002
{
1070
   173
1070
     1
1070
   342
1005
0
1070
   344
1005
C041
1070
   343
1005
8F
1002
}
1001
ACAD_DSTYLE_DIMFLIPARROW_SYMBOL
1070
   385
1070
     0
1001
ACAD_DSTYLE_DIMFLIPARROW_WHICH_SYMBOL
1070
   386
1070
     3
  0
LEADER
  5
10100
330
1F
100
AcDbEntity
  8
01注記寸法
100
AcDbLeader
  3
NEMY-10
 76
     3
 10
1075.0
 20
2339.999999999998
 30
0.0
 10
1147.604040103087
 20
2469.999999999998
 30
0.0
 10
1467.604040103087
 20
2469.999999999998
 30
0.0
  0
TEXT
  5
10101
330
1F
100
AcDbEntity
  8
01注記寸法
100
AcDbText
 10
1147.604040103087
 20
2432.499999999998
 30
0.0
 40
30.0
  1
(4-φ14)
100
AcDbText
  0
TEXT
  5
10102
330
1F
100
AcDbEntity
  8
01注記寸法
100
AcDbText
 10
1147.604040103087
 20
2482.499999999998
 30
0.0
 40
30.0
  1
機器固定ボルト孔
100
AcDbText
  0
LEADER
  5
101D1
330
1F
100
AcDbEntity
  8
01注記寸法
100
AcDbLeader
  3
NEMY-10
 76
     3
 10
1000.0
 20
1929.999999999998
 30
0.0
 10
1069.051233375085
 20
1799.999999999998
 30
0.0
 10
1509.051233375085
 20
1799.999999999998
 30
0.0
  0
LWPOLYLINE
  5
101DF
330
1F
100
AcDbEntity
  8
08非表示
100
AcDbPolyline
 90
        4
 70
     1
 43
0.0
 10
179.3164859555886
 20
272.8789339628629
 10
179.3164859555886
 20
707.8789339628629
 10
854.3164859555886
 20
707.8789339628629
 10
854.3164859555886
 20
272.8789339628629
  0
TEXT
  5
101EF
330
1F
100
AcDbEntity
  8
01注記寸法
100
AcDbText
 10
347.9666906835996
 20
285.3789339628629
 30
0.0
 40
30.0
  1
アンカーボルト孔
100
AcDbText
  0
LEADER
  5
101F0
330
1F
100
AcDbEntity
  8
01注記寸法
100
AcDbLeader
  3
NEMY-10
 76
     3
 10
293.7164859555883
 20
390.6289339628629
 30
0.0
 10
347.9666906835996
 20
272.8789339628629
 30
0.0
 10
667.9666906835996
 20
272.8789339628629
 30
0.0
  0
TEXT
  5
101F1
330
1F
100
AcDbEntity
  8
01注記寸法
100
AcDbText
 10
347.9666906835996
 20
235.3789339628629
 30
0.0
 40
30.0
  1
(4-φ16)
100
AcDbText
  0
DIMENSION
  5
1020C
330
1F
100
AcDbEntity
  8
08非表示
100
AcDbDimension
  2
*D1316
 10
754.3164859555886
 20
436.0418370376395
 30
0.0
 11
516.8164859555886
 21
461.0418370376395
 31
0.0
 70
    32
 71
     5
 42
950.0
  3
NEMY-10
100
AcDbAlignedDimension
 13
279.3164859555886
 23
429.061911931951
 33
0.0
 14
754.3164859555886
 24
429.061911931951
 34
0.0
100
AcDbRotatedDimension
1001
ACAD
1000
DSTYLE
1002
{
1070
   271
1070
     0
1070
   144
1040
2.0
1002
}
  0
DIMENSION
  5
10219
330
1F
100
AcDbEntity
  8
08非表示
100
AcDbDimension
  2
*D1317
 10
627.9809885130189
 20
372.8789339628629
 30
0.0
 11
602.9809885130189
 21
490.3789339628629
 31
0.0
 70
    32
 71
     5
 42
470.0
  3
NEMY-10
100
AcDbAlignedDimension
 13
666.3705765943059
 23
607.8789339628629
 33
0.0
 14
666.3705765943059
 24
372.8789339628629
 34
0.0
 50
90.0
100
AcDbRotatedDimension
1001
ACAD
1000
DSTYLE
1002
{
1070
   271
1070
     0
1070
   144
1040
2.0
1002
}
  0
DIMENSION
  5
102FB
330
1F
100
AcDbEntity
  8
01注記寸法
100
AcDbDimension
  2
*D1328
 10
179.3164859555886
 20
390.6289339628629
 30
0.0
 11
154.3164859555886
 21
490.3789339628629
 31
0.0
 70
    32
 71
     5
 42
399.0
  3
NEMY-10
100
AcDbAlignedDimension
 13
293.7164859555883
 23
590.1289339628629
 33
0.0
 14
293.7164859555883
 24
390.6289339628629
 34
0.0
 50
90.0
100
AcDbRotatedDimension
1001
ACAD
1000
DSTYLE
1002
{
1070
   271
1070
     0
1070
   144
1040
2.0
1002
}
  0
DIMENSION
  5
10308
330
1F
100
AcDbEntity
  8
01注記寸法
100
AcDbDimension
  2
*D1329
 10
739.916485955589
 20
707.8789339628629
 30
0.0
 11
516.8164859555886
 21
732.8789339628629
 31
0.0
 70
    32
 71
     5
 42
892.4000000000015
  3
NEMY-10
100
AcDbAlignedDimension
 13
293.7164859555883
 23
590.1289339628629
 33
0.0
 14
739.916485955589
 24
590.1289339628629
 34
0.0
100
AcDbRotatedDimension
1001
ACAD
1000
DSTYLE
1002
{
1070
   271
1070
     0
1070
   144
1040
2.0
1002
}
  0
LWPOLYLINE
  5
10327
330
1F
100
AcDbEntity
  8
08非表示
100
AcDbPolyline
 90
        4
 70
     1
 43
0.0
 10
979.3164859555886
 20
272.8789339628629
 10
979.3164859555886
 20
707.8789339628629
 10
1654.316485955589
 20
707.8789339628629
 10
1654.316485955589
 20
272.8789339628629
  0
TEXT
  5
10328
330
1F
100
AcDbEntity
  8
01注記寸法
100
AcDbText
 10
1147.9666906836
 20
285.3789339628629
 30
0.0
 40
30.0
  1
アンカーボルト孔
100
AcDbText
  0
LEADER
  5
10329
330
1F
100
AcDbEntity
  8
01注記寸法
100
AcDbLeader
  3
NEMY-10
 76
     3
 10
1059.216485955588
 20
386.5289339628634
 30
0.0
 10
1147.9666906836
 20
272.8789339628629
 30
0.0
 10
1467.9666906836
 20
272.8789339628629
 30
0.0
  0
TEXT
  5
1032A
330
1F
100
AcDbEntity
  8
01注記寸法
100
AcDbText
 10
1147.9666906836
 20
235.3789339628629
 30
0.0
 40
30.0
  1
(4-φ16)
100
AcDbText
  0
DIMENSION
  5
1032B
330
1F
100
AcDbEntity
  8
08非表示
100
AcDbDimension
  2
*D1330
 10
1554.316485955589
 20
436.0418370376395
 30
0.0
 11
1316.816485955589
 21
461.0418370376395
 31
0.0
 70
    32
 71
     5
 42
950.0
  3
NEMY-10
100
AcDbAlignedDimension
 13
1079.316485955589
 23
429.061911931951
 33
0.0
 14
1554.316485955589
 24
429.061911931951
 34
0.0
100
AcDbRotatedDimension
1001
ACAD
1000
DSTYLE
1002
{
1070
   271
1070
     0
1070
   144
1040
2.0
1002
}
  0
DIMENSION
  5
1032C
330
1F
100
AcDbEntity
  8
08非表示
100
AcDbDimension
  2
*D1331
 10
1427.980988513019
 20
372.8789339628629
 30
0.0
 11
1402.980988513019
 21
490.3789339628629
 31
0.0
 70
    32
 71
     5
 42
470.0
  3
NEMY-10
100
AcDbAlignedDimension
 13
1466.370576594306
 23
607.8789339628629
 33
0.0
 14
1466.370576594306
 24
372.8789339628629
 34
0.0
 50
90.0
100
AcDbRotatedDimension
1001
ACAD
1000
DSTYLE
1002
{
1070
   271
1070
     0
1070
   144
1040
2.0
1002
}
  0
DIMENSION
  5
1032D
330
1F
100
AcDbEntity
  8
01注記寸法
100
AcDbDimension
  2
*D1332
 10
979.3164859555886
 20
386.5289339628634
 30
0.0
 11
954.3164859555886
 21
490.3789339628634
 31
0.0
 70
    32
 71
     5
 42
415.3999999999996
  3
NEMY-10
100
AcDbAlignedDimension
 13
1059.216485955588
 23
594.2289339628633
 33
0.0
 14
1059.216485955588
 24
386.5289339628634
 34
0.0
 50
90.0
100
AcDbRotatedDimension
1001
ACAD
1000
DSTYLE
1002
{
1070
   271
1070
     0
1070
   144
1040
2.0
1002
}
  0
DIMENSION
  5
1032E
330
1F
100
AcDbEntity
  8
01注記寸法
100
AcDbDimension
  2
*D1333
 10
1574.416485955589
 20
707.8789339628629
 30
0.0
 11
1316.816485955589
 21
732.8789339628629
 31
0.0
 70
    32
 71
     5
 42
1030.400000000001
  3
NEMY-10
100
AcDbAlignedDimension
 13
1059.216485955588
 23
594.2289339628633
 33
0.0
 14
1574.416485955589
 24
594.2289339628633
 34
0.0
100
AcDbRotatedDimension
1001
ACAD
1000
DSTYLE
1002
{
1070
   271
1070
     0
1070
   144
1040
2.0
1002
}
  0
LWPOLYLINE
  5
10371
330
1F
100
AcDbEntity
  8
08非表示
100
AcDbPolyline
 90
        4
 70
     1
 43
0.0
 10
1779.316485955589
 20
272.8789339628629
 10
1779.316485955589
 20
707.8789339628629
 10
2454.316485955589
 20
707.8789339628629
 10
2454.316485955589
 20
272.8789339628629
  0
TEXT
  5
10372
330
1F
100
AcDbEntity
  8
01注記寸法
100
AcDbText
 10
1947.9666906836
 20
285.3789339628629
 30
0.0
 40
30.0
  1
アンカーボルト孔
100
AcDbText
  0
LEADER
  5
10373
330
1F
100
AcDbEntity
  8
01注記寸法
100
AcDbLeader
  3
NEMY-10
 76
     3
 10
1893.716485955588
 20
352.0289339628634
 30
0.0
 10
1947.9666906836
 20
272.8789339628629
 30
0.0
 10
2267.9666906836
 20
272.8789339628629
 30
0.0
  0
TEXT
  5
10374
330
1F
100
AcDbEntity
  8
01注記寸法
100
AcDbText
 10
1947.9666906836
 20
235.3789339628629
 30
0.0
 40
30.0
  1
(4-φ16)
100
AcDbText
  0
DIMENSION
  5
10375
330
1F
100
AcDbEntity
  8
08非表示
100
AcDbDimension
  2
*D1334
 10
2354.316485955589
 20
436.0418370376395
 30
0.0
 11
2116.816485955589
 21
461.0418370376395
 31
0.0
 70
    32
 71
     5
 42
950.0
  3
NEMY-10
100
AcDbAlignedDimension
 13
1879.316485955589
 23
429.061911931951
 33
0.0
 14
2354.316485955589
 24
429.061911931951
 34
0.0
100
AcDbRotatedDimension
1001
ACAD
1000
DSTYLE
1002
{
1070
   271
1070
     0
1070
   144
1040
2.0
1002
}
  0
DIMENSION
  5
10376
330
1F
100
AcDbEntity
  8
08非表示
100
AcDbDimension
  2
*D1335
 10
2227.980988513019
 20
372.8789339628629
 30
0.0
 11
2202.980988513019
 21
490.3789339628629
 31
0.0
 70
    32
 71
     5
 42
470.0
  3
NEMY-10
100
AcDbAlignedDimension
 13
2266.370576594306
 23
607.8789339628629
 33
0.0
 14
2266.370576594306
 24
372.8789339628629
 34
0.0
 50
90.0
100
AcDbRotatedDimension
1001
ACAD
1000
DSTYLE
1002
{
1070
   271
1070
     0
1070
   144
1040
2.0
1002
}
  0
DIMENSION
  5
10377
330
1F
100
AcDbEntity
  8
01注記寸法
100
AcDbDimension
  2
*D1336
 10
1779.316485955589
 20
352.0289339628634
 30
0.0
 11
1754.316485955589
 21
490.3789339628634
 31
0.0
 70
    32
 71
     5
 42
553.3999999999996
  3
NEMY-10
100
AcDbAlignedDimension
 13
1893.716485955588
 23
628.7289339628633
 33
0.0
 14
1893.716485955588
 24
352.0289339628634
 34
0.0
 50
90.0
100
AcDbRotatedDimension
1001
ACAD
1000
DSTYLE
1002
{
1070
   271
1070
     0
1070
   144
1040
2.0
1002
}
  0
DIMENSION
  5
10378
330
1F
100
AcDbEntity
  8
01注記寸法
100
AcDbDimension
  2
*D1337
 10
2339.916485955589
 20
707.8789339628629
 30
0.0
 11
2116.816485955589
 21
732.8789339628629
 31
0.0
 70
    32
 71
     5
 42
892.4000000000015
  3
NEMY-10
100
AcDbAlignedDimension
 13
1893.716485955588
 23
628.7289339628633
 33
0.0
 14
2339.916485955589
 24
628.7289339628633
 34
0.0
100
AcDbRotatedDimension
1001
ACAD
1000
DSTYLE
1002
{
1070
   271
1070
     0
1070
   144
1040
2.0
1002
}
  0
LWPOLYLINE
  5
103AF
330
1F
100
AcDbEntity
  8
09図枠
100
AcDbPolyline
 90
        4
 70
     1
 43
0.0
 10
2800.0
 20
2530.0
 10
2800.0
 20
2590.0
 10
3300.0
 20
2590.0
 10
3300.0
 20
2530.0
  0
TEXT
  5
103B1
330
1F
100
AcDbEntity
  8
01注記寸法
100
AcDbText
 10
2862.8
 20
2545.0
 30
0.0
 40
30.0
  1
１－ＨＴＡ１８８(＃Ｅ２)
 41
0.8
 72
     1
 11
3050.0
 21
2560.0
 31
0.0
100
AcDbText
 73
     2
  0
LWPOLYLINE
  5
103B3
330
1F
100
AcDbEntity
  8
09図枠
100
AcDbPolyline
 90
        4
 70
     1
 43
0.0
 10
2800.0
 20
2470.0
 10
2800.0
 20
2530.0
 10
3300.0
 20
2530.0
 10
3300.0
 20
2470.0
  0
TEXT
  5
103B5
330
1F
100
AcDbEntity
  8
01注記寸法
100
AcDbText
 10
2862.8
 20
2485.0
 30
0.0
 40
30.0
  1
１－ＨＴＡ１８９(＃Ｅ２)
 41
0.8
 72
     1
 11
3050.0
 21
2500.0
 31
0.0
100
AcDbText
 73
     2
  0
LWPOLYLINE
  5
103B7
330
1F
100
AcDbEntity
  8
09図枠
100
AcDbPolyline
 90
        4
 70
     1
 43
0.0
 10
2800.0
 20
2410.0
 10
2800.0
 20
2470.0
 10
3300.0
 20
2470.0
 10
3300.0
 20
2410.0
  0
TEXT
  5
103B9
330
1F
100
AcDbEntity
  8
01注記寸法
100
AcDbText
 10
2862.8
 20
2425.0
 30
0.0
 40
30.0
  1
１－ＨＴＡ１９０(＃Ｅ２)
 41
0.8
 72
     1
 11
3050.0
 21
2440.0
 31
0.0
100
AcDbText
 73
     2
  0
LWPOLYLINE
  5
10401
330
1F
100
AcDbEntity
  8
09図枠
100
AcDbPolyline
 90
        4
 70
     1
 43
0.0
 10
2800.0
 20
2350.0
 10
2800.0
 20
2410.0
 10
3300.0
 20
2410.0
 10
3300.0
 20
2350.0
  0
TEXT
  5
10403
330
1F
100
AcDbEntity
  8
01注記寸法
100
AcDbText
 10
2862.8
 20
2365.0
 30
0.0
 40
30.0
  1
１－ＨＴＡ１９３(＃Ｅ２)
 41
0.8
 72
     1
 11
3050.0
 21
2380.0
 31
0.0
100
AcDbText
 73
     2
  0
LWPOLYLINE
  5
10405
330
1F
100
AcDbEntity
  8
01注記寸法
100
AcDbPolyline
 90
        4
 70
     0
 43
0.0
 10
2750.000000000002
 20
2400.766790756225
 10
2723.576531036949
 20
2355.0
 10
2776.423468963051
 20
2355.0
 10
2750.000000000002
 20
2400.766790756225
  0
TEXT
  5
10406
330
1F
100
AcDbEntity
  8
01注記寸法
100
AcDbText
 10
2740.250000000002
 20
2358.136567594096
 30
0.0
 40
30.0
  1
1
 72
     4
 11
2750.000000000002
 21
2373.286567594096
 31
0.0
100
AcDbText
  0
LWPOLYLINE
  5
10428
330
1F
100
AcDbEntity
  8
09図枠
100
AcDbPolyline
 90
        4
 70
     1
 43
0.0
 10
2800.0
 20
2290.0
 10
2800.0
 20
2350.0
 10
3300.0
 20
2350.0
 10
3300.0
 20
2290.0
  0
LWPOLYLINE
  5
1042A
330
1F
100
AcDbEntity
  8
01注記寸法
100
AcDbPolyline
 90
        4
 70
     0
 43
0.0
 10
2750.000000000002
 20
2340.766790756225
 10
2723.576531036949
 20
2295.0
 10
2776.423468963051
 20
2295.0
 10
2750.000000000002
 20
2340.766790756225
  0
TEXT
  5
1042B
330
1F
100
AcDbEntity
  8
01注記寸法
100
AcDbText
 10
2740.250000000002
 20
2298.136567594096
 30
0.0
 40
30.0
  1
2
 72
     4
 11
2750.000000000002
 21
2313.286567594096
 31
0.0
100
AcDbText
  0
TEXT
  5
1042C
330
1F
100
AcDbEntity
  8
01注記寸法
100
AcDbText
 10
2862.8
 20
2305.0
 30
0.0
 40
30.0
  1
１－ＨＴＰ３４３(＃Ｅ２)
 41
0.8
 72
     1
 11
3050.0
 21
2320.0
 31
0.0
100
AcDbText
 73
     2
  0
VIEWPORT
  5
9F0D
330
1B
100
AcDbEntity
 67
     1
  8
0
100
AcDbViewport
 10
202.5
 20
128.5
 30
0.0
 40
486.0
 41
308.4
 68
     1
 69
     1
 12
202.5
 22
128.5
 13
0.0
 23
0.0
 14
0.5
 24
0.5
 15
0.0
 25
0.0
 16
0.0
 26
0.0
 36
1.0
 17
0.0
 27
0.0
 37
0.0
 42
50.0
 43
0.0
 44
0.0
 45
308.4
 50
0.0
 51
0.0
 72
   100
 90
   557152
  1

281
     0
 71
     1
 74
     0
110
0.0
120
0.0
130
0.0
111
1.0
121
0.0
131
0.0
112
0.0
122
1.0
132
0.0
 79
     0
146
0.0
  0
VIEWPORT
  5
9F0E
330
1B
100
AcDbEntity
 67
     1
  8
0
100
AcDbViewport
 10
202.5
 20
128.5
 30
0.0
 40
324.0
 41
205.6
 68
     2
 69
     2
 12
-3224.9849078482
 22
3553.815758143106
 13
0.0
 23
0.0
 14
0.5
 24
0.5
 15
0.0
 25
0.0
 16
0.0
 26
0.0
 36
1.0
 17
0.0
 27
0.0
 37
0.0
 42
50.0
 43
0.0
 44
0.0
 45
10712.16027781073
 50
0.0
 51
0.0
 72
   100
 90
   557152
  1

281
     0
 71
     1
 74
     0
110
0.0
120
0.0
130
0.0
111
1.0
121
0.0
131
0.0
112
0.0
122
1.0
132
0.0
 79
     0
146
0.0
  0
ENDSEC
  0
SECTION
  2
OBJECTS
  0
DICTIONARY
  5
C
330
0
100
AcDbDictionary
281
     1
  3
ACAD_GROUP
350
D
  3
ACAD_IMAGE_VARS
350
6A88
  3
ACAD_LAYOUT
350
1A
  3
ACAD_MLINESTYLE
350
17
  3
ACAD_PLOTSETTINGS
350
19
  3
ACAD_PLOTSTYLENAME
350
E
  3
ACAD_SCALELIST
350
6A4E
  3
AcadDim
350
C4B1
  3
AcDbVariableDictionary
350
79E
  3
APPDATA
350
6A87
  3
DWGPROPS
350
10462
  0
DICTIONARY
  5
7A6F
330
2
100
AcDbDictionary
280
     1
281
     1
  3
ACAD_LAYERSTATES
360
7A70
  3
ACLYDICTIONARY
360
103BD
  0
DICTIONARY
  5
969E
330
1F
100
AcDbDictionary
280
     1
281
     1
  3
ACAD_SORTENTS
360
969F
  0
DICTIONARY
  5
D
102
{ACAD_REACTORS
330
C
102
}
330
C
100
AcDbDictionary
281
     1
  3
*A1
350
BE74
  3
*A2
350
BE75
  3
*A3
350
BE76
  3
*A4
350
D6EC
  3
*A5
350
D6ED
  3
*A6
350
D6EE
  3
*A7
350
D6EF
  3
*A8
350
D6F0
  0
RASTERVARIABLES
  5
6A88
102
{ACAD_REACTORS
330
C
102
}
330
C
100
AcDbRasterVariables
 90
        0
 70
     1
 71
     1
 72
     1
  0
DICTIONARY
  5
1A
102
{ACAD_REACTORS
330
C
102
}
330
C
100
AcDbDictionary
281
     1
  3
Layout1
350
1E
  3
Model
350
22
  0
DICTIONARY
  5
17
102
{ACAD_REACTORS
330
C
102
}
330
C
100
AcDbDictionary
281
     1
  3
Standard
350
18
  0
DICTIONARY
  5
19
102
{ACAD_REACTORS
330
C
102
}
330
C
100
AcDbDictionary
281
     1
  0
ACDBDICTIONARYWDFLT
  5
E
102
{ACAD_REACTORS
330
C
102
}
330
C
100
AcDbDictionary
281
     1
  3
Normal
350
F
100
AcDbDictionaryWithDefault
340
F
  0
DICTIONARY
  5
6A4E
102
{ACAD_REACTORS
330
C
102
}
330
C
100
AcDbDictionary
281
     1
  3
A0
350
6A4F
  3
A1
350
6A50
  3
A2
350
6A51
  3
A3
350
6A52
  3
A4
350
6A53
  3
A5
350
6A54
  3
A6
350
6A55
  3
A7
350
6A56
  3
A8
350
6A57
  3
A9
350
6A58
  3
B0
350
6A59
  3
B1
350
6A5A
  3
B2
350
6A5B
  3
B3
350
6A5C
  3
B4
350
6A5D
  3
B5
350
6A5E
  3
B6
350
6A5F
  3
B7
350
6A60
  3
B8
350
6A61
  3
B9
350
6A62
  3
C0
350
6A63
  3
C1
350
6A64
  3
C2
350
6A65
  3
C3
350
6A66
  3
C4
350
6A67
  3
C5
350
6A68
  3
C6
350
6A69
  3
C7
350
6A6A
  3
C8
350
6A6B
  3
C9
350
6A6C
  3
D0
350
6A6D
  3
D1
350
6A6E
  3
D2
350
6A6F
  0
XRECORD
  5
C4B1
102
{ACAD_REACTORS
330
C
102
}
330
C
100
AcDbXrecord
280
     1
340
0
 72
     0
 71
     0
 70
     0
 69
     0
 68
     1
 67
     3
 66
     0
 65
     0
 64
     0
 63
     3
 62
     1
 61
     0
 60
     0
 40
0.0
  0
DICTIONARY
  5
79E
102
{ACAD_REACTORS
330
C
102
}
330
C
100
AcDbDictionary
281
     1
  3
DIMASSOC
350
79F
  3
SORTENTS
350
264F
  0
DICTIONARY
  5
6A87
102
{ACAD_REACTORS
330
C
102
}
330
C
100
AcDbDictionary
281
     1
  0
XRECORD
  5
10462
102
{ACAD_REACTORS
330
C
102
}
330
C
100
AcDbXrecord
280
     1
  1
DWGPROPS COOKIE
  2

  3

  4

  6

  7

  8
Sales
  9

300
=
301
=
302
=
303
=
304
=
305
=
306
=
307
=
308
=
309
=
 40
0.0
 41
2455859.030048461
 42
2459010.044896597
  1

 90
        0
  0
DICTIONARY
  5
7A70
102
{ACAD_REACTORS
330
7A6F
102
}
330
7A6F
100
AcDbDictionary
281
     1
  0
DICTIONARY
  5
103BD
102
{ACAD_REACTORS
330
7A6F
102
}
330
7A6F
100
AcDbDictionary
281
     1
1001
ACAD
1000
<All
  0
SORTENTSTABLE
  5
969F
102
{ACAD_REACTORS
330
969E
102
}
330
969E
100
AcDbSortentsTable
330
1F
331
0
  5
BE47
331
7E6F
  5
7E94
331
7E74
  5
7EA4
331
7E7B
  5
7EA7
331
7E7E
  5
7EA8
331
7E7F
  5
7EA9
331
7E84
  5
7EAA
331
7E85
  5
7EAB
331
7E88
  5
7EAC
331
7E89
  5
7EAD
331
7E8A
  5
7EAE
331
7E8B
  5
7EAF
331
7E8C
  5
7EB0
331
7E8D
  5
7EB1
331
7E8F
  5
7EB2
331
7E90
  5
7EB3
331
7E94
  5
7EB4
331
7E95
  5
7EB5
331
7E97
  5
7EB6
331
7E98
  5
7EB9
331
7EA4
  5
7EBA
331
7EA5
  5
7EBB
331
7EA6
  5
7EBC
331
7EA7
  5
7ECB
331
7EB6
  5
7ED0
331
7EB9
  5
7E74
331
7EBE
  5
7E76
331
7EBF
  5
7E78
331
7EC0
  5
7E79
331
7EC1
  5
7E7B
331
7EC2
  5
7E7C
331
7EC3
  5
7E7D
331
7EC4
  5
7E7E
331
7EC5
  5
7E7F
331
7EC6
  5
7ED1
331
7EC7
  5
7ED2
331
7EC8
  5
7ED4
331
7EC9
  5
7ED5
331
7ECA
  5
7ED6
331
7ECB
  5
7ED7
331
7ECC
  5
7EDB
331
7ECD
  5
7EDC
331
7ECE
  5
7EDD
331
7ECF
  5
7EDE
331
7ED0
  5
7EDF
331
7ED1
  5
7EE0
331
7ED2
  5
7EE2
331
7ED4
  5
7EE3
331
7ED5
  5
7EE4
331
7ED6
  5
7EE8
331
7EDA
  5
7EE9
331
7EDB
  5
7EEA
331
7EDC
  5
7EEB
331
7EDD
  5
7EED
331
7EDE
  5
7EEE
331
7EDF
  5
7EEF
331
7EE0
  5
7EF3
331
7EE2
  5
7EF4
331
7EE3
  5
7EF5
331
7EE7
  5
7EF6
331
7EE8
  5
7EF8
331
7EE9
  5
7EF9
331
7EEA
  5
7EFA
331
7EEB
  5
7EFE
331
7EED
  5
7EFF
331
7EEE
  5
7F00
331
7EF2
  5
7F01
331
7EF3
  5
7F03
331
7EF4
  5
7F04
331
7EF5
  5
7F05
331
7EF6
  5
7F09
331
7EF8
  5
7F0A
331
7EF9
  5
7F0B
331
7EFD
  5
7F0C
331
7EFE
  5
7F0D
331
7EFF
  5
7F12
331
7F00
  5
7F13
331
7F01
  5
7F16
331
7F03
  5
7F17
331
7F04
  5
7F1C
331
7F08
  5
7F1E
331
7F09
  5
7F47
331
7F0A
  5
7F49
331
7F0B
  5
7F4A
331
7F0C
  5
7F4B
331
7F0D
  5
7F4C
331
7F12
  5
7F4D
331
7F13
  5
7F4E
331
7F19
  5
7F50
331
7F1B
  5
7F51
331
7F1C
  5
7F52
331
7F47
  5
7F53
331
7F48
  5
7F54
331
7F49
  5
7F55
331
7F4A
  5
7F56
331
7F4B
  5
7F57
331
7F4C
  5
7F58
331
7F4E
  5
7F59
331
7F4F
  5
7F5A
331
7F50
  5
7F5C
331
7F51
  5
7F8F
331
7F52
  5
7F90
331
7F53
  5
7F91
331
7F54
  5
7F92
331
7F55
  5
7F93
331
7F56
  5
7F94
331
7F57
  5
7F95
331
7F58
  5
7F96
331
7F59
  5
7F97
331
7F8D
  5
7F98
331
7F8E
  5
7FC2
331
7F8F
  5
7FC3
331
7F90
  5
7FCA
331
7F91
  5
7FCB
331
7F92
  5
7FDE
331
7F93
  5
7FDF
331
7F94
  5
8081
331
7F95
  5
8082
331
7F96
  5
8083
331
7F97
  5
8084
331
7F98
  5
8192
331
7FC3
  5
8193
331
7FC9
  5
8194
331
7FCA
  5
8195
331
7FCB
  5
8196
331
807F
  5
8197
331
8080
  5
8198
331
8081
  5
819A
331
8082
  5
819C
331
818F
  5
819D
331
8191
  5
819F
331
8192
  5
81A1
331
8193
  5
81A4
331
8194
  5
81A5
331
8195
  5
81A6
331
8196
  5
81A7
331
8197
  5
81AA
331
8199
  5
81AB
331
819A
  5
81AC
331
819C
  5
81AD
331
819D
  5
81AE
331
819F
  5
81AF
331
81A1
  5
81B0
331
81A4
  5
81B1
331
81A5
  5
81B2
331
81A6
  5
81BA
331
81A7
  5
81BB
331
81AA
  5
81BD
331
81AB
  5
81BE
331
81AC
  5
81BF
331
81AD
  5
81C0
331
81AE
  5
81C1
331
81AF
  5
81C2
331
81B0
  5
81C3
331
81B1
  5
81C4
331
81B2
  5
81C5
331
81BB
  5
81C6
331
81BC
  5
81C7
331
81BD
  5
81C8
331
81BE
  5
81CA
331
81BF
  5
81CB
331
81C0
  5
81E8
331
81C1
  5
81F8
331
81C2
  5
821A
331
81C3
  5
821C
331
81C4
  5
86AE
331
81C5
  5
86AF
331
81C6
  5
86B0
331
81C7
  5
86B1
331
81C8
  5
86B2
331
81CD
  5
86B3
331
81E7
  5
86B4
331
81E8
  5
86B5
331
81F8
  5
86B8
331
86AE
  5
86B9
331
86AF
  5
86C4
331
86B0
  5
86C5
331
86B1
  5
86F1
331
86B2
  5
86F2
331
86B3
  5
86F3
331
86B4
  5
86F4
331
86B5
  5
86F5
331
86B6
  5
86FF
331
86B7
  5
8864
331
86F1
  5
8865
331
86F2
  5
8867
331
86F3
  5
8869
331
86FD
  5
886E
331
885B
  5
8879
331
8864
  5
887A
331
8865
  5
887B
331
8867
  5
887C
331
8869
  5
896C
331
886D
  5
896D
331
886E
  5
896E
331
886F
  5
8C5E
331
8C2C
  5
8C5F
331
8C2E
  5
8C61
331
8C2F
  5
8C63
331
8C30
  5
8E22
331
8C31
  5
9719
331
969D
  5
7E90
331
96A0
  5
971A
331
96A1
  5
971B
331
96A2
  5
971C
331
96A3
  5
9A64
331
9A59
  5
9A69
331
9A5B
  5
9A6A
331
9A5C
  5
9A6B
331
9A60
  5
9A6D
331
9A62
  5
9A6E
331
9A63
  5
9A71
331
9A65
  5
9A72
331
9A69
  5
9A75
331
9A6B
  5
9A76
331
9A6C
  5
9A78
331
9A6E
  5
9A7A
331
9A6F
  5
9A7D
331
9A72
  5
9A7E
331
9A73
  5
9A7F
331
9A75
  5
9A80
331
9A76
  5
9A81
331
9A77
  5
9A83
331
9A7A
  5
9A84
331
9A7C
  5
9A85
331
9A7D
  5
9A86
331
9A7E
  5
9A87
331
9A7F
  5
9A88
331
9A80
  5
9A8B
331
9A83
  5
9A8C
331
9A84
  5
9A8D
331
9A85
  5
9A8E
331
9A86
  5
9A8F
331
9A87
  5
9A90
331
9A88
  5
9A91
331
9A89
  5
9A92
331
9A8A
  5
9A95
331
9A8D
  5
9A96
331
9A8E
  5
9A97
331
9A8F
  5
9A98
331
9A90
  5
9A99
331
9A91
  5
9A9A
331
9A92
  5
9A9B
331
9A93
  5
9A9C
331
9A94
  5
9AA4
331
9A9C
  5
9AA6
331
9A9E
  5
9AA8
331
9AA0
  5
9AAC
331
9AA2
  5
9AAE
331
9AA4
  5
9AAF
331
9AA5
  5
9AB0
331
9AA6
  5
9AB1
331
9AA7
  5
9AB2
331
9AA8
  5
9AB3
331
9AAB
  5
9AB4
331
9AAC
  5
9AB5
331
9AAD
  5
9AB6
331
9AAE
  5
9AB7
331
9AAF
  5
9AB8
331
9AB0
  5
9AB9
331
9AB1
  5
9ABA
331
9AB2
  5
9ABB
331
9AB3
  5
9ABC
331
9AB4
  5
9AD7
331
9AB5
  5
9AD8
331
9AB6
  5
9AD9
331
9AB7
  5
9ADA
331
9AB8
  5
9ADB
331
9AB9
  5
9ADC
331
9ABA
  5
9ADD
331
9ABB
  5
9ADE
331
9ABC
  5
A028
331
A00E
  5
A40B
331
A162
  5
A40C
331
A163
  5
A40F
331
A3F3
  5
A9BF
331
A948
  5
A9C1
331
A94D
  5
A9C2
331
A94E
  5
A9C3
331
A972
  5
A9E5
331
A974
  5
A9E7
331
A975
  5
AA27
331
A9E7
  5
AA28
331
A9E8
  5
B87A
331
B716
  5
B87B
331
B719
  5
B87C
331
B71A
  5
B87D
331
B71B
  5
B87E
331
B71D
  5
BE04
331
BDFC
  5
BE05
331
BDFD
  5
BE06
331
BDFE
  5
BE07
331
BDFF
  5
BE08
331
BE00
  5
BE09
331
BE01
  5
BE0A
331
BE02
  5
BE0B
331
BE03
  5
BE0C
331
BE04
  5
BE0D
331
BE05
  5
BE0E
331
BE06
  5
BE0F
331
BE07
  5
BE10
331
BE08
  5
BE11
331
BE09
  5
BE12
331
BE0A
  5
BE13
331
BE0B
  5
BE14
331
BE0C
  5
BE15
331
BE0D
  5
BE16
331
BE0E
  5
BE17
331
BE0F
  5
BE18
331
BE10
  5
BE19
331
BE11
  5
BE1A
331
BE12
  5
BE1B
331
BE13
  5
BE1C
331
BE14
  5
BE1D
331
BE15
  5
BE1E
331
BE16
  5
BE1F
331
BE17
  5
BE20
331
BE18
  5
BE21
331
BE19
  5
BE22
331
BE1A
  5
BE23
331
BE1B
  5
BE24
331
BE1C
  5
BE25
331
BE1D
  5
BE26
331
BE1E
  5
BE27
331
BE1F
  5
BE28
331
BE20
  5
BE29
331
BE21
  5
BE2A
331
BE22
  5
BE2B
331
BE23
  5
BE2C
331
BE24
  5
BE2D
331
BE25
  5
BE2E
331
BE26
  5
BE2F
331
BE27
  5
BE30
331
BE28
  5
BE31
331
BE29
  5
BE32
331
BE2A
  5
BE33
331
BE2B
  5
BE34
331
BE2C
  5
BE35
331
BE2D
  5
BE36
331
BE2E
  5
BE37
331
BE2F
  5
BE38
331
BE30
  5
BE39
331
BE31
  5
BE3A
331
BE32
  5
BE3B
331
BE33
  5
BE3C
331
BE34
  5
BE3D
331
BE35
  5
BE3E
331
BE36
  5
BE3F
331
BE37
  5
BE40
331
BE38
  5
BE41
331
BE39
  5
BE42
331
BE3A
  5
BE43
331
BE3B
  5
BE44
331
BE3C
  5
BE45
331
BE3D
  5
BE46
331
BE3F
  5
BE48
331
BE40
  5
BE49
331
BE41
  5
BE4A
331
BE42
  5
BE4B
331
BE43
  5
BE63
331
BE5B
  5
BE64
331
BE5C
  5
BE65
331
BE5D
  5
BE6A
331
BE62
  5
BE6B
331
BE63
  5
BE6C
331
BE64
  5
BE6D
331
BE65
  5
BE6F
331
BE67
  5
BE70
331
BE68
  5
BF35
331
BE6B
  5
BF3E
331
BE72
  5
D033
331
D023
  5
D035
331
D024
  5
D061
331
D026
  5
D063
331
D028
  5
D064
331
D029
  5
D065
331
D02A
  5
D0C0
331
D0B8
  5
D0C1
331
D0B9
  5
D5FD
331
D5F5
  5
D635
331
D62C
  5
D6C7
331
D62E
  5
7E84
331
D62F
  5
7E85
331
D630
  5
7E86
331
D631
  5
7E87
331
D632
  5
7E8A
331
D633
  5
7E8B
331
D634
  5
7E8C
331
D635
  5
7E8F
331
D6C7
  5
D6C8
331
0
  5
D6C9
331
0
  5
D6CA
331
0
  5
D6CB
331
0
  5
D6CC
331
0
  5
D6CD
331
0
  5
D6CE
331
0
  5
D6CF
331
0
  5
D6D0
331
0
  5
D6D1
331
0
  5
D6D2
331
0
  5
D6D3
331
0
  5
D6D4
331
0
  5
D6D5
331
0
  5
D6D6
331
D6D6
  5
D6D7
331
0
  5
D6D8
331
0
  5
D6D9
331
0
  5
D6DA
331
0
  5
D6DB
331
0
  5
D6DC
331
D6DC
  5
D6DD
331
D6DD
  5
D6DE
331
D6DE
  5
D6DF
331
D6DF
  5
D6E0
331
D6E0
  5
D6E1
331
D6E1
  5
D6E2
331
D6E2
  5
D6E3
331
D6E3
  5
D6E4
331
D6E4
  5
D6E5
331
D6E5
  5
D6E6
331
D6E6
  5
D6E7
331
D6E7
  5
D6E8
331
D6E8
  5
D6E9
331
D6E9
  5
D6EA
331
D6EA
  5
D6EB
331
D6EB
  5
D793
331
D793
  5
D794
331
D794
  5
D795
331
D795
  5
D796
331
D796
  5
D797
331
D797
  5
D798
331
D798
  5
D799
331
D799
  5
D79A
331
D79A
  5
D79B
331
D79B
  5
D79C
331
D79C
  5
D79D
331
D79D
  5
D79E
331
D79E
  5
D79F
331
D79F
  5
D7A0
331
D7A0
  5
D7A1
331
D7A1
  5
D7A2
331
D7A2
  5
D7A4
331
D7A4
  5
D7A5
331
D7A5
  5
D7A7
331
D7A7
  5
D7AA
331
D7AA
  5
D7AB
331
D7AB
  5
D7AC
331
D7AC
  5
D7AD
331
D7AD
  5
D7AE
331
D7AE
  5
D7AF
331
D7AF
  5
D7B0
331
D7B0
  5
D7B1
331
D7B1
  5
D7B2
331
D7B2
  5
D7B5
331
D7B5
  5
D7B6
331
D7B6
  5
D7B7
331
D7B7
  5
D7B8
331
D7B8
  5
D85C
331
D85C
  5
D85D
331
D85D
  5
D85E
331
D85E
  5
D862
331
D862
  5
D863
331
D863
  5
D864
331
D864
  5
D886
331
D886
  5
D887
331
D887
  5
D888
331
D888
  5
D889
331
D889
  5
D88A
331
D88A
  5
D88B
331
D88B
  5
D88F
331
D88F
  5
D890
331
D890
  5
D891
331
D891
  5
D8A2
331
D8A2
  5
D8A3
331
D8A3
  5
D8A4
331
D8A4
  5
D9A1
331
D9A1
  5
D9A2
331
D9A2
  5
EC96
331
EC96
  5
F6D6
331
F6D6
  5
F6D7
331
F6D7
  5
F6DF
331
F6DF
  5
F6E0
331
F6E0
  5
F6E1
331
F6E1
  5
F6E2
331
F6E2
  5
F6E3
331
F6E3
  5
F6E4
331
F6E4
  5
F940
331
F940
  5
F941
331
F944
  5
F945
331
F946
  5
F947
331
F948
  5
F949
331
FC4E
  5
FC4F
331
FC4F
  5
FC50
331
FC50
  5
FC51
331
FC51
  5
FC52
331
FC52
  5
FC53
331
FC53
  5
FC54
331
FC54
  5
FC55
331
FC55
  5
FC56
331
FC57
  5
7E6F
  0
GROUP
  5
BE74
102
{ACAD_REACTORS
330
D
102
}
330
D
100
AcDbGroup
300

 70
     1
 71
     1
340
BE01
340
BE02
340
BE03
340
BE04
340
BE05
340
BE06
340
BE07
340
BE08
340
BE09
340
BE0A
340
BE0B
  0
GROUP
  5
BE75
102
{ACAD_REACTORS
330
D
102
}
330
D
100
AcDbGroup
300

 70
     1
 71
     1
340
BE2A
340
BE2B
340
BE2C
340
BE2D
340
BE2E
340
BE2F
340
BE30
340
BE31
340
BE32
340
BE33
340
BE34
340
BE35
340
BE36
340
BE37
340
BE38
340
BE39
340
BE3A
340
BE3B
340
BE3C
  0
GROUP
  5
BE76
102
{ACAD_REACTORS
330
D
102
}
330
D
100
AcDbGroup
300

 70
     1
 71
     1
340
BE11
340
BE12
340
BE13
340
BE14
340
BE15
340
BE16
340
BE17
340
BE18
340
BE19
340
BE1A
340
BE1B
340
BE1C
340
BE1D
340
BE1E
340
BE1F
340
BE20
340
BE21
340
BE22
340
BE23
340
BE24
340
BE25
340
BE26
340
BE27
340
BE28
340
BE29
  0
GROUP
  5
D6EC
102
{ACAD_REACTORS
330
D
102
}
330
D
100
AcDbGroup
300

 70
     1
 71
     1
  0
GROUP
  5
D6ED
102
{ACAD_REACTORS
330
D
102
}
330
D
100
AcDbGroup
300

 70
     1
 71
     1
  0
GROUP
  5
D6EE
102
{ACAD_REACTORS
330
D
102
}
330
D
100
AcDbGroup
300

 70
     1
 71
     1
  0
GROUP
  5
D6EF
102
{ACAD_REACTORS
330
D
102
}
330
D
100
AcDbGroup
300

 70
     1
 71
     1
  0
GROUP
  5
D6F0
102
{ACAD_REACTORS
330
D
102
}
330
D
100
AcDbGroup
300

 70
     1
 71
     1
  0
LAYOUT
  5
1E
102
{ACAD_REACTORS
330
1A
102
}
330
1A
100
AcDbPlotSettings
  1

  2
none_device
  4
ISO_A3_(420.00_x_297.00_MM)
  6

 40
7.5
 41
20.0
 42
7.5
 43
20.0
 44
420.0
 45
297.0
 46
0.0
 47
0.0
 48
0.0
 49
0.0
140
0.0
141
0.0
142
1.0
143
1.0
 70
   688
 72
     1
 73
     0
 74
     5
  7

 75
    16
147
1.0
148
0.0
149
0.0
100
AcDbLayout
  1
Layout1
 70
     1
 71
     1
 10
0.0
 20
0.0
 11
412.5
 21
277.0
 12
0.0
 22
0.0
 32
0.0
 14
1.000000000000000E+20
 24
1.000000000000000E+20
 34
1.000000000000000E+20
 15
-1.000000000000000E+20
 25
-1.000000000000000E+20
 35
-1.000000000000000E+20
146
0.0
 13
0.0
 23
0.0
 33
0.0
 16
1.0
 26
0.0
 36
0.0
 17
0.0
 27
1.0
 37
0.0
 76
     0
330
1B
331
9F0D
  0
LAYOUT
  5
22
102
{ACAD_REACTORS
330
1A
102
}
330
1A
100
AcDbPlotSettings
  1

  2
none_device
  4
A3
  6

 40
3.174999952316284
 41
3.174999952316284
 42
3.17498779296875
 43
3.17498779296875
 44
297.0318298339844
 45
420.1583251953125
 46
-3.16
 47
-3.1
 48
-90.0
 49
-90.0
140
329.9999999999998
141
207.0
142
1.0
143
1.0
 70
 11940
 72
     1
 73
     1
 74
     4
  7
monochrome.ctb
 75
     0
147
1.0
148
90.0
149
90.0
100
AcDbLayout
  1
Model
 70
     1
 71
     0
 10
0.0
 20
0.0
 11
4200.0
 21
2970.0
 12
0.0
 22
0.0
 32
0.0
 14
0.0
 24
-170.0
 34
0.0
 15
4600.0
 25
2970.0
 35
0.0
146
0.0
 13
0.0
 23
0.0
 33
0.0
 16
1.0
 26
0.0
 36
0.0
 17
0.0
 27
1.0
 37
0.0
 76
     0
330
1F
331
7A57
  0
MLINESTYLE
  5
18
102
{ACAD_REACTORS
330
17
102
}
330
17
100
AcDbMlineStyle
  2
STANDARD
 70
     0
  3

 62
   256
 51
90.0
 52
90.0
 71
     2
 49
0.5
 62
   256
  6
BYLAYER
 49
-0.5
 62
   256
  6
BYLAYER
  0
ACDBPLACEHOLDER
  5
F
102
{ACAD_REACTORS
330
E
102
}
330
E
  0
SCALE
  5
6A4F
102
{ACAD_REACTORS
330
6A4E
102
}
330
6A4E
100
AcDbScale
 70
     0
300
1:1
140
1.0
141
1.0
290
     1
  0
SCALE
  5
6A50
102
{ACAD_REACTORS
330
6A4E
102
}
330
6A4E
100
AcDbScale
 70
     0
300
1:2
140
1.0
141
2.0
290
     0
  0
SCALE
  5
6A51
102
{ACAD_REACTORS
330
6A4E
102
}
330
6A4E
100
AcDbScale
 70
     0
300
1:4
140
1.0
141
4.0
290
     0
  0
SCALE
  5
6A52
102
{ACAD_REACTORS
330
6A4E
102
}
330
6A4E
100
AcDbScale
 70
     0
300
1:5
140
1.0
141
5.0
290
     0
  0
SCALE
  5
6A53
102
{ACAD_REACTORS
330
6A4E
102
}
330
6A4E
100
AcDbScale
 70
     0
300
1:8
140
1.0
141
8.0
290
     0
  0
SCALE
  5
6A54
102
{ACAD_REACTORS
330
6A4E
102
}
330
6A4E
100
AcDbScale
 70
     0
300
1:10
140
1.0
141
10.0
290
     0
  0
SCALE
  5
6A55
102
{ACAD_REACTORS
330
6A4E
102
}
330
6A4E
100
AcDbScale
 70
     0
300
1:16
140
1.0
141
16.0
290
     0
  0
SCALE
  5
6A56
102
{ACAD_REACTORS
330
6A4E
102
}
330
6A4E
100
AcDbScale
 70
     0
300
1:20
140
1.0
141
20.0
290
     0
  0
SCALE
  5
6A57
102
{ACAD_REACTORS
330
6A4E
102
}
330
6A4E
100
AcDbScale
 70
     0
300
1:30
140
1.0
141
30.0
290
     0
  0
SCALE
  5
6A58
102
{ACAD_REACTORS
330
6A4E
102
}
330
6A4E
100
AcDbScale
 70
     0
300
1:40
140
1.0
141
40.0
290
     0
  0
SCALE
  5
6A59
102
{ACAD_REACTORS
330
6A4E
102
}
330
6A4E
100
AcDbScale
 70
     0
300
1:50
140
1.0
141
50.0
290
     0
  0
SCALE
  5
6A5A
102
{ACAD_REACTORS
330
6A4E
102
}
330
6A4E
100
AcDbScale
 70
     0
300
1:100
140
1.0
141
100.0
290
     0
  0
SCALE
  5
6A5B
102
{ACAD_REACTORS
330
6A4E
102
}
330
6A4E
100
AcDbScale
 70
     0
300
2:1
140
2.0
141
1.0
290
     0
  0
SCALE
  5
6A5C
102
{ACAD_REACTORS
330
6A4E
102
}
330
6A4E
100
AcDbScale
 70
     0
300
4:1
140
4.0
141
1.0
290
     0
  0
SCALE
  5
6A5D
102
{ACAD_REACTORS
330
6A4E
102
}
330
6A4E
100
AcDbScale
 70
     0
300
8:1
140
8.0
141
1.0
290
     0
  0
SCALE
  5
6A5E
102
{ACAD_REACTORS
330
6A4E
102
}
330
6A4E
100
AcDbScale
 70
     0
300
10:1
140
10.0
141
1.0
290
     0
  0
SCALE
  5
6A5F
102
{ACAD_REACTORS
330
6A4E
102
}
330
6A4E
100
AcDbScale
 70
     0
300
100:1
140
100.0
141
1.0
290
     0
  0
SCALE
  5
6A60
102
{ACAD_REACTORS
330
6A4E
102
}
330
6A4E
100
AcDbScale
 70
     0
300
1/128" = 1'-0"
140
0.0078125
141
12.0
290
     0
  0
SCALE
  5
6A61
102
{ACAD_REACTORS
330
6A4E
102
}
330
6A4E
100
AcDbScale
 70
     0
300
1/64" = 1'-0"
140
0.015625
141
12.0
290
     0
  0
SCALE
  5
6A62
102
{ACAD_REACTORS
330
6A4E
102
}
330
6A4E
100
AcDbScale
 70
     0
300
1/32" = 1'-0"
140
0.03125
141
12.0
290
     0
  0
SCALE
  5
6A63
102
{ACAD_REACTORS
330
6A4E
102
}
330
6A4E
100
AcDbScale
 70
     0
300
1/16" = 1'-0"
140
0.0625
141
12.0
290
     0
  0
SCALE
  5
6A64
102
{ACAD_REACTORS
330
6A4E
102
}
330
6A4E
100
AcDbScale
 70
     0
300
3/32" = 1'-0"
140
0.09375
141
12.0
290
     0
  0
SCALE
  5
6A65
102
{ACAD_REACTORS
330
6A4E
102
}
330
6A4E
100
AcDbScale
 70
     0
300
1/8" = 1'-0"
140
0.125
141
12.0
290
     0
  0
SCALE
  5
6A66
102
{ACAD_REACTORS
330
6A4E
102
}
330
6A4E
100
AcDbScale
 70
     0
300
3/16" = 1'-0"
140
0.1875
141
12.0
290
     0
  0
SCALE
  5
6A67
102
{ACAD_REACTORS
330
6A4E
102
}
330
6A4E
100
AcDbScale
 70
     0
300
1/4" = 1'-0"
140
0.25
141
12.0
290
     0
  0
SCALE
  5
6A68
102
{ACAD_REACTORS
330
6A4E
102
}
330
6A4E
100
AcDbScale
 70
     0
300
3/8" = 1'-0"
140
0.375
141
12.0
290
     0
  0
SCALE
  5
6A69
102
{ACAD_REACTORS
330
6A4E
102
}
330
6A4E
100
AcDbScale
 70
     0
300
1/2" = 1'-0"
140
0.5
141
12.0
290
     0
  0
SCALE
  5
6A6A
102
{ACAD_REACTORS
330
6A4E
102
}
330
6A4E
100
AcDbScale
 70
     0
300
3/4" = 1'-0"
140
0.75
141
12.0
290
     0
  0
SCALE
  5
6A6B
102
{ACAD_REACTORS
330
6A4E
102
}
330
6A4E
100
AcDbScale
 70
     0
300
1" = 1'-0"
140
1.0
141
12.0
290
     0
  0
SCALE
  5
6A6C
102
{ACAD_REACTORS
330
6A4E
102
}
330
6A4E
100
AcDbScale
 70
     0
300
1-1/2" = 1'-0"
140
1.5
141
12.0
290
     0
  0
SCALE
  5
6A6D
102
{ACAD_REACTORS
330
6A4E
102
}
330
6A4E
100
AcDbScale
 70
     0
300
3" = 1'-0"
140
3.0
141
12.0
290
     0
  0
SCALE
  5
6A6E
102
{ACAD_REACTORS
330
6A4E
102
}
330
6A4E
100
AcDbScale
 70
     0
300
6" = 1'-0"
140
6.0
141
12.0
290
     0
  0
SCALE
  5
6A6F
102
{ACAD_REACTORS
330
6A4E
102
}
330
6A4E
100
AcDbScale
 70
     0
300
1'-0" = 1'-0"
140
12.0
141
12.0
290
     0
  0
DICTIONARYVAR
  5
79F
102
{ACAD_REACTORS
330
79E
102
}
330
79E
100
DictionaryVariables
280
     0
  1
1
  0
DICTIONARYVAR
  5
264F
102
{ACAD_REACTORS
330
79E
102
}
330
79E
100
DictionaryVariables
280
     0
  1
96
  0
ENDSEC
  0
EOF
