  0
SECTION
  2
HEADER
  9
$ACADVER
  1
AC1015
  9
$ACADMAINTVER
 70
     6
  9
$DWGCODEPAGE
  3
ANSI_932
  9
$INSBASE
 10
0.0
 20
0.0
 30
0.0
  9
$EXTMIN
 10
0.0
 20
-170.0000000000005
 30
0.0
  9
$EXTMAX
 10
4600.0
 20
2970.0
 30
0.0
  9
$LIMMIN
 10
0.0
 20
0.0
  9
$LIMMAX
 10
4200.0
 20
2970.0
  9
$ORTHOMODE
 70
     1
  9
$REGENMODE
 70
     1
  9
$FILLMODE
 70
     1
  9
$QTEXTMODE
 70
     0
  9
$MIRRTEXT
 70
     1
  9
$LTSCALE
 40
3.0
  9
$ATTMODE
 70
     1
  9
$TEXTSIZE
 40
30.0
  9
$TRACEWID
 40
1.0
  9
$TEXTSTYLE
  7
Standard
  9
$CLAYER
  8
07その他
  9
$CELTYPE
  6
ByLayer
  9
$CECOLOR
 62
   256
  9
$CELTSCALE
 40
1.0
  9
$DISPSILH
 70
     0
  9
$DIMSCALE
 40
10.0
  9
$DIMASZ
 40
3.0
  9
$DIMEXO
 40
1.5
  9
$DIMDLI
 40
10.0
  9
$DIMRND
 40
0.0
  9
$DIMDLE
 40
0.0
  9
$DIMEXE
 40
1.0
  9
$DIMTP
 40
0.0
  9
$DIMTM
 40
0.0
  9
$DIMTXT
 40
3.0
  9
$DIMCEN
 40
1.5
  9
$DIMTSZ
 40
0.0
  9
$DIMTOL
 70
     0
  9
$DIMLIM
 70
     0
  9
$DIMTIH
 70
     0
  9
$DIMTOH
 70
     0
  9
$DIMSE1
 70
     0
  9
$DIMSE2
 70
     0
  9
$DIMTAD
 70
     1
  9
$DIMZIN
 70
     8
  9
$DIMBLK
  1
Open
  9
$DIMASO
 70
     1
  9
$DIMSHO
 70
     1
  9
$DIMPOST
  1

  9
$DIMAPOST
  1

  9
$DIMALT
 70
     0
  9
$DIMALTD
 70
     3
  9
$DIMALTF
 40
0.03937007874016
  9
$DIMLFAC
 40
1.0
  9
$DIMTOFL
 70
     1
  9
$DIMTVP
 40
0.0
  9
$DIMTIX
 70
     0
  9
$DIMSOXD
 70
     0
  9
$DIMSAH
 70
     0
  9
$DIMBLK1
  1

  9
$DIMBLK2
  1

  9
$DIMSTYLE
  2
NEMY-10
  9
$DIMCLRD
 70
     0
  9
$DIMCLRE
 70
     0
  9
$DIMCLRT
 70
     0
  9
$DIMTFAC
 40
1.0
  9
$DIMGAP
 40
1.0
  9
$DIMJUST
 70
     0
  9
$DIMSD1
 70
     0
  9
$DIMSD2
 70
     0
  9
$DIMTOLJ
 70
     0
  9
$DIMTZIN
 70
     8
  9
$DIMALTZ
 70
     0
  9
$DIMALTTZ
 70
     0
  9
$DIMUPT
 70
     0
  9
$DIMDEC
 70
     1
  9
$DIMTDEC
 70
     1
  9
$DIMALTU
 70
     2
  9
$DIMALTTD
 70
     3
  9
$DIMTXSTY
  7
Standard
  9
$DIMAUNIT
 70
     0
  9
$DIMADEC
 70
     0
  9
$DIMALTRND
 40
0.0
  9
$DIMAZIN
 70
     0
  9
$DIMDSEP
 70
    46
  9
$DIMATFIT
 70
     3
  9
$DIMFRAC
 70
     0
  9
$DIMLDRBLK
  1
Open
  9
$DIMLUNIT
 70
     2
  9
$DIMLWD
 70
    -2
  9
$DIMLWE
 70
    -2
  9
$DIMTMOVE
 70
     0
  9
$LUNITS
 70
     2
  9
$LUPREC
 70
     4
  9
$SKETCHINC
 40
1.0
  9
$FILLETRAD
 40
15.0
  9
$AUNITS
 70
     0
  9
$AUPREC
 70
     0
  9
$MENU
  1
.
  9
$ELEVATION
 40
0.0
  9
$PELEVATION
 40
0.0
  9
$THICKNESS
 40
0.0
  9
$LIMCHECK
 70
     0
  9
$CHAMFERA
 40
0.0
  9
$CHAMFERB
 40
0.0
  9
$CHAMFERC
 40
20.0
  9
$CHAMFERD
 40
0.0
  9
$SKPOLY
 70
     0
  9
$TDCREATE
 40
2455859.405048461
  9
$TDUCREATE
 40
2455859.030048461
  9
$TDUPDATE
 40
2459010.41132404
  9
$TDUUPDATE
 40
2459010.03632404
  9
$TDINDWG
 40
0.0005426273
  9
$TDUSRTIMER
 40
0.0005283565
  9
$USRTIMER
 70
     1
  9
$ANGBASE
 50
0.0
  9
$ANGDIR
 70
     0
  9
$PDMODE
 70
     0
  9
$PDSIZE
 40
0.0
  9
$PLINEWID
 40
0.0
  9
$SPLFRAME
 70
     0
  9
$SPLINETYPE
 70
     6
  9
$SPLINESEGS
 70
     8
  9
$HANDSEED
  5
C592
  9
$SURFTAB1
 70
     6
  9
$SURFTAB2
 70
     6
  9
$SURFTYPE
 70
     6
  9
$SURFU
 70
     6
  9
$SURFV
 70
     6
  9
$UCSBASE
  2

  9
$UCSNAME
  2

  9
$UCSORG
 10
0.0
 20
0.0
 30
0.0
  9
$UCSXDIR
 10
1.0
 20
0.0
 30
0.0
  9
$UCSYDIR
 10
0.0
 20
1.0
 30
0.0
  9
$UCSORTHOREF
  2

  9
$UCSORTHOVIEW
 70
     0
  9
$UCSORGTOP
 10
0.0
 20
0.0
 30
0.0
  9
$UCSORGBOTTOM
 10
0.0
 20
0.0
 30
0.0
  9
$UCSORGLEFT
 10
0.0
 20
0.0
 30
0.0
  9
$UCSORGRIGHT
 10
0.0
 20
0.0
 30
0.0
  9
$UCSORGFRONT
 10
0.0
 20
0.0
 30
0.0
  9
$UCSORGBACK
 10
0.0
 20
0.0
 30
0.0
  9
$PUCSBASE
  2

  9
$PUCSNAME
  2

  9
$PUCSORG
 10
0.0
 20
0.0
 30
0.0
  9
$PUCSXDIR
 10
1.0
 20
0.0
 30
0.0
  9
$PUCSYDIR
 10
0.0
 20
1.0
 30
0.0
  9
$PUCSORTHOREF
  2

  9
$PUCSORTHOVIEW
 70
     0
  9
$PUCSORGTOP
 10
0.0
 20
0.0
 30
0.0
  9
$PUCSORGBOTTOM
 10
0.0
 20
0.0
 30
0.0
  9
$PUCSORGLEFT
 10
0.0
 20
0.0
 30
0.0
  9
$PUCSORGRIGHT
 10
0.0
 20
0.0
 30
0.0
  9
$PUCSORGFRONT
 10
0.0
 20
0.0
 30
0.0
  9
$PUCSORGBACK
 10
0.0
 20
0.0
 30
0.0
  9
$USERI1
 70
     0
  9
$USERI2
 70
     0
  9
$USERI3
 70
     0
  9
$USERI4
 70
     0
  9
$USERI5
 70
     0
  9
$USERR1
 40
0.0
  9
$USERR2
 40
0.0
  9
$USERR3
 40
0.0
  9
$USERR4
 40
0.0
  9
$USERR5
 40
0.0
  9
$WORLDVIEW
 70
     1
  9
$SHADEDGE
 70
     3
  9
$SHADEDIF
 70
    70
  9
$TILEMODE
 70
     1
  9
$MAXACTVP
 70
    64
  9
$PINSBASE
 10
0.0
 20
0.0
 30
0.0
  9
$PLIMCHECK
 70
     0
  9
$PEXTMIN
 10
1.000000000000000E+20
 20
1.000000000000000E+20
 30
1.000000000000000E+20
  9
$PEXTMAX
 10
-1.000000000000000E+20
 20
-1.000000000000000E+20
 30
-1.000000000000000E+20
  9
$PLIMMIN
 10
-7.5
 20
-20.0
  9
$PLIMMAX
 10
412.5
 20
277.0
  9
$UNITMODE
 70
     0
  9
$VISRETAIN
 70
     1
  9
$PLINEGEN
 70
     0
  9
$PSLTSCALE
 70
     1
  9
$TREEDEPTH
 70
  3020
  9
$CMLSTYLE
  2
Standard
  9
$CMLJUST
 70
     0
  9
$CMLSCALE
 40
20.0
  9
$PROXYGRAPHICS
 70
     1
  9
$MEASUREMENT
 70
     1
  9
$CELWEIGHT
370
    -1
  9
$ENDCAPS
280
     0
  9
$JOINSTYLE
280
     0
  9
$LWDISPLAY
290
     0
  9
$INSUNITS
 70
     4
  9
$HYPERLINKBASE
  1

  9
$STYLESHEET
  1
monochrome.ctb
  9
$XEDIT
290
     1
  9
$CEPSNTYPE
380
     0
  9
$PSTYLEMODE
290
     1
  9
$FINGERPRINTGUID
  2
{FDEAD578-A652-11D2-9A35-0060089B3A3F}
  9
$VERSIONGUID
  2
{11DB8456-EC16-47A0-BA21-BBDA07550E8A}
  9
$EXTNAMES
290
     1
  9
$PSVPSCALE
 40
0.0
  9
$OLESTARTUP
290
     0
  0
ENDSEC
  0
SECTION
  2
CLASSES
  0
CLASS
  1
ACDBDICTIONARYWDFLT
  2
AcDbDictionaryWithDefault
  3
ObjectDBX Classes
 90
        0
280
     0
281
     0
  0
CLASS
  1
ACDBPLACEHOLDER
  2
AcDbPlaceHolder
  3
ObjectDBX Classes
 90
        0
280
     0
281
     0
  0
CLASS
  1
LAYOUT
  2
AcDbLayout
  3
ObjectDBX Classes
 90
        0
280
     0
281
     0
  0
CLASS
  1
DICTIONARYVAR
  2
AcDbDictionaryVar
  3
ObjectDBX Classes
 90
        0
280
     0
281
     0
  0
CLASS
  1
SCALE
  2
AcDbScale
  3
ObjectDBX Classes
 90
     1153
280
     0
281
     0
  0
CLASS
  1
MATERIAL
  2
AcDbMaterial
  3
ObjectDBX Classes
 90
     1153
280
     0
281
     0
  0
CLASS
  1
VISUALSTYLE
  2
AcDbVisualStyle
  3
ObjectDBX Classes
 90
     4095
280
     0
281
     0
  0
CLASS
  1
TABLESTYLE
  2
AcDbTableStyle
  3
ObjectDBX Classes
 90
     4095
280
     0
281
     0
  0
CLASS
  1
RASTERVARIABLES
  2
AcDbRasterVariables
  3
ISM
 90
        0
280
     0
281
     0
  0
CLASS
  1
SORTENTSTABLE
  2
AcDbSortentsTable
  3
ObjectDBX Classes
 90
        0
280
     0
281
     0
  0
CLASS
  1
SUN
  2
AcDbSun
  3
SCENEOE
 90
     1153
280
     0
281
     0
  0
CLASS
  1
MLEADERSTYLE
  2
AcDbMLeaderStyle
  3
ACDB_MLEADERSTYLE_CLASS
 90
     4095
280
     0
281
     0
  0
ENDSEC
  0
SECTION
  2
TABLES
  0
TABLE
  2
VPORT
  5
8
330
0
100
AcDbSymbolTable
 70
     1
  0
VPORT
  5
7A57
330
8
100
AcDbSymbolTableRecord
100
AcDbViewportTableRecord
  2
*Active
 70
     0
 10
0.0
 20
0.0
 11
1.0
 21
1.0
 12
1718.552923076923
 22
1713.401538461539
 13
0.0
 23
0.0
 14
10.0
 24
10.0
 15
10.0
 25
10.0
 16
0.0
 26
0.0
 36
1.0
 17
0.0
 27
0.0
 37
0.0
 40
1658.000410256411
 41
1.448916408668731
 42
50.0
 43
0.0
 44
0.0
 50
0.0
 51
0.0
 71
    16
 72
   100
 73
     1
 74
     2
 75
     0
 76
     0
 77
     0
 78
     0
281
     0
 65
     1
110
0.0
120
0.0
130
0.0
111
1.0
121
0.0
131
0.0
112
0.0
122
1.0
132
0.0
 79
     0
146
0.0
  0
ENDTAB
  0
TABLE
  2
LTYPE
  5
5
330
0
100
AcDbSymbolTable
 70
     5
  0
LTYPE
  5
14
330
5
100
AcDbSymbolTableRecord
100
AcDbLinetypeTableRecord
  2
ByBlock
 70
     0
  3

 72
    65
 73
     0
 40
0.0
  0
LTYPE
  5
15
330
5
100
AcDbSymbolTableRecord
100
AcDbLinetypeTableRecord
  2
ByLayer
 70
     0
  3

 72
    65
 73
     0
 40
0.0
  0
LTYPE
  5
16
330
5
100
AcDbSymbolTableRecord
100
AcDbLinetypeTableRecord
  2
Continuous
 70
     0
  3
Solid line
 72
    65
 73
     0
 40
0.0
  0
LTYPE
  5
BA
330
5
100
AcDbSymbolTableRecord
100
AcDbLinetypeTableRecord
  2
HIDDEN
 70
     0
  3
Hidden __ __ __ __ __ __ __ __ __ __ __ __ __ _
 72
    65
 73
     2
 40
9.524999999999999
 49
6.35
 74
     0
 49
-3.175
 74
     0
  0
LTYPE
  5
BB
330
5
100
AcDbSymbolTableRecord
100
AcDbLinetypeTableRecord
  2
PHANTOM
 70
     0
  3
Phantom ______  __  __  ______  __  __  ______
 72
    65
 73
     6
 40
63.5
 49
31.75
 74
     0
 49
-6.35
 74
     0
 49
6.35
 74
     0
 49
-6.35
 74
     0
 49
6.35
 74
     0
 49
-6.35
 74
     0
  0
LTYPE
  5
BC
330
5
100
AcDbSymbolTableRecord
100
AcDbLinetypeTableRecord
  2
CENTER
 70
     0
  3
Center ____ _ ____ _ ____ _ ____ _ ____ _ ____
 72
    65
 73
     4
 40
50.8
 49
31.75
 74
     0
 49
-6.35
 74
     0
 49
6.35
 74
     0
 49
-6.35
 74
     0
  0
LTYPE
  5
47C
330
5
100
AcDbSymbolTableRecord
100
AcDbLinetypeTableRecord
  2
DOT
 70
     0
  3
Dot . . . . . . . . . . . . . . . . . . . . . .
 72
    65
 73
     2
 40
6.35
 49
0.0
 74
     0
 49
-6.35
 74
     0
  0
ENDTAB
  0
TABLE
  2
LAYER
  5
2
102
{ACAD_XDICTIONARY
360
7A6F
102
}
330
0
100
AcDbSymbolTable
 70
    15
  0
LAYER
  5
10
330
2
100
AcDbSymbolTableRecord
100
AcDbLayerTableRecord
  2
0
 70
     0
 62
    -7
  6
Continuous
370
    -3
390
F
  0
LAYER
  5
45
330
2
100
AcDbSymbolTableRecord
100
AcDbLayerTableRecord
  2
01注記寸法
 70
     0
 62
    -7
  6
Continuous
370
     9
390
F
  0
LAYER
  5
46
330
2
100
AcDbSymbolTableRecord
100
AcDbLayerTableRecord
  2
02実線
 70
     0
 62
     2
  6
Continuous
370
    15
390
F
  0
LAYER
  5
5F
330
2
100
AcDbSymbolTableRecord
100
AcDbLayerTableRecord
  2
Defpoints
 70
     0
 62
    -7
  6
Continuous
290
     0
370
    -3
390
F
  0
LAYER
  5
7E52
330
2
100
AcDbSymbolTableRecord
100
AcDbLayerTableRecord
  2
03破線
 70
     0
 62
    -3
  6
HIDDEN
370
     9
390
F
  0
LAYER
  5
7E55
330
2
100
AcDbSymbolTableRecord
100
AcDbLayerTableRecord
  2
04一点鎖線
 70
     0
 62
   -70
  6
CENTER
370
     9
390
F
  0
LAYER
  5
7E58
330
2
100
AcDbSymbolTableRecord
100
AcDbLayerTableRecord
  2
05二点鎖線
 70
     0
 62
  -110
  6
PHANTOM
370
     9
390
F
  0
LAYER
  5
7E5B
330
2
100
AcDbSymbolTableRecord
100
AcDbLayerTableRecord
  2
06点線
 70
     0
 62
   -96
  6
DOT
370
     9
390
F
  0
LAYER
  5
7E5E
330
2
100
AcDbSymbolTableRecord
100
AcDbLayerTableRecord
  2
07その他
 70
     0
 62
    -6
  6
Continuous
370
     5
390
F
  0
LAYER
  5
7E60
330
2
100
AcDbSymbolTableRecord
100
AcDbLayerTableRecord
  2
08非表示
 70
     0
 62
    -4
  6
Continuous
290
     0
370
     0
390
F
  0
LAYER
  5
7E62
330
2
100
AcDbSymbolTableRecord
100
AcDbLayerTableRecord
  2
09図枠
 70
     0
 62
    -1
  6
Continuous
370
    30
390
F
  0
LAYER
  5
835A
330
2
100
AcDbSymbolTableRecord
100
AcDbLayerTableRecord
  2
10副資材
 70
     0
 62
   -51
  6
Continuous
290
     0
370
    -3
390
F
1001
AcAecLayerStandard
1000

1000

  0
LAYER
  5
8CAC
330
2
100
AcDbSymbolTableRecord
100
AcDbLayerTableRecord
  2
11機器
 70
     0
 62
   -11
  6
Continuous
290
     0
370
    -3
390
F
1001
AcAecLayerStandard
1000

1000

  0
LAYER
  5
8CB1
330
2
100
AcDbSymbolTableRecord
100
AcDbLayerTableRecord
  2
12防振架台
 70
     0
 62
  -190
  6
Continuous
290
     0
370
    -3
390
F
1001
AcAecLayerStandard
1000

1000

  0
LAYER
  5
A15B
330
2
100
AcDbSymbolTableRecord
100
AcDbLayerTableRecord
  2
13製作用注記
 70
     0
 62
    -5
  6
Continuous
290
     0
370
     9
390
F
1001
AcAecLayerStandard
1000

1000

  0
ENDTAB
  0
TABLE
  2
STYLE
  5
3
330
0
100
AcDbSymbolTable
 70
     2
  0
STYLE
  5
11
330
3
100
AcDbSymbolTableRecord
100
AcDbTextStyleTableRecord
  2
Standard
 70
     0
 40
0.0
 41
1.0
 50
0.0
 71
     0
 42
30.0
  3
MSGOTHIC.TTC
  4

1001
ACAD
1000
MS Gothic
1071
    32817
  0
STYLE
  5
47B
330
3
100
AcDbSymbolTableRecord
100
AcDbTextStyleTableRecord
  2

 70
     1
 40
0.0
 41
1.0
 50
0.0
 71
     0
 42
3.0
  3
ltypeshp.shx
  4

  0
ENDTAB
  0
TABLE
  2
VIEW
  5
6
330
0
100
AcDbSymbolTable
 70
     0
  0
ENDTAB
  0
TABLE
  2
UCS
  5
7
330
0
100
AcDbSymbolTable
 70
     0
  0
ENDTAB
  0
TABLE
  2
APPID
  5
9
330
0
100
AcDbSymbolTable
 70
     6
  0
APPID
  5
12
330
9
100
AcDbSymbolTableRecord
100
AcDbRegAppTableRecord
  2
ACAD
 70
     0
  0
APPID
  5
6A9E
330
9
100
AcDbSymbolTableRecord
100
AcDbRegAppTableRecord
  2
ACAD_DSTYLE_DIMRADIAL_EXTENSION
 70
     0
  0
APPID
  5
742C
330
9
100
AcDbSymbolTableRecord
100
AcDbRegAppTableRecord
  2
ACAD_PSEXT
 70
     0
  0
APPID
  5
742D
330
9
100
AcDbSymbolTableRecord
100
AcDbRegAppTableRecord
  2
ACAD_DSTYLE_DIMJAG
 70
     0
  0
APPID
  5
742E
330
9
100
AcDbSymbolTableRecord
100
AcDbRegAppTableRecord
  2
ACAD_DSTYLE_DIMTALN
 70
     0
  0
APPID
  5
835C
330
9
100
AcDbSymbolTableRecord
100
AcDbRegAppTableRecord
  2
AcAecLayerStandard
 70
     0
  0
ENDTAB
  0
TABLE
  2
DIMSTYLE
  5
A
330
0
100
AcDbSymbolTable
 70
    24
100
AcDbDimStyleTable
  0
DIMSTYLE
105
73
330
A
100
AcDbSymbolTableRecord
100
AcDbDimStyleTableRecord
  2
NEMY-1
 70
     0
 41
3.0
 42
1.5
 43
10.0
 44
1.0
 73
     0
 74
     0
 77
     1
 78
     8
140
3.0
141
1.5
143
0.03937007874016
147
1.0
171
     3
172
     1
178
     0
271
     1
272
     1
274
     3
283
     0
284
     8
340
11
341
8F
342
8F
  0
DIMSTYLE
105
4DCE
330
A
100
AcDbSymbolTableRecord
100
AcDbDimStyleTableRecord
  2
NEMY-2
 70
     0
 40
2.0
 41
3.0
 42
1.5
 43
10.0
 44
1.0
 73
     0
 74
     0
 77
     1
 78
     8
140
3.0
141
1.5
143
0.03937007874016
147
1.0
171
     3
172
     1
178
     0
271
     1
272
     1
274
     3
283
     0
284
     8
340
11
341
8F
342
8F
  0
DIMSTYLE
105
4DCF
330
A
100
AcDbSymbolTableRecord
100
AcDbDimStyleTableRecord
  2
NEMY-3
 70
     0
 40
3.0
 41
3.0
 42
1.5
 43
10.0
 44
1.0
 73
     0
 74
     0
 77
     1
 78
     8
140
3.0
141
1.5
143
0.03937007874016
147
1.0
171
     3
172
     1
178
     0
271
     1
272
     1
274
     3
283
     0
284
     8
340
11
341
8F
342
8F
  0
DIMSTYLE
105
4DD0
330
A
100
AcDbSymbolTableRecord
100
AcDbDimStyleTableRecord
  2
NEMY-5
 70
     0
 40
5.0
 41
3.0
 42
1.5
 43
10.0
 44
1.0
 73
     0
 74
     0
 77
     1
 78
     8
140
3.0
141
1.5
143
0.03937007874016
147
1.0
171
     3
172
     1
178
     0
271
     1
272
     1
274
     3
283
     0
284
     8
340
11
341
8F
342
8F
  0
DIMSTYLE
105
4DD1
330
A
100
AcDbSymbolTableRecord
100
AcDbDimStyleTableRecord
  2
NEMY-8
 70
     0
 40
8.0
 41
3.0
 42
1.5
 43
10.0
 44
1.0
 73
     0
 74
     0
 77
     1
 78
     8
140
3.0
141
1.5
143
0.03937007874016
147
1.0
171
     3
172
     1
178
     0
271
     1
272
     1
274
     3
283
     0
284
     8
340
11
341
8F
342
8F
  0
DIMSTYLE
105
4DD2
330
A
100
AcDbSymbolTableRecord
100
AcDbDimStyleTableRecord
  2
NEMY-15
 70
     0
 40
15.0
 41
3.0
 42
1.5
 43
10.0
 44
1.0
 73
     0
 74
     0
 77
     1
 78
     8
140
3.0
141
1.5
143
0.03937007874016
147
1.0
171
     3
172
     1
178
     0
271
     1
272
     1
274
     3
283
     0
284
     8
340
11
341
8F
342
8F
  0
DIMSTYLE
105
4DD3
102
{ACAD_REACTORS
330
AAA2
330
AAAF
330
AABF
330
ABB1
330
ABCB
330
ABDB
330
ABE8
330
ABF6
330
AF27
330
AF37
330
AF38
330
AF39
330
AF45
330
AF46
330
AF49
330
AF55
330
AF56
330
AF59
330
AF65
330
AF66
330
B8DB
330
B8E1
330
B8E4
330
B8E7
330
B8EA
330
B8ED
330
B905
330
B906
330
B907
330
B908
330
B909
330
B90A
330
B90B
330
B90C
330
B90D
330
B90E
330
B90F
330
B910
330
B911
330
B912
330
B913
330
B918
330
B919
330
B91A
330
B9EA
330
B9ED
330
B9F0
330
B9F3
102
}
330
A
100
AcDbSymbolTableRecord
100
AcDbDimStyleTableRecord
  2
NEMY-10
 70
     0
 40
10.0
 41
3.0
 42
1.5
 43
10.0
 44
1.0
 73
     0
 74
     0
 77
     1
 78
     8
140
3.0
141
1.5
143
0.03937007874016
147
1.0
171
     3
172
     1
178
     0
271
     1
272
     1
274
     3
283
     0
284
     8
340
11
341
8F
342
8F
  0
DIMSTYLE
105
4DD4
330
A
100
AcDbSymbolTableRecord
100
AcDbDimStyleTableRecord
  2
NEMY-25
 70
     0
 40
25.0
 41
3.0
 42
1.5
 43
10.0
 44
1.0
 73
     0
 74
     0
 77
     1
 78
     8
140
3.0
141
1.5
143
0.03937007874016
147
1.0
171
     3
172
     1
178
     0
271
     1
272
     1
274
     3
283
     0
284
     8
340
11
341
8F
342
8F
  0
DIMSTYLE
105
4DD5
330
A
100
AcDbSymbolTableRecord
100
AcDbDimStyleTableRecord
  2
NEMY-30
 70
     0
 40
30.0
 41
3.0
 42
1.5
 43
10.0
 44
1.0
 73
     0
 74
     0
 77
     1
 78
     8
140
3.0
141
1.5
143
0.03937007874016
147
1.0
171
     3
172
     1
178
     0
271
     1
272
     1
274
     3
283
     0
284
     8
340
11
341
8F
342
8F
  0
DIMSTYLE
105
4DD6
330
A
100
AcDbSymbolTableRecord
100
AcDbDimStyleTableRecord
  2
NEMY-50
 70
     0
 40
50.0
 41
3.0
 42
1.5
 43
10.0
 44
1.0
 73
     0
 74
     0
 77
     1
 78
     8
140
3.0
141
1.5
143
0.03937007874016
147
1.0
171
     3
172
     1
178
     0
271
     1
272
     1
274
     3
283
     0
284
     8
340
11
341
8F
342
8F
  0
DIMSTYLE
105
4E6F
330
A
100
AcDbSymbolTableRecord
100
AcDbDimStyleTableRecord
  2
NEMY-20
 70
     0
 40
20.0
 41
3.0
 42
1.5
 43
10.0
 44
1.0
 73
     0
 74
     0
 77
     1
 78
     8
140
3.0
141
1.5
143
0.03937007874016
147
1.0
171
     3
172
     1
178
     0
271
     1
272
     1
274
     3
283
     0
284
     8
340
11
341
8F
342
8F
  0
DIMSTYLE
105
4F44
330
A
100
AcDbSymbolTableRecord
100
AcDbDimStyleTableRecord
  2
NEMY-10$3
 70
     0
 40
10.0
 41
3.0
 42
1.5
 43
10.0
 44
1.0
 77
     1
 78
     8
140
3.0
141
1.5
143
0.03937007874016
147
1.0
171
     3
172
     1
178
     0
271
     1
272
     1
274
     3
283
     0
284
     8
340
11
341
8F
342
8F
  0
DIMSTYLE
105
4F45
330
A
100
AcDbSymbolTableRecord
100
AcDbDimStyleTableRecord
  2
NEMY-1$3
 70
     0
 41
3.0
 42
1.5
 43
10.0
 44
1.0
 77
     1
 78
     8
140
3.0
141
1.5
143
0.03937007874016
147
1.0
171
     3
172
     1
178
     0
271
     1
272
     1
274
     3
283
     0
284
     8
340
11
341
8F
342
8F
  0
DIMSTYLE
105
4F46
330
A
100
AcDbSymbolTableRecord
100
AcDbDimStyleTableRecord
  2
NEMY-12
 70
     0
 40
12.0
 41
3.0
 42
1.5
 43
10.0
 44
1.0
 73
     0
 74
     0
 77
     1
 78
     8
140
3.0
141
1.5
143
0.03937007874016
147
1.0
171
     3
172
     1
178
     0
271
     1
272
     1
274
     3
283
     0
284
     8
340
11
341
8F
342
8F
  0
DIMSTYLE
105
4F47
330
A
100
AcDbSymbolTableRecord
100
AcDbDimStyleTableRecord
  2
NEMY-12$3
 70
     0
 40
12.0
 41
3.0
 42
1.5
 43
10.0
 44
1.0
 77
     1
 78
     8
140
3.0
141
1.5
143
0.03937007874016
147
1.0
171
     3
172
     1
178
     0
271
     1
272
     1
274
     3
283
     0
284
     8
340
11
341
8F
342
8F
  0
DIMSTYLE
105
5E6E
330
A
100
AcDbSymbolTableRecord
100
AcDbDimStyleTableRecord
  2
NEMY-8$3
 70
     0
 40
8.0
 41
3.0
 42
1.5
 43
10.0
 44
1.0
 77
     1
 78
     8
140
3.0
141
1.5
143
0.03937007874016
147
1.0
171
     3
172
     1
178
     0
271
     1
272
     1
274
     3
283
     0
284
     8
340
11
341
8F
342
8F
  0
DIMSTYLE
105
5E6F
330
A
100
AcDbSymbolTableRecord
100
AcDbDimStyleTableRecord
  2
NEMY-50$3
 70
     0
 40
50.0
 41
3.0
 42
1.5
 43
10.0
 44
1.0
 77
     1
 78
     8
140
3.0
141
1.5
143
0.03937007874016
147
1.0
171
     3
172
     1
178
     0
271
     1
272
     1
274
     3
283
     0
284
     8
340
11
341
8F
342
8F
  0
DIMSTYLE
105
5E70
330
A
100
AcDbSymbolTableRecord
100
AcDbDimStyleTableRecord
  2
NEMY-5$3
 70
     0
 40
5.0
 41
3.0
 42
1.5
 43
10.0
 44
1.0
 77
     1
 78
     8
140
3.0
141
1.5
143
0.03937007874016
147
1.0
171
     3
172
     1
178
     0
271
     1
272
     1
274
     3
283
     0
284
     8
340
11
341
8F
342
8F
  0
DIMSTYLE
105
5E71
330
A
100
AcDbSymbolTableRecord
100
AcDbDimStyleTableRecord
  2
NEMY-30$3
 70
     0
 40
30.0
 41
3.0
 42
1.5
 43
10.0
 44
1.0
 77
     1
 78
     8
140
3.0
141
1.5
143
0.03937007874016
147
1.0
171
     3
172
     1
178
     0
271
     1
272
     1
274
     3
283
     0
284
     8
340
11
341
8F
342
8F
  0
DIMSTYLE
105
5E72
330
A
100
AcDbSymbolTableRecord
100
AcDbDimStyleTableRecord
  2
NEMY-3$3
 70
     0
 40
3.0
 41
3.0
 42
1.5
 43
10.0
 44
1.0
 77
     1
 78
     8
140
3.0
141
1.5
143
0.03937007874016
147
1.0
171
     3
172
     1
178
     0
271
     1
272
     1
274
     3
283
     0
284
     8
340
11
341
8F
342
8F
  0
DIMSTYLE
105
5E73
330
A
100
AcDbSymbolTableRecord
100
AcDbDimStyleTableRecord
  2
NEMY-25$3
 70
     0
 40
25.0
 41
3.0
 42
1.5
 43
10.0
 44
1.0
 77
     1
 78
     8
140
3.0
141
1.5
143
0.03937007874016
147
1.0
171
     3
172
     1
178
     0
271
     1
272
     1
274
     3
283
     0
284
     8
340
11
341
8F
342
8F
  0
DIMSTYLE
105
5E74
330
A
100
AcDbSymbolTableRecord
100
AcDbDimStyleTableRecord
  2
NEMY-20$3
 70
     0
 40
20.0
 41
3.0
 42
1.5
 43
10.0
 44
1.0
 77
     1
 78
     8
140
3.0
141
1.5
143
0.03937007874016
147
1.0
171
     3
172
     1
178
     0
271
     1
272
     1
274
     3
283
     0
284
     8
340
11
341
8F
342
8F
  0
DIMSTYLE
105
5E75
330
A
100
AcDbSymbolTableRecord
100
AcDbDimStyleTableRecord
  2
NEMY-2$3
 70
     0
 40
2.0
 41
3.0
 42
1.5
 43
10.0
 44
1.0
 77
     1
 78
     8
140
3.0
141
1.5
143
0.03937007874016
147
1.0
171
     3
172
     1
178
     0
271
     1
272
     1
274
     3
283
     0
284
     8
340
11
341
8F
342
8F
  0
DIMSTYLE
105
5E76
330
A
100
AcDbSymbolTableRecord
100
AcDbDimStyleTableRecord
  2
NEMY-15$3
 70
     0
 40
15.0
 41
3.0
 42
1.5
 43
10.0
 44
1.0
 77
     1
 78
     8
140
3.0
141
1.5
143
0.03937007874016
147
1.0
171
     3
172
     1
178
     0
271
     1
272
     1
274
     3
283
     0
284
     8
340
11
341
8F
342
8F
  0
ENDTAB
  0
TABLE
  2
BLOCK_RECORD
  5
1
330
0
100
AcDbSymbolTable
 70
    46
  0
BLOCK_RECORD
  5
1F
102
{ACAD_XDICTIONARY
360
969E
102
}
330
1
100
AcDbSymbolTableRecord
100
AcDbBlockTableRecord
  2
*Model_Space
340
22
  0
BLOCK_RECORD
  5
1B
330
1
100
AcDbSymbolTableRecord
100
AcDbBlockTableRecord
  2
*Paper_Space
340
1E
  0
BLOCK_RECORD
  5
8F
330
1
100
AcDbSymbolTableRecord
100
AcDbBlockTableRecord
  2
_Open
340
0
102
{BLKREFS
331
AAA9
331
AAAA
331
AAB8
331
AAB9
331
AAC6
331
AAC7
331
ABB8
331
ABB9
331
ABD5
331
ABD6
331
ABE2
331
ABE3
331
ABEF
331
ABF0
331
ABFD
331
ABFE
331
AF6E
331
AF6F
331
AF7A
331
AF7B
331
AF86
331
AF87
331
AF92
331
AF93
331
AF9E
331
AF9F
331
AFAA
331
AFAB
331
AFB6
331
AFB7
331
B921
331
B922
331
B930
331
B931
331
B93C
331
B93D
331
B94A
331
B94B
331
B956
331
B957
331
B962
331
B963
331
B96E
331
B96F
331
B97A
331
B97B
331
B986
331
B987
331
B992
331
B993
331
B99E
331
B99F
331
B9AD
331
B9AE
331
B9B9
331
B9BA
331
B9C7
331
B9C8
331
B9D3
331
B9D4
331
B9DF
331
B9E0
102
}
  0
BLOCK_RECORD
  5
82EB
330
1
100
AcDbSymbolTableRecord
100
AcDbBlockTableRecord
  2
hole-φ14
340
0
102
{BLKREFS
331
B8F7
331
B8F9
331
B8FB
331
B8FD
102
}
  0
BLOCK_RECORD
  5
82F2
330
1
100
AcDbSymbolTableRecord
100
AcDbBlockTableRecord
  2
hole-φ16
340
0
102
{BLKREFS
331
B8EF
331
B8F1
331
B8F3
331
B8F5
102
}
  0
BLOCK_RECORD
  5
8366
330
1
100
AcDbSymbolTableRecord
100
AcDbBlockTableRecord
  2
平W-M10
340
0
102
{BLKREFS
331
B8F8
331
B8FA
331
B8FC
331
B8FE
102
}
  0
BLOCK_RECORD
  5
836D
330
1
100
AcDbSymbolTableRecord
100
AcDbBlockTableRecord
  2
平W-M12
340
0
102
{BLKREFS
331
B8F0
331
B8F2
331
B8F4
331
B8F6
102
}
  0
BLOCK_RECORD
  5
841D
330
1
100
AcDbSymbolTableRecord
100
AcDbBlockTableRecord
  2
BH-端柱補強桟(L40x15xt3.2)
340
0
102
{BLKREFS
331
843A
102
}
  0
BLOCK_RECORD
  5
842A
330
1
100
AcDbSymbolTableRecord
100
AcDbBlockTableRecord
  2
BH-端柱(L60)-500H-正面
340
0
102
{BLKREFS
331
A550
331
A560
102
}
  0
BLOCK_RECORD
  5
843D
330
1
100
AcDbSymbolTableRecord
100
AcDbBlockTableRecord
  2
BH-端柱(L60)-500H-側面
340
0
102
{BLKREFS
331
A551
331
A561
102
}
  0
BLOCK_RECORD
  5
8522
330
1
100
AcDbSymbolTableRecord
100
AcDbBlockTableRecord
  2
BH-anchor-L60-背面
340
0
102
{BLKREFS
331
A593
331
A594
102
}
  0
BLOCK_RECORD
  5
8548
330
1
100
AcDbSymbolTableRecord
100
AcDbBlockTableRecord
  2
BH-anchor-L60-立面
340
0
102
{BLKREFS
331
A59B
331
A59C
102
}
  0
BLOCK_RECORD
  5
856D
330
1
100
AcDbSymbolTableRecord
100
AcDbBlockTableRecord
  2
BH-端柱(L60)-平面
340
0
102
{BLKREFS
331
0
331
0
331
0
331
0
331
0
331
0
331
0
331
0
331
0
331
0
331
0
331
0
331
B8D4
331
B8D5
331
B8D6
331
B8D7
102
}
  0
BLOCK_RECORD
  5
858C
330
1
100
AcDbSymbolTableRecord
100
AcDbBlockTableRecord
  2
BH-anchor-L60-平面(実線)
340
0
102
{BLKREFS
331
0
331
0
331
0
331
0
331
0
331
0
331
0
331
0
331
0
331
0
331
0
331
0
102
}
  0
BLOCK_RECORD
  5
85C5
330
1
100
AcDbSymbolTableRecord
100
AcDbBlockTableRecord
  2
BH-レベル調整ボルト
340
0
102
{BLKREFS
331
0
102
}
  0
BLOCK_RECORD
  5
9928
330
1
100
AcDbSymbolTableRecord
100
AcDbBlockTableRecord
  2
BH-筋交(柱L60)-500H
340
0
102
{BLKREFS
331
A54D
331
A662
102
}
  0
BLOCK_RECORD
  5
AAA3
330
1
100
AcDbSymbolTableRecord
100
AcDbBlockTableRecord
  2
*D267
340
0
  0
BLOCK_RECORD
  5
AAB0
330
1
100
AcDbSymbolTableRecord
100
AcDbBlockTableRecord
  2
*D268
340
0
  0
BLOCK_RECORD
  5
AAC0
330
1
100
AcDbSymbolTableRecord
100
AcDbBlockTableRecord
  2
*D269
340
0
  0
BLOCK_RECORD
  5
ABB2
330
1
100
AcDbSymbolTableRecord
100
AcDbBlockTableRecord
  2
*D286
340
0
  0
BLOCK_RECORD
  5
ABCC
330
1
100
AcDbSymbolTableRecord
100
AcDbBlockTableRecord
  2
*D288
340
0
  0
BLOCK_RECORD
  5
ABDC
330
1
100
AcDbSymbolTableRecord
100
AcDbBlockTableRecord
  2
*D289
340
0
  0
BLOCK_RECORD
  5
ABE9
330
1
100
AcDbSymbolTableRecord
100
AcDbBlockTableRecord
  2
*D290
340
0
  0
BLOCK_RECORD
  5
ABF7
330
1
100
AcDbSymbolTableRecord
100
AcDbBlockTableRecord
  2
*D291
340
0
  0
BLOCK_RECORD
  5
AF67
330
1
100
AcDbSymbolTableRecord
100
AcDbBlockTableRecord
  2
*D313
340
0
  0
BLOCK_RECORD
  5
AF74
330
1
100
AcDbSymbolTableRecord
100
AcDbBlockTableRecord
  2
*D314
340
0
  0
BLOCK_RECORD
  5
AF80
330
1
100
AcDbSymbolTableRecord
100
AcDbBlockTableRecord
  2
*D315
340
0
  0
BLOCK_RECORD
  5
AF8C
330
1
100
AcDbSymbolTableRecord
100
AcDbBlockTableRecord
  2
*D316
340
0
  0
BLOCK_RECORD
  5
AF98
330
1
100
AcDbSymbolTableRecord
100
AcDbBlockTableRecord
  2
*D317
340
0
  0
BLOCK_RECORD
  5
AFA4
330
1
100
AcDbSymbolTableRecord
100
AcDbBlockTableRecord
  2
*D318
340
0
  0
BLOCK_RECORD
  5
AFB0
330
1
100
AcDbSymbolTableRecord
100
AcDbBlockTableRecord
  2
*D319
340
0
  0
BLOCK_RECORD
  5
B309
330
1
100
AcDbSymbolTableRecord
100
AcDbBlockTableRecord
  2
1-HTA176
340
0
102
{BLKREFS
331
B8EE
102
}
  0
BLOCK_RECORD
  5
B91B
330
1
100
AcDbSymbolTableRecord
100
AcDbBlockTableRecord
  2
*D389
340
0
  0
BLOCK_RECORD
  5
B927
330
1
100
AcDbSymbolTableRecord
100
AcDbBlockTableRecord
  2
*D390
340
0
  0
BLOCK_RECORD
  5
B936
330
1
100
AcDbSymbolTableRecord
100
AcDbBlockTableRecord
  2
*D391
340
0
  0
BLOCK_RECORD
  5
B942
330
1
100
AcDbSymbolTableRecord
100
AcDbBlockTableRecord
  2
*D392
340
0
  0
BLOCK_RECORD
  5
B950
330
1
100
AcDbSymbolTableRecord
100
AcDbBlockTableRecord
  2
*D393
340
0
  0
BLOCK_RECORD
  5
B95C
330
1
100
AcDbSymbolTableRecord
100
AcDbBlockTableRecord
  2
*D394
340
0
  0
BLOCK_RECORD
  5
B968
330
1
100
AcDbSymbolTableRecord
100
AcDbBlockTableRecord
  2
*D395
340
0
  0
BLOCK_RECORD
  5
B974
330
1
100
AcDbSymbolTableRecord
100
AcDbBlockTableRecord
  2
*D396
340
0
  0
BLOCK_RECORD
  5
B980
330
1
100
AcDbSymbolTableRecord
100
AcDbBlockTableRecord
  2
*D397
340
0
  0
BLOCK_RECORD
  5
B98C
330
1
100
AcDbSymbolTableRecord
100
AcDbBlockTableRecord
  2
*D398
340
0
  0
BLOCK_RECORD
  5
B998
330
1
100
AcDbSymbolTableRecord
100
AcDbBlockTableRecord
  2
*D399
340
0
  0
BLOCK_RECORD
  5
B9A4
330
1
100
AcDbSymbolTableRecord
100
AcDbBlockTableRecord
  2
*D400
340
0
  0
BLOCK_RECORD
  5
B9B3
330
1
100
AcDbSymbolTableRecord
100
AcDbBlockTableRecord
  2
*D401
340
0
  0
BLOCK_RECORD
  5
B9BF
330
1
100
AcDbSymbolTableRecord
100
AcDbBlockTableRecord
  2
*D402
340
0
  0
BLOCK_RECORD
  5
B9CD
330
1
100
AcDbSymbolTableRecord
100
AcDbBlockTableRecord
  2
*D403
340
0
  0
BLOCK_RECORD
  5
B9D9
330
1
100
AcDbSymbolTableRecord
100
AcDbBlockTableRecord
  2
*D404
340
0
  0
ENDTAB
  0
ENDSEC
  0
SECTION
  2
BLOCKS
  0
BLOCK
  5
20
330
1F
100
AcDbEntity
  8
0
100
AcDbBlockBegin
  2
*Model_Space
 70
     0
 10
0.0
 20
0.0
 30
0.0
  3
*Model_Space
  1

  0
ENDBLK
  5
21
330
1F
100
AcDbEntity
  8
0
100
AcDbBlockEnd
  0
BLOCK
  5
1C
330
1B
100
AcDbEntity
 67
     1
  8
0
100
AcDbBlockBegin
  2
*Paper_Space
 70
     0
 10
0.0
 20
0.0
 30
0.0
  3
*Paper_Space
  1

  0
ENDBLK
  5
1D
330
1B
100
AcDbEntity
 67
     1
  8
0
100
AcDbBlockEnd
  0
BLOCK
  5
93
330
8F
100
AcDbEntity
  8
0
100
AcDbBlockBegin
  2
_Open
 70
     0
 10
0.0
 20
0.0
 30
0.0
  3
_Open
  1

  0
LINE
  5
90
330
8F
100
AcDbEntity
  8
01注記寸法
 62
     0
370
    -2
100
AcDbLine
 10
-1.0
 20
0.1666666666666667
 30
0.0
 11
0.0
 21
0.0
 31
0.0
  0
LINE
  5
91
330
8F
100
AcDbEntity
  8
01注記寸法
 62
     0
370
    -2
100
AcDbLine
 10
-1.0
 20
-0.1666666666666667
 30
0.0
 11
0.0
 21
0.0
 31
0.0
  0
LINE
  5
92
330
8F
100
AcDbEntity
  8
01注記寸法
 62
     0
370
    -2
100
AcDbLine
 10
0.0
 20
0.0
 30
0.0
 11
-1.0
 21
0.0
 31
0.0
  0
ENDBLK
  5
94
330
8F
100
AcDbEntity
  8
0
100
AcDbBlockEnd
  0
BLOCK
  5
82EC
330
82EB
100
AcDbEntity
  8
0
100
AcDbBlockBegin
  2
hole-φ14
 70
     0
 10
0.0
 20
0.0
 30
0.0
  3
hole-φ14
  1

  0
CIRCLE
  5
82ED
330
82EB
100
AcDbEntity
  8
02実線
100
AcDbCircle
 10
0.0
 20
0.0
 30
0.0
 40
7.0
  0
LINE
  5
82EE
330
82EB
100
AcDbEntity
  8
04一点鎖線
  6
CENTER
 48
0.2
100
AcDbLine
 10
0.0
 20
-17.0
 30
0.0
 11
0.0
 21
17.0
 31
0.0
  0
LINE
  5
82EF
330
82EB
100
AcDbEntity
  8
04一点鎖線
  6
CENTER
 48
0.2
100
AcDbLine
 10
-17.0
 20
0.0
 30
0.0
 11
17.0
 21
0.0
 31
0.0
  0
ENDBLK
  5
82F0
330
82EB
100
AcDbEntity
  8
0
100
AcDbBlockEnd
  0
BLOCK
  5
82F3
330
82F2
100
AcDbEntity
  8
0
100
AcDbBlockBegin
  2
hole-φ16
 70
     0
 10
0.0
 20
0.0
 30
0.0
  3
hole-φ16
  1

  0
CIRCLE
  5
82F4
330
82F2
100
AcDbEntity
  8
02実線
100
AcDbCircle
 10
0.0
 20
0.0
 30
0.0
 40
8.0
  0
LINE
  5
82F5
330
82F2
100
AcDbEntity
  8
04一点鎖線
  6
CENTER
 48
0.2
100
AcDbLine
 10
0.0
 20
-18.0
 30
0.0
 11
0.0
 21
18.0
 31
0.0
  0
LINE
  5
82F6
330
82F2
100
AcDbEntity
  8
04一点鎖線
  6
CENTER
 48
0.2
100
AcDbLine
 10
-18.0
 20
0.0
 30
0.0
 11
18.0
 21
0.0
 31
0.0
  0
ENDBLK
  5
82F7
330
82F2
100
AcDbEntity
  8
0
100
AcDbBlockEnd
  0
BLOCK
  5
8367
330
8366
100
AcDbEntity
  8
0
100
AcDbBlockBegin
  2
平W-M10
 70
     0
 10
0.0
 20
0.0
 30
0.0
  3
平W-M10
  1

  0
TEXT
  5
8368
330
8366
100
AcDbEntity
  8
10副資材
100
AcDbText
 10
-2.92496274867317
 20
-9.299398648765873
 30
0.0
 40
3.0
  1
M10
 72
     1
 11
0.0000372513268303
 21
-7.799398648765873
 31
0.0
100
AcDbText
 73
     2
  0
CIRCLE
  5
8369
330
8366
100
AcDbEntity
  8
10副資材
100
AcDbCircle
 10
0.0
 20
0.0
 30
0.0
 40
11.0
  0
CIRCLE
  5
836A
330
8366
100
AcDbEntity
  8
10副資材
100
AcDbCircle
 10
0.0
 20
0.0
 30
0.0
 40
5.0
  0
ENDBLK
  5
836B
330
8366
100
AcDbEntity
  8
0
100
AcDbBlockEnd
  0
BLOCK
  5
836E
330
836D
100
AcDbEntity
  8
0
100
AcDbBlockBegin
  2
平W-M12
 70
     0
 10
0.0
 20
0.0
 30
0.0
  3
平W-M12
  1

  0
CIRCLE
  5
836F
330
836D
100
AcDbEntity
  8
10副資材
100
AcDbCircle
 10
0.0
 20
0.0
 30
0.0
 40
6.0
  0
CIRCLE
  5
8370
330
836D
100
AcDbEntity
  8
10副資材
100
AcDbCircle
 10
0.0
 20
0.0
 30
0.0
 40
13.0
  0
TEXT
  5
8371
330
836D
100
AcDbEntity
  8
10副資材
100
AcDbText
 10
-3.899921878130408
 20
-11.29716620919794
 30
0.0
 40
4.0
  1
M12
 72
     1
 11
0.000078121869592
 21
-9.29716620919794
 31
0.0
100
AcDbText
 73
     2
  0
ENDBLK
  5
8372
330
836D
100
AcDbEntity
  8
0
100
AcDbBlockEnd
  0
BLOCK
  5
841E
330
841D
100
AcDbEntity
  8
0
100
AcDbBlockBegin
  2
BH-端柱補強桟(L40x15xt3.2)
 70
     0
 10
0.0
 20
0.0
 30
0.0
  3
BH-端柱補強桟(L40x15xt3.2)
  1

  0
LINE
  5
841F
330
841D
100
AcDbEntity
  8
03破線
  6
HIDDEN
 48
0.5
100
AcDbLine
 10
3.199999999999818
 20
-3.199999999999818
 30
0.0
 11
3.199999999999818
 21
-40.0
 31
0.0
  0
LINE
  5
8420
330
841D
100
AcDbEntity
  8
03破線
  6
HIDDEN
 48
0.5
100
AcDbLine
 10
15.0
 20
0.0
 30
0.0
 11
15.0
 21
-3.199999999999818
 31
0.0
  0
LINE
  5
8421
330
841D
100
AcDbEntity
  8
03破線
  6
HIDDEN
 48
0.5
100
AcDbLine
 10
15.0
 20
-3.199999999999818
 30
0.0
 11
3.199999999999818
 21
-3.199999999999818
 31
0.0
  0
LINE
  5
8422
330
841D
100
AcDbEntity
  8
03破線
  6
HIDDEN
 48
0.5
100
AcDbLine
 10
0.0
 20
0.0
 30
0.0
 11
0.0
 21
-40.0
 31
0.0
  0
LINE
  5
8423
330
841D
100
AcDbEntity
  8
03破線
  6
HIDDEN
 48
0.5
100
AcDbLine
 10
15.0
 20
0.0
 30
0.0
 11
0.0
 21
0.0
 31
0.0
  0
LINE
  5
8424
330
841D
100
AcDbEntity
  8
03破線
  6
HIDDEN
 48
0.5
100
AcDbLine
 10
3.199999999999818
 20
-40.0
 30
0.0
 11
0.0
 21
-40.0
 31
0.0
  0
ENDBLK
  5
8425
330
841D
100
AcDbEntity
  8
0
100
AcDbBlockEnd
  0
BLOCK
  5
842B
330
842A
100
AcDbEntity
  8
0
100
AcDbBlockBegin
  2
BH-端柱(L60)-500H-正面
 70
     0
 10
0.0
 20
0.0
 30
0.0
  3
BH-端柱(L60)-500H-正面
  1

  0
LWPOLYLINE
  5
842C
330
842A
100
AcDbEntity
  8
02実線
100
AcDbPolyline
 90
        4
 70
     1
 43
0.0
 10
0.0
 20
0.0
 10
0.0
 20
497.0000000000005
 10
60.0
 20
497.0000000000005
 10
60.0
 20
0.0
  0
LINE
  5
842D
330
842A
100
AcDbEntity
  8
03破線
100
AcDbLine
 10
3.200000000000728
 20
0.0
 30
0.0
 11
3.200000000000728
 21
497.0000000000005
 31
0.0
  0
ARC
  5
842E
330
842A
100
AcDbEntity
  8
02実線
100
AcDbCircle
 10
22.00000000000091
 20
30.0
 30
0.0
 40
7.0
100
AcDbArc
 50
90.0
 51
270.0
  0
LINE
  5
842F
330
842A
100
AcDbEntity
  8
02実線
100
AcDbLine
 10
22.00000000000091
 20
23.0
 30
0.0
 11
42.00000000000091
 21
23.0
 31
0.0
  0
LINE
  5
8430
330
842A
100
AcDbEntity
  8
02実線
100
AcDbLine
 10
22.00000000000091
 20
37.0
 30
0.0
 11
42.00000000000091
 21
37.0
 31
0.0
  0
ARC
  5
8431
330
842A
100
AcDbEntity
  8
02実線
100
AcDbCircle
 10
42.00000000000091
 20
30.0
 30
0.0
 40
7.0
100
AcDbArc
 50
270.0
 51
90.0
  0
CIRCLE
  5
8432
330
842A
100
AcDbEntity
  8
02実線
100
AcDbCircle
 10
30.00000000000091
 20
215.0000000000002
 30
0.0
 40
6.5
  0
CIRCLE
  5
8433
330
842A
100
AcDbEntity
  8
02実線
100
AcDbCircle
 10
30.00000000000091
 20
466.0000000000005
 30
0.0
 40
6.5
  0
LINE
  5
8434
330
842A
100
AcDbEntity
  8
04一点鎖線
 48
0.2
100
AcDbLine
 10
59.0
 20
30.0
 30
0.0
 11
-10.0
 21
30.0
 31
0.0
  0
LINE
  5
8435
330
842A
100
AcDbEntity
  8
04一点鎖線
 48
0.2
100
AcDbLine
 10
46.5
 20
466.0000000000005
 30
0.0
 11
13.50000000000091
 21
466.0000000000005
 31
0.0
  0
LINE
  5
8436
330
842A
100
AcDbEntity
  8
04一点鎖線
 48
0.2
100
AcDbLine
 10
32.00000000000091
 20
13.0
 30
0.0
 11
32.00000000000091
 21
47.0
 31
0.0
  0
LINE
  5
8437
330
842A
100
AcDbEntity
  8
04一点鎖線
 48
0.2
100
AcDbLine
 10
30.00000000000182
 20
198.5000000000002
 30
0.0
 11
30.0
 21
231.5000000000002
 31
0.0
  0
LINE
  5
8438
330
842A
100
AcDbEntity
  8
04一点鎖線
 48
0.2
100
AcDbLine
 10
30.00000000000182
 20
449.5000000000005
 30
0.0
 11
30.0
 21
482.5000000000005
 31
0.0
  0
LINE
  5
8439
330
842A
100
AcDbEntity
  8
04一点鎖線
 48
0.2
100
AcDbLine
 10
46.5
 20
215.0000000000002
 30
0.0
 11
13.50000000000091
 21
215.0000000000002
 31
0.0
  0
INSERT
  5
843A
330
842A
100
AcDbEntity
  8
03破線
100
AcDbBlockReference
  2
BH-端柱補強桟(L40x15xt3.2)
 10
3.200000000000728
 20
250.0
 30
0.0
  0
ENDBLK
  5
843B
330
842A
100
AcDbEntity
  8
0
100
AcDbBlockEnd
  0
BLOCK
  5
843E
330
843D
100
AcDbEntity
  8
0
100
AcDbBlockBegin
  2
BH-端柱(L60)-500H-側面
 70
     0
 10
0.0
 20
0.0
 30
0.0
  3
BH-端柱(L60)-500H-側面
  1

  0
ARC
  5
843F
330
843D
100
AcDbEntity
  8
02実線
100
AcDbCircle
 10
42.00000000000091
 20
29.99999999999886
 30
0.0
 40
7.0
100
AcDbArc
 50
270.0
 51
90.0
  0
LINE
  5
8440
330
843D
100
AcDbEntity
  8
02実線
100
AcDbLine
 10
22.00000000000091
 20
36.99999999999886
 30
0.0
 11
42.00000000000091
 21
36.99999999999886
 31
0.0
  0
LINE
  5
8441
330
843D
100
AcDbEntity
  8
02実線
100
AcDbLine
 10
22.00000000000091
 20
22.99999999999886
 30
0.0
 11
42.00000000000091
 21
22.99999999999886
 31
0.0
  0
ARC
  5
8442
330
843D
100
AcDbEntity
  8
02実線
100
AcDbCircle
 10
22.00000000000091
 20
29.99999999999886
 30
0.0
 40
7.0
100
AcDbArc
 50
90.0
 51
270.0
  0
LINE
  5
8443
330
843D
100
AcDbEntity
  8
03破線
100
AcDbLine
 10
3.200000000000728
 20
-0.0000000000011369
 30
0.0
 11
3.200000000000728
 21
496.9999999999993
 31
0.0
  0
LWPOLYLINE
  5
8444
330
843D
100
AcDbEntity
  8
02実線
100
AcDbPolyline
 90
        4
 70
     1
 43
0.0
 10
0.0
 20
0.0
 10
0.0
 20
497.0000000000002
 10
60.0
 20
497.0000000000002
 10
60.0
 20
0.0
  0
CIRCLE
  5
8445
330
843D
100
AcDbEntity
  8
02実線
100
AcDbCircle
 10
34.69999999999982
 20
469.9999999999993
 30
0.0
 40
6.5
  0
CIRCLE
  5
8446
330
843D
100
AcDbEntity
  8
02実線
100
AcDbCircle
 10
34.69999999999982
 20
399.9999999999991
 30
0.0
 40
6.5
  0
LINE
  5
8447
330
843D
100
AcDbEntity
  8
04一点鎖線
 48
0.2
100
AcDbLine
 10
59.00000000000091
 20
29.99999999999886
 30
0.0
 11
-10.0
 21
29.99999999999886
 31
0.0
  0
LINE
  5
8448
330
843D
100
AcDbEntity
  8
04一点鎖線
 48
0.2
100
AcDbLine
 10
32.00000000000091
 20
12.99999999999886
 30
0.0
 11
32.00000000000091
 21
46.99999999999886
 31
0.0
  0
LINE
  5
8449
330
843D
100
AcDbEntity
  8
04一点鎖線
 48
0.2
100
AcDbLine
 10
51.20000000000073
 20
469.9999999999989
 30
0.0
 11
18.20000000000073
 21
469.9999999999989
 31
0.0
  0
LINE
  5
844A
330
843D
100
AcDbEntity
  8
04一点鎖線
 48
0.2
100
AcDbLine
 10
51.19999999999982
 20
399.9999999999991
 30
0.0
 11
18.19999999999982
 21
399.9999999999991
 31
0.0
  0
LINE
  5
844B
330
843D
100
AcDbEntity
  8
04一点鎖線
 48
0.2
100
AcDbLine
 10
34.69999999999982
 20
383.4999999999991
 30
0.0
 11
34.69999999999982
 21
416.4999999999991
 31
0.0
  0
LINE
  5
844C
330
843D
100
AcDbEntity
  8
04一点鎖線
 48
0.2
100
AcDbLine
 10
34.70000000000073
 20
453.4999999999989
 30
0.0
 11
34.70000000000073
 21
486.4999999999989
 31
0.0
  0
ENDBLK
  5
844D
330
843D
100
AcDbEntity
  8
0
100
AcDbBlockEnd
  0
BLOCK
  5
8523
330
8522
100
AcDbEntity
  8
0
100
AcDbBlockBegin
  2
BH-anchor-L60-背面
 70
     0
 10
0.0
 20
0.0
 30
0.0
  3
BH-anchor-L60-背面
  1

  0
LINE
  5
8524
330
8522
100
AcDbEntity
  8
04一点鎖線
 48
0.2
100
AcDbLine
 10
0.0
 20
-15.0
 30
0.0
 11
0.0
 21
19.5
 31
0.0
  0
LINE
  5
8525
330
8522
100
AcDbEntity
  8
03破線
100
AcDbLine
 10
-28.5
 20
4.5
 30
0.0
 11
28.5
 21
4.5
 31
0.0
  0
LINE
  5
8526
330
8522
100
AcDbEntity
  8
03破線
100
AcDbLine
 10
-28.5
 20
0.0
 30
0.0
 11
28.5
 21
0.0
 31
0.0
  0
LINE
  5
8527
330
8522
100
AcDbEntity
  8
03破線
100
AcDbLine
 10
-15.82435206036507
 20
56.11709862642329
 30
0.0
 11
4.175647939634928
 21
26.11709862642329
 31
0.0
  0
LINE
  5
8528
330
8522
100
AcDbEntity
  8
03破線
100
AcDbLine
 10
-4.175647939634928
 20
63.88290137357671
 30
0.0
 11
15.82435206036507
 21
33.88290137357671
 31
0.0
  0
ARC
  5
8529
330
8522
100
AcDbEntity
  8
03破線
100
AcDbCircle
 10
10.0
 20
30.0
 30
0.0
 40
7.0
100
AcDbArc
 50
213.6900675259766
 51
33.69006752597669
  0
ARC
  5
852A
330
8522
100
AcDbEntity
  8
03破線
100
AcDbCircle
 10
-10.0
 20
60.0
 30
0.0
 40
7.0
100
AcDbArc
 50
33.69006752597669
 51
213.6900675259766
  0
LINE
  5
852B
330
8522
100
AcDbEntity
  8
03破線
100
AcDbLine
 10
-23.5
 20
80.0
 30
0.0
 11
-28.5
 21
75.0
 31
0.0
  0
LINE
  5
852C
330
8522
100
AcDbEntity
  8
03破線
100
AcDbLine
 10
-28.5
 20
0.0
 30
0.0
 11
-28.5
 21
75.0
 31
0.0
  0
LINE
  5
852D
330
8522
100
AcDbEntity
  8
03破線
100
AcDbLine
 10
28.5
 20
75.0
 30
0.0
 11
23.5
 21
80.0
 31
0.0
  0
LINE
  5
852E
330
8522
100
AcDbEntity
  8
03破線
100
AcDbLine
 10
-23.5
 20
80.0
 30
0.0
 11
23.5
 21
80.0
 31
0.0
  0
LINE
  5
852F
330
8522
100
AcDbEntity
  8
03破線
100
AcDbLine
 10
28.5
 20
0.0
 30
0.0
 11
28.5
 21
75.0
 31
0.0
  0
ENDBLK
  5
8530
330
8522
100
AcDbEntity
  8
0
100
AcDbBlockEnd
  0
BLOCK
  5
8549
330
8548
100
AcDbEntity
  8
0
100
AcDbBlockBegin
  2
BH-anchor-L60-立面
 70
     0
 10
0.0
 20
0.0
 30
0.0
  3
BH-anchor-L60-立面
  1

  0
LINE
  5
854A
330
8548
100
AcDbEntity
  8
04一点鎖線
 48
0.2
100
AcDbLine
 10
-22.5
 20
45.0
 30
0.0
 11
-47.0
 21
45.0
 31
0.0
  0
ARC
  5
854B
330
8548
100
AcDbEntity
  8
03破線
100
AcDbCircle
 10
-29.19999999999982
 20
7.799999999999727
 30
0.0
 40
3.300000000000002
100
AcDbArc
 50
180.0
 51
270.0
  0
ARC
  5
854C
330
8548
100
AcDbEntity
  8
03破線
100
AcDbCircle
 10
-29.19999999999982
 20
7.799999999999727
 30
0.0
 40
7.800000000000002
100
AcDbArc
 50
179.9999999999967
 51
270.0
  0
LINE
  5
854D
330
8548
100
AcDbEntity
  8
03破線
100
AcDbLine
 10
-37.0
 20
80.0
 30
0.0
 11
-32.5
 21
80.0
 31
0.0
  0
LINE
  5
854E
330
8548
100
AcDbEntity
  8
03破線
100
AcDbLine
 10
23.0
 20
4.5
 30
0.0
 11
23.0
 21
0.0
 31
0.0
  0
LINE
  5
854F
330
8548
100
AcDbEntity
  8
03破線
100
AcDbLine
 10
-32.5
 20
80.0
 30
0.0
 11
-32.5
 21
7.799999999999727
 31
0.0
  0
LINE
  5
8550
330
8548
100
AcDbEntity
  8
03破線
100
AcDbLine
 10
-29.19999999999982
 20
4.5
 30
0.0
 11
23.0
 21
4.5
 31
0.0
  0
LINE
  5
8551
330
8548
100
AcDbEntity
  8
03破線
100
AcDbLine
 10
-37.0
 20
80.0
 30
0.0
 11
-37.0
 21
7.799999999999727
 31
0.0
  0
LINE
  5
8552
330
8548
100
AcDbEntity
  8
03破線
100
AcDbLine
 10
-29.19999999999982
 20
0.0
 30
0.0
 11
23.0
 21
0.0
 31
0.0
  0
LINE
  5
8553
330
8548
100
AcDbEntity
  8
04一点鎖線
 48
0.2
100
AcDbLine
 10
0.0
 20
19.5
 30
0.0
 11
0.0
 21
-15.0
 31
0.0
  0
ENDBLK
  5
8554
330
8548
100
AcDbEntity
  8
0
100
AcDbBlockEnd
  0
BLOCK
  5
856E
330
856D
100
AcDbEntity
  8
0
100
AcDbBlockBegin
  2
BH-端柱(L60)-平面
 70
     0
 10
0.0
 20
0.0
 30
0.0
  3
BH-端柱(L60)-平面
  1

  0
LINE
  5
856F
330
856D
100
AcDbEntity
  8
02実線
100
AcDbLine
 10
60.0
 20
3.199999999999818
 30
0.0
 11
60.0
 21
0.0
 31
0.0
  0
LINE
  5
8570
330
856D
100
AcDbEntity
  8
02実線
100
AcDbLine
 10
3.200000000000728
 20
3.199999999999818
 30
0.0
 11
60.0
 21
3.199999999999818
 31
0.0
  0
LINE
  5
8571
330
856D
100
AcDbEntity
  8
02実線
100
AcDbLine
 10
0.0
 20
60.0
 30
0.0
 11
3.200000000000728
 21
60.0
 31
0.0
  0
LINE
  5
8572
330
856D
100
AcDbEntity
  8
02実線
100
AcDbLine
 10
0.0
 20
0.0
 30
0.0
 11
60.0
 21
0.0
 31
0.0
  0
LINE
  5
8573
330
856D
100
AcDbEntity
  8
02実線
100
AcDbLine
 10
0.0
 20
60.0
 30
0.0
 11
0.0
 21
0.0
 31
0.0
  0
LINE
  5
8574
330
856D
100
AcDbEntity
  8
02実線
100
AcDbLine
 10
3.200000000000728
 20
60.0
 30
0.0
 11
3.200000000000728
 21
3.199999999999818
 31
0.0
  0
LINE
  5
8575
330
856D
100
AcDbEntity
  8
08非表示
100
AcDbLine
 10
3.200000000000728
 20
4.699999999999818
 30
0.0
 11
60.0
 21
4.699999999999818
 31
0.0
  0
ENDBLK
  5
8576
330
856D
100
AcDbEntity
  8
0
100
AcDbBlockEnd
  0
BLOCK
  5
858D
330
858C
100
AcDbEntity
  8
0
100
AcDbBlockBegin
  2
BH-anchor-L60-平面(実線)
 70
     0
 10
0.0
 20
0.0
 30
0.0
  3
BH-anchor-L60-平面(実線)
  1

  0
LINE
  5
858E
330
858C
100
AcDbEntity
  8
02実線
100
AcDbLine
 10
-32.5
 20
-28.5
 30
0.0
 11
-32.5
 21
28.5
 31
0.0
  0
LINE
  5
858F
330
858C
100
AcDbEntity
  8
02実線
100
AcDbLine
 10
-37.0
 20
-28.5
 30
0.0
 11
-37.0
 21
28.5
 31
0.0
  0
CIRCLE
  5
8590
330
858C
100
AcDbEntity
  8
02実線
100
AcDbCircle
 10
0.0
 20
0.0
 30
0.0
 40
8.0
  0
LINE
  5
8591
330
858C
100
AcDbEntity
  8
02実線
100
AcDbLine
 10
23.0
 20
18.5
 30
0.0
 11
13.0
 21
28.5
 31
0.0
  0
LINE
  5
8592
330
858C
100
AcDbEntity
  8
02実線
100
AcDbLine
 10
23.0
 20
-18.5
 30
0.0
 11
13.0
 21
-28.5
 31
0.0
  0
LINE
  5
8593
330
858C
100
AcDbEntity
  8
02実線
100
AcDbLine
 10
-37.0
 20
28.5
 30
0.0
 11
13.0
 21
28.5
 31
0.0
  0
LINE
  5
8594
330
858C
100
AcDbEntity
  8
02実線
100
AcDbLine
 10
-37.0
 20
-28.5
 30
0.0
 11
13.0
 21
-28.5
 31
0.0
  0
LINE
  5
8595
330
858C
100
AcDbEntity
  8
02実線
100
AcDbLine
 10
23.0
 20
-18.5
 30
0.0
 11
23.0
 21
18.5
 31
0.0
  0
ARC
  5
A0C7
330
858C
100
AcDbEntity
  8
08非表示
100
AcDbCircle
 10
-5.0
 20
0.0
 30
0.0
 40
8.0
100
AcDbArc
 50
90.0
 51
270.0
  0
ARC
  5
A0C8
330
858C
100
AcDbEntity
  8
08非表示
100
AcDbCircle
 10
5.0
 20
0.0
 30
0.0
 40
8.0
100
AcDbArc
 50
270.0
 51
90.0
  0
LINE
  5
A0C9
330
858C
100
AcDbEntity
  8
08非表示
100
AcDbLine
 10
5.0
 20
-8.0
 30
0.0
 11
-5.0
 21
-8.0
 31
0.0
  0
LINE
  5
A0CA
330
858C
100
AcDbEntity
  8
08非表示
100
AcDbLine
 10
5.0
 20
8.0
 30
0.0
 11
-5.0
 21
8.0
 31
0.0
  0
ENDBLK
  5
8596
330
858C
100
AcDbEntity
  8
0
100
AcDbBlockEnd
  0
BLOCK
  5
85C6
330
85C5
100
AcDbEntity
  8
0
100
AcDbBlockBegin
  2
BH-レベル調整ボルト
 70
     0
 10
0.0
 20
0.0
 30
0.0
  3
BH-レベル調整ボルト
  1

  0
LINE
  5
85C7
330
85C5
100
AcDbEntity
  8
04一点鎖線
  6
CENTER
 48
0.2
100
AcDbLine
 10
-28.39999999999964
 20
0.0
 30
0.0
 11
13.00000001115222
 21
0.0
 31
0.0
  0
LINE
  5
85C8
330
85C5
100
AcDbEntity
  8
02実線
100
AcDbLine
 10
-23.39999999999964
 20
-4.0
 30
0.0
 11
-17.3000000111515
 21
-4.0
 31
0.0
  0
LINE
  5
85C9
330
85C5
100
AcDbEntity
  8
02実線
100
AcDbLine
 10
-23.39999999999964
 20
4.0
 30
0.0
 11
-17.3000000111515
 21
4.0
 31
0.0
  0
LINE
  5
85CA
330
85C5
100
AcDbEntity
  8
02実線
100
AcDbLine
 10
-23.39999999999964
 20
-4.0
 30
0.0
 11
-23.39999999999964
 21
4.0
 31
0.0
  0
LINE
  5
85CB
330
85C5
100
AcDbEntity
  8
02実線
100
AcDbLine
 10
-22.39999999999964
 20
5.0
 30
0.0
 11
-17.3000000111515
 21
5.0
 31
0.0
  0
LINE
  5
85CC
330
85C5
100
AcDbEntity
  8
02実線
100
AcDbLine
 10
-22.39999999999964
 20
-5.0
 30
0.0
 11
-22.39999999999964
 21
5.0
 31
0.0
  0
LINE
  5
85CD
330
85C5
100
AcDbEntity
  8
02実線
100
AcDbLine
 10
-22.39999999999964
 20
-5.0
 30
0.0
 11
-17.3000000111515
 21
-5.0
 31
0.0
  0
LINE
  5
85CE
330
85C5
100
AcDbEntity
  8
02実線
100
AcDbLine
 10
-23.39999999999964
 20
-4.0
 30
0.0
 11
-22.39999999999964
 21
-5.0
 31
0.0
  0
LINE
  5
85CF
330
85C5
100
AcDbEntity
  8
02実線
100
AcDbLine
 10
-22.39999999999964
 20
5.0
 30
0.0
 11
-23.39999999999964
 21
4.0
 31
0.0
  0
LINE
  5
85D0
330
85C5
100
AcDbEntity
  8
02実線
100
AcDbLine
 10
-7.700000000000728
 20
11.0
 30
0.0
 11
-7.700000000000728
 21
-11.0
 31
0.0
  0
LINE
  5
85D1
330
85C5
100
AcDbEntity
  8
02実線
100
AcDbLine
 10
-9.299999999999272
 20
11.0
 30
0.0
 11
-7.700000000000728
 21
11.0
 31
0.0
  0
LINE
  5
85D2
330
85C5
100
AcDbEntity
  8
02実線
100
AcDbLine
 10
-9.299999999999272
 20
-11.0
 30
0.0
 11
-7.700000000000728
 21
-11.0
 31
0.0
  0
LINE
  5
85D3
330
85C5
100
AcDbEntity
  8
02実線
100
AcDbLine
 10
-9.299999999999272
 20
11.0
 30
0.0
 11
-9.299999999999272
 21
-11.0
 31
0.0
  0
LINE
  5
85D4
330
85C5
100
AcDbEntity
  8
02実線
100
AcDbLine
 10
-9.299999999999272
 20
9.237604307033962
 30
0.0
 11
-9.299999999999272
 21
-9.237604307033962
 31
0.0
  0
ARC
  5
85D5
330
85C5
100
AcDbEntity
  8
02実線
100
AcDbCircle
 10
-12.68119784648297
 20
6.927925269031675
 30
0.0
 40
4.618802164669552
100
AcDbArc
 50
149.9960184984644
 51
209.9960184984832
  0
ARC
  5
85D6
330
85C5
100
AcDbEntity
  8
02実線
100
AcDbCircle
 10
-12.68119784648297
 20
-6.927925269031675
 30
0.0
 40
4.618802164669552
100
AcDbArc
 50
150.0039815015167
 51
210.0039815015356
  0
ARC
  5
85D7
330
85C5
100
AcDbEntity
  8
02実線
100
AcDbCircle
 10
0.2513967268932902
 20
0.0
 30
0.0
 40
17.55139672689282
100
AcDbArc
 50
164.7424308899368
 51
195.2575691100632
  0
LINE
  5
85D8
330
85C5
100
AcDbEntity
  8
02実線
100
AcDbLine
 10
-9.299999999999272
 20
4.618802153516754
 30
0.0
 11
-16.68135832748158
 21
4.618802153516754
 31
0.0
  0
LINE
  5
85D9
330
85C5
100
AcDbEntity
  8
02実線
100
AcDbLine
 10
-17.3000000111515
 20
6.927925269031675
 30
0.0
 11
-17.3000000111515
 21
-6.927925269031675
 31
0.0
  0
LINE
  5
85DA
330
85C5
100
AcDbEntity
  8
02実線
100
AcDbLine
 10
-9.299999999999272
 20
-4.618802153516754
 30
0.0
 11
-16.68135832748158
 21
-4.618802153516754
 31
0.0
  0
LINE
  5
85DB
330
85C5
100
AcDbEntity
  8
02実線
100
AcDbLine
 10
-9.299999999999272
 20
-9.237604307033962
 30
0.0
 11
-16.68103736548437
 21
-9.237604307033962
 31
0.0
  0
LINE
  5
85DC
330
85C5
100
AcDbEntity
  8
02実線
100
AcDbLine
 10
-9.299999999999272
 20
9.237604307033962
 30
0.0
 11
-16.68103736548437
 21
9.237604307033962
 31
0.0
  0
LINE
  5
85DD
330
85C5
100
AcDbEntity
  8
02実線
100
AcDbLine
 10
0.0
 20
-11.0
 30
0.0
 11
1.600000000000364
 21
-11.0
 31
0.0
  0
LINE
  5
85DE
330
85C5
100
AcDbEntity
  8
02実線
100
AcDbLine
 10
0.0
 20
11.0
 30
0.0
 11
1.600000000000364
 21
11.0
 31
0.0
  0
LINE
  5
85DF
330
85C5
100
AcDbEntity
  8
02実線
100
AcDbLine
 10
1.600000000000364
 20
11.0
 30
0.0
 11
1.600000000000364
 21
-11.0
 31
0.0
  0
LINE
  5
85E0
330
85C5
100
AcDbEntity
  8
02実線
100
AcDbLine
 10
0.0
 20
11.0
 30
0.0
 11
0.0
 21
-11.0
 31
0.0
  0
LINE
  5
85E1
330
85C5
100
AcDbEntity
  8
02実線
100
AcDbLine
 10
1.600000000000364
 20
-4.618802153516754
 30
0.0
 11
7.381358327482303
 21
-4.618802153516754
 31
0.0
  0
LINE
  5
85E2
330
85C5
100
AcDbEntity
  8
02実線
100
AcDbLine
 10
1.600000000000364
 20
-9.237604307033962
 30
0.0
 11
7.38103736548328
 21
-9.237604307033962
 31
0.0
  0
LINE
  5
85E3
330
85C5
100
AcDbEntity
  8
02実線
100
AcDbLine
 10
8.000000011152224
 20
6.927925269031675
 30
0.0
 11
8.000000011152224
 21
-6.927925269031675
 31
0.0
  0
LINE
  5
85E4
330
85C5
100
AcDbEntity
  8
02実線
100
AcDbLine
 10
1.600000000000364
 20
4.618802153516754
 30
0.0
 11
7.381358327482303
 21
4.618802153516754
 31
0.0
  0
LINE
  5
85E5
330
85C5
100
AcDbEntity
  8
02実線
100
AcDbLine
 10
1.600000000000364
 20
9.237604307033962
 30
0.0
 11
7.38103736548328
 21
9.237604307033962
 31
0.0
  0
ARC
  5
85E6
330
85C5
100
AcDbEntity
  8
02実線
100
AcDbCircle
 10
-9.551396726892563
 20
0.0
 30
0.0
 40
17.55139672689282
100
AcDbArc
 50
344.7424308899368
 51
15.25756911006317
  0
ARC
  5
85E7
330
85C5
100
AcDbEntity
  8
02実線
100
AcDbCircle
 10
3.381197846481882
 20
-6.927925269031675
 30
0.0
 40
4.618802164669552
100
AcDbArc
 50
329.9960184984644
 51
29.99601849845809
  0
ARC
  5
85E8
330
85C5
100
AcDbEntity
  8
02実線
100
AcDbCircle
 10
3.381197846481882
 20
6.927925269031675
 30
0.0
 40
4.618802164669552
100
AcDbArc
 50
330.0039815015419
 51
30.00398150153562
  0
LINE
  5
85E9
330
85C5
100
AcDbEntity
  8
02実線
100
AcDbLine
 10
1.600000000000364
 20
9.237604307033962
 30
0.0
 11
1.600000000000364
 21
-9.237604307033962
 31
0.0
  0
ENDBLK
  5
85EA
330
85C5
100
AcDbEntity
  8
0
100
AcDbBlockEnd
  0
BLOCK
  5
9929
330
9928
100
AcDbEntity
  8
0
100
AcDbBlockBegin
  2
BH-筋交(柱L60)-500H
 70
     0
 10
0.0
 20
0.0
 30
0.0
  3
BH-筋交(柱L60)-500H
  1

  0
CIRCLE
  5
992B
330
9928
100
AcDbEntity
  8
03破線
100
AcDbCircle
 10
312.2304049160912
 20
250.0243473062876
 30
0.0
 40
6.499999999999988
  0
LINE
  5
992C
330
9928
100
AcDbEntity
  8
03破線
100
AcDbLine
 10
316.5633268549091
 20
268.6110572752962
 30
0.0
 11
-19.0843584298882
 21
-0.1651160789606365
 31
0.0
  0
CIRCLE
  5
992D
330
9928
100
AcDbEntity
  8
03破線
100
AcDbCircle
 10
0.0
 20
0.0
 30
0.0
 40
6.499999999999988
  0
LINE
  5
992E
330
9928
100
AcDbEntity
  8
03破線
100
AcDbLine
 10
-5.458031501695586
 20
-17.18167314688799
 30
0.0
 11
-21.08455320833764
 21
2.332727160368449
 31
0.0
  0
LINE
  5
992F
330
9928
100
AcDbEntity
  8
03破線
100
AcDbLine
 10
314.5631320764578
 20
271.1089005146271
 30
0.0
 11
330.1896537831008
 21
251.5945002073715
 31
0.0
  0
LINE
  5
9930
330
9928
100
AcDbEntity
  8
03破線
100
AcDbLine
 10
330.1896537831008
 20
251.5945002073715
 30
0.0
 11
329.4120780629773
 21
244.5663158045902
 31
0.0
  0
LINE
  5
9931
330
9928
100
AcDbEntity
  8
03破線
100
AcDbLine
 10
1.570152901083929
 20
-17.9592488670105
 30
0.0
 11
-5.458031501695586
 21
-17.18167314688799
 31
0.0
  0
LINE
  5
9932
330
9928
100
AcDbEntity
  8
03破線
100
AcDbLine
 10
329.4120780629773
 20
244.5663158045902
 30
0.0
 11
304.9776628862055
 21
225.0000000000005
 31
0.0
  0
LINE
  5
9933
330
9928
100
AcDbEntity
  8
03破線
100
AcDbLine
 10
-21.08455320833764
 20
2.332727160368449
 30
0.0
 11
30.0
 21
43.23964036371416
 31
0.0
  0
LINE
  5
9934
330
9928
100
AcDbEntity
  8
03破線
100
AcDbLine
 10
256.9823371137927
 20
225.0000000000005
 30
0.0
 11
314.5631320764578
 21
271.1089005146271
 31
0.0
  0
LINE
  5
9935
330
9928
100
AcDbEntity
  8
02実線
100
AcDbLine
 10
304.9776628862055
 20
225.0000000000005
 30
0.0
 11
30.0
 21
4.806483915593844
 31
0.0
  0
LINE
  5
9936
330
9928
100
AcDbEntity
  8
02実線
100
AcDbLine
 10
30.0
 20
43.23964036371416
 30
0.0
 11
256.9823371137927
 21
225.0000000000005
 31
0.0
  0
LINE
  5
9937
330
9928
100
AcDbEntity
  8
03破線
100
AcDbLine
 10
30.0
 20
4.806483915593844
 30
0.0
 11
1.570152901083929
 21
-17.9592488670105
 31
0.0
  0
ENDBLK
  5
992A
330
9928
100
AcDbEntity
  8
0
100
AcDbBlockEnd
  0
BLOCK
  5
AAA4
330
AAA3
100
AcDbEntity
  8
0
100
AcDbBlockBegin
  2
*D267
 70
     1
 10
0.0
 20
0.0
 30
0.0
  3
*D267
  1

  0
LINE
  5
AAA6
330
AAA3
100
AcDbEntity
  8
13製作用注記
 62
     0
370
    -2
100
AcDbLine
 10
741.7999999999993
 20
1100.0
 30
0.0
 11
672.012624765516
 21
1100.0
 31
0.0
  0
LINE
  5
AAA7
330
AAA3
100
AcDbEntity
  8
13製作用注記
 62
     0
370
    -2
100
AcDbLine
 10
755.3000000000002
 20
1315.0
 30
0.0
 11
672.012624765516
 21
1315.0
 31
0.0
  0
LINE
  5
AAA8
330
AAA3
100
AcDbEntity
  8
13製作用注記
 62
     0
370
    -2
100
AcDbLine
 10
682.012624765516
 20
1130.0
 30
0.0
 11
682.012624765516
 21
1285.0
 31
0.0
  0
INSERT
  5
AAA9
330
AAA3
100
AcDbEntity
  8
13製作用注記
 62
     0
370
    -2
100
AcDbBlockReference
  2
_Open
 10
682.012624765516
 20
1100.0
 30
0.0
 41
30.0
 42
30.0
 43
30.0
 50
270.0
  0
INSERT
  5
AAAA
330
AAA3
100
AcDbEntity
  8
13製作用注記
 62
     0
370
    -2
100
AcDbBlockReference
  2
_Open
 10
682.012624765516
 20
1315.0
 30
0.0
 41
30.0
 42
30.0
 43
30.0
 50
90.0
  0
MTEXT
  5
AAAB
330
AAA3
100
AcDbEntity
  8
13製作用注記
 62
     0
100
AcDbMText
 10
657.012624765516
 20
1207.5
 30
0.0
 40
30.0
 41
0.0
 71
     5
 72
     1
  1
215
 11
0.0
 21
1.0
 31
0.0
 73
     1
 44
1.0
  0
POINT
  5
AAAC
330
AAA3
100
AcDbEntity
  8
Defpoints
 62
     0
100
AcDbPoint
 10
756.7999999999993
 20
1100.0
 30
0.0
  0
POINT
  5
AAAD
330
AAA3
100
AcDbEntity
  8
Defpoints
 62
     0
100
AcDbPoint
 10
770.3000000000002
 20
1315.0
 30
0.0
  0
POINT
  5
AAAE
330
AAA3
100
AcDbEntity
  8
Defpoints
 62
     0
100
AcDbPoint
 10
682.012624765516
 20
1315.0
 30
0.0
  0
ENDBLK
  5
AAA5
330
AAA3
100
AcDbEntity
  8
0
100
AcDbBlockEnd
  0
BLOCK
  5
AAB1
330
AAB0
100
AcDbEntity
  8
0
100
AcDbBlockBegin
  2
*D268
 70
     1
 10
0.0
 20
0.0
 30
0.0
  3
*D268
  1

  0
LINE
  5
AAB3
330
AAB0
100
AcDbEntity
  8
13製作用注記
 62
     0
370
    -2
100
AcDbLine
 10
786.7999999999993
 20
1346.5
 30
0.0
 11
786.7999999999993
 21
1420.070788185702
 31
0.0
  0
LINE
  5
AAB4
330
AAB0
100
AcDbEntity
  8
13製作用注記
 62
     0
370
    -2
100
AcDbLine
 10
756.7999999999993
 20
1346.5
 30
0.0
 11
756.7999999999993
 21
1420.070788185702
 31
0.0
  0
LINE
  5
AAB5
330
AAB0
100
AcDbEntity
  8
13製作用注記
 62
     0
370
    -2
100
AcDbLine
 10
726.7999999999993
 20
1410.070788185702
 30
0.0
 11
641.0099999999993
 21
1410.070788185702
 31
0.0
  0
LINE
  5
AAB6
330
AAB0
100
AcDbEntity
  8
13製作用注記
 62
     0
370
    -2
100
AcDbLine
 10
786.7999999999993
 20
1410.070788185702
 30
0.0
 11
756.7999999999993
 21
1410.070788185702
 31
0.0
  0
LINE
  5
AAB7
330
AAB0
100
AcDbEntity
  8
13製作用注記
 62
     0
370
    -2
100
AcDbLine
 10
816.7999999999993
 20
1410.070788185702
 30
0.0
 11
846.7999999999993
 21
1410.070788185702
 31
0.0
  0
INSERT
  5
AAB8
330
AAB0
100
AcDbEntity
  8
13製作用注記
 62
     0
370
    -2
100
AcDbBlockReference
  2
_Open
 10
786.7999999999993
 20
1410.070788185702
 30
0.0
 41
30.0
 42
30.0
 43
30.0
 50
180.0
  0
INSERT
  5
AAB9
330
AAB0
100
AcDbEntity
  8
13製作用注記
 62
     0
370
    -2
100
AcDbBlockReference
  2
_Open
 10
756.7999999999993
 20
1410.070788185702
 30
0.0
 41
30.0
 42
30.0
 43
30.0
  0
MTEXT
  5
AABA
330
AAB0
100
AcDbEntity
  8
13製作用注記
 62
     0
100
AcDbMText
 10
668.9049999999993
 20
1435.070788185702
 30
0.0
 40
30.0
 41
0.0
 71
     5
 72
     1
  1
30
 73
     1
 44
1.0
  0
POINT
  5
AABB
330
AAB0
100
AcDbEntity
  8
Defpoints
 62
     0
100
AcDbPoint
 10
786.7999999999993
 20
1331.5
 30
0.0
  0
POINT
  5
AABC
330
AAB0
100
AcDbEntity
  8
Defpoints
 62
     0
100
AcDbPoint
 10
756.7999999999993
 20
1331.5
 30
0.0
  0
POINT
  5
AABD
330
AAB0
100
AcDbEntity
  8
Defpoints
 62
     0
100
AcDbPoint
 10
756.7999999999993
 20
1410.070788185702
 30
0.0
  0
ENDBLK
  5
AAB2
330
AAB0
100
AcDbEntity
  8
0
100
AcDbBlockEnd
  0
BLOCK
  5
AAC1
330
AAC0
100
AcDbEntity
  8
0
100
AcDbBlockBegin
  2
*D269
 70
     1
 10
0.0
 20
0.0
 30
0.0
  3
*D269
  1

  0
LINE
  5
AAC3
330
AAC0
100
AcDbEntity
  8
01注記寸法
 62
     0
370
    -2
100
AcDbLine
 10
741.7999999999993
 20
1100.0
 30
0.0
 11
550.0
 21
1100.0
 31
0.0
  0
LINE
  5
AAC4
330
AAC0
100
AcDbEntity
  8
01注記寸法
 62
     0
370
    -2
100
AcDbLine
 10
745.0
 20
1600.0
 30
0.0
 11
550.0
 21
1600.0
 31
0.0
  0
LINE
  5
AAC5
330
AAC0
100
AcDbEntity
  8
01注記寸法
 62
     0
370
    -2
100
AcDbLine
 10
560.0
 20
1130.0
 30
0.0
 11
560.0
 21
1570.0
 31
0.0
  0
INSERT
  5
AAC6
330
AAC0
100
AcDbEntity
  8
01注記寸法
 62
     0
370
    -2
100
AcDbBlockReference
  2
_Open
 10
560.0
 20
1100.0
 30
0.0
 41
30.0
 42
30.0
 43
30.0
 50
270.0
  0
INSERT
  5
AAC7
330
AAC0
100
AcDbEntity
  8
01注記寸法
 62
     0
370
    -2
100
AcDbBlockReference
  2
_Open
 10
560.0
 20
1600.0
 30
0.0
 41
30.0
 42
30.0
 43
30.0
 50
90.0
  0
MTEXT
  5
AAC8
330
AAC0
100
AcDbEntity
  8
01注記寸法
 62
     0
100
AcDbMText
 10
535.0
 20
1350.0
 30
0.0
 40
30.0
 41
0.0
 71
     5
 72
     1
  1
500
 11
0.0
 21
1.0
 31
0.0
 73
     1
 44
1.0
  0
POINT
  5
AAC9
330
AAC0
100
AcDbEntity
  8
Defpoints
 62
     0
100
AcDbPoint
 10
756.7999999999993
 20
1100.0
 30
0.0
  0
POINT
  5
AACA
330
AAC0
100
AcDbEntity
  8
Defpoints
 62
     0
100
AcDbPoint
 10
760.0
 20
1600.0
 30
0.0
  0
POINT
  5
AACB
330
AAC0
100
AcDbEntity
  8
Defpoints
 62
     0
100
AcDbPoint
 10
560.0
 20
1600.0
 30
0.0
  0
ENDBLK
  5
AAC2
330
AAC0
100
AcDbEntity
  8
0
100
AcDbBlockEnd
  0
BLOCK
  5
ABB3
330
ABB2
100
AcDbEntity
  8
0
100
AcDbBlockBegin
  2
*D286
 70
     1
 10
0.0
 20
0.0
 30
0.0
  3
*D286
  1

  0
LINE
  5
ABB5
330
ABB2
100
AcDbEntity
  8
13製作用注記
 62
     0
370
    -2
100
AcDbLine
 10
760.0
 20
1615.0
 30
0.0
 11
760.0
 21
1659.170527811524
 31
0.0
  0
LINE
  5
ABB6
330
ABB2
100
AcDbEntity
  8
13製作用注記
 62
     0
370
    -2
100
AcDbLine
 10
1099.0
 20
1596.5
 30
0.0
 11
1099.0
 21
1659.170527811524
 31
0.0
  0
LINE
  5
ABB7
330
ABB2
100
AcDbEntity
  8
13製作用注記
 62
     0
370
    -2
100
AcDbLine
 10
790.0
 20
1649.170527811524
 30
0.0
 11
1069.0
 21
1649.170527811524
 31
0.0
  0
INSERT
  5
ABB8
330
ABB2
100
AcDbEntity
  8
13製作用注記
 62
     0
370
    -2
100
AcDbBlockReference
  2
_Open
 10
760.0
 20
1649.170527811524
 30
0.0
 41
30.0
 42
30.0
 43
30.0
 50
180.0
  0
INSERT
  5
ABB9
330
ABB2
100
AcDbEntity
  8
13製作用注記
 62
     0
370
    -2
100
AcDbBlockReference
  2
_Open
 10
1099.0
 20
1649.170527811524
 30
0.0
 41
30.0
 42
30.0
 43
30.0
  0
MTEXT
  5
ABBA
330
ABB2
100
AcDbEntity
  8
13製作用注記
 62
     0
100
AcDbMText
 10
929.5
 20
1674.170527811524
 30
0.0
 40
30.0
 41
0.0
 71
     5
 72
     1
  1
339
 73
     1
 44
1.0
  0
POINT
  5
ABBB
330
ABB2
100
AcDbEntity
  8
Defpoints
 62
     0
100
AcDbPoint
 10
760.0
 20
1600.0
 30
0.0
  0
POINT
  5
ABBC
330
ABB2
100
AcDbEntity
  8
Defpoints
 62
     0
100
AcDbPoint
 10
1099.0
 20
1581.5
 30
0.0
  0
POINT
  5
ABBD
330
ABB2
100
AcDbEntity
  8
Defpoints
 62
     0
100
AcDbPoint
 10
1099.0
 20
1649.170527811524
 30
0.0
  0
ENDBLK
  5
ABB4
330
ABB2
100
AcDbEntity
  8
0
100
AcDbBlockEnd
  0
BLOCK
  5
ABCD
330
ABCC
100
AcDbEntity
  8
0
100
AcDbBlockBegin
  2
*D288
 70
     1
 10
0.0
 20
0.0
 30
0.0
  3
*D288
  1

  0
LINE
  5
ABCF
330
ABCC
100
AcDbEntity
  8
13製作用注記
 62
     0
370
    -2
100
AcDbLine
 10
1130.5
 20
1565.0
 30
0.0
 11
1201.534580838864
 21
1565.0
 31
0.0
  0
LINE
  5
ABD0
330
ABCC
100
AcDbEntity
  8
13製作用注記
 62
     0
370
    -2
100
AcDbLine
 10
1130.5
 20
1600.0
 30
0.0
 11
1201.534580838864
 21
1600.0
 31
0.0
  0
LINE
  5
ABD1
330
ABCC
100
AcDbEntity
  8
13製作用注記
 62
     0
370
    -2
100
AcDbLine
 10
1191.534580838864
 20
1565.0
 30
0.0
 11
1191.534580838864
 21
1449.99
 31
0.0
  0
LINE
  5
ABD2
330
ABCC
100
AcDbEntity
  8
13製作用注記
 62
     0
370
    -2
100
AcDbLine
 10
1191.534580838864
 20
1565.0
 30
0.0
 11
1191.534580838864
 21
1600.0
 31
0.0
  0
LINE
  5
ABD3
330
ABCC
100
AcDbEntity
  8
13製作用注記
 62
     0
370
    -2
100
AcDbLine
 10
1191.534580838864
 20
1535.0
 30
0.0
 11
1191.534580838864
 21
1505.0
 31
0.0
  0
LINE
  5
ABD4
330
ABCC
100
AcDbEntity
  8
13製作用注記
 62
     0
370
    -2
100
AcDbLine
 10
1191.534580838864
 20
1630.0
 30
0.0
 11
1191.534580838864
 21
1660.0
 31
0.0
  0
INSERT
  5
ABD5
330
ABCC
100
AcDbEntity
  8
13製作用注記
 62
     0
370
    -2
100
AcDbBlockReference
  2
_Open
 10
1191.534580838864
 20
1565.0
 30
0.0
 41
30.0
 42
30.0
 43
30.0
 50
90.0
  0
INSERT
  5
ABD6
330
ABCC
100
AcDbEntity
  8
13製作用注記
 62
     0
370
    -2
100
AcDbBlockReference
  2
_Open
 10
1191.534580838864
 20
1600.0
 30
0.0
 41
30.0
 42
30.0
 43
30.0
 50
270.0
  0
MTEXT
  5
ABD7
330
ABCC
100
AcDbEntity
  8
13製作用注記
 62
     0
100
AcDbMText
 10
1166.534580838864
 20
1477.495
 30
0.0
 40
30.0
 41
0.0
 71
     5
 72
     1
  1
35
 11
0.0
 21
1.0
 31
0.0
 73
     1
 44
1.0
  0
POINT
  5
ABD8
330
ABCC
100
AcDbEntity
  8
Defpoints
 62
     0
100
AcDbPoint
 10
1115.5
 20
1565.0
 30
0.0
  0
POINT
  5
ABD9
330
ABCC
100
AcDbEntity
  8
Defpoints
 62
     0
100
AcDbPoint
 10
1115.5
 20
1600.0
 30
0.0
  0
POINT
  5
ABDA
330
ABCC
100
AcDbEntity
  8
Defpoints
 62
     0
100
AcDbPoint
 10
1191.534580838864
 20
1600.0
 30
0.0
  0
ENDBLK
  5
ABCE
330
ABCC
100
AcDbEntity
  8
0
100
AcDbBlockEnd
  0
BLOCK
  5
ABDD
330
ABDC
100
AcDbEntity
  8
0
100
AcDbBlockBegin
  2
*D289
 70
     1
 10
0.0
 20
0.0
 30
0.0
  3
*D289
  1

  0
LINE
  5
ABDF
330
ABDC
100
AcDbEntity
  8
13製作用注記
 62
     0
370
    -2
100
AcDbLine
 10
1099.0
 20
1596.5
 30
0.0
 11
1099.0
 21
1659.170527811524
 31
0.0
  0
LINE
  5
ABE0
330
ABDC
100
AcDbEntity
  8
13製作用注記
 62
     0
370
    -2
100
AcDbLine
 10
1401.0
 20
1596.5
 30
0.0
 11
1401.0
 21
1659.170527811524
 31
0.0
  0
LINE
  5
ABE1
330
ABDC
100
AcDbEntity
  8
13製作用注記
 62
     0
370
    -2
100
AcDbLine
 10
1129.0
 20
1649.170527811524
 30
0.0
 11
1371.0
 21
1649.170527811524
 31
0.0
  0
INSERT
  5
ABE2
330
ABDC
100
AcDbEntity
  8
13製作用注記
 62
     0
370
    -2
100
AcDbBlockReference
  2
_Open
 10
1099.0
 20
1649.170527811524
 30
0.0
 41
30.0
 42
30.0
 43
30.0
 50
180.0
  0
INSERT
  5
ABE3
330
ABDC
100
AcDbEntity
  8
13製作用注記
 62
     0
370
    -2
100
AcDbBlockReference
  2
_Open
 10
1401.0
 20
1649.170527811524
 30
0.0
 41
30.0
 42
30.0
 43
30.0
  0
MTEXT
  5
ABE4
330
ABDC
100
AcDbEntity
  8
13製作用注記
 62
     0
100
AcDbMText
 10
1250.0
 20
1674.170527811524
 30
0.0
 40
30.0
 41
0.0
 71
     5
 72
     1
  1
302
 73
     1
 44
1.0
  0
POINT
  5
ABE5
330
ABDC
100
AcDbEntity
  8
Defpoints
 62
     0
100
AcDbPoint
 10
1099.0
 20
1581.5
 30
0.0
  0
POINT
  5
ABE6
330
ABDC
100
AcDbEntity
  8
Defpoints
 62
     0
100
AcDbPoint
 10
1401.0
 20
1581.5
 30
0.0
  0
POINT
  5
ABE7
330
ABDC
100
AcDbEntity
  8
Defpoints
 62
     0
100
AcDbPoint
 10
1401.0
 20
1649.170527811524
 30
0.0
  0
ENDBLK
  5
ABDE
330
ABDC
100
AcDbEntity
  8
0
100
AcDbBlockEnd
  0
BLOCK
  5
ABEA
330
ABE9
100
AcDbEntity
  8
0
100
AcDbBlockBegin
  2
*D290
 70
     1
 10
0.0
 20
0.0
 30
0.0
  3
*D290
  1

  0
LINE
  5
ABEC
330
ABE9
100
AcDbEntity
  8
13製作用注記
 62
     0
370
    -2
100
AcDbLine
 10
1401.0
 20
1596.5
 30
0.0
 11
1401.0
 21
1659.170527811524
 31
0.0
  0
LINE
  5
ABED
330
ABE9
100
AcDbEntity
  8
13製作用注記
 62
     0
370
    -2
100
AcDbLine
 10
1740.0
 20
1615.0
 30
0.0
 11
1740.0
 21
1659.170527811524
 31
0.0
  0
LINE
  5
ABEE
330
ABE9
100
AcDbEntity
  8
13製作用注記
 62
     0
370
    -2
100
AcDbLine
 10
1431.0
 20
1649.170527811524
 30
0.0
 11
1710.0
 21
1649.170527811524
 31
0.0
  0
INSERT
  5
ABEF
330
ABE9
100
AcDbEntity
  8
13製作用注記
 62
     0
370
    -2
100
AcDbBlockReference
  2
_Open
 10
1401.0
 20
1649.170527811524
 30
0.0
 41
30.0
 42
30.0
 43
30.0
 50
180.0
  0
INSERT
  5
ABF0
330
ABE9
100
AcDbEntity
  8
13製作用注記
 62
     0
370
    -2
100
AcDbBlockReference
  2
_Open
 10
1740.0
 20
1649.170527811524
 30
0.0
 41
30.0
 42
30.0
 43
30.0
  0
MTEXT
  5
ABF1
330
ABE9
100
AcDbEntity
  8
13製作用注記
 62
     0
100
AcDbMText
 10
1570.5
 20
1674.170527811524
 30
0.0
 40
30.0
 41
0.0
 71
     5
 72
     1
  1
339
 73
     1
 44
1.0
  0
POINT
  5
ABF2
330
ABE9
100
AcDbEntity
  8
Defpoints
 62
     0
100
AcDbPoint
 10
1401.0
 20
1581.5
 30
0.0
  0
POINT
  5
ABF3
330
ABE9
100
AcDbEntity
  8
Defpoints
 62
     0
100
AcDbPoint
 10
1740.0
 20
1600.0
 30
0.0
  0
POINT
  5
ABF4
330
ABE9
100
AcDbEntity
  8
Defpoints
 62
     0
100
AcDbPoint
 10
1740.0
 20
1649.170527811524
 30
0.0
  0
ENDBLK
  5
ABEB
330
ABE9
100
AcDbEntity
  8
0
100
AcDbBlockEnd
  0
BLOCK
  5
ABF8
330
ABF7
100
AcDbEntity
  8
0
100
AcDbBlockBegin
  2
*D291
 70
     1
 10
0.0
 20
0.0
 30
0.0
  3
*D291
  1

  0
LINE
  5
ABFA
330
ABF7
100
AcDbEntity
  8
01注記寸法
 62
     0
370
    -2
100
AcDbLine
 10
2230.299999999999
 20
1100.0
 30
0.0
 11
2135.299999999999
 21
1100.0
 31
0.0
  0
LINE
  5
ABFB
330
ABF7
100
AcDbEntity
  8
01注記寸法
 62
     0
370
    -2
100
AcDbLine
 10
2241.000000000002
 20
1349.999999999999
 30
0.0
 11
2135.299999999999
 21
1349.999999999999
 31
0.0
  0
LINE
  5
ABFC
330
ABF7
100
AcDbEntity
  8
01注記寸法
 62
     0
370
    -2
100
AcDbLine
 10
2145.299999999999
 20
1130.0
 30
0.0
 11
2145.299999999999
 21
1319.999999999999
 31
0.0
  0
INSERT
  5
ABFD
330
ABF7
100
AcDbEntity
  8
01注記寸法
 62
     0
370
    -2
100
AcDbBlockReference
  2
_Open
 10
2145.299999999999
 20
1100.0
 30
0.0
 41
30.0
 42
30.0
 43
30.0
 50
270.0
  0
INSERT
  5
ABFE
330
ABF7
100
AcDbEntity
  8
01注記寸法
 62
     0
370
    -2
100
AcDbBlockReference
  2
_Open
 10
2145.299999999999
 20
1349.999999999999
 30
0.0
 41
30.0
 42
30.0
 43
30.0
 50
90.0
  0
MTEXT
  5
ABFF
330
ABF7
100
AcDbEntity
  8
01注記寸法
 62
     0
100
AcDbMText
 10
2120.299999999999
 20
1224.999999999999
 30
0.0
 40
30.0
 41
0.0
 71
     5
 72
     1
  1
250
 11
0.0
 21
1.0
 31
0.0
 73
     1
 44
1.0
  0
POINT
  5
AC00
330
ABF7
100
AcDbEntity
  8
Defpoints
 62
     0
100
AcDbPoint
 10
2245.299999999999
 20
1100.0
 30
0.0
  0
POINT
  5
AC01
330
ABF7
100
AcDbEntity
  8
Defpoints
 62
     0
100
AcDbPoint
 10
2256.000000000002
 20
1349.999999999999
 30
0.0
  0
POINT
  5
AC02
330
ABF7
100
AcDbEntity
  8
Defpoints
 62
     0
100
AcDbPoint
 10
2145.299999999999
 20
1349.999999999999
 30
0.0
  0
ENDBLK
  5
ABF9
330
ABF7
100
AcDbEntity
  8
0
100
AcDbBlockEnd
  0
BLOCK
  5
AF68
330
AF67
100
AcDbEntity
  8
0
100
AcDbBlockBegin
  2
*D313
 70
     1
 10
0.0
 20
0.0
 30
0.0
  3
*D313
  1

  0
LINE
  5
AF6A
330
AF67
100
AcDbEntity
  8
01注記寸法
 62
     0
370
    -2
100
AcDbLine
 10
2998.945876303434
 20
289.1336530409826
 30
0.0
 11
2918.353113124998
 21
289.1336530409826
 31
0.0
  0
LINE
  5
AF6B
330
AF67
100
AcDbEntity
  8
01注記寸法
 62
     0
370
    -2
100
AcDbLine
 10
2998.945876303434
 20
199.1336530409799
 30
0.0
 11
2918.353113124998
 21
199.1336530409799
 31
0.0
  0
LINE
  5
AF6C
330
AF67
100
AcDbEntity
  8
01注記寸法
 62
     0
370
    -2
100
AcDbLine
 10
2928.353113124998
 20
289.1336530409826
 30
0.0
 11
2928.353113124998
 21
492.5236530409834
 31
0.0
  0
LINE
  5
AF6D
330
AF67
100
AcDbEntity
  8
01注記寸法
 62
     0
370
    -2
100
AcDbLine
 10
2928.353113124998
 20
259.1336530409826
 30
0.0
 11
2928.353113124998
 21
229.1336530409799
 31
0.0
  0
INSERT
  5
AF6E
330
AF67
100
AcDbEntity
  8
01注記寸法
 62
     0
370
    -2
100
AcDbBlockReference
  2
_Open
 10
2928.353113124998
 20
289.1336530409826
 30
0.0
 41
30.0
 42
30.0
 43
30.0
 50
90.0
  0
INSERT
  5
AF6F
330
AF67
100
AcDbEntity
  8
01注記寸法
 62
     0
370
    -2
100
AcDbBlockReference
  2
_Open
 10
2928.353113124998
 20
199.1336530409799
 30
0.0
 41
30.0
 42
30.0
 43
30.0
 50
270.0
  0
MTEXT
  5
AF70
330
AF67
100
AcDbEntity
  8
01注記寸法
 62
     0
100
AcDbMText
 10
2903.353113124998
 20
405.8286530409832
 30
0.0
 40
30.0
 41
0.0
 71
     5
 72
     1
  1
MAX 30mm
 11
0.0
 21
1.0
 31
0.0
 73
     1
 44
1.0
  0
POINT
  5
AF71
330
AF67
100
AcDbEntity
  8
Defpoints
 62
     0
100
AcDbPoint
 10
3013.945876303434
 20
289.1336530409826
 30
0.0
  0
POINT
  5
AF72
330
AF67
100
AcDbEntity
  8
Defpoints
 62
     0
100
AcDbPoint
 10
3013.945876303434
 20
199.1336530409799
 30
0.0
  0
POINT
  5
AF73
330
AF67
100
AcDbEntity
  8
Defpoints
 62
     0
100
AcDbPoint
 10
2928.353113124998
 20
199.1336530409799
 30
0.0
  0
ENDBLK
  5
AF69
330
AF67
100
AcDbEntity
  8
0
100
AcDbBlockEnd
  0
BLOCK
  5
AF75
330
AF74
100
AcDbEntity
  8
0
100
AcDbBlockBegin
  2
*D314
 70
     1
 10
0.0
 20
0.0
 30
0.0
  3
*D314
  1

  0
LINE
  5
AF77
330
AF74
100
AcDbEntity
  8
01注記寸法
 62
     0
370
    -2
100
AcDbLine
 10
309.3999999999996
 20
612.25
 30
0.0
 11
175.0
 21
612.25
 31
0.0
  0
LINE
  5
AF78
330
AF74
100
AcDbEntity
  8
01注記寸法
 62
     0
370
    -2
100
AcDbLine
 10
309.3999999999996
 20
417.75
 30
0.0
 11
175.0
 21
417.75
 31
0.0
  0
LINE
  5
AF79
330
AF74
100
AcDbEntity
  8
01注記寸法
 62
     0
370
    -2
100
AcDbLine
 10
185.0
 20
582.25
 30
0.0
 11
185.0
 21
447.75
 31
0.0
  0
INSERT
  5
AF7A
330
AF74
100
AcDbEntity
  8
01注記寸法
 62
     0
370
    -2
100
AcDbBlockReference
  2
_Open
 10
185.0
 20
612.25
 30
0.0
 41
30.0
 42
30.0
 43
30.0
 50
90.0
  0
INSERT
  5
AF7B
330
AF74
100
AcDbEntity
  8
01注記寸法
 62
     0
370
    -2
100
AcDbBlockReference
  2
_Open
 10
185.0
 20
417.75
 30
0.0
 41
30.0
 42
30.0
 43
30.0
 50
270.0
  0
MTEXT
  5
AF7C
330
AF74
100
AcDbEntity
  8
01注記寸法
 62
     0
100
AcDbMText
 10
160.0
 20
515.0
 30
0.0
 40
30.0
 41
0.0
 71
     5
 72
     1
  1
389
 11
0.0
 21
1.0
 31
0.0
 73
     1
 44
1.0
  0
POINT
  5
AF7D
330
AF74
100
AcDbEntity
  8
Defpoints
 62
     0
100
AcDbPoint
 10
324.3999999999996
 20
612.25
 30
0.0
  0
POINT
  5
AF7E
330
AF74
100
AcDbEntity
  8
Defpoints
 62
     0
100
AcDbPoint
 10
324.3999999999996
 20
417.75
 30
0.0
  0
POINT
  5
AF7F
330
AF74
100
AcDbEntity
  8
Defpoints
 62
     0
100
AcDbPoint
 10
185.0
 20
417.75
 30
0.0
  0
ENDBLK
  5
AF76
330
AF74
100
AcDbEntity
  8
0
100
AcDbBlockEnd
  0
BLOCK
  5
AF81
330
AF80
100
AcDbEntity
  8
0
100
AcDbBlockBegin
  2
*D315
 70
     1
 10
0.0
 20
0.0
 30
0.0
  3
*D315
  1

  0
LINE
  5
AF83
330
AF80
100
AcDbEntity
  8
01注記寸法
 62
     0
370
    -2
100
AcDbLine
 10
324.3999999999996
 20
627.25
 30
0.0
 11
324.3999999999996
 21
740.0
 31
0.0
  0
LINE
  5
AF84
330
AF80
100
AcDbEntity
  8
01注記寸法
 62
     0
370
    -2
100
AcDbLine
 10
785.6000000000004
 20
627.25
 30
0.0
 11
785.6000000000004
 21
740.0
 31
0.0
  0
LINE
  5
AF85
330
AF80
100
AcDbEntity
  8
01注記寸法
 62
     0
370
    -2
100
AcDbLine
 10
354.3999999999996
 20
730.0
 30
0.0
 11
755.6000000000004
 21
730.0
 31
0.0
  0
INSERT
  5
AF86
330
AF80
100
AcDbEntity
  8
01注記寸法
 62
     0
370
    -2
100
AcDbBlockReference
  2
_Open
 10
324.3999999999996
 20
730.0
 30
0.0
 41
30.0
 42
30.0
 43
30.0
 50
180.0
  0
INSERT
  5
AF87
330
AF80
100
AcDbEntity
  8
01注記寸法
 62
     0
370
    -2
100
AcDbBlockReference
  2
_Open
 10
785.6000000000004
 20
730.0
 30
0.0
 41
30.0
 42
30.0
 43
30.0
  0
MTEXT
  5
AF88
330
AF80
100
AcDbEntity
  8
01注記寸法
 62
     0
100
AcDbMText
 10
555.0
 20
755.0
 30
0.0
 40
30.0
 41
0.0
 71
     5
 72
     1
  1
922
 73
     1
 44
1.0
  0
POINT
  5
AF89
330
AF80
100
AcDbEntity
  8
Defpoints
 62
     0
100
AcDbPoint
 10
324.3999999999996
 20
612.25
 30
0.0
  0
POINT
  5
AF8A
330
AF80
100
AcDbEntity
  8
Defpoints
 62
     0
100
AcDbPoint
 10
785.6000000000004
 20
612.25
 30
0.0
  0
POINT
  5
AF8B
330
AF80
100
AcDbEntity
  8
Defpoints
 62
     0
100
AcDbPoint
 10
785.6000000000004
 20
730.0
 30
0.0
  0
ENDBLK
  5
AF82
330
AF80
100
AcDbEntity
  8
0
100
AcDbBlockEnd
  0
BLOCK
  5
AF8D
330
AF8C
100
AcDbEntity
  8
0
100
AcDbBlockBegin
  2
*D316
 70
     1
 10
0.0
 20
0.0
 30
0.0
  3
*D316
  1

  0
LINE
  5
AF8F
330
AF8C
100
AcDbEntity
  8
01注記寸法
 62
     0
370
    -2
100
AcDbLine
 10
1074.9
 20
616.3500000000004
 30
0.0
 11
975.0
 21
616.3500000000004
 31
0.0
  0
LINE
  5
AF90
330
AF8C
100
AcDbEntity
  8
01注記寸法
 62
     0
370
    -2
100
AcDbLine
 10
1074.9
 20
413.6500000000005
 30
0.0
 11
975.0
 21
413.6500000000005
 31
0.0
  0
LINE
  5
AF91
330
AF8C
100
AcDbEntity
  8
01注記寸法
 62
     0
370
    -2
100
AcDbLine
 10
985.0
 20
586.3500000000004
 30
0.0
 11
985.0
 21
443.6500000000005
 31
0.0
  0
INSERT
  5
AF92
330
AF8C
100
AcDbEntity
  8
01注記寸法
 62
     0
370
    -2
100
AcDbBlockReference
  2
_Open
 10
985.0
 20
616.3500000000004
 30
0.0
 41
30.0
 42
30.0
 43
30.0
 50
90.0
  0
INSERT
  5
AF93
330
AF8C
100
AcDbEntity
  8
01注記寸法
 62
     0
370
    -2
100
AcDbBlockReference
  2
_Open
 10
985.0
 20
413.6500000000005
 30
0.0
 41
30.0
 42
30.0
 43
30.0
 50
270.0
  0
MTEXT
  5
AF94
330
AF8C
100
AcDbEntity
  8
01注記寸法
 62
     0
100
AcDbMText
 10
960.0
 20
515.0000000000005
 30
0.0
 40
30.0
 41
0.0
 71
     5
 72
     1
  1
405
 11
0.0
 21
1.0
 31
0.0
 73
     1
 44
1.0
  0
POINT
  5
AF95
330
AF8C
100
AcDbEntity
  8
Defpoints
 62
     0
100
AcDbPoint
 10
1089.9
 20
616.3500000000004
 30
0.0
  0
POINT
  5
AF96
330
AF8C
100
AcDbEntity
  8
Defpoints
 62
     0
100
AcDbPoint
 10
1089.9
 20
413.6500000000005
 30
0.0
  0
POINT
  5
AF97
330
AF8C
100
AcDbEntity
  8
Defpoints
 62
     0
100
AcDbPoint
 10
985.0
 20
413.6500000000005
 30
0.0
  0
ENDBLK
  5
AF8E
330
AF8C
100
AcDbEntity
  8
0
100
AcDbBlockEnd
  0
BLOCK
  5
AF99
330
AF98
100
AcDbEntity
  8
0
100
AcDbBlockBegin
  2
*D317
 70
     1
 10
0.0
 20
0.0
 30
0.0
  3
*D317
  1

  0
LINE
  5
AF9B
330
AF98
100
AcDbEntity
  8
01注記寸法
 62
     0
370
    -2
100
AcDbLine
 10
1089.9
 20
631.3500000000004
 30
0.0
 11
1089.9
 21
740.0
 31
0.0
  0
LINE
  5
AF9C
330
AF98
100
AcDbEntity
  8
01注記寸法
 62
     0
370
    -2
100
AcDbLine
 10
1620.1
 20
631.3500000000004
 30
0.0
 11
1620.1
 21
740.0
 31
0.0
  0
LINE
  5
AF9D
330
AF98
100
AcDbEntity
  8
01注記寸法
 62
     0
370
    -2
100
AcDbLine
 10
1119.9
 20
730.0
 30
0.0
 11
1590.1
 21
730.0
 31
0.0
  0
INSERT
  5
AF9E
330
AF98
100
AcDbEntity
  8
01注記寸法
 62
     0
370
    -2
100
AcDbBlockReference
  2
_Open
 10
1089.9
 20
730.0
 30
0.0
 41
30.0
 42
30.0
 43
30.0
 50
180.0
  0
INSERT
  5
AF9F
330
AF98
100
AcDbEntity
  8
01注記寸法
 62
     0
370
    -2
100
AcDbBlockReference
  2
_Open
 10
1620.1
 20
730.0
 30
0.0
 41
30.0
 42
30.0
 43
30.0
  0
MTEXT
  5
AFA0
330
AF98
100
AcDbEntity
  8
01注記寸法
 62
     0
100
AcDbMText
 10
1355.0
 20
755.0
 30
0.0
 40
30.0
 41
0.0
 71
     5
 72
     1
  1
1060
 73
     1
 44
1.0
  0
POINT
  5
AFA1
330
AF98
100
AcDbEntity
  8
Defpoints
 62
     0
100
AcDbPoint
 10
1089.9
 20
616.3500000000004
 30
0.0
  0
POINT
  5
AFA2
330
AF98
100
AcDbEntity
  8
Defpoints
 62
     0
100
AcDbPoint
 10
1620.1
 20
616.3500000000004
 30
0.0
  0
POINT
  5
AFA3
330
AF98
100
AcDbEntity
  8
Defpoints
 62
     0
100
AcDbPoint
 10
1620.1
 20
730.0
 30
0.0
  0
ENDBLK
  5
AF9A
330
AF98
100
AcDbEntity
  8
0
100
AcDbBlockEnd
  0
BLOCK
  5
AFA5
330
AFA4
100
AcDbEntity
  8
0
100
AcDbBlockBegin
  2
*D318
 70
     1
 10
0.0
 20
0.0
 30
0.0
  3
*D318
  1

  0
LINE
  5
AFA7
330
AFA4
100
AcDbEntity
  8
01注記寸法
 62
     0
370
    -2
100
AcDbLine
 10
1909.4
 20
650.8500000000004
 30
0.0
 11
1775.0
 21
650.8500000000004
 31
0.0
  0
LINE
  5
AFA8
330
AFA4
100
AcDbEntity
  8
01注記寸法
 62
     0
370
    -2
100
AcDbLine
 10
1909.4
 20
379.1500000000005
 30
0.0
 11
1775.0
 21
379.1500000000005
 31
0.0
  0
LINE
  5
AFA9
330
AFA4
100
AcDbEntity
  8
01注記寸法
 62
     0
370
    -2
100
AcDbLine
 10
1785.0
 20
620.8500000000004
 30
0.0
 11
1785.0
 21
409.1500000000005
 31
0.0
  0
INSERT
  5
AFAA
330
AFA4
100
AcDbEntity
  8
01注記寸法
 62
     0
370
    -2
100
AcDbBlockReference
  2
_Open
 10
1785.0
 20
650.8500000000004
 30
0.0
 41
30.0
 42
30.0
 43
30.0
 50
90.0
  0
INSERT
  5
AFAB
330
AFA4
100
AcDbEntity
  8
01注記寸法
 62
     0
370
    -2
100
AcDbBlockReference
  2
_Open
 10
1785.0
 20
379.1500000000005
 30
0.0
 41
30.0
 42
30.0
 43
30.0
 50
270.0
  0
MTEXT
  5
AFAC
330
AFA4
100
AcDbEntity
  8
01注記寸法
 62
     0
100
AcDbMText
 10
1760.0
 20
515.0000000000005
 30
0.0
 40
30.0
 41
0.0
 71
     5
 72
     1
  1
543
 11
0.0
 21
1.0
 31
0.0
 73
     1
 44
1.0
  0
POINT
  5
AFAD
330
AFA4
100
AcDbEntity
  8
Defpoints
 62
     0
100
AcDbPoint
 10
1924.4
 20
650.8500000000004
 30
0.0
  0
POINT
  5
AFAE
330
AFA4
100
AcDbEntity
  8
Defpoints
 62
     0
100
AcDbPoint
 10
1924.4
 20
379.1500000000005
 30
0.0
  0
POINT
  5
AFAF
330
AFA4
100
AcDbEntity
  8
Defpoints
 62
     0
100
AcDbPoint
 10
1785.0
 20
379.1500000000005
 30
0.0
  0
ENDBLK
  5
AFA6
330
AFA4
100
AcDbEntity
  8
0
100
AcDbBlockEnd
  0
BLOCK
  5
AFB1
330
AFB0
100
AcDbEntity
  8
0
100
AcDbBlockBegin
  2
*D319
 70
     1
 10
0.0
 20
0.0
 30
0.0
  3
*D319
  1

  0
LINE
  5
AFB3
330
AFB0
100
AcDbEntity
  8
01注記寸法
 62
     0
370
    -2
100
AcDbLine
 10
1924.4
 20
665.8500000000004
 30
0.0
 11
1924.4
 21
740.0
 31
0.0
  0
LINE
  5
AFB4
330
AFB0
100
AcDbEntity
  8
01注記寸法
 62
     0
370
    -2
100
AcDbLine
 10
2385.6
 20
665.8500000000004
 30
0.0
 11
2385.6
 21
740.0
 31
0.0
  0
LINE
  5
AFB5
330
AFB0
100
AcDbEntity
  8
01注記寸法
 62
     0
370
    -2
100
AcDbLine
 10
1954.4
 20
730.0
 30
0.0
 11
2355.6
 21
730.0
 31
0.0
  0
INSERT
  5
AFB6
330
AFB0
100
AcDbEntity
  8
01注記寸法
 62
     0
370
    -2
100
AcDbBlockReference
  2
_Open
 10
1924.4
 20
730.0
 30
0.0
 41
30.0
 42
30.0
 43
30.0
 50
180.0
  0
INSERT
  5
AFB7
330
AFB0
100
AcDbEntity
  8
01注記寸法
 62
     0
370
    -2
100
AcDbBlockReference
  2
_Open
 10
2385.6
 20
730.0
 30
0.0
 41
30.0
 42
30.0
 43
30.0
  0
MTEXT
  5
AFB8
330
AFB0
100
AcDbEntity
  8
01注記寸法
 62
     0
100
AcDbMText
 10
2155.0
 20
755.0
 30
0.0
 40
30.0
 41
0.0
 71
     5
 72
     1
  1
922
 73
     1
 44
1.0
  0
POINT
  5
AFB9
330
AFB0
100
AcDbEntity
  8
Defpoints
 62
     0
100
AcDbPoint
 10
1924.4
 20
650.8500000000004
 30
0.0
  0
POINT
  5
AFBA
330
AFB0
100
AcDbEntity
  8
Defpoints
 62
     0
100
AcDbPoint
 10
2385.6
 20
650.8500000000004
 30
0.0
  0
POINT
  5
AFBB
330
AFB0
100
AcDbEntity
  8
Defpoints
 62
     0
100
AcDbPoint
 10
2385.6
 20
730.0
 30
0.0
  0
ENDBLK
  5
AFB2
330
AFB0
100
AcDbEntity
  8
0
100
AcDbBlockEnd
  0
BLOCK
  5
B30A
330
B309
100
AcDbEntity
  8
0
100
AcDbBlockBegin
  2
1-HTA176
 70
     0
 10
0.0
 20
0.0
 30
0.0
  3
1-HTA176
  1

  0
LWPOLYLINE
  5
B30B
330
B309
100
AcDbEntity
  8
12防振架台
100
AcDbPolyline
 90
        4
 70
     1
 43
0.0
 10
-490.0
 20
0.0
 10
-490.0
 20
460.0
 10
490.0
 20
460.0
 10
490.0
 20
0.0
  0
CIRCLE
  5
B30C
330
B309
100
AcDbEntity
  8
12防振架台
100
AcDbCircle
 10
-390.0
 20
30.0
 30
0.0
 40
8.0
  0
CIRCLE
  5
B30D
330
B309
100
AcDbEntity
  8
12防振架台
100
AcDbCircle
 10
-300.0
 20
25.0
 30
0.0
 40
7.0
  0
CIRCLE
  5
B30E
330
B309
100
AcDbEntity
  8
12防振架台
100
AcDbCircle
 10
-390.0
 20
430.0
 30
0.0
 40
8.0
  0
CIRCLE
  5
B30F
330
B309
100
AcDbEntity
  8
12防振架台
100
AcDbCircle
 10
-300.0
 20
435.0
 30
0.0
 40
7.0
  0
CIRCLE
  5
B310
330
B309
100
AcDbEntity
  8
12防振架台
100
AcDbCircle
 10
390.0
 20
30.0
 30
0.0
 40
8.0
  0
CIRCLE
  5
B311
330
B309
100
AcDbEntity
  8
12防振架台
100
AcDbCircle
 10
300.0
 20
25.0
 30
0.0
 40
7.0
  0
CIRCLE
  5
B312
330
B309
100
AcDbEntity
  8
12防振架台
100
AcDbCircle
 10
390.0
 20
430.0
 30
0.0
 40
8.0
  0
CIRCLE
  5
B313
330
B309
100
AcDbEntity
  8
12防振架台
100
AcDbCircle
 10
300.0
 20
435.0
 30
0.0
 40
7.0
  0
LWPOLYLINE
  5
B314
330
B309
100
AcDbEntity
  8
12防振架台
100
AcDbPolyline
 90
        4
 70
     1
 43
0.0
 10
-430.0
 20
60.0
 10
-430.0
 20
400.0
 10
430.0
 20
400.0
 10
430.0
 20
60.0
  0
ENDBLK
  5
B315
330
B309
100
AcDbEntity
  8
0
100
AcDbBlockEnd
  0
BLOCK
  5
B91C
330
B91B
100
AcDbEntity
  8
0
100
AcDbBlockBegin
  2
*D389
 70
     1
 10
0.0
 20
0.0
 30
0.0
  3
*D389
  1

  0
LINE
  5
B91E
330
B91B
100
AcDbEntity
  8
01注記寸法
 62
     0
370
    -2
100
AcDbLine
 10
745.0
 20
2369.999999999999
 30
0.0
 11
500.0
 21
2369.999999999999
 31
0.0
  0
LINE
  5
B91F
330
B91B
100
AcDbEntity
  8
01注記寸法
 62
     0
370
    -2
100
AcDbLine
 10
745.0
 20
1909.999999999999
 30
0.0
 11
500.0
 21
1909.999999999999
 31
0.0
  0
LINE
  5
B920
330
B91B
100
AcDbEntity
  8
01注記寸法
 62
     0
370
    -2
100
AcDbLine
 10
510.0
 20
2339.999999999999
 30
0.0
 11
510.0
 21
1939.999999999999
 31
0.0
  0
INSERT
  5
B921
330
B91B
100
AcDbEntity
  8
01注記寸法
 62
     0
370
    -2
100
AcDbBlockReference
  2
_Open
 10
510.0
 20
2369.999999999999
 30
0.0
 41
30.0
 42
30.0
 43
30.0
 50
90.0
  0
INSERT
  5
B922
330
B91B
100
AcDbEntity
  8
01注記寸法
 62
     0
370
    -2
100
AcDbBlockReference
  2
_Open
 10
510.0
 20
1909.999999999999
 30
0.0
 41
30.0
 42
30.0
 43
30.0
 50
270.0
  0
MTEXT
  5
B923
330
B91B
100
AcDbEntity
  8
01注記寸法
 62
     0
100
AcDbMText
 10
485.0
 20
2139.999999999999
 30
0.0
 40
30.0
 41
0.0
 71
     5
 72
     1
  1
460
 11
0.0
 21
1.0
 31
0.0
 73
     1
 44
1.0
  0
POINT
  5
B924
330
B91B
100
AcDbEntity
  8
Defpoints
 62
     0
100
AcDbPoint
 10
760.0
 20
2369.999999999999
 30
0.0
  0
POINT
  5
B925
330
B91B
100
AcDbEntity
  8
Defpoints
 62
     0
100
AcDbPoint
 10
760.0
 20
1909.999999999999
 30
0.0
  0
POINT
  5
B926
330
B91B
100
AcDbEntity
  8
Defpoints
 62
     0
100
AcDbPoint
 10
510.0
 20
1909.999999999999
 30
0.0
  0
ENDBLK
  5
B91D
330
B91B
100
AcDbEntity
  8
0
100
AcDbBlockEnd
  0
BLOCK
  5
B928
330
B927
100
AcDbEntity
  8
0
100
AcDbBlockBegin
  2
*D390
 70
     1
 10
0.0
 20
0.0
 30
0.0
  3
*D390
  1

  0
LINE
  5
B92A
330
B927
100
AcDbEntity
  8
01注記寸法
 62
     0
370
    -2
100
AcDbLine
 10
745.0
 20
2370.0
 30
0.0
 11
600.0
 21
2370.0
 31
0.0
  0
LINE
  5
B92B
330
B927
100
AcDbEntity
  8
01注記寸法
 62
     0
370
    -2
100
AcDbLine
 10
918.0
 20
2344.999999999999
 30
0.0
 11
600.0
 21
2344.999999999999
 31
0.0
  0
LINE
  5
B92C
330
B927
100
AcDbEntity
  8
01注記寸法
 62
     0
370
    -2
100
AcDbLine
 10
610.0
 20
2370.0
 30
0.0
 11
610.0
 21
2484.86
 31
0.0
  0
LINE
  5
B92D
330
B927
100
AcDbEntity
  8
01注記寸法
 62
     0
370
    -2
100
AcDbLine
 10
610.0
 20
2370.0
 30
0.0
 11
610.0
 21
2344.999999999999
 31
0.0
  0
LINE
  5
B92E
330
B927
100
AcDbEntity
  8
01注記寸法
 62
     0
370
    -2
100
AcDbLine
 10
610.0
 20
2400.0
 30
0.0
 11
610.0
 21
2430.0
 31
0.0
  0
LINE
  5
B92F
330
B927
100
AcDbEntity
  8
01注記寸法
 62
     0
370
    -2
100
AcDbLine
 10
610.0
 20
2314.999999999999
 30
0.0
 11
610.0
 21
2284.999999999999
 31
0.0
  0
INSERT
  5
B930
330
B927
100
AcDbEntity
  8
01注記寸法
 62
     0
370
    -2
100
AcDbBlockReference
  2
_Open
 10
610.0
 20
2370.0
 30
0.0
 41
30.0
 42
30.0
 43
30.0
 50
270.0
  0
INSERT
  5
B931
330
B927
100
AcDbEntity
  8
01注記寸法
 62
     0
370
    -2
100
AcDbBlockReference
  2
_Open
 10
610.0
 20
2344.999999999999
 30
0.0
 41
30.0
 42
30.0
 43
30.0
 50
90.0
  0
MTEXT
  5
B932
330
B927
100
AcDbEntity
  8
01注記寸法
 62
     0
100
AcDbMText
 10
585.0
 20
2457.43
 30
0.0
 40
30.0
 41
0.0
 71
     5
 72
     1
  1
25
 11
0.0
 21
1.0
 31
0.0
 73
     1
 44
1.0
  0
POINT
  5
B933
330
B927
100
AcDbEntity
  8
Defpoints
 62
     0
100
AcDbPoint
 10
760.0
 20
2370.0
 30
0.0
  0
POINT
  5
B934
330
B927
100
AcDbEntity
  8
Defpoints
 62
     0
100
AcDbPoint
 10
933.0
 20
2344.999999999999
 30
0.0
  0
POINT
  5
B935
330
B927
100
AcDbEntity
  8
Defpoints
 62
     0
100
AcDbPoint
 10
610.0
 20
2344.999999999999
 30
0.0
  0
ENDBLK
  5
B929
330
B927
100
AcDbEntity
  8
0
100
AcDbBlockEnd
  0
BLOCK
  5
B937
330
B936
100
AcDbEntity
  8
0
100
AcDbBlockBegin
  2
*D391
 70
     1
 10
0.0
 20
0.0
 30
0.0
  3
*D391
  1

  0
LINE
  5
B939
330
B936
100
AcDbEntity
  8
01注記寸法
 62
     0
370
    -2
100
AcDbLine
 10
918.0
 20
2344.999999999999
 30
0.0
 11
600.0
 21
2344.999999999999
 31
0.0
  0
LINE
  5
B93A
330
B936
100
AcDbEntity
  8
01注記寸法
 62
     0
370
    -2
100
AcDbLine
 10
918.0
 20
1934.999999999999
 30
0.0
 11
600.0
 21
1934.999999999999
 31
0.0
  0
LINE
  5
B93B
330
B936
100
AcDbEntity
  8
01注記寸法
 62
     0
370
    -2
100
AcDbLine
 10
610.0
 20
2314.999999999999
 30
0.0
 11
610.0
 21
1964.999999999999
 31
0.0
  0
INSERT
  5
B93C
330
B936
100
AcDbEntity
  8
01注記寸法
 62
     0
370
    -2
100
AcDbBlockReference
  2
_Open
 10
610.0
 20
2344.999999999999
 30
0.0
 41
30.0
 42
30.0
 43
30.0
 50
90.0
  0
INSERT
  5
B93D
330
B936
100
AcDbEntity
  8
01注記寸法
 62
     0
370
    -2
100
AcDbBlockReference
  2
_Open
 10
610.0
 20
1934.999999999999
 30
0.0
 41
30.0
 42
30.0
 43
30.0
 50
270.0
  0
MTEXT
  5
B93E
330
B936
100
AcDbEntity
  8
01注記寸法
 62
     0
100
AcDbMText
 10
585.0
 20
2139.999999999999
 30
0.0
 40
30.0
 41
0.0
 71
     5
 72
     1
  1
410
 11
0.0
 21
1.0
 31
0.0
 73
     1
 44
1.0
  0
POINT
  5
B93F
330
B936
100
AcDbEntity
  8
Defpoints
 62
     0
100
AcDbPoint
 10
933.0
 20
2344.999999999999
 30
0.0
  0
POINT
  5
B940
330
B936
100
AcDbEntity
  8
Defpoints
 62
     0
100
AcDbPoint
 10
933.0
 20
1934.999999999999
 30
0.0
  0
POINT
  5
B941
330
B936
100
AcDbEntity
  8
Defpoints
 62
     0
100
AcDbPoint
 10
610.0
 20
1934.999999999999
 30
0.0
  0
ENDBLK
  5
B938
330
B936
100
AcDbEntity
  8
0
100
AcDbBlockEnd
  0
BLOCK
  5
B943
330
B942
100
AcDbEntity
  8
0
100
AcDbBlockBegin
  2
*D392
 70
     1
 10
0.0
 20
0.0
 30
0.0
  3
*D392
  1

  0
LINE
  5
B945
330
B942
100
AcDbEntity
  8
01注記寸法
 62
     0
370
    -2
100
AcDbLine
 10
918.0
 20
1934.999999999999
 30
0.0
 11
600.0
 21
1934.999999999999
 31
0.0
  0
LINE
  5
B946
330
B942
100
AcDbEntity
  8
01注記寸法
 62
     0
370
    -2
100
AcDbLine
 10
745.0
 20
1910.0
 30
0.0
 11
600.0
 21
1910.0
 31
0.0
  0
LINE
  5
B947
330
B942
100
AcDbEntity
  8
01注記寸法
 62
     0
370
    -2
100
AcDbLine
 10
610.0
 20
1880.0
 30
0.0
 11
610.0
 21
1795.14
 31
0.0
  0
LINE
  5
B948
330
B942
100
AcDbEntity
  8
01注記寸法
 62
     0
370
    -2
100
AcDbLine
 10
610.0
 20
1934.999999999999
 30
0.0
 11
610.0
 21
1910.0
 31
0.0
  0
LINE
  5
B949
330
B942
100
AcDbEntity
  8
01注記寸法
 62
     0
370
    -2
100
AcDbLine
 10
610.0
 20
1964.999999999999
 30
0.0
 11
610.0
 21
1994.999999999999
 31
0.0
  0
INSERT
  5
B94A
330
B942
100
AcDbEntity
  8
01注記寸法
 62
     0
370
    -2
100
AcDbBlockReference
  2
_Open
 10
610.0
 20
1934.999999999999
 30
0.0
 41
30.0
 42
30.0
 43
30.0
 50
270.0
  0
INSERT
  5
B94B
330
B942
100
AcDbEntity
  8
01注記寸法
 62
     0
370
    -2
100
AcDbBlockReference
  2
_Open
 10
610.0
 20
1910.0
 30
0.0
 41
30.0
 42
30.0
 43
30.0
 50
90.0
  0
MTEXT
  5
B94C
330
B942
100
AcDbEntity
  8
01注記寸法
 62
     0
100
AcDbMText
 10
585.0
 20
1822.57
 30
0.0
 40
30.0
 41
0.0
 71
     5
 72
     1
  1
25
 11
0.0
 21
1.0
 31
0.0
 73
     1
 44
1.0
  0
POINT
  5
B94D
330
B942
100
AcDbEntity
  8
Defpoints
 62
     0
100
AcDbPoint
 10
933.0
 20
1934.999999999999
 30
0.0
  0
POINT
  5
B94E
330
B942
100
AcDbEntity
  8
Defpoints
 62
     0
100
AcDbPoint
 10
760.0
 20
1910.0
 30
0.0
  0
POINT
  5
B94F
330
B942
100
AcDbEntity
  8
Defpoints
 62
     0
100
AcDbPoint
 10
610.0
 20
1910.0
 30
0.0
  0
ENDBLK
  5
B944
330
B942
100
AcDbEntity
  8
0
100
AcDbBlockEnd
  0
BLOCK
  5
B951
330
B950
100
AcDbEntity
  8
0
100
AcDbBlockBegin
  2
*D393
 70
     1
 10
0.0
 20
0.0
 30
0.0
  3
*D393
  1

  0
LINE
  5
B953
330
B950
100
AcDbEntity
  8
01注記寸法
 62
     0
370
    -2
100
AcDbLine
 10
760.0
 20
2386.5
 30
0.0
 11
760.0
 21
2579.999999999999
 31
0.0
  0
LINE
  5
B954
330
B950
100
AcDbEntity
  8
01注記寸法
 62
     0
370
    -2
100
AcDbLine
 10
950.0
 20
2376.999999999999
 30
0.0
 11
950.0
 21
2579.999999999999
 31
0.0
  0
LINE
  5
B955
330
B950
100
AcDbEntity
  8
01注記寸法
 62
     0
370
    -2
100
AcDbLine
 10
790.0
 20
2569.999999999999
 30
0.0
 11
920.0
 21
2569.999999999999
 31
0.0
  0
INSERT
  5
B956
330
B950
100
AcDbEntity
  8
01注記寸法
 62
     0
370
    -2
100
AcDbBlockReference
  2
_Open
 10
760.0
 20
2569.999999999999
 30
0.0
 41
30.0
 42
30.0
 43
30.0
 50
180.0
  0
INSERT
  5
B957
330
B950
100
AcDbEntity
  8
01注記寸法
 62
     0
370
    -2
100
AcDbBlockReference
  2
_Open
 10
950.0
 20
2569.999999999999
 30
0.0
 41
30.0
 42
30.0
 43
30.0
  0
MTEXT
  5
B958
330
B950
100
AcDbEntity
  8
01注記寸法
 62
     0
100
AcDbMText
 10
855.0
 20
2594.999999999999
 30
0.0
 40
30.0
 41
0.0
 71
     5
 72
     1
  1
190
 73
     1
 44
1.0
  0
POINT
  5
B959
330
B950
100
AcDbEntity
  8
Defpoints
 62
     0
100
AcDbPoint
 10
760.0
 20
2371.5
 30
0.0
  0
POINT
  5
B95A
330
B950
100
AcDbEntity
  8
Defpoints
 62
     0
100
AcDbPoint
 10
950.0
 20
2361.999999999999
 30
0.0
  0
POINT
  5
B95B
330
B950
100
AcDbEntity
  8
Defpoints
 62
     0
100
AcDbPoint
 10
950.0
 20
2569.999999999999
 30
0.0
  0
ENDBLK
  5
B952
330
B950
100
AcDbEntity
  8
0
100
AcDbBlockEnd
  0
BLOCK
  5
B95D
330
B95C
100
AcDbEntity
  8
0
100
AcDbBlockBegin
  2
*D394
 70
     1
 10
0.0
 20
0.0
 30
0.0
  3
*D394
  1

  0
LINE
  5
B95F
330
B95C
100
AcDbEntity
  8
01注記寸法
 62
     0
370
    -2
100
AcDbLine
 10
950.0
 20
2376.999999999999
 30
0.0
 11
950.0
 21
2579.999999999999
 31
0.0
  0
LINE
  5
B960
330
B95C
100
AcDbEntity
  8
01注記寸法
 62
     0
370
    -2
100
AcDbLine
 10
1550.0
 20
2376.999999999999
 30
0.0
 11
1550.0
 21
2579.999999999999
 31
0.0
  0
LINE
  5
B961
330
B95C
100
AcDbEntity
  8
01注記寸法
 62
     0
370
    -2
100
AcDbLine
 10
980.0
 20
2569.999999999999
 30
0.0
 11
1520.0
 21
2569.999999999999
 31
0.0
  0
INSERT
  5
B962
330
B95C
100
AcDbEntity
  8
01注記寸法
 62
     0
370
    -2
100
AcDbBlockReference
  2
_Open
 10
950.0
 20
2569.999999999999
 30
0.0
 41
30.0
 42
30.0
 43
30.0
 50
180.0
  0
INSERT
  5
B963
330
B95C
100
AcDbEntity
  8
01注記寸法
 62
     0
370
    -2
100
AcDbBlockReference
  2
_Open
 10
1550.0
 20
2569.999999999999
 30
0.0
 41
30.0
 42
30.0
 43
30.0
  0
MTEXT
  5
B964
330
B95C
100
AcDbEntity
  8
01注記寸法
 62
     0
100
AcDbMText
 10
1250.0
 20
2594.999999999999
 30
0.0
 40
30.0
 41
0.0
 71
     5
 72
     1
  1
600
 73
     1
 44
1.0
  0
POINT
  5
B965
330
B95C
100
AcDbEntity
  8
Defpoints
 62
     0
100
AcDbPoint
 10
950.0
 20
2361.999999999999
 30
0.0
  0
POINT
  5
B966
330
B95C
100
AcDbEntity
  8
Defpoints
 62
     0
100
AcDbPoint
 10
1550.0
 20
2361.999999999999
 30
0.0
  0
POINT
  5
B967
330
B95C
100
AcDbEntity
  8
Defpoints
 62
     0
100
AcDbPoint
 10
1550.0
 20
2569.999999999999
 30
0.0
  0
ENDBLK
  5
B95E
330
B95C
100
AcDbEntity
  8
0
100
AcDbBlockEnd
  0
BLOCK
  5
B969
330
B968
100
AcDbEntity
  8
0
100
AcDbBlockBegin
  2
*D395
 70
     1
 10
0.0
 20
0.0
 30
0.0
  3
*D395
  1

  0
LINE
  5
B96B
330
B968
100
AcDbEntity
  8
01注記寸法
 62
     0
370
    -2
100
AcDbLine
 10
1550.0
 20
2376.999999999999
 30
0.0
 11
1550.0
 21
2579.999999999999
 31
0.0
  0
LINE
  5
B96C
330
B968
100
AcDbEntity
  8
01注記寸法
 62
     0
370
    -2
100
AcDbLine
 10
1740.0
 20
2386.5
 30
0.0
 11
1740.0
 21
2579.999999999999
 31
0.0
  0
LINE
  5
B96D
330
B968
100
AcDbEntity
  8
01注記寸法
 62
     0
370
    -2
100
AcDbLine
 10
1580.0
 20
2569.999999999999
 30
0.0
 11
1710.0
 21
2569.999999999999
 31
0.0
  0
INSERT
  5
B96E
330
B968
100
AcDbEntity
  8
01注記寸法
 62
     0
370
    -2
100
AcDbBlockReference
  2
_Open
 10
1550.0
 20
2569.999999999999
 30
0.0
 41
30.0
 42
30.0
 43
30.0
 50
180.0
  0
INSERT
  5
B96F
330
B968
100
AcDbEntity
  8
01注記寸法
 62
     0
370
    -2
100
AcDbBlockReference
  2
_Open
 10
1740.0
 20
2569.999999999999
 30
0.0
 41
30.0
 42
30.0
 43
30.0
  0
MTEXT
  5
B970
330
B968
100
AcDbEntity
  8
01注記寸法
 62
     0
100
AcDbMText
 10
1645.0
 20
2594.999999999999
 30
0.0
 40
30.0
 41
0.0
 71
     5
 72
     1
  1
190
 73
     1
 44
1.0
  0
POINT
  5
B971
330
B968
100
AcDbEntity
  8
Defpoints
 62
     0
100
AcDbPoint
 10
1550.0
 20
2361.999999999999
 30
0.0
  0
POINT
  5
B972
330
B968
100
AcDbEntity
  8
Defpoints
 62
     0
100
AcDbPoint
 10
1740.0
 20
2371.5
 30
0.0
  0
POINT
  5
B973
330
B968
100
AcDbEntity
  8
Defpoints
 62
     0
100
AcDbPoint
 10
1740.0
 20
2569.999999999999
 30
0.0
  0
ENDBLK
  5
B96A
330
B968
100
AcDbEntity
  8
0
100
AcDbBlockEnd
  0
BLOCK
  5
B975
330
B974
100
AcDbEntity
  8
0
100
AcDbBlockBegin
  2
*D396
 70
     1
 10
0.0
 20
0.0
 30
0.0
  3
*D396
  1

  0
LINE
  5
B977
330
B974
100
AcDbEntity
  8
01注記寸法
 62
     0
370
    -2
100
AcDbLine
 10
1740.0
 20
2386.5
 30
0.0
 11
1740.0
 21
2679.999999999998
 31
0.0
  0
LINE
  5
B978
330
B974
100
AcDbEntity
  8
01注記寸法
 62
     0
370
    -2
100
AcDbLine
 10
760.0
 20
2386.5
 30
0.0
 11
760.0
 21
2679.999999999998
 31
0.0
  0
LINE
  5
B979
330
B974
100
AcDbEntity
  8
01注記寸法
 62
     0
370
    -2
100
AcDbLine
 10
1710.0
 20
2669.999999999998
 30
0.0
 11
790.0
 21
2669.999999999998
 31
0.0
  0
INSERT
  5
B97A
330
B974
100
AcDbEntity
  8
01注記寸法
 62
     0
370
    -2
100
AcDbBlockReference
  2
_Open
 10
1740.0
 20
2669.999999999998
 30
0.0
 41
30.0
 42
30.0
 43
30.0
  0
INSERT
  5
B97B
330
B974
100
AcDbEntity
  8
01注記寸法
 62
     0
370
    -2
100
AcDbBlockReference
  2
_Open
 10
760.0
 20
2669.999999999998
 30
0.0
 41
30.0
 42
30.0
 43
30.0
 50
180.0
  0
MTEXT
  5
B97C
330
B974
100
AcDbEntity
  8
01注記寸法
 62
     0
100
AcDbMText
 10
1250.0
 20
2694.999999999998
 30
0.0
 40
30.0
 41
0.0
 71
     5
 72
     1
  1
980
 73
     1
 44
1.0
  0
POINT
  5
B97D
330
B974
100
AcDbEntity
  8
Defpoints
 62
     0
100
AcDbPoint
 10
1740.0
 20
2371.5
 30
0.0
  0
POINT
  5
B97E
330
B974
100
AcDbEntity
  8
Defpoints
 62
     0
100
AcDbPoint
 10
760.0
 20
2371.5
 30
0.0
  0
POINT
  5
B97F
330
B974
100
AcDbEntity
  8
Defpoints
 62
     0
100
AcDbPoint
 10
760.0
 20
2669.999999999998
 30
0.0
  0
ENDBLK
  5
B976
330
B974
100
AcDbEntity
  8
0
100
AcDbBlockEnd
  0
BLOCK
  5
B981
330
B980
100
AcDbEntity
  8
0
100
AcDbBlockBegin
  2
*D397
 70
     1
 10
0.0
 20
0.0
 30
0.0
  3
*D397
  1

  0
LINE
  5
B983
330
B980
100
AcDbEntity
  8
01注記寸法
 62
     0
370
    -2
100
AcDbLine
 10
760.0
 20
1893.5
 30
0.0
 11
760.0
 21
1699.999999999999
 31
0.0
  0
LINE
  5
B984
330
B980
100
AcDbEntity
  8
01注記寸法
 62
     0
370
    -2
100
AcDbLine
 10
860.0
 20
1906.999999999999
 30
0.0
 11
860.0
 21
1699.999999999999
 31
0.0
  0
LINE
  5
B985
330
B980
100
AcDbEntity
  8
01注記寸法
 62
     0
370
    -2
100
AcDbLine
 10
790.0
 20
1709.999999999999
 30
0.0
 11
830.0
 21
1709.999999999999
 31
0.0
  0
INSERT
  5
B986
330
B980
100
AcDbEntity
  8
01注記寸法
 62
     0
370
    -2
100
AcDbBlockReference
  2
_Open
 10
760.0
 20
1709.999999999999
 30
0.0
 41
30.0
 42
30.0
 43
30.0
 50
180.0
  0
INSERT
  5
B987
330
B980
100
AcDbEntity
  8
01注記寸法
 62
     0
370
    -2
100
AcDbBlockReference
  2
_Open
 10
860.0
 20
1709.999999999999
 30
0.0
 41
30.0
 42
30.0
 43
30.0
  0
MTEXT
  5
B988
330
B980
100
AcDbEntity
  8
01注記寸法
 62
     0
100
AcDbMText
 10
810.0
 20
1734.999999999999
 30
0.0
 40
30.0
 41
0.0
 71
     5
 72
     1
  1
100
 73
     1
 44
1.0
  0
POINT
  5
B989
330
B980
100
AcDbEntity
  8
Defpoints
 62
     0
100
AcDbPoint
 10
760.0
 20
1908.5
 30
0.0
  0
POINT
  5
B98A
330
B980
100
AcDbEntity
  8
Defpoints
 62
     0
100
AcDbPoint
 10
860.0
 20
1921.999999999999
 30
0.0
  0
POINT
  5
B98B
330
B980
100
AcDbEntity
  8
Defpoints
 62
     0
100
AcDbPoint
 10
860.0
 20
1709.999999999999
 30
0.0
  0
ENDBLK
  5
B982
330
B980
100
AcDbEntity
  8
0
100
AcDbBlockEnd
  0
BLOCK
  5
B98D
330
B98C
100
AcDbEntity
  8
0
100
AcDbBlockBegin
  2
*D398
 70
     1
 10
0.0
 20
0.0
 30
0.0
  3
*D398
  1

  0
LINE
  5
B98F
330
B98C
100
AcDbEntity
  8
01注記寸法
 62
     0
370
    -2
100
AcDbLine
 10
860.0
 20
1906.999999999999
 30
0.0
 11
860.0
 21
1699.999999999999
 31
0.0
  0
LINE
  5
B990
330
B98C
100
AcDbEntity
  8
01注記寸法
 62
     0
370
    -2
100
AcDbLine
 10
1640.0
 20
1906.999999999999
 30
0.0
 11
1640.0
 21
1699.999999999999
 31
0.0
  0
LINE
  5
B991
330
B98C
100
AcDbEntity
  8
01注記寸法
 62
     0
370
    -2
100
AcDbLine
 10
890.0
 20
1709.999999999999
 30
0.0
 11
1610.0
 21
1709.999999999999
 31
0.0
  0
INSERT
  5
B992
330
B98C
100
AcDbEntity
  8
01注記寸法
 62
     0
370
    -2
100
AcDbBlockReference
  2
_Open
 10
860.0
 20
1709.999999999999
 30
0.0
 41
30.0
 42
30.0
 43
30.0
 50
180.0
  0
INSERT
  5
B993
330
B98C
100
AcDbEntity
  8
01注記寸法
 62
     0
370
    -2
100
AcDbBlockReference
  2
_Open
 10
1640.0
 20
1709.999999999999
 30
0.0
 41
30.0
 42
30.0
 43
30.0
  0
MTEXT
  5
B994
330
B98C
100
AcDbEntity
  8
01注記寸法
 62
     0
100
AcDbMText
 10
1250.0
 20
1735.989999999999
 30
0.0
 40
30.0
 41
0.0
 71
     5
 72
     1
  1
※ 780
 73
     1
 44
1.0
  0
POINT
  5
B995
330
B98C
100
AcDbEntity
  8
Defpoints
 62
     0
100
AcDbPoint
 10
860.0
 20
1921.999999999999
 30
0.0
  0
POINT
  5
B996
330
B98C
100
AcDbEntity
  8
Defpoints
 62
     0
100
AcDbPoint
 10
1640.0
 20
1921.999999999999
 30
0.0
  0
POINT
  5
B997
330
B98C
100
AcDbEntity
  8
Defpoints
 62
     0
100
AcDbPoint
 10
1640.0
 20
1709.999999999999
 30
0.0
  0
ENDBLK
  5
B98E
330
B98C
100
AcDbEntity
  8
0
100
AcDbBlockEnd
  0
BLOCK
  5
B999
330
B998
100
AcDbEntity
  8
0
100
AcDbBlockBegin
  2
*D399
 70
     1
 10
0.0
 20
0.0
 30
0.0
  3
*D399
  1

  0
LINE
  5
B99B
330
B998
100
AcDbEntity
  8
01注記寸法
 62
     0
370
    -2
100
AcDbLine
 10
1640.0
 20
1906.999999999999
 30
0.0
 11
1640.0
 21
1699.999999999999
 31
0.0
  0
LINE
  5
B99C
330
B998
100
AcDbEntity
  8
01注記寸法
 62
     0
370
    -2
100
AcDbLine
 10
1740.0
 20
1893.5
 30
0.0
 11
1740.0
 21
1699.999999999999
 31
0.0
  0
LINE
  5
B99D
330
B998
100
AcDbEntity
  8
01注記寸法
 62
     0
370
    -2
100
AcDbLine
 10
1670.0
 20
1709.999999999999
 30
0.0
 11
1710.0
 21
1709.999999999999
 31
0.0
  0
INSERT
  5
B99E
330
B998
100
AcDbEntity
  8
01注記寸法
 62
     0
370
    -2
100
AcDbBlockReference
  2
_Open
 10
1640.0
 20
1709.999999999999
 30
0.0
 41
30.0
 42
30.0
 43
30.0
 50
180.0
  0
INSERT
  5
B99F
330
B998
100
AcDbEntity
  8
01注記寸法
 62
     0
370
    -2
100
AcDbBlockReference
  2
_Open
 10
1740.0
 20
1709.999999999999
 30
0.0
 41
30.0
 42
30.0
 43
30.0
  0
MTEXT
  5
B9A0
330
B998
100
AcDbEntity
  8
01注記寸法
 62
     0
100
AcDbMText
 10
1690.0
 20
1734.999999999999
 30
0.0
 40
30.0
 41
0.0
 71
     5
 72
     1
  1
100
 73
     1
 44
1.0
  0
POINT
  5
B9A1
330
B998
100
AcDbEntity
  8
Defpoints
 62
     0
100
AcDbPoint
 10
1640.0
 20
1921.999999999999
 30
0.0
  0
POINT
  5
B9A2
330
B998
100
AcDbEntity
  8
Defpoints
 62
     0
100
AcDbPoint
 10
1740.0
 20
1908.5
 30
0.0
  0
POINT
  5
B9A3
330
B998
100
AcDbEntity
  8
Defpoints
 62
     0
100
AcDbPoint
 10
1740.0
 20
1709.999999999999
 30
0.0
  0
ENDBLK
  5
B99A
330
B998
100
AcDbEntity
  8
0
100
AcDbBlockEnd
  0
BLOCK
  5
B9A5
330
B9A4
100
AcDbEntity
  8
0
100
AcDbBlockBegin
  2
*D400
 70
     1
 10
0.0
 20
0.0
 30
0.0
  3
*D400
  1

  0
LINE
  5
B9A7
330
B9A4
100
AcDbEntity
  8
01注記寸法
 62
     0
370
    -2
100
AcDbLine
 10
1755.0
 20
1910.0
 30
0.0
 11
1950.0
 21
1910.0
 31
0.0
  0
LINE
  5
B9A8
330
B9A4
100
AcDbEntity
  8
01注記寸法
 62
     0
370
    -2
100
AcDbLine
 10
1673.0
 20
1939.999999999999
 30
0.0
 11
1950.0
 21
1939.999999999999
 31
0.0
  0
LINE
  5
B9A9
330
B9A4
100
AcDbEntity
  8
01注記寸法
 62
     0
370
    -2
100
AcDbLine
 10
1940.0
 20
1910.0
 30
0.0
 11
1940.0
 21
1794.21
 31
0.0
  0
LINE
  5
B9AA
330
B9A4
100
AcDbEntity
  8
01注記寸法
 62
     0
370
    -2
100
AcDbLine
 10
1940.0
 20
1910.0
 30
0.0
 11
1940.0
 21
1939.999999999999
 31
0.0
  0
LINE
  5
B9AB
330
B9A4
100
AcDbEntity
  8
01注記寸法
 62
     0
370
    -2
100
AcDbLine
 10
1940.0
 20
1880.0
 30
0.0
 11
1940.0
 21
1850.0
 31
0.0
  0
LINE
  5
B9AC
330
B9A4
100
AcDbEntity
  8
01注記寸法
 62
     0
370
    -2
100
AcDbLine
 10
1940.0
 20
1969.999999999999
 30
0.0
 11
1940.0
 21
1999.999999999999
 31
0.0
  0
INSERT
  5
B9AD
330
B9A4
100
AcDbEntity
  8
01注記寸法
 62
     0
370
    -2
100
AcDbBlockReference
  2
_Open
 10
1940.0
 20
1910.0
 30
0.0
 41
30.0
 42
30.0
 43
30.0
 50
90.0
  0
INSERT
  5
B9AE
330
B9A4
100
AcDbEntity
  8
01注記寸法
 62
     0
370
    -2
100
AcDbBlockReference
  2
_Open
 10
1940.0
 20
1939.999999999999
 30
0.0
 41
30.0
 42
30.0
 43
30.0
 50
270.0
  0
MTEXT
  5
B9AF
330
B9A4
100
AcDbEntity
  8
01注記寸法
 62
     0
100
AcDbMText
 10
1915.0
 20
1822.105
 30
0.0
 40
30.0
 41
0.0
 71
     5
 72
     1
  1
30
 11
0.0
 21
1.0
 31
0.0
 73
     1
 44
1.0
  0
POINT
  5
B9B0
330
B9A4
100
AcDbEntity
  8
Defpoints
 62
     0
100
AcDbPoint
 10
1740.0
 20
1910.0
 30
0.0
  0
POINT
  5
B9B1
330
B9A4
100
AcDbEntity
  8
Defpoints
 62
     0
100
AcDbPoint
 10
1658.0
 20
1939.999999999999
 30
0.0
  0
POINT
  5
B9B2
330
B9A4
100
AcDbEntity
  8
Defpoints
 62
     0
100
AcDbPoint
 10
1940.0
 20
1939.999999999999
 30
0.0
  0
ENDBLK
  5
B9A6
330
B9A4
100
AcDbEntity
  8
0
100
AcDbBlockEnd
  0
BLOCK
  5
B9B4
330
B9B3
100
AcDbEntity
  8
0
100
AcDbBlockBegin
  2
*D401
 70
     1
 10
0.0
 20
0.0
 30
0.0
  3
*D401
  1

  0
LINE
  5
B9B6
330
B9B3
100
AcDbEntity
  8
01注記寸法
 62
     0
370
    -2
100
AcDbLine
 10
1673.0
 20
1939.999999999999
 30
0.0
 11
1950.0
 21
1939.999999999999
 31
0.0
  0
LINE
  5
B9B7
330
B9B3
100
AcDbEntity
  8
01注記寸法
 62
     0
370
    -2
100
AcDbLine
 10
1673.0
 20
2339.999999999999
 30
0.0
 11
1950.0
 21
2339.999999999999
 31
0.0
  0
LINE
  5
B9B8
330
B9B3
100
AcDbEntity
  8
01注記寸法
 62
     0
370
    -2
100
AcDbLine
 10
1940.0
 20
1969.999999999999
 30
0.0
 11
1940.0
 21
2309.999999999999
 31
0.0
  0
INSERT
  5
B9B9
330
B9B3
100
AcDbEntity
  8
01注記寸法
 62
     0
370
    -2
100
AcDbBlockReference
  2
_Open
 10
1940.0
 20
1939.999999999999
 30
0.0
 41
30.0
 42
30.0
 43
30.0
 50
270.0
  0
INSERT
  5
B9BA
330
B9B3
100
AcDbEntity
  8
01注記寸法
 62
     0
370
    -2
100
AcDbBlockReference
  2
_Open
 10
1940.0
 20
2339.999999999999
 30
0.0
 41
30.0
 42
30.0
 43
30.0
 50
90.0
  0
MTEXT
  5
B9BB
330
B9B3
100
AcDbEntity
  8
01注記寸法
 62
     0
100
AcDbMText
 10
1914.01
 20
2139.999999999999
 30
0.0
 40
30.0
 41
0.0
 71
     5
 72
     1
  1
※ 400
 11
0.0
 21
1.0
 31
0.0
 73
     1
 44
1.0
  0
POINT
  5
B9BC
330
B9B3
100
AcDbEntity
  8
Defpoints
 62
     0
100
AcDbPoint
 10
1658.0
 20
1939.999999999999
 30
0.0
  0
POINT
  5
B9BD
330
B9B3
100
AcDbEntity
  8
Defpoints
 62
     0
100
AcDbPoint
 10
1658.0
 20
2339.999999999999
 30
0.0
  0
POINT
  5
B9BE
330
B9B3
100
AcDbEntity
  8
Defpoints
 62
     0
100
AcDbPoint
 10
1940.0
 20
2339.999999999999
 30
0.0
  0
ENDBLK
  5
B9B5
330
B9B3
100
AcDbEntity
  8
0
100
AcDbBlockEnd
  0
BLOCK
  5
B9C0
330
B9BF
100
AcDbEntity
  8
0
100
AcDbBlockBegin
  2
*D402
 70
     1
 10
0.0
 20
0.0
 30
0.0
  3
*D402
  1

  0
LINE
  5
B9C2
330
B9BF
100
AcDbEntity
  8
01注記寸法
 62
     0
370
    -2
100
AcDbLine
 10
1673.0
 20
2339.999999999999
 30
0.0
 11
1950.0
 21
2339.999999999999
 31
0.0
  0
LINE
  5
B9C3
330
B9BF
100
AcDbEntity
  8
01注記寸法
 62
     0
370
    -2
100
AcDbLine
 10
1755.0
 20
2370.0
 30
0.0
 11
1950.0
 21
2370.0
 31
0.0
  0
LINE
  5
B9C4
330
B9BF
100
AcDbEntity
  8
01注記寸法
 62
     0
370
    -2
100
AcDbLine
 10
1940.0
 20
2400.0
 30
0.0
 11
1940.0
 21
2485.79
 31
0.0
  0
LINE
  5
B9C5
330
B9BF
100
AcDbEntity
  8
01注記寸法
 62
     0
370
    -2
100
AcDbLine
 10
1940.0
 20
2339.999999999999
 30
0.0
 11
1940.0
 21
2370.0
 31
0.0
  0
LINE
  5
B9C6
330
B9BF
100
AcDbEntity
  8
01注記寸法
 62
     0
370
    -2
100
AcDbLine
 10
1940.0
 20
2309.999999999999
 30
0.0
 11
1940.0
 21
2279.999999999999
 31
0.0
  0
INSERT
  5
B9C7
330
B9BF
100
AcDbEntity
  8
01注記寸法
 62
     0
370
    -2
100
AcDbBlockReference
  2
_Open
 10
1940.0
 20
2339.999999999999
 30
0.0
 41
30.0
 42
30.0
 43
30.0
 50
90.0
  0
INSERT
  5
B9C8
330
B9BF
100
AcDbEntity
  8
01注記寸法
 62
     0
370
    -2
100
AcDbBlockReference
  2
_Open
 10
1940.0
 20
2370.0
 30
0.0
 41
30.0
 42
30.0
 43
30.0
 50
270.0
  0
MTEXT
  5
B9C9
330
B9BF
100
AcDbEntity
  8
01注記寸法
 62
     0
100
AcDbMText
 10
1915.0
 20
2457.895
 30
0.0
 40
30.0
 41
0.0
 71
     5
 72
     1
  1
30
 11
0.0
 21
1.0
 31
0.0
 73
     1
 44
1.0
  0
POINT
  5
B9CA
330
B9BF
100
AcDbEntity
  8
Defpoints
 62
     0
100
AcDbPoint
 10
1658.0
 20
2339.999999999999
 30
0.0
  0
POINT
  5
B9CB
330
B9BF
100
AcDbEntity
  8
Defpoints
 62
     0
100
AcDbPoint
 10
1740.0
 20
2370.0
 30
0.0
  0
POINT
  5
B9CC
330
B9BF
100
AcDbEntity
  8
Defpoints
 62
     0
100
AcDbPoint
 10
1940.0
 20
2370.0
 30
0.0
  0
ENDBLK
  5
B9C1
330
B9BF
100
AcDbEntity
  8
0
100
AcDbBlockEnd
  0
BLOCK
  5
B9CE
330
B9CD
100
AcDbEntity
  8
0
100
AcDbBlockBegin
  2
*D403
 70
     1
 10
0.0
 20
0.0
 30
0.0
  3
*D403
  1

  0
LINE
  5
B9D0
330
B9CD
100
AcDbEntity
  8
01注記寸法
 62
     0
370
    -2
100
AcDbLine
 10
900.0
 20
2102.114951588723
 30
0.0
 11
900.0
 21
2097.114951588723
 31
0.0
  0
LINE
  5
B9D1
330
B9CD
100
AcDbEntity
  8
01注記寸法
 62
     0
370
    -2
100
AcDbLine
 10
1000.0
 20
2102.114951588723
 30
0.0
 11
1000.0
 21
2097.114951588723
 31
0.0
  0
LINE
  5
B9D2
330
B9CD
100
AcDbEntity
  8
01注記寸法
 62
     0
370
    -2
100
AcDbLine
 10
930.0
 20
2087.114951588723
 30
0.0
 11
970.0
 21
2087.114951588723
 31
0.0
  0
INSERT
  5
B9D3
330
B9CD
100
AcDbEntity
  8
01注記寸法
 62
     0
370
    -2
100
AcDbBlockReference
  2
_Open
 10
900.0
 20
2087.114951588723
 30
0.0
 41
30.0
 42
30.0
 43
30.0
 50
180.0
  0
INSERT
  5
B9D4
330
B9CD
100
AcDbEntity
  8
01注記寸法
 62
     0
370
    -2
100
AcDbBlockReference
  2
_Open
 10
1000.0
 20
2087.114951588723
 30
0.0
 41
30.0
 42
30.0
 43
30.0
  0
MTEXT
  5
B9D5
330
B9CD
100
AcDbEntity
  8
01注記寸法
 62
     0
100
AcDbMText
 10
950.0
 20
2112.114951588723
 30
0.0
 40
30.0
 41
0.0
 71
     5
 72
     1
  1
100
 73
     1
 44
1.0
  0
POINT
  5
B9D6
330
B9CD
100
AcDbEntity
  8
Defpoints
 62
     0
100
AcDbPoint
 10
900.0
 20
2087.114951588723
 30
0.0
  0
POINT
  5
B9D7
330
B9CD
100
AcDbEntity
  8
Defpoints
 62
     0
100
AcDbPoint
 10
1000.0
 20
2087.114951588723
 30
0.0
  0
POINT
  5
B9D8
330
B9CD
100
AcDbEntity
  8
Defpoints
 62
     0
100
AcDbPoint
 10
1000.0
 20
2087.114951588723
 30
0.0
  0
ENDBLK
  5
B9CF
330
B9CD
100
AcDbEntity
  8
0
100
AcDbBlockEnd
  0
BLOCK
  5
B9DA
330
B9D9
100
AcDbEntity
  8
0
100
AcDbBlockBegin
  2
*D404
 70
     1
 10
0.0
 20
0.0
 30
0.0
  3
*D404
  1

  0
LINE
  5
B9DC
330
B9D9
100
AcDbEntity
  8
01注記寸法
 62
     0
370
    -2
100
AcDbLine
 10
1500.0
 20
2102.114951588723
 30
0.0
 11
1500.0
 21
2097.114951588723
 31
0.0
  0
LINE
  5
B9DD
330
B9D9
100
AcDbEntity
  8
01注記寸法
 62
     0
370
    -2
100
AcDbLine
 10
1600.0
 20
2102.114951588723
 30
0.0
 11
1600.0
 21
2097.114951588723
 31
0.0
  0
LINE
  5
B9DE
330
B9D9
100
AcDbEntity
  8
01注記寸法
 62
     0
370
    -2
100
AcDbLine
 10
1530.0
 20
2087.114951588723
 30
0.0
 11
1570.0
 21
2087.114951588723
 31
0.0
  0
INSERT
  5
B9DF
330
B9D9
100
AcDbEntity
  8
01注記寸法
 62
     0
370
    -2
100
AcDbBlockReference
  2
_Open
 10
1500.0
 20
2087.114951588723
 30
0.0
 41
30.0
 42
30.0
 43
30.0
 50
180.0
  0
INSERT
  5
B9E0
330
B9D9
100
AcDbEntity
  8
01注記寸法
 62
     0
370
    -2
100
AcDbBlockReference
  2
_Open
 10
1600.0
 20
2087.114951588723
 30
0.0
 41
30.0
 42
30.0
 43
30.0
  0
MTEXT
  5
B9E1
330
B9D9
100
AcDbEntity
  8
01注記寸法
 62
     0
100
AcDbMText
 10
1550.0
 20
2112.114951588723
 30
0.0
 40
30.0
 41
0.0
 71
     5
 72
     1
  1
100
 73
     1
 44
1.0
  0
POINT
  5
B9E2
330
B9D9
100
AcDbEntity
  8
Defpoints
 62
     0
100
AcDbPoint
 10
1500.0
 20
2087.114951588723
 30
0.0
  0
POINT
  5
B9E3
330
B9D9
100
AcDbEntity
  8
Defpoints
 62
     0
100
AcDbPoint
 10
1600.0
 20
2087.114951588723
 30
0.0
  0
POINT
  5
B9E4
330
B9D9
100
AcDbEntity
  8
Defpoints
 62
     0
100
AcDbPoint
 10
1600.0
 20
2087.114951588723
 30
0.0
  0
ENDBLK
  5
B9DB
330
B9D9
100
AcDbEntity
  8
0
100
AcDbBlockEnd
  0
ENDSEC
  0
SECTION
  2
ENTITIES
  0
LWPOLYLINE
  5
7E6F
330
1F
100
AcDbEntity
  8
08非表示
  6
PHANTOM
100
AcDbPolyline
 90
        4
 70
     1
 43
0.0
 10
0.0
 20
0.0
 10
0.0
 20
2970.0
 10
4200.0
 20
2970.0
 10
4200.0
 20
0.0
  0
LWPOLYLINE
  5
7E74
330
1F
100
AcDbEntity
  8
09図枠
100
AcDbPolyline
 90
        4
 70
     1
 43
0.0
 10
100.0
 20
100.0
 10
100.0
 20
2870.0
 10
4100.0
 20
2870.0
 10
4100.0
 20
100.0
  0
LWPOLYLINE
  5
7E7B
330
1F
100
AcDbEntity
  8
09図枠
100
AcDbPolyline
 90
        4
 70
     1
 43
0.0
 10
3300.0
 20
2710.0
 10
3300.0
 20
2870.0
 10
4100.0
 20
2870.0
 10
4100.0
 20
2710.0
  0
TEXT
  5
7E7E
330
1F
100
AcDbEntity
  8
01注記寸法
100
AcDbText
 10
2409.999751016778
 20
2809.999765708526
 30
0.0
 40
40.0
  1
機器本体・防振架台取付共用仕様
 72
     1
 11
2799.999751016778
 21
2829.999765708526
 31
0.0
100
AcDbText
 73
     2
  0
LWPOLYLINE
  5
7E7F
330
1F
100
AcDbEntity
  8
09図枠
100
AcDbPolyline
 90
        4
 70
     1
 43
0.0
 10
2300.0
 20
2790.0
 10
2300.0
 20
2870.0
 10
3300.0
 20
2870.0
 10
3300.0
 20
2790.0
  0
LWPOLYLINE
  5
7EA4
330
1F
100
AcDbEntity
  8
09図枠
100
AcDbPolyline
 90
        4
 70
     1
 43
0.0
 10
3460.0
 20
100.0
 10
3460.0
 20
180.0
 10
4100.0
 20
180.0
 10
4100.0
 20
100.0
  0
LWPOLYLINE
  5
7EA5
330
1F
100
AcDbEntity
  8
09図枠
100
AcDbPolyline
 90
        4
 70
     1
 43
0.0
 10
3300.0
 20
100.0
 10
3300.0
 20
180.0
 10
3460.0
 20
180.0
 10
3460.0
 20
100.0
  0
TEXT
  5
7EA6
330
1F
100
AcDbEntity
  8
01注記寸法
100
AcDbText
 10
3328.0
 20
120.0
 30
0.0
 40
40.0
  1
図番
 72
     1
 11
3380.0
 21
140.0
 31
0.0
100
AcDbText
 73
     2
  0
TEXT
  5
7EA7
330
1F
100
AcDbEntity
  8
01注記寸法
100
AcDbText
 10
3475.8
 20
120.0
 30
0.0
 40
40.0
  1
３－ＨＴＲ１１３＃Ｂ１－５
 41
0.9
 72
     1
 11
3780.0
 21
140.0
 31
0.0
100
AcDbText
 73
     2
  0
LWPOLYLINE
  5
7EB6
330
1F
100
AcDbEntity
  8
09図枠
100
AcDbPolyline
 90
        4
 70
     1
 43
0.0
 10
3300.0
 20
180.0
 10
3300.0
 20
280.0
 10
4100.0
 20
280.0
 10
4100.0
 20
180.0
  0
LWPOLYLINE
  5
7EB9
330
1F
100
AcDbEntity
  8
09図枠
100
AcDbPolyline
 90
        4
 70
     1
 43
0.0
 10
3300.0
 20
280.0
 10
3300.0
 20
420.0
 10
4100.0
 20
420.0
 10
4100.0
 20
280.0
  0
LINE
  5
7EBA
330
1F
100
AcDbEntity
  8
01注記寸法
100
AcDbLine
 10
3560.0
 20
280.0
 30
0.0
 11
3560.0
 21
420.0
 31
0.0
  0
LINE
  5
7EBB
330
1F
100
AcDbEntity
  8
01注記寸法
100
AcDbLine
 10
3740.0
 20
280.0
 30
0.0
 11
3740.0
 21
420.0
 31
0.0
  0
LINE
  5
7EBC
330
1F
100
AcDbEntity
  8
01注記寸法
100
AcDbLine
 10
3920.0
 20
280.0
 30
0.0
 11
3920.0
 21
420.0
 31
0.0
  0
LINE
  5
7EBD
330
1F
100
AcDbEntity
  8
01注記寸法
100
AcDbLine
 10
4100.0
 20
360.0
 30
0.0
 11
3300.0
 21
360.0
 31
0.0
  0
TEXT
  5
7EBE
330
1F
100
AcDbEntity
  8
01注記寸法
100
AcDbText
 10
3371.5
 20
375.0
 30
0.0
 40
30.0
  1
承認日
 72
     1
 11
3430.0
 21
390.0
 31
0.0
100
AcDbText
 73
     2
  0
TEXT
  5
7EBF
330
1F
100
AcDbEntity
  8
01注記寸法
100
AcDbText
 10
3611.0
 20
375.0
 30
0.0
 40
30.0
  1
承認
 72
     1
 11
3650.0
 21
390.0
 31
0.0
100
AcDbText
 73
     2
  0
TEXT
  5
7EC0
330
1F
100
AcDbEntity
  8
01注記寸法
100
AcDbText
 10
3791.0
 20
375.0
 30
0.0
 40
30.0
  1
設計
 72
     1
 11
3830.0
 21
390.0
 31
0.0
100
AcDbText
 73
     2
  0
TEXT
  5
7EC1
330
1F
100
AcDbEntity
  8
01注記寸法
100
AcDbText
 10
3971.0
 20
375.0
 30
0.0
 40
30.0
  1
作図
 72
     1
 11
4010.0
 21
390.0
 31
0.0
100
AcDbText
 73
     2
  0
TEXT
  5
7EC2
330
1F
100
AcDbEntity
  8
01注記寸法
100
AcDbText
 10
3342.25
 20
305.0
 30
0.0
 40
30.0
  1
'15.03.18
 72
     1
 11
3430.0
 21
320.0
 31
0.0
100
AcDbText
 73
     2
  0
TEXT
  5
7EC3
330
1F
100
AcDbEntity
  8
01注記寸法
100
AcDbText
 10
3611.0
 20
305.0
 30
0.0
 40
30.0
  1
澤山
 72
     1
 11
3650.0
 21
320.0
 31
0.0
100
AcDbText
 73
     2
  0
TEXT
  5
7EC4
330
1F
100
AcDbEntity
  8
01注記寸法
100
AcDbText
 10
3791.0
 20
305.0
 30
0.0
 40
30.0
  1
内野
 72
     1
 11
3830.0
 21
320.0
 31
0.0
100
AcDbText
 73
     2
  0
TEXT
  5
7EC5
330
1F
100
AcDbEntity
  8
01注記寸法
100
AcDbText
 10
3971.0
 20
305.0
 30
0.0
 40
30.0
  1
内野
 72
     1
 11
4010.0
 21
320.0
 31
0.0
100
AcDbText
 73
     2
  0
LWPOLYLINE
  5
7EC6
330
1F
100
AcDbEntity
  8
01注記寸法
100
AcDbPolyline
 90
        4
 70
     1
 43
0.0
 10
3300.0
 20
720.0
 10
3300.0
 20
780.0
 10
3400.0
 20
780.0
 10
3400.0
 20
720.0
  0
LWPOLYLINE
  5
7EC7
330
1F
100
AcDbEntity
  8
01注記寸法
100
AcDbPolyline
 90
        4
 70
     1
 43
0.0
 10
4250.0
 20
720.0
 10
4250.0
 20
780.0
 10
4350.0
 20
780.0
 10
4350.0
 20
720.0
  0
LWPOLYLINE
  5
7EC8
330
1F
100
AcDbEntity
  8
01注記寸法
100
AcDbPolyline
 90
        4
 70
     1
 43
0.0
 10
3400.0
 20
720.0
 10
3400.0
 20
780.0
 10
3600.0
 20
780.0
 10
3600.0
 20
720.0
  0
LWPOLYLINE
  5
7EC9
330
1F
100
AcDbEntity
  8
01注記寸法
100
AcDbPolyline
 90
        4
 70
     1
 43
0.0
 10
3600.0
 20
720.0
 10
3600.0
 20
780.0
 10
4100.0
 20
780.0
 10
4100.0
 20
720.0
  0
TEXT
  5
7ECA
330
1F
100
AcDbEntity
  8
01注記寸法
100
AcDbText
 10
3311.0
 20
735.0
 30
0.0
 40
30.0
  1
番号
 72
     1
 11
3350.0
 21
750.0
 31
0.0
100
AcDbText
 73
     2
  0
TEXT
  5
7ECB
330
1F
100
AcDbEntity
  8
01注記寸法
100
AcDbText
 10
4261.0
 20
735.0
 30
0.0
 40
30.0
  1
担当
 72
     1
 11
4300.0
 21
750.0
 31
0.0
100
AcDbText
 73
     2
  0
TEXT
  5
7ECC
330
1F
100
AcDbEntity
  8
01注記寸法
100
AcDbText
 10
3461.0
 20
735.0
 30
0.0
 40
30.0
  1
日付
 72
     1
 11
3500.0
 21
750.0
 31
0.0
100
AcDbText
 73
     2
  0
TEXT
  5
7ECD
330
1F
100
AcDbEntity
  8
01注記寸法
100
AcDbText
 10
3772.0
 20
735.0
 30
0.0
 40
30.0
  1
改訂記事
 72
     1
 11
3850.0
 21
750.0
 31
0.0
100
AcDbText
 73
     2
  0
LWPOLYLINE
  5
7EDB
330
1F
100
AcDbEntity
  8
09図枠
100
AcDbPolyline
 90
        4
 70
     1
 43
0.0
 10
3300.0
 20
420.0
 10
3300.0
 20
780.0
 10
4100.0
 20
780.0
 10
4100.0
 20
420.0
  0
LWPOLYLINE
  5
7EDC
330
1F
100
AcDbEntity
  8
01注記寸法
100
AcDbPolyline
 90
        4
 70
     1
 43
0.0
 10
3300.0
 20
600.0
 10
3300.0
 20
660.0
 10
3400.0
 20
660.0
 10
3400.0
 20
600.0
  0
LWPOLYLINE
  5
7EDD
330
1F
100
AcDbEntity
  8
01注記寸法
100
AcDbPolyline
 90
        4
 70
     1
 43
0.0
 10
4250.0
 20
600.0
 10
4250.0
 20
660.0
 10
4350.0
 20
660.0
 10
4350.0
 20
600.0
  0
LWPOLYLINE
  5
7EDE
330
1F
100
AcDbEntity
  8
01注記寸法
100
AcDbPolyline
 90
        4
 70
     1
 43
0.0
 10
3400.0
 20
600.0
 10
3400.0
 20
660.0
 10
3600.0
 20
660.0
 10
3600.0
 20
600.0
  0
LWPOLYLINE
  5
7EDF
330
1F
100
AcDbEntity
  8
01注記寸法
100
AcDbPolyline
 90
        4
 70
     1
 43
0.0
 10
3600.0
 20
600.0
 10
3600.0
 20
660.0
 10
4100.0
 20
660.0
 10
4100.0
 20
600.0
  0
TEXT
  5
7EE0
330
1F
100
AcDbEntity
  8
01注記寸法
100
AcDbText
 10
4261.0
 20
615.0
 30
0.0
 40
30.0
  1
小西
 72
     1
 11
4300.0
 21
630.0
 31
0.0
100
AcDbText
 73
     2
  0
TEXT
  5
7EE2
330
1F
100
AcDbEntity
  8
01注記寸法
100
AcDbText
 10
3645.25
 20
615.000075415428
 30
0.0
 40
30.0
  1
型式/適用防振架台追記
 72
     1
 11
3850.0
 21
630.000075415428
 31
0.0
100
AcDbText
 73
     2
  0
TEXT
  5
7EE3
330
1F
100
AcDbEntity
  8
01注記寸法
100
AcDbText
 10
3340.25
 20
608.1370000000003
 30
0.0
 40
30.0
  1
2
 72
     4
 11
3350.0
 21
623.2870000000003
 31
0.0
100
AcDbText
  0
LWPOLYLINE
  5
7EE7
330
1F
100
AcDbEntity
  8
01注記寸法
100
AcDbPolyline
 90
        4
 70
     1
 43
0.0
 10
3300.0
 20
540.0
 10
3300.0
 20
600.0
 10
3400.0
 20
600.0
 10
3400.0
 20
540.0
  0
LWPOLYLINE
  5
7EE8
330
1F
100
AcDbEntity
  8
01注記寸法
100
AcDbPolyline
 90
        4
 70
     1
 43
0.0
 10
4250.0
 20
540.0
 10
4250.0
 20
600.0
 10
4350.0
 20
600.0
 10
4350.0
 20
540.0
  0
LWPOLYLINE
  5
7EE9
330
1F
100
AcDbEntity
  8
01注記寸法
100
AcDbPolyline
 90
        4
 70
     1
 43
0.0
 10
3400.0
 20
540.0
 10
3400.0
 20
600.0
 10
3600.0
 20
600.0
 10
3600.0
 20
540.0
  0
LWPOLYLINE
  5
7EEA
330
1F
100
AcDbEntity
  8
01注記寸法
100
AcDbPolyline
 90
        4
 70
     1
 43
0.0
 10
3600.0
 20
540.0
 10
3600.0
 20
600.0
 10
4100.0
 20
600.0
 10
4100.0
 20
540.0
  0
TEXT
  5
7EEB
330
1F
100
AcDbEntity
  8
01注記寸法
100
AcDbText
 10
4261.0
 20
555.0
 30
0.0
 40
30.0
  1
担当
 72
     1
 11
4300.0
 21
570.0
 31
0.0
100
AcDbText
 73
     2
  0
TEXT
  5
7EED
330
1F
100
AcDbEntity
  8
08非表示
100
AcDbText
 10
3801.25
 20
555.000075415428
 30
0.0
 40
30.0
  1
*****
 72
     1
 11
3850.0
 21
570.000075415428
 31
0.0
100
AcDbText
 73
     2
  0
TEXT
  5
7EEE
330
1F
100
AcDbEntity
  8
08非表示
100
AcDbText
 10
3340.25
 20
548.1370000000003
 30
0.0
 40
30.0
  1
3
 72
     4
 11
3350.0
 21
563.2870000000003
 31
0.0
100
AcDbText
  0
LWPOLYLINE
  5
7EF2
330
1F
100
AcDbEntity
  8
01注記寸法
100
AcDbPolyline
 90
        4
 70
     1
 43
0.0
 10
3300.0
 20
480.0
 10
3300.0
 20
540.0
 10
3400.0
 20
540.0
 10
3400.0
 20
480.0
  0
LWPOLYLINE
  5
7EF3
330
1F
100
AcDbEntity
  8
01注記寸法
100
AcDbPolyline
 90
        4
 70
     1
 43
0.0
 10
4250.0
 20
480.0
 10
4250.0
 20
540.0
 10
4350.0
 20
540.0
 10
4350.0
 20
480.0
  0
LWPOLYLINE
  5
7EF4
330
1F
100
AcDbEntity
  8
01注記寸法
100
AcDbPolyline
 90
        4
 70
     1
 43
0.0
 10
3400.0
 20
480.0
 10
3400.0
 20
540.0
 10
3600.0
 20
540.0
 10
3600.0
 20
480.0
  0
LWPOLYLINE
  5
7EF5
330
1F
100
AcDbEntity
  8
01注記寸法
100
AcDbPolyline
 90
        4
 70
     1
 43
0.0
 10
3600.0
 20
480.0
 10
3600.0
 20
540.0
 10
4100.0
 20
540.0
 10
4100.0
 20
480.0
  0
TEXT
  5
7EF6
330
1F
100
AcDbEntity
  8
01注記寸法
100
AcDbText
 10
4261.0
 20
495.0
 30
0.0
 40
30.0
  1
担当
 72
     1
 11
4300.0
 21
510.0
 31
0.0
100
AcDbText
 73
     2
  0
TEXT
  5
7EF8
330
1F
100
AcDbEntity
  8
08非表示
100
AcDbText
 10
3801.25
 20
495.000075415428
 30
0.0
 40
30.0
  1
*****
 72
     1
 11
3850.0
 21
510.000075415428
 31
0.0
100
AcDbText
 73
     2
  0
TEXT
  5
7EF9
330
1F
100
AcDbEntity
  8
08非表示
100
AcDbText
 10
3340.25
 20
488.1370000000003
 30
0.0
 40
30.0
  1
4
 72
     4
 11
3350.0
 21
503.2870000000003
 31
0.0
100
AcDbText
  0
LWPOLYLINE
  5
7EFD
330
1F
100
AcDbEntity
  8
01注記寸法
100
AcDbPolyline
 90
        4
 70
     1
 43
0.0
 10
3300.0
 20
420.0
 10
3300.0
 20
480.0
 10
3400.0
 20
480.0
 10
3400.0
 20
420.0
  0
LWPOLYLINE
  5
7EFE
330
1F
100
AcDbEntity
  8
01注記寸法
100
AcDbPolyline
 90
        4
 70
     1
 43
0.0
 10
4250.0
 20
420.0
 10
4250.0
 20
480.0
 10
4350.0
 20
480.0
 10
4350.0
 20
420.0
  0
LWPOLYLINE
  5
7EFF
330
1F
100
AcDbEntity
  8
01注記寸法
100
AcDbPolyline
 90
        4
 70
     1
 43
0.0
 10
3400.0
 20
420.0
 10
3400.0
 20
480.0
 10
3600.0
 20
480.0
 10
3600.0
 20
420.0
  0
LWPOLYLINE
  5
7F00
330
1F
100
AcDbEntity
  8
01注記寸法
100
AcDbPolyline
 90
        4
 70
     1
 43
0.0
 10
3600.0
 20
420.0
 10
3600.0
 20
480.0
 10
4100.0
 20
480.0
 10
4100.0
 20
420.0
  0
TEXT
  5
7F01
330
1F
100
AcDbEntity
  8
01注記寸法
100
AcDbText
 10
4261.0
 20
435.0
 30
0.0
 40
30.0
  1
担当
 72
     1
 11
4300.0
 21
450.0
 31
0.0
100
AcDbText
 73
     2
  0
TEXT
  5
7F03
330
1F
100
AcDbEntity
  8
08非表示
100
AcDbText
 10
3801.25
 20
435.000075415428
 30
0.0
 40
30.0
  1
*****
 72
     1
 11
3850.0
 21
450.000075415428
 31
0.0
100
AcDbText
 73
     2
  0
TEXT
  5
7F04
330
1F
100
AcDbEntity
  8
08非表示
100
AcDbText
 10
3340.25
 20
428.1370000000003
 30
0.0
 40
30.0
  1
5
 72
     4
 11
3350.0
 21
443.2870000000003
 31
0.0
100
AcDbText
  0
LWPOLYLINE
  5
7F4E
330
1F
100
AcDbEntity
  8
01注記寸法
100
AcDbPolyline
 90
        4
 70
     1
 43
0.0
 10
3900.0
 20
-110.0
 10
3900.0
 20
-50.0
 10
4000.0
 20
-50.0
 10
4000.0
 20
-110.0
  0
LWPOLYLINE
  5
7F4F
330
1F
100
AcDbEntity
  8
01注記寸法
100
AcDbPolyline
 90
        4
 70
     1
 43
0.0
 10
3200.0
 20
-110.0
 10
3200.0
 20
-50.0
 10
3400.0
 20
-50.0
 10
3400.0
 20
-110.0
  0
LWPOLYLINE
  5
7F50
330
1F
100
AcDbEntity
  8
01注記寸法
100
AcDbPolyline
 90
        4
 70
     1
 43
0.0
 10
3400.0
 20
-110.0
 10
3400.0
 20
-50.0
 10
3900.0
 20
-50.0
 10
3900.0
 20
-110.0
  0
TEXT
  5
7F51
330
1F
100
AcDbEntity
  8
01注記寸法
100
AcDbText
 10
3911.0
 20
-95.0
 30
0.0
 40
30.0
  1
担当
 72
     1
 11
3950.0
 21
-80.0
 31
0.0
100
AcDbText
 73
     2
  0
TEXT
  5
7F52
330
1F
100
AcDbEntity
  8
01注記寸法
100
AcDbText
 10
3261.0
 20
-95.0
 30
0.0
 40
30.0
  1
日付
 72
     1
 11
3300.0
 21
-80.0
 31
0.0
100
AcDbText
 73
     2
  0
TEXT
  5
7F53
330
1F
100
AcDbEntity
  8
01注記寸法
100
AcDbText
 10
3474.5
 20
-95.0
 30
0.0
 40
30.0
  1
社内都合による改訂
 72
     1
 11
3650.0
 21
-80.0
 31
0.0
100
AcDbText
 73
     2
  0
LWPOLYLINE
  5
7F54
330
1F
100
AcDbEntity
  8
01注記寸法
100
AcDbPolyline
 90
        4
 70
     1
 43
0.0
 10
3900.0
 20
-170.0
 10
3900.0
 20
-110.0
 10
4000.0
 20
-110.0
 10
4000.0
 20
-170.0
  0
LWPOLYLINE
  5
7F55
330
1F
100
AcDbEntity
  8
01注記寸法
100
AcDbPolyline
 90
        4
 70
     1
 43
0.0
 10
3200.0
 20
-170.0
 10
3200.0
 20
-110.0
 10
3400.0
 20
-110.0
 10
3400.0
 20
-170.0
  0
LWPOLYLINE
  5
7F56
330
1F
100
AcDbEntity
  8
01注記寸法
100
AcDbPolyline
 90
        4
 70
     1
 43
0.0
 10
3400.0
 20
-170.0
 10
3400.0
 20
-110.0
 10
3900.0
 20
-110.0
 10
3900.0
 20
-170.0
  0
TEXT
  5
7F57
330
1F
100
AcDbEntity
  8
01注記寸法
100
AcDbText
 10
3911.0
 20
-155.0
 30
0.0
 40
30.0
  1
内野
 72
     1
 11
3950.0
 21
-140.0
 31
0.0
100
AcDbText
 73
     2
  0
TEXT
  5
7F58
330
1F
100
AcDbEntity
  8
01注記寸法
100
AcDbText
 10
3212.25
 20
-154.9998953774398
 30
0.0
 40
30.0
  1
'16.03.08
 72
     1
 11
3300.0
 21
-139.9998953774398
 31
0.0
100
AcDbText
 73
     2
  0
TEXT
  5
7F59
330
1F
100
AcDbEntity
  8
01注記寸法
100
AcDbText
 10
3494.0
 20
-154.999924584572
 30
0.0
 40
30.0
  1
適用防振架台更新
 72
     1
 11
3650.0
 21
-139.999924584572
 31
0.0
100
AcDbText
 73
     2
  0
LWPOLYLINE
  5
7F8D
330
1F
100
AcDbEntity
  8
01注記寸法
100
AcDbPolyline
 90
        4
 70
     1
 43
0.0
 10
4350.0
 20
720.0
 10
4350.0
 20
780.0
 10
4550.0
 20
780.0
 10
4550.0
 20
720.0
  0
TEXT
  5
7F8E
330
1F
100
AcDbEntity
  8
01注記寸法
100
AcDbText
 10
4391.5
 20
735.000328543565
 30
0.0
 40
30.0
  1
依頼書
 72
     1
 11
4450.0
 21
750.000328543565
 31
0.0
100
AcDbText
 73
     2
  0
TEXT
  5
7F91
330
1F
100
AcDbEntity
  8
01注記寸法
100
AcDbText
 10
4372.0
 20
615.000075415428
 30
0.0
 40
30.0
  1
T1905159
 72
     1
 11
4450.0
 21
630.000075415428
 31
0.0
100
AcDbText
 73
     2
  0
LWPOLYLINE
  5
7F92
330
1F
100
AcDbEntity
  8
01注記寸法
100
AcDbPolyline
 90
        4
 70
     1
 43
0.0
 10
4350.0
 20
600.0
 10
4350.0
 20
660.0
 10
4550.0
 20
660.0
 10
4550.0
 20
600.0
  0
TEXT
  5
7F93
330
1F
100
AcDbEntity
  8
01注記寸法
100
AcDbText
 10
4391.5
 20
555.000075415428
 30
0.0
 40
30.0
  1
******
 72
     1
 11
4450.0
 21
570.000075415428
 31
0.0
100
AcDbText
 73
     2
  0
LWPOLYLINE
  5
7F94
330
1F
100
AcDbEntity
  8
01注記寸法
100
AcDbPolyline
 90
        4
 70
     1
 43
0.0
 10
4350.0
 20
540.0
 10
4350.0
 20
600.0
 10
4550.0
 20
600.0
 10
4550.0
 20
540.0
  0
TEXT
  5
7F95
330
1F
100
AcDbEntity
  8
01注記寸法
100
AcDbText
 10
4391.5
 20
495.000075415428
 30
0.0
 40
30.0
  1
******
 72
     1
 11
4450.0
 21
510.000075415428
 31
0.0
100
AcDbText
 73
     2
  0
LWPOLYLINE
  5
7F96
330
1F
100
AcDbEntity
  8
01注記寸法
100
AcDbPolyline
 90
        4
 70
     1
 43
0.0
 10
4350.0
 20
480.0
 10
4350.0
 20
540.0
 10
4550.0
 20
540.0
 10
4550.0
 20
480.0
  0
TEXT
  5
7F97
330
1F
100
AcDbEntity
  8
01注記寸法
100
AcDbText
 10
4391.5
 20
435.000075415428
 30
0.0
 40
30.0
  1
******
 72
     1
 11
4450.0
 21
450.000075415428
 31
0.0
100
AcDbText
 73
     2
  0
LWPOLYLINE
  5
7F98
330
1F
100
AcDbEntity
  8
01注記寸法
100
AcDbPolyline
 90
        4
 70
     1
 43
0.0
 10
4350.0
 20
420.0
 10
4350.0
 20
480.0
 10
4550.0
 20
480.0
 10
4550.0
 20
420.0
  0
TEXT
  5
7FC9
330
1F
100
AcDbEntity
  8
01注記寸法
100
AcDbText
 10
130.0
 20
55.0
 30
0.0
 40
30.0
  1
A3
 11
130.0
 21
70.0
 31
0.0
100
AcDbText
 73
     2
  0
TEXT
  5
7FCA
330
1F
100
AcDbEntity
  8
01注記寸法
100
AcDbText
 10
230.0
 20
55.0
 30
0.0
 40
30.0
  1
SCALE=
 11
230.0
 21
70.0
 31
0.0
100
AcDbText
 73
     2
  0
TEXT
  5
7FCB
330
1F
100
AcDbEntity
  8
01注記寸法
100
AcDbText
 10
360.0
 20
55.0
 30
0.0
 40
30.0
  1
1:10
 11
360.0
 21
70.0
 31
0.0
100
AcDbText
 73
     2
  0
LWPOLYLINE
  5
807F
330
1F
100
AcDbEntity
  8
01注記寸法
100
AcDbPolyline
 90
        4
 70
     1
 43
0.0
 10
4000.0
 20
-110.0
 10
4000.0
 20
-50.0
 10
4200.0
 20
-50.0
 10
4200.0
 20
-110.0
  0
TEXT
  5
8080
330
1F
100
AcDbEntity
  8
01注記寸法
100
AcDbText
 10
4041.5
 20
-94.99967145643495
 30
0.0
 40
30.0
  1
依頼書
 72
     1
 11
4100.0
 21
-79.99967145643495
 31
0.0
100
AcDbText
 73
     2
  0
LWPOLYLINE
  5
8081
330
1F
100
AcDbEntity
  8
01注記寸法
100
AcDbPolyline
 90
        4
 70
     1
 43
0.0
 10
4000.0
 20
-170.0
 10
4000.0
 20
-110.0
 10
4200.0
 20
-110.0
 10
4200.0
 20
-170.0
  0
TEXT
  5
8082
330
1F
100
AcDbEntity
  8
01注記寸法
100
AcDbText
 10
4041.5
 20
-154.999671456435
 30
0.0
 40
30.0
  1
017853
 72
     1
 11
4100.0
 21
-139.999671456435
 31
0.0
100
AcDbText
 73
     2
  0
LINE
  5
86AF
330
1F
100
AcDbEntity
  8
08非表示
100
AcDbLine
 10
4250.0
 20
690.0
 30
0.0
 11
4100.0
 21
690.0
 31
0.0
  0
LINE
  5
86B0
330
1F
100
AcDbEntity
  8
08非表示
100
AcDbLine
 10
4250.0
 20
630.0
 30
0.0
 11
4100.0
 21
630.0
 31
0.0
  0
LINE
  5
86B1
330
1F
100
AcDbEntity
  8
08非表示
100
AcDbLine
 10
4250.0
 20
570.0
 30
0.0
 11
4100.0
 21
570.0
 31
0.0
  0
LINE
  5
86B2
330
1F
100
AcDbEntity
  8
08非表示
100
AcDbLine
 10
4250.0
 20
510.0
 30
0.0
 11
4100.0
 21
510.0
 31
0.0
  0
LINE
  5
86B3
330
1F
100
AcDbEntity
  8
08非表示
100
AcDbLine
 10
4250.0
 20
450.0
 30
0.0
 11
4100.0
 21
450.0
 31
0.0
  0
TEXT
  5
86B4
330
1F
100
AcDbEntity
  8
01注記寸法
100
AcDbText
 10
3412.25
 20
615.0001
 30
0.0
 40
30.0
  1
'19.05.15
 72
     1
 11
3500.0
 21
630.0001
 31
0.0
100
AcDbText
 73
     2
  0
TEXT
  5
86B5
330
1F
100
AcDbEntity
  8
08非表示
100
AcDbText
 10
3412.25
 20
555.0001
 30
0.0
 40
30.0
  1
'16.**.**
 72
     1
 11
3500.0
 21
570.0001
 31
0.0
100
AcDbText
 73
     2
  0
TEXT
  5
86B6
330
1F
100
AcDbEntity
  8
08非表示
100
AcDbText
 10
3412.25
 20
495.0001
 30
0.0
 40
30.0
  1
'16.**.**
 72
     1
 11
3500.0
 21
510.0001
 31
0.0
100
AcDbText
 73
     2
  0
TEXT
  5
86B7
330
1F
100
AcDbEntity
  8
08非表示
100
AcDbText
 10
3412.25
 20
435.0001
 30
0.0
 40
30.0
  1
'16.**.**
 72
     1
 11
3500.0
 21
450.0001
 31
0.0
100
AcDbText
 73
     2
  0
LINE
  5
86BD
330
1F
100
AcDbEntity
  8
09図枠
100
AcDbLine
 10
3300.0
 20
1000.0
 30
0.0
 11
100.0
 21
1000.0
 31
0.0
  0
LWPOLYLINE
  5
86F1
330
1F
100
AcDbEntity
  8
01注記寸法
100
AcDbPolyline
 90
        4
 70
     1
 43
0.0
 10
0.0
 20
-110.0
 10
0.0
 20
-50.0
 10
500.0
 20
-50.0
 10
500.0
 20
-110.0
  0
TEXT
  5
86F2
330
1F
100
AcDbEntity
  8
01注記寸法
100
AcDbText
 10
172.0
 20
-95.0
 30
0.0
 40
30.0
  1
適用機種
 72
     1
 11
250.0
 21
-80.0
 31
0.0
100
AcDbText
 73
     2
  0
TEXT
  5
885B
330
1F
100
AcDbEntity
  8
01注記寸法
100
AcDbText
 10
3407.5
 20
2765.0
 30
0.0
 40
50.0
  1
高置ＢＨ架台仕様書
 72
     1
 11
3700.0
 21
2790.0
 31
0.0
100
AcDbText
 73
     2
  0
LWPOLYLINE
  5
8C2C
330
1F
100
AcDbEntity
  8
01注記寸法
100
AcDbPolyline
 90
        4
 70
     1
 43
0.0
 10
4250.0
 20
290.0
 10
4250.0
 20
350.0
 10
4350.0
 20
350.0
 10
4350.0
 20
290.0
  0
TEXT
  5
8C2E
330
1F
100
AcDbEntity
  8
01注記寸法
100
AcDbText
 10
4391.5
 20
305.000075415428
 30
0.0
 40
30.0
  1
012049
 72
     1
 11
4450.0
 21
320.000075415428
 31
0.0
100
AcDbText
 73
     2
  0
LWPOLYLINE
  5
8C2F
330
1F
100
AcDbEntity
  8
01注記寸法
100
AcDbPolyline
 90
        4
 70
     1
 43
0.0
 10
4350.0
 20
290.0
 10
4350.0
 20
350.0
 10
4550.0
 20
350.0
 10
4550.0
 20
290.0
  0
LINE
  5
8C30
330
1F
100
AcDbEntity
  8
08非表示
100
AcDbLine
 10
4250.0
 20
320.0
 30
0.0
 11
4100.0
 21
320.0
 31
0.0
  0
LINE
  5
8C31
330
1F
100
AcDbEntity
  8
01注記寸法
100
AcDbLine
 10
4250.0
 20
290.0
 30
0.0
 11
4350.0
 21
350.0
 31
0.0
  0
LWPOLYLINE
  5
96A0
330
1F
100
AcDbEntity
  8
01注記寸法
100
AcDbPolyline
 90
        4
 70
     0
 43
0.0
 10
3350.000000000002
 20
650.7667907562245
 10
3323.576531036949
 20
605.0
 10
3376.423468963051
 20
605.0
 10
3350.000000000002
 20
650.7667907562245
  0
LWPOLYLINE
  5
96A1
330
1F
100
AcDbEntity
  8
08非表示
100
AcDbPolyline
 90
        4
 70
     0
 43
0.0
 10
3350.000000000002
 20
590.7667907562245
 10
3323.576531036949
 20
545.0
 10
3376.423468963051
 20
545.0
 10
3350.000000000002
 20
590.7667907562245
  0
LWPOLYLINE
  5
96A2
330
1F
100
AcDbEntity
  8
08非表示
100
AcDbPolyline
 90
        4
 70
     0
 43
0.0
 10
3350.000000000002
 20
530.7667907562245
 10
3323.576531036949
 20
485.0
 10
3376.423468963051
 20
485.0
 10
3350.000000000002
 20
530.7667907562245
  0
LWPOLYLINE
  5
96A3
330
1F
100
AcDbEntity
  8
08非表示
100
AcDbPolyline
 90
        4
 70
     0
 43
0.0
 10
3350.000000000002
 20
470.7667907562245
 10
3323.576531036949
 20
425.0
 10
3376.423468963051
 20
425.0
 10
3350.000000000002
 20
470.7667907562245
  0
LINE
  5
A00E
330
1F
100
AcDbEntity
  8
08非表示
100
AcDbLine
 10
500.0
 20
-50.0
 30
0.0
 11
550.0
 21
-50.0
 31
0.0
  0
TEXT
  5
A162
330
1F
100
AcDbEntity
  8
13製作用注記
100
AcDbText
 10
154.9996887709727
 20
2894.999707135657
 30
0.0
 40
50.0
  1
製作用詳細図
 72
     1
 11
349.9996887709727
 21
2919.999707135657
 31
0.0
100
AcDbText
 73
     2
  0
LWPOLYLINE
  5
A163
330
1F
100
AcDbEntity
  8
13製作用注記
370
    30
100
AcDbPolyline
 90
        4
 70
     1
 43
0.0
 10
100.0
 20
2870.0
 10
100.0
 20
2970.0
 10
600.0000000000002
 20
2970.0
 10
600.0000000000002
 20
2870.0
  0
TEXT
  5
A3F3
330
1F
100
AcDbEntity
  8
08非表示
100
AcDbText
 10
3615.0
 20
5.48015625
 30
0.0
 40
30.0
  1
仕様書フォーム：2015年02月16日
 72
     2
 11
4200.0
 21
0.0
 31
0.0
100
AcDbText
 73
     1
  0
INSERT
  5
A54D
330
1F
100
AcDbEntity
  8
02実線
100
AcDbBlockReference
  2
BH-筋交(柱L60)-500H
 10
786.7999999999993
 20
1315.000000000001
 30
0.0
  0
INSERT
  5
A550
330
1F
100
AcDbEntity
  8
02実線
100
AcDbBlockReference
  2
BH-端柱(L60)-500H-正面
 10
756.7999999999993
 20
1100.0
 30
0.0
  0
INSERT
  5
A551
330
1F
100
AcDbEntity
  8
02実線
100
AcDbBlockReference
  2
BH-端柱(L60)-500H-側面
 10
2245.299999999999
 20
1100.0
 30
0.0
  0
INSERT
  5
A560
330
1F
100
AcDbEntity
  8
02実線
100
AcDbBlockReference
  2
BH-端柱(L60)-500H-正面
 10
1743.200000000001
 20
1100.0
 30
0.0
 41
-1.0
  0
INSERT
  5
A561
330
1F
100
AcDbEntity
  8
02実線
100
AcDbBlockReference
  2
BH-端柱(L60)-500H-側面
 10
2714.700000000001
 20
1100.0
 30
0.0
 41
-1.0
  0
LWPOLYLINE
  5
A565
102
{ACAD_REACTORS
330
A8C7
102
}
330
1F
100
AcDbEntity
  8
08非表示
100
AcDbPolyline
 90
        4
 70
     1
 43
0.0
 10
2704.000000000002
 20
1309.999999999998
 10
2704.000000000002
 20
1349.999999999998
 10
2714.700000000003
 20
1349.999999999998
 10
2714.700000000003
 20
1309.999999999998
  0
LWPOLYLINE
  5
A566
102
{ACAD_REACTORS
330
A8C7
102
}
330
1F
100
AcDbEntity
  8
08非表示
100
AcDbPolyline
 90
        4
 70
     1
 43
0.0
 10
2256.000000000002
 20
1309.999999999999
 10
2256.000000000002
 20
1349.999999999999
 10
2245.299999999999
 20
1349.999999999999
 10
2245.299999999999
 20
1309.999999999999
  0
LINE
  5
A567
102
{ACAD_REACTORS
330
A8C7
102
}
330
1F
100
AcDbEntity
  8
03破線
100
AcDbLine
 10
2256.000000000002
 20
1309.999999999999
 30
0.0
 11
2305.300000000001
 21
1309.999999999999
 31
0.0
  0
LINE
  5
A568
102
{ACAD_REACTORS
330
A8C7
102
}
330
1F
100
AcDbEntity
  8
03破線
100
AcDbLine
 10
2256.000000000002
 20
1349.999999999999
 30
0.0
 11
2305.300000000001
 21
1349.999999999999
 31
0.0
  0
LINE
  5
A569
102
{ACAD_REACTORS
330
A8C7
102
}
330
1F
100
AcDbEntity
  8
03破線
100
AcDbLine
 10
2256.000000000002
 20
1309.999999999999
 30
0.0
 11
2256.000000000002
 21
1349.999999999999
 31
0.0
  0
LINE
  5
A56A
102
{ACAD_REACTORS
330
A8C7
102
}
330
1F
100
AcDbEntity
  8
03破線
100
AcDbLine
 10
2704.000000000002
 20
1309.999999999999
 30
0.0
 11
2654.700000000003
 21
1309.999999999999
 31
0.0
  0
LINE
  5
A56B
102
{ACAD_REACTORS
330
A8C7
102
}
330
1F
100
AcDbEntity
  8
03破線
100
AcDbLine
 10
2704.000000000002
 20
1349.999999999999
 30
0.0
 11
2654.700000000003
 21
1349.999999999999
 31
0.0
  0
LINE
  5
A56C
102
{ACAD_REACTORS
330
A8C7
102
}
330
1F
100
AcDbEntity
  8
03破線
100
AcDbLine
 10
2704.000000000002
 20
1309.999999999999
 30
0.0
 11
2704.000000000002
 21
1349.999999999999
 31
0.0
  0
LINE
  5
A56D
102
{ACAD_REACTORS
330
A8C7
102
}
330
1F
100
AcDbEntity
  8
02実線
100
AcDbLine
 10
2654.700000000003
 20
1349.999999999999
 30
0.0
 11
2305.300000000001
 21
1349.999999999999
 31
0.0
  0
LINE
  5
A56E
102
{ACAD_REACTORS
330
A8C7
102
}
330
1F
100
AcDbEntity
  8
03破線
100
AcDbLine
 10
2704.000000000002
 20
1346.799999999999
 30
0.0
 11
2256.000000000002
 21
1346.799999999999
 31
0.0
  0
LINE
  5
A56F
102
{ACAD_REACTORS
330
A8C7
102
}
330
1F
100
AcDbEntity
  8
02実線
100
AcDbLine
 10
2654.700000000003
 20
1309.999999999999
 30
0.0
 11
2305.300000000001
 21
1309.999999999999
 31
0.0
  0
INSERT
  5
A593
330
1F
100
AcDbEntity
  8
03破線
100
AcDbBlockReference
  2
BH-anchor-L60-背面
 10
1711.200000000001
 20
1100.0
 30
0.0
  0
INSERT
  5
A594
330
1F
100
AcDbEntity
  8
03破線
100
AcDbBlockReference
  2
BH-anchor-L60-背面
 10
788.7999999999993
 20
1100.0
 30
0.0
  0
INSERT
  5
A59B
330
1F
100
AcDbEntity
  8
03破線
100
AcDbBlockReference
  2
BH-anchor-L60-立面
 10
2674.5
 20
1100.0
 30
0.0
 41
-1.0
  0
INSERT
  5
A59C
330
1F
100
AcDbEntity
  8
03破線
100
AcDbBlockReference
  2
BH-anchor-L60-立面
 10
2285.5
 20
1100.0
 30
0.0
  0
LWPOLYLINE
  5
A65F
330
1F
100
AcDbEntity
  8
03破線
100
AcDbPolyline
 90
        7
 70
     0
 43
0.0
 10
900.0
 20
1540.0
 10
900.0
 20
1600.0
 10
1000.0
 20
1600.0
 10
1000.0
 20
1596.799999999999
 10
903.1999999999998
 20
1596.799999999999
 10
903.1999999999998
 20
1540.0
 10
900.0
 20
1540.0
  0
INSERT
  5
A662
330
1F
100
AcDbEntity
  8
02実線
100
AcDbBlockReference
  2
BH-筋交(柱L60)-500H
 10
1713.200000000001
 20
1315.000000000001
 30
0.0
 41
-1.0
  0
LWPOLYLINE
  5
A70E
102
{ACAD_REACTORS
330
A727
102
}
330
1F
100
AcDbEntity
  8
03破線
100
AcDbPolyline
 90
        4
 70
     0
 43
0.0
 10
763.1999999999989
 20
1550.0
 10
763.1999999999989
 20
1596.8
 10
1736.800000000001
 20
1596.8
 10
1736.800000000001
 20
1550.0
  0
LINE
  5
A70F
102
{ACAD_REACTORS
330
A727
102
}
330
1F
100
AcDbEntity
  8
03破線
100
AcDbLine
 10
763.1999999999989
 20
1550.0
 30
0.0
 11
780.0
 21
1540.0
 31
0.0
  0
LINE
  5
A710
102
{ACAD_REACTORS
330
A727
102
}
330
1F
100
AcDbEntity
  8
03破線
100
AcDbLine
 10
1736.800000000001
 20
1550.0
 30
0.0
 11
1720.0
 21
1540.0
 31
0.0
  0
LINE
  5
A711
102
{ACAD_REACTORS
330
A727
102
}
330
1F
100
AcDbEntity
  8
03破線
100
AcDbLine
 10
760.0
 20
1597.0
 30
0.0
 11
760.0
 21
1550.0
 31
0.0
  0
LINE
  5
A712
102
{ACAD_REACTORS
330
A727
102
}
330
1F
100
AcDbEntity
  8
03破線
100
AcDbLine
 10
1736.800000000001
 20
1550.0
 30
0.0
 11
1740.0
 21
1550.0
 31
0.0
  0
LINE
  5
A713
102
{ACAD_REACTORS
330
A727
102
}
330
1F
100
AcDbEntity
  8
03破線
100
AcDbLine
 10
763.1999999999989
 20
1550.0
 30
0.0
 11
760.0
 21
1550.0
 31
0.0
  0
LINE
  5
A714
102
{ACAD_REACTORS
330
A727
102
}
330
1F
100
AcDbEntity
  8
03破線
100
AcDbLine
 10
798.5
 20
1559.5
 30
0.0
 11
781.5
 21
1559.5
 31
0.0
  0
LINE
  5
A715
102
{ACAD_REACTORS
330
A727
102
}
330
1F
100
AcDbEntity
  8
03破線
100
AcDbLine
 10
798.5
 20
1572.5
 30
0.0
 11
781.5
 21
1572.5
 31
0.0
  0
ARC
  5
A716
102
{ACAD_REACTORS
330
A727
102
}
330
1F
100
AcDbEntity
  8
03破線
100
AcDbCircle
 10
798.5
 20
1566.0
 30
0.0
 40
6.5
100
AcDbArc
 50
270.0
 51
90.0
  0
ARC
  5
A717
102
{ACAD_REACTORS
330
A727
102
}
330
1F
100
AcDbEntity
  8
03破線
100
AcDbCircle
 10
781.5
 20
1566.0
 30
0.0
 40
6.5
100
AcDbArc
 50
90.0
 51
270.0
  0
CIRCLE
  5
A718
102
{ACAD_REACTORS
330
A727
102
}
330
1F
100
AcDbEntity
  8
02実線
100
AcDbCircle
 10
1099.0
 20
1565.0
 30
0.0
 40
6.5
  0
CIRCLE
  5
A719
102
{ACAD_REACTORS
330
A727
102
}
330
1F
100
AcDbEntity
  8
02実線
100
AcDbCircle
 10
1401.0
 20
1565.0
 30
0.0
 40
6.5
  0
ARC
  5
A71A
102
{ACAD_REACTORS
330
A727
102
}
330
1F
100
AcDbEntity
  8
03破線
100
AcDbCircle
 10
1718.5
 20
1566.0
 30
0.0
 40
6.5
100
AcDbArc
 50
270.0
 51
90.0
  0
ARC
  5
A71B
102
{ACAD_REACTORS
330
A727
102
}
330
1F
100
AcDbEntity
  8
03破線
100
AcDbCircle
 10
1701.5
 20
1566.0
 30
0.0
 40
6.5
100
AcDbArc
 50
90.0
 51
270.0
  0
LINE
  5
A71C
102
{ACAD_REACTORS
330
A727
102
}
330
1F
100
AcDbEntity
  8
03破線
100
AcDbLine
 10
1701.5
 20
1572.5
 30
0.0
 11
1718.5
 21
1572.5
 31
0.0
  0
LINE
  5
A71D
102
{ACAD_REACTORS
330
A727
102
}
330
1F
100
AcDbEntity
  8
03破線
100
AcDbLine
 10
1701.5
 20
1559.5
 30
0.0
 11
1718.5
 21
1559.5
 31
0.0
  0
LWPOLYLINE
  5
A71E
102
{ACAD_REACTORS
330
A727
102
}
330
1F
100
AcDbEntity
  8
03破線
100
AcDbPolyline
 90
        2
 70
   128
 43
0.0
 10
816.7999999999993
 20
1540.0
 10
780.0
 20
1540.0
  0
LWPOLYLINE
  5
A71F
102
{ACAD_REACTORS
330
A727
102
}
330
1F
100
AcDbEntity
  8
03破線
100
AcDbPolyline
 90
        2
 70
     0
 43
0.0
 10
1720.0
 20
1540.0
 10
1683.200000000001
 20
1540.0
  0
LWPOLYLINE
  5
A720
102
{ACAD_REACTORS
330
A727
102
}
330
1F
100
AcDbEntity
  8
02実線
100
AcDbPolyline
 90
        2
 70
     0
 43
0.0
 10
1683.200000000001
 20
1540.0
 10
816.7999999999993
 20
1540.0
  0
LWPOLYLINE
  5
A721
102
{ACAD_REACTORS
330
A727
102
}
330
1F
100
AcDbEntity
  8
03破線
100
AcDbPolyline
 90
        2
 70
     0
 43
0.0
 10
1740.0
 20
1597.0
 10
1740.0
 20
1550.0
  0
LWPOLYLINE
  5
A722
102
{ACAD_REACTORS
330
A727
102
}
330
1F
100
AcDbEntity
  8
02実線
100
AcDbPolyline
 90
        4
 70
     0
 43
0.0
 10
760.0
 20
1597.0
 10
760.0
 20
1600.0
 10
1740.0
 20
1600.0
 10
1740.0
 20
1597.0
  0
LINE
  5
A723
102
{ACAD_REACTORS
330
A727
102
}
330
1F
100
AcDbEntity
  8
04一点鎖線
 48
0.2
100
AcDbLine
 10
1099.0
 20
1581.5
 30
0.0
 11
1099.0
 21
1548.5
 31
0.0
  0
LINE
  5
A724
102
{ACAD_REACTORS
330
A727
102
}
330
1F
100
AcDbEntity
  8
04一点鎖線
 48
0.2
100
AcDbLine
 10
1115.5
 20
1565.0
 30
0.0
 11
1082.5
 21
1565.0
 31
0.0
  0
LINE
  5
A725
102
{ACAD_REACTORS
330
A727
102
}
330
1F
100
AcDbEntity
  8
04一点鎖線
 48
0.2
100
AcDbLine
 10
1401.0
 20
1581.5
 30
0.0
 11
1401.0
 21
1548.5
 31
0.0
  0
LINE
  5
A726
102
{ACAD_REACTORS
330
A727
102
}
330
1F
100
AcDbEntity
  8
04一点鎖線
 48
0.2
100
AcDbLine
 10
1417.5
 20
1565.0
 30
0.0
 11
1384.5
 21
1565.0
 31
0.0
  0
LWPOLYLINE
  5
A728
102
{ACAD_REACTORS
330
A73B
102
}
330
1F
100
AcDbEntity
  8
03破線
  6
HIDDEN
100
AcDbPolyline
 90
        4
 70
     0
 43
0.0
 10
2253.200000000001
 20
1549.999999999999
 10
2253.200000000001
 20
1596.799999999999
 10
2706.799999999999
 20
1596.799999999999
 10
2706.799999999999
 20
1549.999999999999
  0
LWPOLYLINE
  5
A729
102
{ACAD_REACTORS
330
A73B
102
}
330
1F
100
AcDbEntity
  8
02実線
100
AcDbPolyline
 90
        2
 70
     0
 43
0.0
 10
2650.0
 20
1539.999999999999
 10
2310.0
 20
1539.999999999999
  0
LINE
  5
A72A
102
{ACAD_REACTORS
330
A73B
102
}
330
1F
100
AcDbEntity
  8
02実線
100
AcDbLine
 10
2310.0
 20
1539.999999999999
 30
0.0
 11
2310.0
 21
1549.999999999999
 31
0.0
  0
LINE
  5
A72B
102
{ACAD_REACTORS
330
A73B
102
}
330
1F
100
AcDbEntity
  8
02実線
100
AcDbLine
 10
2650.0
 20
1539.999999999999
 30
0.0
 11
2650.0
 21
1549.999999999999
 31
0.0
  0
CIRCLE
  5
A72C
102
{ACAD_REACTORS
330
A73B
102
}
330
1F
100
AcDbEntity
  8
02実線
100
AcDbCircle
 10
2350.0
 20
1569.999999999999
 30
0.0
 40
6.5
  0
CIRCLE
  5
A72D
102
{ACAD_REACTORS
330
A73B
102
}
330
1F
100
AcDbEntity
  8
02実線
100
AcDbCircle
 10
2280.0
 20
1569.999999999999
 30
0.0
 40
6.5
  0
CIRCLE
  5
A72E
102
{ACAD_REACTORS
330
A73B
102
}
330
1F
100
AcDbEntity
  8
02実線
100
AcDbCircle
 10
2680.0
 20
1569.999999999999
 30
0.0
 40
6.5
  0
CIRCLE
  5
A72F
102
{ACAD_REACTORS
330
A73B
102
}
330
1F
100
AcDbEntity
  8
02実線
100
AcDbCircle
 10
2610.0
 20
1569.999999999999
 30
0.0
 40
6.5
  0
LINE
  5
A730
102
{ACAD_REACTORS
330
A73B
102
}
330
1F
100
AcDbEntity
  8
02実線
100
AcDbLine
 10
2310.0
 20
1549.999999999999
 30
0.0
 11
2305.299999999999
 21
1549.999999999999
 31
0.0
  0
LWPOLYLINE
  5
A731
102
{ACAD_REACTORS
330
A73B
102
}
330
1F
100
AcDbEntity
  8
03破線
  6
HIDDEN
100
AcDbPolyline
 90
        2
 70
     0
 43
0.0
 10
2250.0
 20
1549.999999999999
 10
2250.0
 20
1597.0
  0
LINE
  5
A732
102
{ACAD_REACTORS
330
A73B
102
}
330
1F
100
AcDbEntity
  8
03破線
  6
HIDDEN
100
AcDbLine
 10
2305.299999999999
 20
1549.999999999999
 30
0.0
 11
2250.0
 21
1549.999999999999
 31
0.0
  0
LWPOLYLINE
  5
A733
102
{ACAD_REACTORS
330
A73B
102
}
330
1F
100
AcDbEntity
  8
02実線
100
AcDbPolyline
 90
        4
 70
     0
 43
0.0
 10
2250.0
 20
1597.0
 10
2250.0
 20
1599.999999999999
 10
2710.0
 20
1599.999999999999
 10
2710.0
 20
1597.0
  0
LINE
  5
A734
102
{ACAD_REACTORS
330
A73B
102
}
330
1F
100
AcDbEntity
  8
02実線
100
AcDbLine
 10
2650.0
 20
1549.999999999999
 30
0.0
 11
2654.700000000001
 21
1549.999999999999
 31
0.0
  0
LWPOLYLINE
  5
A735
102
{ACAD_REACTORS
330
A73B
102
}
330
1F
100
AcDbEntity
  8
03破線
  6
HIDDEN
100
AcDbPolyline
 90
        2
 70
     0
 43
0.0
 10
2710.0
 20
1597.0
 10
2710.0
 20
1549.999999999999
  0
LINE
  5
A736
102
{ACAD_REACTORS
330
A73B
102
}
330
1F
100
AcDbEntity
  8
03破線
  6
HIDDEN
100
AcDbLine
 10
2654.700000000001
 20
1549.999999999999
 30
0.0
 11
2710.0
 21
1549.999999999999
 31
0.0
  0
LINE
  5
A737
102
{ACAD_REACTORS
330
A73B
102
}
330
1F
100
AcDbEntity
  8
04一点鎖線
 48
0.2
100
AcDbLine
 10
2626.5
 20
1569.999999999999
 30
0.0
 11
2593.5
 21
1569.999999999999
 31
0.0
  0
LINE
  5
A738
102
{ACAD_REACTORS
330
A73B
102
}
330
1F
100
AcDbEntity
  8
04一点鎖線
 48
0.2
100
AcDbLine
 10
2610.0
 20
1553.499999999999
 30
0.0
 11
2610.0
 21
1586.499999999999
 31
0.0
  0
LINE
  5
A739
102
{ACAD_REACTORS
330
A73B
102
}
330
1F
100
AcDbEntity
  8
04一点鎖線
 48
0.2
100
AcDbLine
 10
2366.5
 20
1569.999999999999
 30
0.0
 11
2333.5
 21
1569.999999999999
 31
0.0
  0
LINE
  5
A73A
102
{ACAD_REACTORS
330
A73B
102
}
330
1F
100
AcDbEntity
  8
04一点鎖線
 48
0.2
100
AcDbLine
 10
2350.0
 20
1553.499999999999
 30
0.0
 11
2350.0
 21
1586.499999999999
 31
0.0
  0
LWPOLYLINE
  5
A948
330
1F
100
AcDbEntity
  8
01注記寸法
100
AcDbPolyline
 90
        4
 70
     1
 43
0.0
 10
4250.0
 20
2910.0
 10
4250.0
 20
2970.0
 10
4600.0
 20
2970.0
 10
4600.0
 20
2910.0
  0
TEXT
  5
A94D
330
1F
100
AcDbEntity
  8
01注記寸法
100
AcDbText
 10
4270.0
 20
2925.0
 30
0.0
 40
30.0
  1
機器脚   t=
 11
4270.0
 21
2940.0
 31
0.0
100
AcDbText
 73
     2
  0
LINE
  5
A94E
330
1F
100
AcDbEntity
  8
08非表示
100
AcDbLine
 10
4500.0
 20
2910.0
 30
0.0
 11
4500.0
 21
2970.0
 31
0.0
  0
LWPOLYLINE
  5
A972
330
1F
100
AcDbEntity
  8
01注記寸法
100
AcDbPolyline
 90
        4
 70
     1
 43
0.0
 10
4250.0
 20
2850.0
 10
4250.0
 20
2910.0
 10
4600.0
 20
2910.0
 10
4600.0
 20
2850.0
  0
TEXT
  5
A974
330
1F
100
AcDbEntity
  8
01注記寸法
100
AcDbText
 10
4270.0
 20
2865.0
 30
0.0
 40
30.0
  1
アンカー M=
 11
4270.0
 21
2880.0
 31
0.0
100
AcDbText
 73
     2
  0
LINE
  5
A975
330
1F
100
AcDbEntity
  8
08非表示
100
AcDbLine
 10
4500.0
 20
2850.0
 30
0.0
 11
4500.0
 21
2910.0
 31
0.0
  0
TEXT
  5
A9E7
330
1F
100
AcDbEntity
  8
01注記寸法
100
AcDbText
 10
4540.25
 20
2925.0
 30
0.0
 40
30.0
  1
6
 72
     1
 11
4550.0
 21
2940.0
 31
0.0
100
AcDbText
 73
     2
  0
TEXT
  5
A9E8
330
1F
100
AcDbEntity
  8
01注記寸法
100
AcDbText
 10
4530.5
 20
2865.0
 30
0.0
 40
30.0
  1
12
 72
     1
 11
4550.0
 21
2880.0
 31
0.0
100
AcDbText
 73
     2
  0
LINE
  5
AA45
330
1F
100
AcDbEntity
  8
04一点鎖線
100
AcDbLine
 10
950.0
 20
1610.0
 30
0.0
 11
950.0
 21
1586.8
 31
0.0
  0
LINE
  5
AA4E
330
1F
100
AcDbEntity
  8
04一点鎖線
100
AcDbLine
 10
860.0
 20
1610.0
 30
0.0
 11
860.0
 21
1586.8
 31
0.0
  0
LWPOLYLINE
  5
AA61
330
1F
100
AcDbEntity
  8
03破線
100
AcDbPolyline
 90
        7
 70
     0
 43
0.0
 10
1600.0
 20
1540.0
 10
1600.0
 20
1600.0
 10
1500.0
 20
1600.0
 10
1500.0
 20
1596.799999999999
 10
1596.8
 20
1596.799999999999
 10
1596.8
 20
1540.0
 10
1600.0
 20
1540.0
  0
LINE
  5
AA62
330
1F
100
AcDbEntity
  8
04一点鎖線
100
AcDbLine
 10
1550.0
 20
1610.0
 30
0.0
 11
1550.0
 21
1586.8
 31
0.0
  0
LINE
  5
AA63
330
1F
100
AcDbEntity
  8
04一点鎖線
100
AcDbLine
 10
1640.0
 20
1610.0
 30
0.0
 11
1640.0
 21
1586.8
 31
0.0
  0
LINE
  5
AA64
330
1F
100
AcDbEntity
  8
04一点鎖線
100
AcDbLine
 10
2275.0
 20
1609.999999999999
 30
0.0
 11
2275.0
 21
1586.799999999999
 31
0.0
  0
LINE
  5
AA65
330
1F
100
AcDbEntity
  8
04一点鎖線
100
AcDbLine
 10
2280.0
 20
1609.999999999999
 30
0.0
 11
2280.0
 21
1586.799999999999
 31
0.0
  0
LINE
  5
AA66
330
1F
100
AcDbEntity
  8
04一点鎖線
100
AcDbLine
 10
2685.0
 20
1609.999999999999
 30
0.0
 11
2685.0
 21
1586.799999999999
 31
0.0
  0
LINE
  5
AA67
330
1F
100
AcDbEntity
  8
04一点鎖線
100
AcDbLine
 10
2680.0
 20
1609.999999999999
 30
0.0
 11
2680.0
 21
1586.799999999999
 31
0.0
  0
DIMENSION
  5
AAA2
330
1F
100
AcDbEntity
  8
13製作用注記
100
AcDbDimension
  2
*D267
 10
682.012624765516
 20
1315.0
 30
0.0
 11
657.012624765516
 21
1207.5
 31
0.0
 70
    32
 71
     5
 42
215.0000000000002
  3
NEMY-10
100
AcDbAlignedDimension
 13
756.7999999999993
 23
1100.0
 33
0.0
 14
770.3000000000002
 24
1315.0
 34
0.0
 50
90.0
100
AcDbRotatedDimension
  0
DIMENSION
  5
AAAF
330
1F
100
AcDbEntity
  8
13製作用注記
100
AcDbDimension
  2
*D268
 10
756.7999999999993
 20
1410.070788185702
 30
0.0
 11
668.9049999999993
 21
1435.070788185702
 31
0.0
 70
    32
 71
     5
 42
30.0
  3
NEMY-10
100
AcDbAlignedDimension
 13
786.7999999999993
 23
1331.5
 33
0.0
 14
756.7999999999993
 24
1331.5
 34
0.0
100
AcDbRotatedDimension
  0
DIMENSION
  5
AABF
330
1F
100
AcDbEntity
  8
01注記寸法
100
AcDbDimension
  2
*D269
 10
560.0
 20
1600.0
 30
0.0
 11
535.0
 21
1350.0
 31
0.0
 70
    32
 71
     5
 42
500.0
  3
NEMY-10
100
AcDbAlignedDimension
 13
756.7999999999993
 23
1100.0
 33
0.0
 14
760.0
 24
1600.0
 34
0.0
 50
90.0
100
AcDbRotatedDimension
  0
DIMENSION
  5
ABB1
330
1F
100
AcDbEntity
  8
13製作用注記
100
AcDbDimension
  2
*D286
 10
1099.0
 20
1649.170527811524
 30
0.0
 11
929.5
 21
1649.170527811524
 31
0.0
 70
   160
 71
     5
 42
339.0
  3
NEMY-10
100
AcDbAlignedDimension
 13
760.0
 23
1600.0
 33
0.0
 14
1099.0
 24
1581.5
 34
0.0
100
AcDbRotatedDimension
  0
DIMENSION
  5
ABCB
330
1F
100
AcDbEntity
  8
13製作用注記
100
AcDbDimension
  2
*D288
 10
1191.534580838864
 20
1600.0
 30
0.0
 11
1191.534580838864
 21
1477.495
 31
0.0
 70
   160
 71
     5
 42
35.0
  3
NEMY-10
100
AcDbAlignedDimension
 13
1115.5
 23
1565.0
 33
0.0
 14
1115.5
 24
1600.0
 34
0.0
 50
90.0
100
AcDbRotatedDimension
  0
DIMENSION
  5
ABDB
330
1F
100
AcDbEntity
  8
13製作用注記
100
AcDbDimension
  2
*D289
 10
1401.0
 20
1649.170527811524
 30
0.0
 11
1250.0
 21
1674.170527811524
 31
0.0
 70
    32
 71
     5
 42
302.0
  3
NEMY-10
100
AcDbAlignedDimension
 13
1099.0
 23
1581.5
 33
0.0
 14
1401.0
 24
1581.5
 34
0.0
100
AcDbRotatedDimension
  0
DIMENSION
  5
ABE8
330
1F
100
AcDbEntity
  8
13製作用注記
100
AcDbDimension
  2
*D290
 10
1740.0
 20
1649.170527811524
 30
0.0
 11
1570.5
 21
1674.170527811524
 31
0.0
 70
    32
 71
     5
 42
339.0
  3
NEMY-10
100
AcDbAlignedDimension
 13
1401.0
 23
1581.5
 33
0.0
 14
1740.0
 24
1600.0
 34
0.0
100
AcDbRotatedDimension
  0
DIMENSION
  5
ABF6
330
1F
100
AcDbEntity
  8
01注記寸法
100
AcDbDimension
  2
*D291
 10
2145.299999999999
 20
1349.999999999999
 30
0.0
 11
2145.299999999999
 21
1224.999999999999
 31
0.0
 70
   160
 71
     5
 42
249.9999999999991
  3
NEMY-10
100
AcDbAlignedDimension
 13
2245.299999999999
 23
1100.0
 33
0.0
 14
2256.000000000002
 24
1349.999999999999
 34
0.0
 50
90.0
100
AcDbRotatedDimension
  0
TEXT
  5
AD84
330
1F
100
AcDbEntity
  8
01注記寸法
100
AcDbText
 10
3518.0
 20
210.0
 30
0.0
 40
40.0
  1
ネミー株式会社
 72
     1
 11
3700.0
 21
230.0
 31
0.0
100
AcDbText
 73
     2
  0
LWPOLYLINE
  5
ADD4
330
1F
100
AcDbEntity
  8
13製作用注記
100
AcDbPolyline
 90
        4
 70
     1
 43
0.0
 10
2600.0
 20
1990.000000000002
 10
2600.0
 20
2050.000000000002
 10
2800.0
 20
2050.000000000002
 10
2800.0
 20
1990.000000000002
  0
LWPOLYLINE
  5
ADD5
330
1F
100
AcDbEntity
  8
13製作用注記
100
AcDbPolyline
 90
        4
 70
     1
 43
0.0
 10
2540.0
 20
1990.000000000002
 10
2540.0
 20
2050.000000000002
 10
2600.0
 20
2050.000000000002
 10
2600.0
 20
1990.000000000002
  0
TEXT
  5
ADD6
330
1F
100
AcDbEntity
  8
13製作用注記
100
AcDbText
 10
2560.25
 20
2005.000000000002
 30
0.0
 40
30.0
  1
1
 72
     1
 11
2570.0
 21
2020.000000000002
 31
0.0
100
AcDbText
 73
     2
  0
TEXT
  5
ADD7
330
1F
100
AcDbEntity
  8
13製作用注記
100
AcDbText
 10
2641.5
 20
2005.000000000002
 30
0.0
 40
30.0
  1
梁長手
 72
     1
 11
2700.0
 21
2020.000000000002
 31
0.0
100
AcDbText
 73
     2
  0
LWPOLYLINE
  5
ADD8
330
1F
100
AcDbEntity
  8
13製作用注記
100
AcDbPolyline
 90
        4
 70
     1
 43
0.0
 10
2600.0
 20
1930.000000000002
 10
2600.0
 20
1990.000000000002
 10
2800.0
 20
1990.000000000002
 10
2800.0
 20
1930.000000000002
  0
LWPOLYLINE
  5
ADD9
330
1F
100
AcDbEntity
  8
13製作用注記
100
AcDbPolyline
 90
        4
 70
     1
 43
0.0
 10
2540.0
 20
1930.000000000002
 10
2540.0
 20
1990.000000000002
 10
2600.0
 20
1990.000000000002
 10
2600.0
 20
1930.000000000002
  0
TEXT
  5
ADDA
330
1F
100
AcDbEntity
  8
13製作用注記
100
AcDbText
 10
2560.25
 20
1945.000000000002
 30
0.0
 40
30.0
  1
2
 72
     1
 11
2570.0
 21
1960.000000000002
 31
0.0
100
AcDbText
 73
     2
  0
TEXT
  5
ADDB
330
1F
100
AcDbEntity
  8
13製作用注記
100
AcDbText
 10
2641.5
 20
1945.000000000002
 30
0.0
 40
30.0
  1
梁短手
 72
     1
 11
2700.0
 21
1960.000000000002
 31
0.0
100
AcDbText
 73
     2
  0
LWPOLYLINE
  5
ADDC
330
1F
100
AcDbEntity
  8
13製作用注記
100
AcDbPolyline
 90
        4
 70
     1
 43
0.0
 10
2600.0
 20
1870.000000000002
 10
2600.0
 20
1930.000000000002
 10
2800.0
 20
1930.000000000002
 10
2800.0
 20
1870.000000000002
  0
LWPOLYLINE
  5
ADDD
330
1F
100
AcDbEntity
  8
13製作用注記
100
AcDbPolyline
 90
        4
 70
     1
 43
0.0
 10
2540.0
 20
1870.000000000002
 10
2540.0
 20
1930.000000000002
 10
2600.0
 20
1930.000000000002
 10
2600.0
 20
1870.000000000002
  0
TEXT
  5
ADDE
330
1F
100
AcDbEntity
  8
13製作用注記
100
AcDbText
 10
2560.25
 20
1885.000000000002
 30
0.0
 40
30.0
  1
3
 72
     1
 11
2570.0
 21
1900.000000000002
 31
0.0
100
AcDbText
 73
     2
  0
TEXT
  5
ADDF
330
1F
100
AcDbEntity
  8
13製作用注記
100
AcDbText
 10
2661.0
 20
1885.000000000002
 30
0.0
 40
30.0
  1
中桟
 72
     1
 11
2700.0
 21
1900.000000000002
 31
0.0
100
AcDbText
 73
     2
  0
LWPOLYLINE
  5
ADE0
330
1F
100
AcDbEntity
  8
13製作用注記
100
AcDbPolyline
 90
        4
 70
     1
 43
0.0
 10
2600.0
 20
1810.000000000002
 10
2600.0
 20
1870.000000000002
 10
2800.0
 20
1870.000000000002
 10
2800.0
 20
1810.000000000002
  0
LWPOLYLINE
  5
ADE1
330
1F
100
AcDbEntity
  8
13製作用注記
100
AcDbPolyline
 90
        4
 70
     1
 43
0.0
 10
2540.0
 20
1810.000000000002
 10
2540.0
 20
1870.000000000002
 10
2600.0
 20
1870.000000000002
 10
2600.0
 20
1810.000000000002
  0
TEXT
  5
ADE2
330
1F
100
AcDbEntity
  8
13製作用注記
100
AcDbText
 10
2560.25
 20
1825.000000000002
 30
0.0
 40
30.0
  1
4
 72
     1
 11
2570.0
 21
1840.000000000002
 31
0.0
100
AcDbText
 73
     2
  0
TEXT
  5
ADE3
330
1F
100
AcDbEntity
  8
13製作用注記
100
AcDbText
 10
2661.0
 20
1825.000000000002
 30
0.0
 40
30.0
  1
端柱
 72
     1
 11
2700.0
 21
1840.000000000002
 31
0.0
100
AcDbText
 73
     2
  0
LWPOLYLINE
  5
ADE4
330
1F
100
AcDbEntity
  8
13製作用注記
100
AcDbPolyline
 90
        4
 70
     1
 43
0.0
 10
2600.0
 20
1750.000000000002
 10
2600.0
 20
1810.000000000002
 10
2800.0
 20
1810.000000000002
 10
2800.0
 20
1750.000000000002
  0
LWPOLYLINE
  5
ADE5
330
1F
100
AcDbEntity
  8
13製作用注記
100
AcDbPolyline
 90
        4
 70
     1
 43
0.0
 10
2540.0
 20
1750.000000000002
 10
2540.0
 20
1810.000000000002
 10
2600.0
 20
1810.000000000002
 10
2600.0
 20
1750.000000000002
  0
TEXT
  5
ADE6
330
1F
100
AcDbEntity
  8
13製作用注記
100
AcDbText
 10
2560.25
 20
1765.000000000002
 30
0.0
 40
30.0
  1
5
 72
     1
 11
2570.0
 21
1780.000000000002
 31
0.0
100
AcDbText
 73
     2
  0
TEXT
  5
ADE7
330
1F
100
AcDbEntity
  8
13製作用注記
100
AcDbText
 10
2661.0
 20
1765.000000000002
 30
0.0
 40
30.0
  1
筋交
 72
     1
 11
2700.0
 21
1780.000000000002
 31
0.0
100
AcDbText
 73
     2
  0
LWPOLYLINE
  5
ADE8
330
1F
100
AcDbEntity
  8
13製作用注記
100
AcDbPolyline
 90
        4
 70
     1
 43
0.0
 10
2800.0
 20
1990.000000000002
 10
2800.0
 20
2050.000000000002
 10
3200.0
 20
2050.000000000002
 10
3200.0
 20
1990.000000000002
  0
TEXT
  5
ADE9
330
1F
100
AcDbEntity
  8
13製作用注記
100
AcDbText
 10
2873.25
 20
2005.000000000002
 30
0.0
 40
30.0
  1
L60×60×t3.2
 72
     1
 11
3000.0
 21
2020.000000000002
 31
0.0
100
AcDbText
 73
     2
  0
LWPOLYLINE
  5
ADEA
330
1F
100
AcDbEntity
  8
13製作用注記
100
AcDbPolyline
 90
        4
 70
     1
 43
0.0
 10
2800.0
 20
1930.000000000002
 10
2800.0
 20
1990.000000000002
 10
3200.0
 20
1990.000000000002
 10
3200.0
 20
1930.000000000002
  0
TEXT
  5
ADEB
330
1F
100
AcDbEntity
  8
13製作用注記
100
AcDbText
 10
2873.25
 20
1945.000000000002
 30
0.0
 40
30.0
  1
L60×60×t3.2
 72
     1
 11
3000.0
 21
1960.000000000002
 31
0.0
100
AcDbText
 73
     2
  0
LWPOLYLINE
  5
ADEC
330
1F
100
AcDbEntity
  8
13製作用注記
100
AcDbPolyline
 90
        4
 70
     1
 43
0.0
 10
2800.0
 20
1870.000000000002
 10
2800.0
 20
1930.000000000002
 10
3200.0
 20
1930.000000000002
 10
3200.0
 20
1870.000000000002
  0
TEXT
  5
ADED
330
1F
100
AcDbEntity
  8
13製作用注記
100
AcDbText
 10
2863.5
 20
1885.000000000002
 30
0.0
 40
30.0
  1
L100×60×t3.2
 72
     1
 11
3000.0
 21
1900.000000000002
 31
0.0
100
AcDbText
 73
     2
  0
LWPOLYLINE
  5
ADEE
330
1F
100
AcDbEntity
  8
13製作用注記
100
AcDbPolyline
 90
        4
 70
     1
 43
0.0
 10
2800.0
 20
1810.000000000002
 10
2800.0
 20
1870.000000000002
 10
3200.0
 20
1870.000000000002
 10
3200.0
 20
1810.000000000002
  0
TEXT
  5
ADEF
330
1F
100
AcDbEntity
  8
13製作用注記
100
AcDbText
 10
2873.25
 20
1825.000000000002
 30
0.0
 40
30.0
  1
L60×60×t3.2
 72
     1
 11
3000.0
 21
1840.000000000002
 31
0.0
100
AcDbText
 73
     2
  0
LWPOLYLINE
  5
ADF0
330
1F
100
AcDbEntity
  8
13製作用注記
100
AcDbPolyline
 90
        4
 70
     1
 43
0.0
 10
2800.0
 20
1750.000000000002
 10
2800.0
 20
1810.000000000002
 10
3200.0
 20
1810.000000000002
 10
3200.0
 20
1750.000000000002
  0
TEXT
  5
ADF1
330
1F
100
AcDbEntity
  8
13製作用注記
100
AcDbText
 10
2941.5
 20
1765.000000000002
 30
0.0
 40
30.0
  1
500H用
 72
     1
 11
3000.0
 21
1780.000000000002
 31
0.0
100
AcDbText
 73
     2
  0
LWPOLYLINE
  5
ADF2
330
1F
100
AcDbEntity
  8
13製作用注記
100
AcDbPolyline
 90
        4
 70
     1
 43
0.0
 10
2540.0
 20
2050.000000000002
 10
2540.0
 20
2110.000000000002
 10
3200.0
 20
2110.000000000002
 10
3200.0
 20
2050.000000000002
  0
TEXT
  5
ADF3
330
1F
100
AcDbEntity
  8
13製作用注記
100
AcDbText
 10
2733.5
 20
2065.000000000002
 30
0.0
 40
30.0
  1
部　材　一　覧
 72
     1
 11
2870.0
 21
2080.000000000002
 31
0.0
100
AcDbText
 73
     2
  0
TEXT
  5
AF11
330
1F
100
AcDbEntity
  8
01注記寸法
100
AcDbText
 10
382.1350269189625
 20
524.75
 30
0.0
 40
30.0
  1
アンカーボルト孔
100
AcDbText
  0
TEXT
  5
AF12
330
1F
100
AcDbEntity
  8
01注記寸法
100
AcDbText
 10
382.1350269189625
 20
474.75
 30
0.0
 40
30.0
  1
(4-φ16)
100
AcDbText
  0
SPLINE
  5
AF1F
330
1F
100
AcDbEntity
  8
01注記寸法
100
AcDbSpline
210
0.0
220
0.0
230
1.0
 70
  1064
 71
     3
 72
    10
 73
     6
 74
     4
 42
0.000000001
 43
0.0000000001
 44
0.0
 40
0.0
 40
0.0
 40
0.0
 40
0.0
 40
80.19100801058202
 40
167.4089049739877
 40
196.9486222413552
 40
196.9486222413552
 40
196.9486222413552
 40
196.9486222413552
 10
2607.89712113034
 20
581.9096565310074
 30
0.0
 10
2634.232760154523
 20
589.7615262611652
 30
0.0
 10
2689.211748450155
 20
606.1533006774523
 30
0.0
 10
2753.227497930595
 20
578.7799205815522
 30
0.0
 10
2792.235908116996
 20
580.2745145008702
 30
0.0
 10
2802.105049547705
 20
580.6526472855885
 30
0.0
 11
2607.89712113034
 21
581.9096565310074
 31
0.0
 11
2686.774451280435
 21
596.3652628533355
 31
0.0
 11
2772.565332280337
 21
580.6526472855885
 31
0.0
 11
2802.105049547705
 21
580.6526472855885
 31
0.0
  0
LINE
  5
AF21
330
1F
100
AcDbEntity
  8
04一点鎖線
  6
CENTER
 48
0.2
100
AcDbLine
 10
3082.945876303434
 20
220.1336530409799
 30
0.0
 11
3082.945876303434
 21
191.6336530409799
 31
0.0
  0
SPLINE
  5
AF22
330
1F
100
AcDbEntity
  8
01注記寸法
100
AcDbSpline
210
0.0
220
0.0
230
1.0
 70
  1064
 71
     3
 72
    10
 73
     6
 74
     4
 42
0.000000001
 43
0.0000000001
 44
0.0
 40
0.0
 40
0.0
 40
0.0
 40
0.0
 40
83.90161235514566
 40
173.4277437798121
 40
229.9052952695733
 40
229.9052952695733
 40
229.9052952695733
 40
229.9052952695733
 10
2996.782394853875
 20
576.2363636421742
 30
0.0
 10
3024.378128031735
 20
583.7428677765461
 30
0.0
 10
3081.419531750272
 20
599.2590901607771
 30
0.0
 10
3157.940234132776
 20
563.7701030938686
 30
0.0
 10
3204.262548655786
 20
583.1610277055147
 30
0.0
 10
3222.181075444811
 20
590.6618791999954
 30
0.0
 11
2996.782394853875
 21
576.2363636421742
 31
0.0
 11
3079.729109311338
 21
588.8586897552668
 31
0.0
 11
3168.085392102987
 21
574.4331741974474
 31
0.0
 11
3222.181075444811
 21
590.6618791999954
 31
0.0
  0
DIMENSION
  5
AF27
330
1F
100
AcDbEntity
  8
01注記寸法
100
AcDbDimension
  2
*D313
 10
2928.353113124998
 20
199.1336530409799
 30
0.0
 11
2928.353113124998
 21
405.8286530409832
 31
0.0
 70
   160
  1
MAX 30mm
 71
     5
 42
90.00000000000273
  3
NEMY-10
100
AcDbAlignedDimension
 13
3013.945876303434
 23
289.1336530409826
 33
0.0
 14
3013.945876303434
 24
199.1336530409799
 34
0.0
 50
90.0
100
AcDbRotatedDimension
  0
LINE
  5
AF28
330
1F
100
AcDbEntity
  8
04一点鎖線
  6
CENTER
 48
0.2
100
AcDbLine
 10
2710.621565635247
 20
220.1336530409799
 30
0.0
 11
2710.621565635247
 21
191.6336530409799
 31
0.0
  0
TEXT
  5
AF29
330
1F
100
AcDbEntity
  8
01注記寸法
100
AcDbText
 10
2530.0
 20
905.0
 30
0.0
 40
30.0
  1
<レベル調整>
 11
2530.0
 21
920.0
 31
0.0
100
AcDbText
 73
     2
  0
TEXT
  5
AF2A
330
1F
100
AcDbEntity
  8
01注記寸法
100
AcDbText
 10
2530.0
 20
845.0
 30
0.0
 40
30.0
  1
アンカー金具を上下にスライドさせて
 11
2530.0
 21
860.0
 31
0.0
100
AcDbText
 73
     2
  0
LWPOLYLINE
  5
AF2B
330
1F
100
AcDbEntity
  8
09図枠
100
AcDbPolyline
 90
        4
 70
     1
 43
0.0
 10
2500.0
 20
100.0
 10
2500.0
 20
1000.0
 10
3300.0
 20
1000.0
 10
3300.0
 20
100.0
  0
TEXT
  5
AF2C
330
1F
100
AcDbEntity
  8
01注記寸法
100
AcDbText
 10
2530.0
 20
785.0
 30
0.0
 40
30.0
  1
レベルを調整します。
 11
2530.0
 21
800.0
 31
0.0
100
AcDbText
 73
     2
  0
TEXT
  5
AF2D
330
1F
100
AcDbEntity
  8
01注記寸法
100
AcDbText
 10
2530.0
 20
725.0
 30
0.0
 40
30.0
  1
架台全体の嵩上げには使用しないで
 11
2530.0
 21
740.0
 31
0.0
100
AcDbText
 73
     2
  0
TEXT
  5
AF2E
330
1F
100
AcDbEntity
  8
01注記寸法
100
AcDbText
 10
930.0
 20
905.0
 30
0.0
 40
30.0
  1
アンカー金具取付（Ｂ）
 11
930.0
 21
920.0
 31
0.0
100
AcDbText
 73
     2
  0
TEXT
  5
AF2F
330
1F
100
AcDbEntity
  8
01注記寸法
100
AcDbText
 10
1730.0
 20
905.0
 30
0.0
 40
30.0
  1
アンカー金具取付（Ｃ）
 11
1730.0
 21
920.0
 31
0.0
100
AcDbText
 73
     2
  0
LINE
  5
AF30
330
1F
100
AcDbEntity
  8
01注記寸法
100
AcDbLine
 10
900.0
 20
100.0
 30
0.0
 11
900.0
 21
1000.0
 31
0.0
  0
LINE
  5
AF31
330
1F
100
AcDbEntity
  8
01注記寸法
100
AcDbLine
 10
1700.0
 20
100.0
 30
0.0
 11
1700.0
 21
1000.0
 31
0.0
  0
TEXT
  5
AF32
330
1F
100
AcDbEntity
  8
01注記寸法
100
AcDbText
 10
130.0
 20
905.0
 30
0.0
 40
30.0
  1
アンカー金具取付（Ａ）
 11
130.0
 21
920.0
 31
0.0
100
AcDbText
 73
     2
  0
TEXT
  5
AF33
330
1F
100
AcDbEntity
  8
01注記寸法
100
AcDbText
 10
130.0
 20
955.0
 30
0.0
 40
30.0
  1
<アンカー寸法図>
 11
130.0
 21
970.0
 31
0.0
100
AcDbText
 73
     2
  0
TEXT
  5
AF34
330
1F
100
AcDbEntity
  8
01注記寸法
100
AcDbText
 10
480.0
 20
955.0
 30
0.0
 40
30.0
  1
SCALE=
 11
480.0
 21
970.0
 31
0.0
100
AcDbText
 73
     2
  0
TEXT
  5
AF35
330
1F
100
AcDbEntity
  8
01注記寸法
100
AcDbText
 10
610.0
 20
955.0
 30
0.0
 40
30.0
  1
1:20
 11
610.0
 21
970.0
 31
0.0
100
AcDbText
 73
     2
  0
TEXT
  5
AF36
330
1F
100
AcDbEntity
  8
01注記寸法
100
AcDbText
 10
2530.0
 20
665.0
 30
0.0
 40
30.0
  1
ください。
 11
2530.0
 21
680.0
 31
0.0
100
AcDbText
 73
     2
  0
LEADER
  5
AF37
330
1F
100
AcDbEntity
  8
01注記寸法
100
AcDbLeader
  3
NEMY-10
 76
     2
 10
2564.621565635247
 20
289.1336530409781
 30
0.0
 10
2564.621565635247
 20
199.1336530409799
 30
0.0
  0
LEADER
  5
AF38
330
1F
100
AcDbEntity
  8
01注記寸法
100
AcDbLeader
  3
NEMY-10
 76
     2
 10
2564.621565635247
 20
199.1336530409799
 30
0.0
 10
2564.621565635247
 20
289.1336530409781
 30
0.0
  0
LEADER
  5
AF39
330
1F
100
AcDbEntity
  8
01注記寸法
100
AcDbLeader
  3
NEMY-10
 76
     3
 10
324.3999999999996
 20
612.25
 30
0.0
 10
382.1350269189625
 20
512.25
 30
0.0
 10
702.1350269189625
 20
512.25
 30
0.0
  0
LWPOLYLINE
  5
AF44
330
1F
100
AcDbEntity
  8
08非表示
100
AcDbPolyline
 90
        4
 70
     1
 43
0.0
 10
185.0
 20
300.0
 10
185.0
 20
730.0
 10
900.0
 20
730.0
 10
900.0
 20
300.0
  0
DIMENSION
  5
AF45
330
1F
100
AcDbEntity
  8
01注記寸法
100
AcDbDimension
  2
*D314
 10
185.0
 20
417.75
 30
0.0
 11
160.0
 21
515.0
 31
0.0
 70
    32
 71
     5
 42
389.0
  3
NEMY-10
100
AcDbAlignedDimension
 13
324.3999999999996
 23
612.25
 33
0.0
 14
324.3999999999996
 24
417.75
 34
0.0
 50
90.0
100
AcDbRotatedDimension
1001
ACAD
1000
DSTYLE
1002
{
1070
   271
1070
     0
1070
   144
1040
2.0
1002
}
  0
DIMENSION
  5
AF46
330
1F
100
AcDbEntity
  8
01注記寸法
100
AcDbDimension
  2
*D315
 10
785.6000000000004
 20
730.0
 30
0.0
 11
555.0
 21
755.0
 31
0.0
 70
    32
 71
     5
 42
922.4000000000015
  3
NEMY-10
100
AcDbAlignedDimension
 13
324.3999999999996
 23
612.25
 33
0.0
 14
785.6000000000004
 24
612.25
 34
0.0
100
AcDbRotatedDimension
1001
ACAD
1000
DSTYLE
1002
{
1070
   271
1070
     0
1070
   144
1040
2.0
1002
}
  0
TEXT
  5
AF47
330
1F
100
AcDbEntity
  8
01注記寸法
100
AcDbText
 10
1182.135026918962
 20
524.75
 30
0.0
 40
30.0
  1
アンカーボルト孔
100
AcDbText
  0
TEXT
  5
AF48
330
1F
100
AcDbEntity
  8
01注記寸法
100
AcDbText
 10
1182.135026918962
 20
474.75
 30
0.0
 40
30.0
  1
(4-φ16)
100
AcDbText
  0
LEADER
  5
AF49
330
1F
100
AcDbEntity
  8
01注記寸法
100
AcDbLeader
  3
NEMY-10
 76
     3
 10
1089.9
 20
616.3500000000004
 30
0.0
 10
1182.135026918962
 20
512.25
 30
0.0
 10
1502.135026918962
 20
512.25
 30
0.0
  0
LWPOLYLINE
  5
AF54
330
1F
100
AcDbEntity
  8
08非表示
100
AcDbPolyline
 90
        4
 70
     1
 43
0.0
 10
985.0
 20
300.0
 10
985.0
 20
730.0
 10
1700.0
 20
730.0
 10
1700.0
 20
300.0
  0
DIMENSION
  5
AF55
330
1F
100
AcDbEntity
  8
01注記寸法
100
AcDbDimension
  2
*D316
 10
985.0
 20
413.6500000000005
 30
0.0
 11
960.0
 21
515.0000000000005
 31
0.0
 70
    32
 71
     5
 42
405.3999999999996
  3
NEMY-10
100
AcDbAlignedDimension
 13
1089.9
 23
616.3500000000004
 33
0.0
 14
1089.9
 24
413.6500000000005
 34
0.0
 50
90.0
100
AcDbRotatedDimension
1001
ACAD
1000
DSTYLE
1002
{
1070
   271
1070
     0
1070
   144
1040
2.0
1002
}
  0
DIMENSION
  5
AF56
330
1F
100
AcDbEntity
  8
01注記寸法
100
AcDbDimension
  2
*D317
 10
1620.1
 20
730.0
 30
0.0
 11
1355.0
 21
755.0
 31
0.0
 70
    32
 71
     5
 42
1060.400000000001
  3
NEMY-10
100
AcDbAlignedDimension
 13
1089.9
 23
616.3500000000004
 33
0.0
 14
1620.1
 24
616.3500000000004
 34
0.0
100
AcDbRotatedDimension
1001
ACAD
1000
DSTYLE
1002
{
1070
   271
1070
     0
1070
   144
1040
2.0
1002
}
  0
TEXT
  5
AF57
330
1F
100
AcDbEntity
  8
01注記寸法
100
AcDbText
 10
1982.135026918962
 20
524.75
 30
0.0
 40
30.0
  1
アンカーボルト孔
100
AcDbText
  0
TEXT
  5
AF58
330
1F
100
AcDbEntity
  8
01注記寸法
100
AcDbText
 10
1982.135026918962
 20
474.75
 30
0.0
 40
30.0
  1
(4-φ16)
100
AcDbText
  0
LEADER
  5
AF59
330
1F
100
AcDbEntity
  8
01注記寸法
100
AcDbLeader
  3
NEMY-10
 76
     3
 10
1924.4
 20
650.8500000000004
 30
0.0
 10
1982.135026918962
 20
512.25
 30
0.0
 10
2302.135026918962
 20
512.25
 30
0.0
  0
LWPOLYLINE
  5
AF64
330
1F
100
AcDbEntity
  8
08非表示
100
AcDbPolyline
 90
        4
 70
     1
 43
0.0
 10
1785.0
 20
300.0
 10
1785.0
 20
730.0
 10
2500.0
 20
730.0
 10
2500.0
 20
300.0
  0
DIMENSION
  5
AF65
330
1F
100
AcDbEntity
  8
01注記寸法
100
AcDbDimension
  2
*D318
 10
1785.0
 20
379.1500000000005
 30
0.0
 11
1760.0
 21
515.0000000000005
 31
0.0
 70
    32
 71
     5
 42
543.3999999999996
  3
NEMY-10
100
AcDbAlignedDimension
 13
1924.4
 23
650.8500000000004
 33
0.0
 14
1924.4
 24
379.1500000000005
 34
0.0
 50
90.0
100
AcDbRotatedDimension
1001
ACAD
1000
DSTYLE
1002
{
1070
   271
1070
     0
1070
   144
1040
2.0
1002
}
  0
DIMENSION
  5
AF66
330
1F
100
AcDbEntity
  8
01注記寸法
100
AcDbDimension
  2
*D319
 10
2385.6
 20
730.0
 30
0.0
 11
2155.0
 21
755.0
 31
0.0
 70
    32
 71
     5
 42
922.4000000000015
  3
NEMY-10
100
AcDbAlignedDimension
 13
1924.4
 23
650.8500000000004
 33
0.0
 14
2385.6
 24
650.8500000000004
 34
0.0
100
AcDbRotatedDimension
1001
ACAD
1000
DSTYLE
1002
{
1070
   271
1070
     0
1070
   144
1040
2.0
1002
}
  0
LWPOLYLINE
  5
B8D1
330
1F
100
AcDbEntity
  8
02実線
100
AcDbPolyline
 90
        4
 70
     1
 43
0.0
 10
760.0
 20
1909.999999999999
 10
760.0
 20
2369.999999999999
 10
1740.0
 20
2369.999999999999
 10
1740.0
 20
1909.999999999999
  0
LWPOLYLINE
  5
B8D2
330
1F
100
AcDbEntity
  8
02実線
100
AcDbPolyline
 90
        4
 70
     1
 43
0.0
 10
820.0
 20
1969.999999999999
 10
820.0
 20
2309.999999999999
 10
1680.0
 20
2309.999999999999
 10
1680.0
 20
1969.999999999999
  0
LWPOLYLINE
  5
B8D3
330
1F
100
AcDbEntity
  8
03破線
100
AcDbPolyline
 90
        4
 70
     1
 43
0.0
 10
763.2000000000007
 20
1913.2
 10
763.2000000000007
 20
2366.8
 10
1736.799999999999
 20
2366.8
 10
1736.799999999999
 20
1913.2
  0
INSERT
  5
B8D4
330
1F
100
AcDbEntity
  8
02実線
100
AcDbBlockReference
  2
BH-端柱(L60)-平面
 10
756.7999999999993
 20
1905.3
 30
0.0
  0
INSERT
  5
B8D5
330
1F
100
AcDbEntity
  8
02実線
100
AcDbBlockReference
  2
BH-端柱(L60)-平面
 10
756.7999999999993
 20
2374.7
 30
0.0
 41
-1.0
 50
180.0
  0
INSERT
  5
B8D6
330
1F
100
AcDbEntity
  8
02実線
100
AcDbBlockReference
  2
BH-端柱(L60)-平面
 10
1743.200000000001
 20
2374.7
 30
0.0
 50
180.0
  0
INSERT
  5
B8D7
330
1F
100
AcDbEntity
  8
02実線
100
AcDbBlockReference
  2
BH-端柱(L60)-平面
 10
1743.200000000001
 20
1905.3
 30
0.0
 41
-1.0
  0
LINE
  5
B8D8
330
1F
100
AcDbEntity
  8
03破線
100
AcDbLine
 10
903.1999999999989
 20
2366.8
 30
0.0
 11
903.1999999999989
 21
1910.0
 31
0.0
  0
LINE
  5
B8D9
330
1F
100
AcDbEntity
  8
03破線
100
AcDbLine
 10
900.0
 20
2310.0
 30
0.0
 11
900.0
 21
2366.800000000001
 31
0.0
  0
LINE
  5
B8DA
330
1F
100
AcDbEntity
  8
03破線
100
AcDbLine
 10
900.0
 20
1970.0
 30
0.0
 11
900.0
 21
1913.2
 31
0.0
  0
DIMENSION
  5
B8DB
330
1F
100
AcDbEntity
  8
01注記寸法
100
AcDbDimension
  2
*D389
 10
510.0
 20
1909.999999999999
 30
0.0
 11
485.0
 21
2139.999999999999
 31
0.0
 70
    32
 71
     5
 42
460.0
  3
NEMY-10
100
AcDbAlignedDimension
 13
760.0
 23
2369.999999999999
 33
0.0
 14
760.0
 24
1909.999999999999
 34
0.0
 50
90.0
100
AcDbRotatedDimension
  0
LWPOLYLINE
  5
B8DC
330
1F
100
AcDbEntity
  8
08非表示
100
AcDbPolyline
 90
        4
 70
     1
 43
0.0
 10
610.0
 20
1809.999999999999
 10
610.0
 20
2469.999999999999
 10
1840.0
 20
2469.999999999999
 10
1840.0
 20
1809.999999999999
  0
LWPOLYLINE
  5
B8DD
330
1F
100
AcDbEntity
  8
08非表示
100
AcDbPolyline
 90
        4
 70
     1
 43
0.0
 10
510.0
 20
1709.999999999999
 10
510.0
 20
2569.999999999999
 10
1940.0
 20
2569.999999999999
 10
1940.0
 20
1709.999999999999
  0
LWPOLYLINE
  5
B8DE
330
1F
100
AcDbEntity
  8
02実線
100
AcDbPolyline
 90
        4
 70
     1
 43
0.0
 10
900.0
 20
1970.0
 10
900.0
 20
2310.0
 10
1000.0
 20
2310.0
 10
1000.0
 20
1970.0
  0
CIRCLE
  5
B8DF
330
1F
100
AcDbEntity
  8
13製作用注記
100
AcDbCircle
 10
1226.133448303697
 20
2235.655768967817
 30
0.0
 40
25.0
  0
TEXT
  5
B8E0
330
1F
100
AcDbEntity
  8
13製作用注記
100
AcDbText
 10
1216.383448303697
 20
2220.655768967817
 30
0.0
 40
30.0
  1
1
 72
     1
 11
1226.133448303697
 21
2235.655768967817
 31
0.0
100
AcDbText
 73
     2
  0
LEADER
  5
B8E1
330
1F
100
AcDbEntity
  8
13製作用注記
100
AcDbLeader
  3
NEMY-10
 76
     2
 10
1146.04386734424
 20
2309.999999999999
 30
0.0
 10
1207.810797536267
 20
2252.664016051359
 30
0.0
  0
CIRCLE
  5
B8E2
330
1F
100
AcDbEntity
  8
13製作用注記
100
AcDbCircle
 10
1226.133448303697
 20
2044.344231032182
 30
0.0
 40
25.0
  0
TEXT
  5
B8E3
330
1F
100
AcDbEntity
  8
13製作用注記
100
AcDbText
 10
1216.383448303697
 20
2029.344231032182
 30
0.0
 40
30.0
  1
1
 72
     1
 11
1226.133448303697
 21
2044.344231032182
 31
0.0
100
AcDbText
 73
     2
  0
LEADER
  5
B8E4
330
1F
100
AcDbEntity
  8
13製作用注記
100
AcDbLeader
  3
NEMY-10
 76
     2
 10
1146.04386734424
 20
1969.999999999999
 30
0.0
 10
1207.810797536267
 20
2027.335983948639
 30
0.0
  0
CIRCLE
  5
B8E5
330
1F
100
AcDbEntity
  8
13製作用注記
100
AcDbCircle
 10
1820.089580959457
 20
2194.344231032182
 30
0.0
 40
25.0
  0
TEXT
  5
B8E6
330
1F
100
AcDbEntity
  8
13製作用注記
100
AcDbText
 10
1810.339580959457
 20
2179.344231032182
 30
0.0
 40
30.0
  1
2
 72
     1
 11
1820.089580959457
 21
2194.344231032182
 31
0.0
100
AcDbText
 73
     2
  0
LEADER
  5
B8E7
330
1F
100
AcDbEntity
  8
13製作用注記
100
AcDbLeader
  3
NEMY-10
 76
     2
 10
1740.0
 20
2119.999999999999
 30
0.0
 10
1801.766930192027
 20
2177.335983948639
 30
0.0
  0
CIRCLE
  5
B8E8
330
1F
100
AcDbEntity
  8
13製作用注記
100
AcDbCircle
 10
679.9104190405433
 20
2194.344231032182
 30
0.0
 40
25.0
  0
TEXT
  5
B8E9
330
1F
100
AcDbEntity
  8
13製作用注記
100
AcDbText
 10
670.1604190405433
 20
2179.344231032182
 30
0.0
 40
30.0
  1
2
 72
     1
 11
679.9104190405433
 21
2194.344231032182
 31
0.0
100
AcDbText
 73
     2
  0
LEADER
  5
B8EA
330
1F
100
AcDbEntity
  8
13製作用注記
100
AcDbLeader
  3
NEMY-10
 76
     2
 10
760.0
 20
2119.999999999999
 30
0.0
 10
698.2330698079732
 20
2177.335983948639
 30
0.0
211
-1.0
221
0.0
231
0.0
  0
CIRCLE
  5
B8EB
330
1F
100
AcDbEntity
  8
13製作用注記
100
AcDbCircle
 10
1080.089580959457
 20
2194.344231032182
 30
0.0
 40
25.0
  0
TEXT
  5
B8EC
330
1F
100
AcDbEntity
  8
13製作用注記
100
AcDbText
 10
1070.339580959457
 20
2179.344231032182
 30
0.0
 40
30.0
  1
3
 72
     1
 11
1080.089580959457
 21
2194.344231032182
 31
0.0
100
AcDbText
 73
     2
  0
LEADER
  5
B8ED
330
1F
100
AcDbEntity
  8
13製作用注記
100
AcDbLeader
  3
NEMY-10
 76
     2
 10
1000.0
 20
2119.999999999999
 30
0.0
 10
1061.766930192027
 20
2177.335983948639
 30
0.0
  0
INSERT
  5
B8EE
330
1F
100
AcDbEntity
  8
12防振架台
100
AcDbBlockReference
  2
1-HTA176
 10
1250.0
 20
1909.999999999999
 30
0.0
  0
INSERT
  5
B8EF
330
1F
100
AcDbEntity
  8
02実線
100
AcDbBlockReference
  2
hole-φ16
 10
860.0
 20
1939.999999999999
 30
0.0
  0
INSERT
  5
B8F0
330
1F
100
AcDbEntity
  8
10副資材
100
AcDbBlockReference
  2
平W-M12
 10
860.0
 20
1939.999999999999
 30
0.0
  0
INSERT
  5
B8F1
330
1F
100
AcDbEntity
  8
02実線
100
AcDbBlockReference
  2
hole-φ16
 10
1640.0
 20
1939.999999999999
 30
0.0
  0
INSERT
  5
B8F2
330
1F
100
AcDbEntity
  8
10副資材
100
AcDbBlockReference
  2
平W-M12
 10
1640.0
 20
1939.999999999999
 30
0.0
  0
INSERT
  5
B8F3
330
1F
100
AcDbEntity
  8
02実線
100
AcDbBlockReference
  2
hole-φ16
 10
1640.0
 20
2339.999999999999
 30
0.0
  0
INSERT
  5
B8F4
330
1F
100
AcDbEntity
  8
10副資材
100
AcDbBlockReference
  2
平W-M12
 10
1640.0
 20
2339.999999999999
 30
0.0
  0
INSERT
  5
B8F5
330
1F
100
AcDbEntity
  8
02実線
100
AcDbBlockReference
  2
hole-φ16
 10
860.0
 20
2339.999999999999
 30
0.0
  0
INSERT
  5
B8F6
330
1F
100
AcDbEntity
  8
10副資材
100
AcDbBlockReference
  2
平W-M12
 10
860.0
 20
2339.999999999999
 30
0.0
  0
INSERT
  5
B8F7
330
1F
100
AcDbEntity
  8
02実線
100
AcDbBlockReference
  2
hole-φ14
 10
950.0
 20
2344.999999999999
 30
0.0
  0
INSERT
  5
B8F8
330
1F
100
AcDbEntity
  8
10副資材
100
AcDbBlockReference
  2
平W-M10
 10
950.0
 20
2344.999999999999
 30
0.0
  0
INSERT
  5
B8F9
330
1F
100
AcDbEntity
  8
02実線
100
AcDbBlockReference
  2
hole-φ14
 10
950.0
 20
1934.999999999999
 30
0.0
  0
INSERT
  5
B8FA
330
1F
100
AcDbEntity
  8
10副資材
100
AcDbBlockReference
  2
平W-M10
 10
950.0
 20
1934.999999999999
 30
0.0
  0
INSERT
  5
B8FB
330
1F
100
AcDbEntity
  8
02実線
100
AcDbBlockReference
  2
hole-φ14
 10
1550.0
 20
1934.999999999999
 30
0.0
  0
INSERT
  5
B8FC
330
1F
100
AcDbEntity
  8
10副資材
100
AcDbBlockReference
  2
平W-M10
 10
1550.0
 20
1934.999999999999
 30
0.0
  0
INSERT
  5
B8FD
330
1F
100
AcDbEntity
  8
02実線
100
AcDbBlockReference
  2
hole-φ14
 10
1550.0
 20
2344.999999999999
 30
0.0
  0
INSERT
  5
B8FE
330
1F
100
AcDbEntity
  8
10副資材
100
AcDbBlockReference
  2
平W-M10
 10
1550.0
 20
2344.999999999999
 30
0.0
  0
LINE
  5
B8FF
330
1F
100
AcDbEntity
  8
03破線
100
AcDbLine
 10
1596.800000000001
 20
2366.8
 30
0.0
 11
1596.800000000001
 21
1910.0
 31
0.0
  0
LINE
  5
B900
330
1F
100
AcDbEntity
  8
03破線
100
AcDbLine
 10
1600.0
 20
2310.0
 30
0.0
 11
1600.0
 21
2366.800000000001
 31
0.0
  0
LINE
  5
B901
330
1F
100
AcDbEntity
  8
03破線
100
AcDbLine
 10
1600.0
 20
1970.0
 30
0.0
 11
1600.0
 21
1913.2
 31
0.0
  0
LWPOLYLINE
  5
B902
330
1F
100
AcDbEntity
  8
02実線
100
AcDbPolyline
 90
        4
 70
     1
 43
0.0
 10
1600.0
 20
1970.0
 10
1600.0
 20
2310.0
 10
1500.0
 20
2310.0
 10
1500.0
 20
1970.0
  0
CIRCLE
  5
B903
330
1F
100
AcDbEntity
  8
13製作用注記
100
AcDbCircle
 10
1419.910419040543
 20
2194.344231032182
 30
0.0
 40
25.0
  0
TEXT
  5
B904
330
1F
100
AcDbEntity
  8
13製作用注記
100
AcDbText
 10
1410.160419040543
 20
2179.344231032182
 30
0.0
 40
30.0
  1
3
 72
     1
 11
1419.910419040543
 21
2194.344231032182
 31
0.0
100
AcDbText
 73
     2
  0
LEADER
  5
B905
330
1F
100
AcDbEntity
  8
13製作用注記
100
AcDbLeader
  3
NEMY-10
 76
     2
 10
1500.0
 20
2119.999999999999
 30
0.0
 10
1438.233069807973
 20
2177.335983948639
 30
0.0
211
-1.0
221
0.0
231
0.0
  0
DIMENSION
  5
B906
330
1F
100
AcDbEntity
  8
01注記寸法
100
AcDbDimension
  2
*D390
 10
610.0
 20
2344.999999999999
 30
0.0
 11
610.0
 21
2457.43
 31
0.0
 70
   160
 71
     5
 42
25.0000000000009
  3
NEMY-10
100
AcDbAlignedDimension
 13
760.0
 23
2370.0
 33
0.0
 14
933.0
 24
2344.999999999999
 34
0.0
 50
90.0
100
AcDbRotatedDimension
  0
DIMENSION
  5
B907
330
1F
100
AcDbEntity
  8
01注記寸法
100
AcDbDimension
  2
*D391
 10
610.0
 20
1934.999999999999
 30
0.0
 11
585.0
 21
2139.999999999999
 31
0.0
 70
    32
 71
     5
 42
410.0
  3
NEMY-10
100
AcDbAlignedDimension
 13
933.0
 23
2344.999999999999
 33
0.0
 14
933.0
 24
1934.999999999999
 34
0.0
 50
90.0
100
AcDbRotatedDimension
  0
DIMENSION
  5
B908
330
1F
100
AcDbEntity
  8
01注記寸法
100
AcDbDimension
  2
*D392
 10
610.0
 20
1910.0
 30
0.0
 11
585.0
 21
1822.57
 31
0.0
 70
    32
 71
     5
 42
24.9999999999991
  3
NEMY-10
100
AcDbAlignedDimension
 13
933.0
 23
1934.999999999999
 33
0.0
 14
760.0
 24
1910.0
 34
0.0
 50
90.0
100
AcDbRotatedDimension
  0
DIMENSION
  5
B909
330
1F
100
AcDbEntity
  8
01注記寸法
100
AcDbDimension
  2
*D393
 10
950.0
 20
2569.999999999999
 30
0.0
 11
855.0
 21
2594.999999999999
 31
0.0
 70
    32
 71
     5
 42
190.0
  3
NEMY-10
100
AcDbAlignedDimension
 13
760.0
 23
2371.5
 33
0.0
 14
950.0
 24
2361.999999999999
 34
0.0
100
AcDbRotatedDimension
  0
DIMENSION
  5
B90A
330
1F
100
AcDbEntity
  8
01注記寸法
100
AcDbDimension
  2
*D394
 10
1550.0
 20
2569.999999999999
 30
0.0
 11
1250.0
 21
2594.999999999999
 31
0.0
 70
    32
 71
     5
 42
600.0
  3
NEMY-10
100
AcDbAlignedDimension
 13
950.0
 23
2361.999999999999
 33
0.0
 14
1550.0
 24
2361.999999999999
 34
0.0
100
AcDbRotatedDimension
  0
DIMENSION
  5
B90B
330
1F
100
AcDbEntity
  8
01注記寸法
100
AcDbDimension
  2
*D395
 10
1740.0
 20
2569.999999999999
 30
0.0
 11
1645.0
 21
2594.999999999999
 31
0.0
 70
    32
 71
     5
 42
190.0
  3
NEMY-10
100
AcDbAlignedDimension
 13
1550.0
 23
2361.999999999999
 33
0.0
 14
1740.0
 24
2371.5
 34
0.0
100
AcDbRotatedDimension
  0
DIMENSION
  5
B90C
330
1F
100
AcDbEntity
  8
01注記寸法
100
AcDbDimension
  2
*D396
 10
760.0
 20
2669.999999999998
 30
0.0
 11
1250.0
 21
2694.999999999998
 31
0.0
 70
    32
 71
     5
 42
980.0
  3
NEMY-10
100
AcDbAlignedDimension
 13
1740.0
 23
2371.5
 33
0.0
 14
760.0
 24
2371.5
 34
0.0
100
AcDbRotatedDimension
  0
DIMENSION
  5
B90D
330
1F
100
AcDbEntity
  8
01注記寸法
100
AcDbDimension
  2
*D397
 10
860.0
 20
1709.999999999999
 30
0.0
 11
810.0
 21
1734.999999999999
 31
0.0
 70
    32
 71
     5
 42
100.0
  3
NEMY-10
100
AcDbAlignedDimension
 13
760.0
 23
1908.5
 33
0.0
 14
860.0
 24
1921.999999999999
 34
0.0
100
AcDbRotatedDimension
  0
DIMENSION
  5
B90E
330
1F
100
AcDbEntity
  8
01注記寸法
100
AcDbDimension
  2
*D398
 10
1640.0
 20
1709.999999999999
 30
0.0
 11
1250.0
 21
1735.989999999999
 31
0.0
 70
    32
  1
※ <>
 71
     5
 42
780.0
  3
NEMY-10
100
AcDbAlignedDimension
 13
860.0
 23
1921.999999999999
 33
0.0
 14
1640.0
 24
1921.999999999999
 34
0.0
100
AcDbRotatedDimension
  0
DIMENSION
  5
B90F
330
1F
100
AcDbEntity
  8
01注記寸法
100
AcDbDimension
  2
*D399
 10
1740.0
 20
1709.999999999999
 30
0.0
 11
1690.0
 21
1734.999999999999
 31
0.0
 70
    32
 71
     5
 42
100.0
  3
NEMY-10
100
AcDbAlignedDimension
 13
1640.0
 23
1921.999999999999
 33
0.0
 14
1740.0
 24
1908.5
 34
0.0
100
AcDbRotatedDimension
  0
DIMENSION
  5
B910
330
1F
100
AcDbEntity
  8
01注記寸法
100
AcDbDimension
  2
*D400
 10
1940.0
 20
1939.999999999999
 30
0.0
 11
1940.0
 21
1822.105
 31
0.0
 70
   160
 71
     5
 42
29.99999999999909
  3
NEMY-10
100
AcDbAlignedDimension
 13
1740.0
 23
1910.0
 33
0.0
 14
1658.0
 24
1939.999999999999
 34
0.0
 50
90.0
100
AcDbRotatedDimension
  0
DIMENSION
  5
B911
330
1F
100
AcDbEntity
  8
01注記寸法
100
AcDbDimension
  2
*D401
 10
1940.0
 20
2339.999999999999
 30
0.0
 11
1914.01
 21
2139.999999999999
 31
0.0
 70
    32
  1
※ <>
 71
     5
 42
400.0
  3
NEMY-10
100
AcDbAlignedDimension
 13
1658.0
 23
1939.999999999999
 33
0.0
 14
1658.0
 24
2339.999999999999
 34
0.0
 50
90.0
100
AcDbRotatedDimension
  0
DIMENSION
  5
B912
330
1F
100
AcDbEntity
  8
01注記寸法
100
AcDbDimension
  2
*D402
 10
1940.0
 20
2370.0
 30
0.0
 11
1915.0
 21
2457.895
 31
0.0
 70
    32
 71
     5
 42
30.00000000000091
  3
NEMY-10
100
AcDbAlignedDimension
 13
1658.0
 23
2339.999999999999
 33
0.0
 14
1740.0
 24
2370.0
 34
0.0
 50
90.0
100
AcDbRotatedDimension
  0
LEADER
  5
B913
330
1F
100
AcDbEntity
  8
01注記寸法
100
AcDbLeader
  3
NEMY-10
 76
     3
 10
950.0
 20
2344.999999999999
 30
0.0
 10
1021.645660928461
 20
2469.999999999999
 30
0.0
 10
1341.645660928461
 20
2469.999999999999
 30
0.0
  0
TEXT
  5
B914
330
1F
100
AcDbEntity
  8
01注記寸法
100
AcDbText
 10
1021.645660928461
 20
2432.499999999999
 30
0.0
 40
30.0
  1
(4-φ14)
100
AcDbText
  0
TEXT
  5
B915
330
1F
100
AcDbEntity
  8
01注記寸法
100
AcDbText
 10
1021.645660928461
 20
2482.499999999999
 30
0.0
 40
30.0
  1
機器固定ボルト孔
100
AcDbText
  0
TEXT
  5
B916
330
1F
100
AcDbEntity
  8
01注記寸法
100
AcDbText
 10
1120.875787295064
 20
1772.499999999999
 30
0.0
 40
30.0
  1
(4-φ16)
100
AcDbText
  0
TEXT
  5
B917
330
1F
100
AcDbEntity
  8
01注記寸法
100
AcDbText
 10
1120.875787295064
 20
1822.499999999999
 30
0.0
 40
30.0
  1
※防振架台固定ボルト孔
100
AcDbText
  0
LEADER
  5
B918
330
1F
100
AcDbEntity
  8
01注記寸法
100
AcDbLeader
  3
NEMY-10
 76
     3
 10
1640.0
 20
1939.999999999999
 30
0.0
 10
1560.875787295064
 20
1809.999999999999
 30
0.0
 10
1120.875787295064
 20
1809.999999999999
 30
0.0
211
-1.0
221
0.0
231
0.0
  0
DIMENSION
  5
B919
330
1F
100
AcDbEntity
  8
01注記寸法
100
AcDbDimension
  2
*D403
 10
1000.0
 20
2087.114951588723
 30
0.0
 11
950.0
 21
2112.114951588723
 31
0.0
 70
    32
 71
     5
 42
100.0
  3
NEMY-10
100
AcDbAlignedDimension
 13
900.0
 23
2087.114951588723
 33
0.0
 14
1000.0
 24
2087.114951588723
 34
0.0
100
AcDbRotatedDimension
  0
DIMENSION
  5
B91A
330
1F
100
AcDbEntity
  8
01注記寸法
100
AcDbDimension
  2
*D404
 10
1600.0
 20
2087.114951588723
 30
0.0
 11
1550.0
 21
2112.114951588723
 31
0.0
 70
    32
 71
     5
 42
100.0
  3
NEMY-10
100
AcDbAlignedDimension
 13
1500.0
 23
2087.114951588723
 33
0.0
 14
1600.0
 24
2087.114951588723
 34
0.0
100
AcDbRotatedDimension
  0
LWPOLYLINE
  5
B9E5
330
1F
100
AcDbEntity
  8
08非表示
100
AcDbPolyline
 90
        4
 70
     1
 43
0.0
 10
200.0
 20
1099.999999999993
 10
200.0
 20
2769.999999999997
 10
3200.000000000001
 20
2769.999999999997
 10
3200.000000000001
 20
1099.999999999993
  0
CIRCLE
  5
B9E8
330
1F
100
AcDbEntity
  8
13製作用注記
100
AcDbCircle
 10
896.889580959456
 20
1125.655768967817
 30
0.0
 40
25.0
  0
TEXT
  5
B9E9
330
1F
100
AcDbEntity
  8
13製作用注記
100
AcDbText
 10
887.139580959456
 20
1110.655768967817
 30
0.0
 40
30.0
  1
4
 72
     1
 11
896.889580959456
 21
1125.655768967817
 31
0.0
100
AcDbText
 73
     2
  0
LEADER
  5
B9EA
330
1F
100
AcDbEntity
  8
13製作用注記
100
AcDbLeader
  3
NEMY-10
 76
     2
 10
816.7999999999993
 20
1200.0
 30
0.0
 10
878.5669301920261
 20
1142.66401605136
 30
0.0
  0
CIRCLE
  5
B9EB
330
1F
100
AcDbEntity
  8
13製作用注記
100
AcDbCircle
 10
1603.110419040544
 20
1125.655768967817
 30
0.0
 40
25.0
  0
TEXT
  5
B9EC
330
1F
100
AcDbEntity
  8
13製作用注記
100
AcDbText
 10
1593.360419040544
 20
1110.655768967817
 30
0.0
 40
30.0
  1
4
 72
     1
 11
1603.110419040544
 21
1125.655768967817
 31
0.0
100
AcDbText
 73
     2
  0
LEADER
  5
B9ED
330
1F
100
AcDbEntity
  8
13製作用注記
100
AcDbLeader
  3
NEMY-10
 76
     2
 10
1683.200000000001
 20
1200.0
 30
0.0
 10
1621.433069807974
 20
1142.66401605136
 30
0.0
211
-1.0
221
0.0
231
0.0
  0
CIRCLE
  5
B9EE
330
1F
100
AcDbEntity
  8
13製作用注記
100
AcDbCircle
 10
1034.378412402559
 20
1355.559010925615
 30
0.0
 40
25.0
  0
TEXT
  5
B9EF
330
1F
100
AcDbEntity
  8
13製作用注記
100
AcDbText
 10
1024.628412402559
 20
1340.559010925615
 30
0.0
 40
30.0
  1
5
 72
     1
 11
1034.378412402559
 21
1355.559010925615
 31
0.0
100
AcDbText
 73
     2
  0
LEADER
  5
B9F0
330
1F
100
AcDbEntity
  8
13製作用注記
100
AcDbLeader
  3
NEMY-10
 76
     2
 10
954.288831443102
 20
1429.903241957798
 30
0.0
 10
1016.055761635129
 20
1372.567258009158
 30
0.0
  0
CIRCLE
  5
B9F1
330
1F
100
AcDbEntity
  8
13製作用注記
100
AcDbCircle
 10
1465.621587597441
 20
1355.559010925615
 30
0.0
 40
25.0
  0
TEXT
  5
B9F2
330
1F
100
AcDbEntity
  8
13製作用注記
100
AcDbText
 10
1455.871587597441
 20
1340.559010925615
 30
0.0
 40
30.0
  1
5
 72
     1
 11
1465.621587597441
 21
1355.559010925615
 31
0.0
100
AcDbText
 73
     2
  0
LEADER
  5
B9F3
330
1F
100
AcDbEntity
  8
13製作用注記
100
AcDbLeader
  3
NEMY-10
 76
     2
 10
1545.711168556898
 20
1429.903241957798
 30
0.0
 10
1483.944238364871
 20
1372.567258009158
 30
0.0
211
-1.0
221
0.0
231
0.0
  0
LWPOLYLINE
  5
C309
330
1F
100
AcDbEntity
  8
09図枠
100
AcDbPolyline
 90
        4
 70
     1
 43
0.0
 10
3460.0
 20
2630.0
 10
3460.0
 20
2710.0
 10
4100.0
 20
2710.0
 10
4100.0
 20
2630.0
  0
LWPOLYLINE
  5
C30A
330
1F
100
AcDbEntity
  8
09図枠
100
AcDbPolyline
 90
        4
 70
     1
 43
0.0
 10
3300.0
 20
2630.0
 10
3300.0
 20
2710.0
 10
3460.0
 20
2710.0
 10
3460.0
 20
2630.0
  0
TEXT
  5
C30B
330
1F
100
AcDbEntity
  8
01注記寸法
100
AcDbText
 10
3328.0
 20
2650.0
 30
0.0
 40
40.0
  1
型式
 72
     1
 11
3380.0
 21
2670.0
 31
0.0
100
AcDbText
 73
     2
  0
LWPOLYLINE
  5
C30D
330
1F
100
AcDbEntity
  8
09図枠
100
AcDbPolyline
 90
        4
 70
     1
 43
0.0
 10
3300.0
 20
2430.0
 10
3300.0
 20
2630.0
 10
4100.0
 20
2630.0
 10
4100.0
 20
2430.0
  0
LINE
  5
C30E
330
1F
100
AcDbEntity
  8
01注記寸法
  6
HIDDEN
100
AcDbLine
 10
3300.0
 20
2510.0
 30
0.0
 11
4100.0
 21
2510.0
 31
0.0
  0
TEXT
  5
C30F
330
1F
100
AcDbEntity
  8
01注記寸法
100
AcDbText
 10
3330.0
 20
2555.0
 30
0.0
 40
30.0
  1
機器
 11
3330.0
 21
2570.0
 31
0.0
100
AcDbText
 73
     2
  0
TEXT
  5
C310
330
1F
100
AcDbEntity
  8
01注記寸法
100
AcDbText
 10
3330.0
 20
2455.0
 30
0.0
 40
30.0
  1
機器質量
 11
3330.0
 21
2470.0
 31
0.0
100
AcDbText
 73
     2
  0
LWPOLYLINE
  5
C311
330
1F
100
AcDbEntity
  8
09図枠
100
AcDbPolyline
 90
        4
 70
     1
 43
0.0
 10
3300.0
 20
2250.0
 10
3300.0
 20
2430.0
 10
4100.0
 20
2430.0
 10
4100.0
 20
2250.0
  0
TEXT
  5
C312
330
1F
100
AcDbEntity
  8
01注記寸法
100
AcDbText
 10
3330.0
 20
2355.0
 30
0.0
 40
30.0
  1
現場名
 11
3330.0
 21
2370.0
 31
0.0
100
AcDbText
 73
     2
  0
LINE
  5
C313
330
1F
100
AcDbEntity
  8
01注記寸法
  6
HIDDEN
100
AcDbLine
 10
3300.0
 20
2310.0
 30
0.0
 11
4100.0
 21
2310.0
 31
0.0
  0
TEXT
  5
C314
330
1F
100
AcDbEntity
  8
01注記寸法
100
AcDbText
 10
3330.0
 20
2265.0
 30
0.0
 40
30.0
  1
系統名
 11
3330.0
 21
2280.0
 31
0.0
100
AcDbText
 73
     2
  0
LWPOLYLINE
  5
C315
330
1F
100
AcDbEntity
  8
09図枠
100
AcDbPolyline
 90
        4
 70
     1
 43
0.0
 10
3300.0
 20
779.9999999999998
 10
3300.0
 20
2250.0
 10
4100.0
 20
2250.0
 10
4100.0
 20
779.9999999999998
  0
ARC
  5
C316
330
1F
100
AcDbEntity
  8
09図枠
100
AcDbCircle
 10
3340.0
 20
2210.0
 30
0.0
 40
30.0
100
AcDbArc
 50
90.0
 51
270.0
  0
ARC
  5
C317
330
1F
100
AcDbEntity
  8
09図枠
100
AcDbCircle
 10
3480.0
 20
2210.0
 30
0.0
 40
30.0
100
AcDbArc
 50
270.0
 51
90.0
  0
LINE
  5
C318
330
1F
100
AcDbEntity
  8
09図枠
100
AcDbLine
 10
3340.0
 20
2240.0
 30
0.0
 11
3480.0
 21
2240.0
 31
0.0
  0
LINE
  5
C319
330
1F
100
AcDbEntity
  8
09図枠
100
AcDbLine
 10
3340.0
 20
2180.0
 30
0.0
 11
3480.0
 21
2180.0
 31
0.0
  0
TEXT
  5
C31A
330
1F
100
AcDbEntity
  8
01注記寸法
100
AcDbText
 10
3371.0
 20
2195.0
 30
0.0
 40
30.0
  1
仕様
 72
     1
 11
3410.0
 21
2210.0
 31
0.0
100
AcDbText
 73
     2
  0
TEXT
  5
C31B
330
1F
100
AcDbEntity
  8
01注記寸法
100
AcDbText
 10
3330.0
 20
2135.0
 30
0.0
 40
30.0
  1
架台質量
 11
3330.0
 21
2150.0
 31
0.0
100
AcDbText
 73
     2
  0
TEXT
  5
C31C
330
1F
100
AcDbEntity
  8
01注記寸法
100
AcDbText
 10
4041.0
 20
2135.0
 30
0.0
 40
30.0
  1
kg
 72
     2
 11
4080.0
 21
2150.0
 31
0.0
100
AcDbText
 73
     2
  0
TEXT
  5
C31D
330
1F
100
AcDbEntity
  8
01注記寸法
100
AcDbText
 10
3981.0
 20
2135.0
 30
0.0
 40
30.0
  1
21
 72
     2
 11
4020.0
 21
2150.0
 31
0.0
100
AcDbText
 73
     2
  0
LINE
  5
C31E
330
1F
100
AcDbEntity
  8
01注記寸法
100
AcDbLine
 10
4100.0
 20
2120.0
 30
0.0
 11
3300.0
 21
2120.0
 31
0.0
  0
TEXT
  5
C31F
330
1F
100
AcDbEntity
  8
01注記寸法
100
AcDbText
 10
3330.0
 20
2075.0
 30
0.0
 40
30.0
  1
材質
 11
3330.0
 21
2090.0
 31
0.0
100
AcDbText
 73
     2
  0
TEXT
  5
C320
330
1F
100
AcDbEntity
  8
01注記寸法
100
AcDbText
 10
3982.5
 20
2075.0
 30
0.0
 40
30.0
  1
SS400
 72
     2
 11
4080.0
 21
2090.0
 31
0.0
100
AcDbText
 73
     2
  0
LINE
  5
C321
330
1F
100
AcDbEntity
  8
09図枠
100
AcDbLine
 10
4100.0
 20
1450.0
 30
0.0
 11
3300.0
 21
1450.0
 31
0.0
  0
LINE
  5
C322
330
1F
100
AcDbEntity
  8
09図枠
100
AcDbLine
 10
3340.0
 20
1440.0
 30
0.0
 11
3480.0
 21
1440.0
 31
0.0
  0
ARC
  5
C323
330
1F
100
AcDbEntity
  8
09図枠
100
AcDbCircle
 10
3480.0
 20
1410.0
 30
0.0
 40
30.0
100
AcDbArc
 50
270.0
 51
90.0
  0
TEXT
  5
C324
330
1F
100
AcDbEntity
  8
01注記寸法
100
AcDbText
 10
3351.500198931677
 20
1395.0
 30
0.0
 40
30.0
  1
その他
 72
     1
 11
3410.000198931677
 21
1410.0
 31
0.0
100
AcDbText
 73
     2
  0
LINE
  5
C325
330
1F
100
AcDbEntity
  8
09図枠
100
AcDbLine
 10
3340.0
 20
1380.0
 30
0.0
 11
3480.0
 21
1380.0
 31
0.0
  0
ARC
  5
C326
330
1F
100
AcDbEntity
  8
09図枠
100
AcDbCircle
 10
3340.0
 20
1410.0
 30
0.0
 40
30.0
100
AcDbArc
 50
90.0
 51
270.0
  0
TEXT
  5
C327
330
1F
100
AcDbEntity
  8
01注記寸法
100
AcDbText
 10
3330.0
 20
1275.0
 30
0.0
 40
30.0
  1
　底面全体で水平面に設置してください。
 11
3330.0
 21
1290.0
 31
0.0
100
AcDbText
 73
     2
  0
TEXT
  5
C328
330
1F
100
AcDbEntity
  8
01注記寸法
100
AcDbText
 10
3330.000198931677
 20
2015.0
 30
0.0
 40
30.0
  1
表面処理
 11
3330.000198931677
 21
2030.0
 31
0.0
100
AcDbText
 73
     2
  0
LINE
  5
C329
330
1F
100
AcDbEntity
  8
09図枠
100
AcDbLine
 10
4100.0
 20
1880.0
 30
0.0
 11
3300.0
 21
1880.0
 31
0.0
  0
TEXT
  5
C32A
330
1F
100
AcDbEntity
  8
01注記寸法
100
AcDbText
 10
3807.000198931677
 20
2015.0
 30
0.0
 40
30.0
  1
溶融亜鉛めっき
 72
     2
 11
4080.000198931677
 21
2030.0
 31
0.0
100
AcDbText
 73
     2
  0
TEXT
  5
C32B
330
1F
100
AcDbEntity
  8
01注記寸法
100
AcDbText
 10
3885.000198931677
 20
1955.0
 30
0.0
 40
30.0
  1
2種・HDZ45
 72
     2
 11
4080.000198931677
 21
1970.0
 31
0.0
100
AcDbText
 73
     2
  0
LINE
  5
C32C
330
1F
100
AcDbEntity
  8
09図枠
100
AcDbLine
 10
3340.0
 20
1810.0
 30
0.0
 11
3480.0
 21
1810.0
 31
0.0
  0
ARC
  5
C32D
330
1F
100
AcDbEntity
  8
09図枠
100
AcDbCircle
 10
3480.0
 20
1840.0
 30
0.0
 40
30.0
100
AcDbArc
 50
270.0
 51
90.0
  0
LINE
  5
C32E
330
1F
100
AcDbEntity
  8
09図枠
100
AcDbLine
 10
3340.0
 20
1870.0
 30
0.0
 11
3480.0
 21
1870.0
 31
0.0
  0
TEXT
  5
C32F
330
1F
100
AcDbEntity
  8
01注記寸法
100
AcDbText
 10
3351.500198931677
 20
1825.0
 30
0.0
 40
30.0
  1
付属品
 72
     1
 11
3410.000198931677
 21
1840.0
 31
0.0
100
AcDbText
 73
     2
  0
ARC
  5
C330
330
1F
100
AcDbEntity
  8
09図枠
100
AcDbCircle
 10
3340.0
 20
1840.0
 30
0.0
 40
30.0
100
AcDbArc
 50
90.0
 51
270.0
  0
TEXT
  5
C331
330
1F
100
AcDbEntity
  8
01注記寸法
100
AcDbText
 10
3330.000198931677
 20
1765.0
 30
0.0
 40
30.0
  1
機器固定ボルト
 11
3330.000198931677
 21
1780.0
 31
0.0
100
AcDbText
 73
     2
  0
TEXT
  5
C332
330
1F
100
AcDbEntity
  8
01注記寸法
100
AcDbText
 10
3807.000198931677
 20
1765.0
 30
0.0
 40
30.0
  1
溶融亜鉛めっき
 72
     2
 11
4080.000198931677
 21
1780.0
 31
0.0
100
AcDbText
 73
     2
  0
TEXT
  5
C333
330
1F
100
AcDbEntity
  8
01注記寸法
100
AcDbText
 10
3963.000198931677
 20
1705.0
 30
0.0
 40
30.0
  1
セット
 72
     2
 11
4080.000198931677
 21
1720.0
 31
0.0
100
AcDbText
 73
     2
  0
TEXT
  5
C334
330
1F
100
AcDbEntity
  8
01注記寸法
100
AcDbText
 10
3360.0
 20
1705.0
 30
0.0
 40
30.0
  1
M10×40L
 11
3360.0
 21
1720.0
 31
0.0
100
AcDbText
 73
     2
  0
TEXT
  5
C335
330
1F
100
AcDbEntity
  8
01注記寸法
100
AcDbText
 10
3935.5002
 20
1705.0
 30
0.0
 40
30.0
  1
4
 72
     2
 11
3955.0002
 21
1720.0
 31
0.0
100
AcDbText
 73
     2
  0
TEXT
  5
C336
330
1F
100
AcDbEntity
  8
01注記寸法
100
AcDbText
 10
3540.0
 20
1705.0
 30
0.0
 40
30.0
  1
(平W×2,NT×2付)
 11
3540.0
 21
1720.0
 31
0.0
100
AcDbText
 73
     2
  0
TEXT
  5
C337
330
1F
100
AcDbEntity
  8
01注記寸法
100
AcDbText
 10
3935.500198931677
 20
1585.0
 30
0.0
 40
30.0
  1
4
 72
     2
 11
3955.000198931677
 21
1600.0
 31
0.0
100
AcDbText
 73
     2
  0
TEXT
  5
C338
330
1F
100
AcDbEntity
  8
01注記寸法
100
AcDbText
 10
3963.000198931677
 20
1585.0
 30
0.0
 40
30.0
  1
セット
 72
     2
 11
4080.000198931677
 21
1600.0
 31
0.0
100
AcDbText
 73
     2
  0
TEXT
  5
C339
330
1F
100
AcDbEntity
  8
01注記寸法
100
AcDbText
 10
3807.000198931677
 20
1645.0
 30
0.0
 40
30.0
  1
溶融亜鉛めっき
 72
     2
 11
4080.000198931677
 21
1660.0
 31
0.0
100
AcDbText
 73
     2
  0
TEXT
  5
C33A
330
1F
100
AcDbEntity
  8
01注記寸法
100
AcDbText
 10
3540.0
 20
1585.0
 30
0.0
 40
30.0
  1
(平W,角W,NT×2付)
 11
3540.0
 21
1600.0
 31
0.0
100
AcDbText
 73
     2
  0
TEXT
  5
C33B
330
1F
100
AcDbEntity
  8
01注記寸法
100
AcDbText
 10
3360.0
 20
1585.0
 30
0.0
 40
30.0
  1
M12×70L
 11
3360.0
 21
1600.0
 31
0.0
100
AcDbText
 73
     2
  0
TEXT
  5
C33C
330
1F
100
AcDbEntity
  8
01注記寸法
100
AcDbText
 10
3330.000198931677
 20
1645.0
 30
0.0
 40
30.0
  1
防振架台固定ボルト
 11
3330.000198931677
 21
1660.0
 31
0.0
100
AcDbText
 73
     2
  0
TEXT
  5
C33D
330
1F
100
AcDbEntity
  8
08非表示
100
AcDbText
 10
3330.000198931677
 20
1525.0
 30
0.0
 40
30.0
  1
架台連結ボルト
 11
3330.000198931677
 21
1540.0
 31
0.0
100
AcDbText
 73
     2
  0
TEXT
  5
C33E
330
1F
100
AcDbEntity
  8
08非表示
100
AcDbText
 10
3360.0
 20
1465.0
 30
0.0
 40
30.0
  1
M16×40L
 11
3360.0
 21
1480.0
 31
0.0
100
AcDbText
 73
     2
  0
TEXT
  5
C33F
330
1F
100
AcDbEntity
  8
08非表示
100
AcDbText
 10
3540.0
 20
1465.0
 30
0.0
 40
30.0
  1
(平W×2,NT×2付)
 11
3540.0
 21
1480.0
 31
0.0
100
AcDbText
 73
     2
  0
TEXT
  5
C340
330
1F
100
AcDbEntity
  8
08非表示
100
AcDbText
 10
3807.000198931677
 20
1525.0
 30
0.0
 40
30.0
  1
溶融亜鉛めっき
 72
     2
 11
4080.000198931677
 21
1540.0
 31
0.0
100
AcDbText
 73
     2
  0
TEXT
  5
C341
330
1F
100
AcDbEntity
  8
08非表示
100
AcDbText
 10
3935.500198931677
 20
1465.0
 30
0.0
 40
30.0
  1
4
 72
     2
 11
3955.000198931677
 21
1480.0
 31
0.0
100
AcDbText
 73
     2
  0
TEXT
  5
C342
330
1F
100
AcDbEntity
  8
08非表示
100
AcDbText
 10
3963.000198931677
 20
1465.0
 30
0.0
 40
30.0
  1
セット
 72
     2
 11
4080.000198931677
 21
1480.0
 31
0.0
100
AcDbText
 73
     2
  0
TEXT
  5
C343
330
1F
100
AcDbEntity
  8
01注記寸法
100
AcDbText
 10
3330.0
 20
1895.0
 30
0.0
 40
30.0
  1
耐震基準
 11
3330.0
 21
1910.0
 31
0.0
100
AcDbText
 73
     2
  0
TEXT
  5
C344
330
1F
100
AcDbEntity
  8
01注記寸法
100
AcDbText
 10
4002.0
 20
1895.0
 30
0.0
 40
30.0
  1
2.0G
 72
     2
 11
4080.0
 21
1910.0
 31
0.0
100
AcDbText
 73
     2
  0
CIRCLE
  5
C345
330
1F
100
AcDbEntity
  8
08非表示
100
AcDbCircle
 10
3565.0
 20
1840.0
 30
0.0
 40
25.0
  0
TEXT
  5
C346
330
1F
100
AcDbEntity
  8
08非表示
100
AcDbText
 10
3555.25
 20
1825.0
 30
0.0
 40
30.0
  1
A
 72
     1
 11
3565.0
 21
1840.0
 31
0.0
100
AcDbText
 73
     2
  0
CIRCLE
  5
C347
330
1F
100
AcDbEntity
  8
08非表示
100
AcDbCircle
 10
3615.0
 20
1840.0
 30
0.0
 40
25.0
  0
TEXT
  5
C348
330
1F
100
AcDbEntity
  8
08非表示
100
AcDbText
 10
3605.25
 20
1825.0
 30
0.0
 40
30.0
  1
B
 72
     1
 11
3615.0
 21
1840.0
 31
0.0
100
AcDbText
 73
     2
  0
CIRCLE
  5
C349
330
1F
100
AcDbEntity
  8
08非表示
100
AcDbCircle
 10
3665.0
 20
1840.0
 30
0.0
 40
25.0
  0
TEXT
  5
C34A
330
1F
100
AcDbEntity
  8
08非表示
100
AcDbText
 10
3655.25
 20
1825.0
 30
0.0
 40
30.0
  1
C
 72
     1
 11
3665.0
 21
1840.0
 31
0.0
100
AcDbText
 73
     2
  0
CIRCLE
  5
C34B
330
1F
100
AcDbEntity
  8
08非表示
100
AcDbCircle
 10
3715.0
 20
1840.0
 30
0.0
 40
25.0
  0
TEXT
  5
C34C
330
1F
100
AcDbEntity
  8
08非表示
100
AcDbText
 10
3705.25
 20
1825.0
 30
0.0
 40
30.0
  1
1
 72
     1
 11
3715.0
 21
1840.0
 31
0.0
100
AcDbText
 73
     2
  0
TEXT
  5
C34D
330
1F
100
AcDbEntity
  8
08非表示
100
AcDbText
 10
3755.25
 20
1825.0
 30
0.0
 40
30.0
  1
2
 72
     1
 11
3765.0
 21
1840.0
 31
0.0
100
AcDbText
 73
     2
  0
CIRCLE
  5
C34E
330
1F
100
AcDbEntity
  8
08非表示
100
AcDbCircle
 10
3765.0
 20
1840.0
 30
0.0
 40
25.0
  0
TEXT
  5
C34F
330
1F
100
AcDbEntity
  8
08非表示
100
AcDbText
 10
3805.25
 20
1825.0
 30
0.0
 40
30.0
  1
3
 72
     1
 11
3815.0
 21
1840.0
 31
0.0
100
AcDbText
 73
     2
  0
CIRCLE
  5
C350
330
1F
100
AcDbEntity
  8
08非表示
100
AcDbCircle
 10
3815.0
 20
1840.0
 30
0.0
 40
25.0
  0
LINE
  5
C351
330
1F
100
AcDbEntity
  8
01注記寸法
100
AcDbLine
 10
4100.0
 20
1940.0
 30
0.0
 11
3300.0
 21
1940.0
 31
0.0
  0
TEXT
  5
C352
330
1F
100
AcDbEntity
  8
01注記寸法
100
AcDbText
 10
3330.0
 20
1215.0
 30
0.0
 40
30.0
  1
2.アンカーボルトは含まれておりません。
 11
3330.0
 21
1230.0
 31
0.0
100
AcDbText
 73
     2
  0
TEXT
  5
C353
330
1F
100
AcDbEntity
  8
01注記寸法
100
AcDbText
 10
3330.0
 20
1155.0
 30
0.0
 40
30.0
  1
　先様にてご用意ください。
 11
3330.0
 21
1170.0
 31
0.0
100
AcDbText
 73
     2
  0
TEXT
  5
C354
330
1F
100
AcDbEntity
  8
01注記寸法
100
AcDbText
 10
3330.0
 20
1335.0
 30
0.0
 40
30.0
  1
1.架台の据付
 11
3330.0
 21
1350.0
 31
0.0
100
AcDbText
 73
     2
  0
LINE
  5
C355
330
1F
100
AcDbEntity
  8
08非表示
100
AcDbLine
 10
4100.0
 20
2060.0
 30
0.0
 11
3300.0
 21
2060.0
 31
0.0
  0
TEXT
  5
C356
330
1F
100
AcDbEntity
  8
08非表示
100
AcDbText
 10
3676.0
 20
2580.0
 30
0.0
 40
40.0
  1
メーカー
 72
     1
 11
3780.0
 21
2600.0
 31
0.0
100
AcDbText
 73
     2
  0
TEXT
  5
C357
330
1F
100
AcDbEntity
  8
08非表示
100
AcDbText
 10
3702.0
 20
2520.0
 30
0.0
 40
40.0
  1
機種名
 72
     1
 11
3780.0
 21
2540.0
 31
0.0
100
AcDbText
 73
     2
  0
TEXT
  5
C358
330
1F
100
AcDbEntity
  8
08非表示
100
AcDbText
 10
3721.5
 20
2455.0
 30
0.0
 40
30.0
  1
*** kg
 72
     1
 11
3780.0
 21
2470.0
 31
0.0
100
AcDbText
 73
     2
  0
TEXT
  5
C359
330
1F
100
AcDbEntity
  8
08非表示
100
AcDbText
 10
3731.25
 20
2265.0
 30
0.0
 40
30.0
  1
*****
 72
     1
 11
3780.0
 21
2280.0
 31
0.0
100
AcDbText
 73
     2
  0
TEXT
  5
C35A
330
1F
100
AcDbEntity
  8
08非表示
100
AcDbText
 10
3672.75
 20
2355.0
 30
0.0
 40
30.0
  1
現場名(1行)
 72
     1
 11
3780.0
 21
2370.0
 31
0.0
100
AcDbText
 73
     2
  0
TEXT
  5
C35B
330
1F
100
AcDbEntity
  8
08非表示
100
AcDbText
 10
3653.25
 20
2385.0
 30
0.0
 40
30.0
  1
現場名(1/2行)
 72
     1
 11
3780.0
 21
2400.0
 31
0.0
100
AcDbText
 73
     2
  0
TEXT
  5
C35C
330
1F
100
AcDbEntity
  8
08非表示
100
AcDbText
 10
3653.25
 20
2325.0
 30
0.0
 40
30.0
  1
現場名(2/2行)
 72
     1
 11
3780.0
 21
2340.0
 31
0.0
100
AcDbText
 73
     2
  0
LINE
  5
C35D
330
1F
100
AcDbEntity
  8
08非表示
100
AcDbLine
 10
4080.0
 20
2120.0
 30
0.0
 11
4080.0
 21
2180.0
 31
0.0
  0
LINE
  5
C35E
330
1F
100
AcDbEntity
  8
08非表示
100
AcDbLine
 10
3300.0
 20
2150.0
 30
0.0
 11
4100.0
 21
2150.0
 31
0.0
  0
LINE
  5
C35F
330
1F
100
AcDbEntity
  8
08非表示
100
AcDbLine
 10
3330.0
 20
2180.0
 30
0.0
 11
3330.0
 21
2120.0
 31
0.0
  0
LINE
  5
C360
330
1F
100
AcDbEntity
  8
08非表示
100
AcDbLine
 10
4020.0
 20
2120.0
 30
0.0
 11
4020.0
 21
2180.0
 31
0.0
  0
LINE
  5
C361
330
1F
100
AcDbEntity
  8
08非表示
100
AcDbLine
 10
4080.0
 20
2060.0
 30
0.0
 11
4080.0
 21
2120.0
 31
0.0
  0
LINE
  5
C362
330
1F
100
AcDbEntity
  8
08非表示
100
AcDbLine
 10
3300.0
 20
2090.0
 30
0.0
 11
4100.0
 21
2090.0
 31
0.0
  0
LINE
  5
C363
330
1F
100
AcDbEntity
  8
08非表示
100
AcDbLine
 10
3330.0
 20
2120.0
 30
0.0
 11
3330.0
 21
2060.0
 31
0.0
  0
LINE
  5
C364
330
1F
100
AcDbEntity
  8
08非表示
100
AcDbLine
 10
3330.0
 20
2000.0
 30
0.0
 11
3330.0
 21
1940.0
 31
0.0
  0
LINE
  5
C365
330
1F
100
AcDbEntity
  8
08非表示
100
AcDbLine
 10
3300.0
 20
1970.0
 30
0.0
 11
4100.0
 21
1970.0
 31
0.0
  0
LINE
  5
C366
330
1F
100
AcDbEntity
  8
08非表示
100
AcDbLine
 10
4080.0
 20
1940.0
 30
0.0
 11
4080.0
 21
2000.0
 31
0.0
  0
LINE
  5
C367
330
1F
100
AcDbEntity
  8
08非表示
100
AcDbLine
 10
3330.0
 20
1940.0
 30
0.0
 11
3330.0
 21
1880.0
 31
0.0
  0
LINE
  5
C368
330
1F
100
AcDbEntity
  8
08非表示
100
AcDbLine
 10
3300.0
 20
1910.0
 30
0.0
 11
4100.0
 21
1910.0
 31
0.0
  0
LINE
  5
C369
330
1F
100
AcDbEntity
  8
08非表示
100
AcDbLine
 10
4080.0
 20
1880.0
 30
0.0
 11
4080.0
 21
1940.0
 31
0.0
  0
LINE
  5
C36A
330
1F
100
AcDbEntity
  8
08非表示
100
AcDbLine
 10
4080.0
 20
2000.0
 30
0.0
 11
4080.0
 21
2060.0
 31
0.0
  0
LINE
  5
C36B
330
1F
100
AcDbEntity
  8
08非表示
100
AcDbLine
 10
3300.0
 20
2030.0
 30
0.0
 11
4100.0
 21
2030.0
 31
0.0
  0
LINE
  5
C36C
330
1F
100
AcDbEntity
  8
08非表示
100
AcDbLine
 10
3330.0
 20
2060.0
 30
0.0
 11
3330.0
 21
2000.0
 31
0.0
  0
LINE
  5
C36D
330
1F
100
AcDbEntity
  8
08非表示
100
AcDbLine
 10
4100.0
 20
2180.0
 30
0.0
 11
3300.0
 21
2180.0
 31
0.0
  0
LINE
  5
C36E
330
1F
100
AcDbEntity
  8
08非表示
100
AcDbLine
 10
3300.0
 20
1480.0
 30
0.0
 11
4100.0
 21
1480.0
 31
0.0
  0
LINE
  5
C36F
330
1F
100
AcDbEntity
  8
08非表示
100
AcDbLine
 10
3540.0
 20
1450.0
 30
0.0
 11
3540.0
 21
1510.0
 31
0.0
  0
LINE
  5
C370
330
1F
100
AcDbEntity
  8
08非表示
100
AcDbLine
 10
4080.0
 20
1450.0
 30
0.0
 11
4080.0
 21
1510.0
 31
0.0
  0
LINE
  5
C371
330
1F
100
AcDbEntity
  8
08非表示
100
AcDbLine
 10
3955.0
 20
1450.0
 30
0.0
 11
3955.0
 21
1510.0
 31
0.0
  0
LINE
  5
C372
330
1F
100
AcDbEntity
  8
08非表示
100
AcDbLine
 10
3360.0
 20
1510.0
 30
0.0
 11
3360.0
 21
1450.0
 31
0.0
  0
LINE
  5
C373
330
1F
100
AcDbEntity
  8
08非表示
100
AcDbLine
 10
3330.0
 20
1570.0
 30
0.0
 11
3330.0
 21
1510.0
 31
0.0
  0
LINE
  5
C374
330
1F
100
AcDbEntity
  8
08非表示
100
AcDbLine
 10
3300.0
 20
1540.0
 30
0.0
 11
4100.0
 21
1540.0
 31
0.0
  0
LINE
  5
C375
330
1F
100
AcDbEntity
  8
08非表示
100
AcDbLine
 10
4080.0
 20
1510.0
 30
0.0
 11
4080.0
 21
1570.0
 31
0.0
  0
LINE
  5
C376
330
1F
100
AcDbEntity
  8
08非表示
100
AcDbLine
 10
3300.0
 20
2000.0
 30
0.0
 11
4100.0
 21
2000.0
 31
0.0
  0
LINE
  5
C377
330
1F
100
AcDbEntity
  8
08非表示
100
AcDbLine
 10
3300.0
 20
1510.0
 30
0.0
 11
4100.0
 21
1510.0
 31
0.0
  0
LINE
  5
C378
330
1F
100
AcDbEntity
  8
08非表示
100
AcDbLine
 10
3300.0
 20
1570.0
 30
0.0
 11
4100.0
 21
1570.0
 31
0.0
  0
LINE
  5
C379
330
1F
100
AcDbEntity
  8
08非表示
100
AcDbLine
 10
3330.0
 20
1690.0
 30
0.0
 11
3330.0
 21
1630.0
 31
0.0
  0
LINE
  5
C37A
330
1F
100
AcDbEntity
  8
08非表示
100
AcDbLine
 10
3300.0
 20
1690.0
 30
0.0
 11
4100.0
 21
1690.0
 31
0.0
  0
LINE
  5
C37B
330
1F
100
AcDbEntity
  8
08非表示
100
AcDbLine
 10
3300.0
 20
1660.0
 30
0.0
 11
4100.0
 21
1660.0
 31
0.0
  0
LINE
  5
C37C
330
1F
100
AcDbEntity
  8
08非表示
100
AcDbLine
 10
3300.0
 20
1600.0
 30
0.0
 11
4100.0
 21
1600.0
 31
0.0
  0
LINE
  5
C37D
330
1F
100
AcDbEntity
  8
08非表示
100
AcDbLine
 10
3300.0
 20
1630.0
 30
0.0
 11
4100.0
 21
1630.0
 31
0.0
  0
LINE
  5
C37E
330
1F
100
AcDbEntity
  8
08非表示
100
AcDbLine
 10
3360.0
 20
1630.0
 30
0.0
 11
3360.0
 21
1570.0
 31
0.0
  0
LINE
  5
C37F
330
1F
100
AcDbEntity
  8
08非表示
100
AcDbLine
 10
3540.0
 20
1570.0
 30
0.0
 11
3540.0
 21
1630.0
 31
0.0
  0
LINE
  5
C380
330
1F
100
AcDbEntity
  8
08非表示
100
AcDbLine
 10
3955.0
 20
1570.0
 30
0.0
 11
3955.0
 21
1630.0
 31
0.0
  0
LINE
  5
C381
330
1F
100
AcDbEntity
  8
08非表示
100
AcDbLine
 10
4080.0
 20
1570.0
 30
0.0
 11
4080.0
 21
1630.0
 31
0.0
  0
LINE
  5
C382
330
1F
100
AcDbEntity
  8
08非表示
100
AcDbLine
 10
4080.0
 20
1630.0
 30
0.0
 11
4080.0
 21
1690.0
 31
0.0
  0
LINE
  5
C383
330
1F
100
AcDbEntity
  8
08非表示
100
AcDbLine
 10
3330.0
 20
1810.0
 30
0.0
 11
3330.0
 21
1750.0
 31
0.0
  0
LINE
  5
C384
330
1F
100
AcDbEntity
  8
08非表示
100
AcDbLine
 10
3300.0
 20
1810.0
 30
0.0
 11
4100.0
 21
1810.0
 31
0.0
  0
LINE
  5
C385
330
1F
100
AcDbEntity
  8
08非表示
100
AcDbLine
 10
3300.0
 20
1780.0
 30
0.0
 11
4100.0
 21
1780.0
 31
0.0
  0
LINE
  5
C386
330
1F
100
AcDbEntity
  8
08非表示
100
AcDbLine
 10
3300.0
 20
1720.0
 30
0.0
 11
4100.0
 21
1720.0
 31
0.0
  0
LINE
  5
C387
330
1F
100
AcDbEntity
  8
08非表示
100
AcDbLine
 10
3300.0
 20
1750.0
 30
0.0
 11
4100.0
 21
1750.0
 31
0.0
  0
LINE
  5
C388
330
1F
100
AcDbEntity
  8
08非表示
100
AcDbLine
 10
3360.0
 20
1750.0
 30
0.0
 11
3360.0
 21
1690.0
 31
0.0
  0
LINE
  5
C389
330
1F
100
AcDbEntity
  8
08非表示
100
AcDbLine
 10
3540.0
 20
1690.0
 30
0.0
 11
3540.0
 21
1750.0
 31
0.0
  0
LINE
  5
C38A
330
1F
100
AcDbEntity
  8
08非表示
100
AcDbLine
 10
3955.0
 20
1690.0
 30
0.0
 11
3955.0
 21
1750.0
 31
0.0
  0
LINE
  5
C38B
330
1F
100
AcDbEntity
  8
08非表示
100
AcDbLine
 10
4080.0
 20
1690.0
 30
0.0
 11
4080.0
 21
1750.0
 31
0.0
  0
LINE
  5
C38C
330
1F
100
AcDbEntity
  8
08非表示
100
AcDbLine
 10
4080.0
 20
1750.0
 30
0.0
 11
4080.0
 21
1810.0
 31
0.0
  0
LINE
  5
C38D
330
1F
100
AcDbEntity
  8
08非表示
100
AcDbLine
 10
3300.0
 20
1840.0
 30
0.0
 11
4100.0
 21
1840.0
 31
0.0
  0
LINE
  5
C38E
330
1F
100
AcDbEntity
  8
08非表示
100
AcDbLine
 10
4100.0
 20
2210.0
 30
0.0
 11
3300.0
 21
2210.0
 31
0.0
  0
LINE
  5
C38F
330
1F
100
AcDbEntity
  8
08非表示
100
AcDbLine
 10
3300.0
 20
1380.0
 30
0.0
 11
4100.0
 21
1380.0
 31
0.0
  0
LINE
  5
C390
330
1F
100
AcDbEntity
  8
08非表示
100
AcDbLine
 10
3300.0
 20
1350.0
 30
0.0
 11
4100.0
 21
1350.0
 31
0.0
  0
LINE
  5
C391
330
1F
100
AcDbEntity
  8
08非表示
100
AcDbLine
 10
3300.0
 20
1320.0
 30
0.0
 11
4100.0
 21
1320.0
 31
0.0
  0
LINE
  5
C392
330
1F
100
AcDbEntity
  8
08非表示
100
AcDbLine
 10
3300.0
 20
1290.0
 30
0.0
 11
4100.0
 21
1290.0
 31
0.0
  0
LINE
  5
C393
330
1F
100
AcDbEntity
  8
08非表示
100
AcDbLine
 10
3300.0
 20
1260.0
 30
0.0
 11
4100.0
 21
1260.0
 31
0.0
  0
LINE
  5
C394
330
1F
100
AcDbEntity
  8
08非表示
100
AcDbLine
 10
3300.0
 20
1230.0
 30
0.0
 11
4100.0
 21
1230.0
 31
0.0
  0
LINE
  5
C395
330
1F
100
AcDbEntity
  8
08非表示
100
AcDbLine
 10
3300.0
 20
1200.0
 30
0.0
 11
4100.0
 21
1200.0
 31
0.0
  0
LINE
  5
C396
330
1F
100
AcDbEntity
  8
08非表示
100
AcDbLine
 10
3300.0
 20
1170.0
 30
0.0
 11
4100.0
 21
1170.0
 31
0.0
  0
LINE
  5
C397
330
1F
100
AcDbEntity
  8
08非表示
100
AcDbLine
 10
3300.0
 20
1140.0
 30
0.0
 11
4100.0
 21
1140.0
 31
0.0
  0
LINE
  5
C398
330
1F
100
AcDbEntity
  8
08非表示
100
AcDbLine
 10
3330.0
 20
1380.0
 30
0.0
 11
3330.0
 21
1320.0
 31
0.0
  0
LINE
  5
C399
330
1F
100
AcDbEntity
  8
08非表示
100
AcDbLine
 10
3330.0
 20
1320.0
 30
0.0
 11
3330.0
 21
1260.0
 31
0.0
  0
LINE
  5
C39A
330
1F
100
AcDbEntity
  8
08非表示
100
AcDbLine
 10
3330.0
 20
1260.0
 30
0.0
 11
3330.0
 21
1200.0
 31
0.0
  0
LINE
  5
C39B
330
1F
100
AcDbEntity
  8
08非表示
100
AcDbLine
 10
3330.0
 20
1200.0
 30
0.0
 11
3330.0
 21
1140.0
 31
0.0
  0
LINE
  5
C39C
330
1F
100
AcDbEntity
  8
08非表示
100
AcDbLine
 10
3330.0
 20
2310.0
 30
0.0
 11
3330.0
 21
2250.0
 31
0.0
  0
LINE
  5
C39D
330
1F
100
AcDbEntity
  8
08非表示
100
AcDbLine
 10
3300.0
 20
2280.0
 30
0.0
 11
4100.0
 21
2280.0
 31
0.0
  0
LINE
  5
C39E
330
1F
100
AcDbEntity
  8
08非表示
100
AcDbLine
 10
3330.0
 20
2510.0
 30
0.0
 11
3330.0
 21
2430.0
 31
0.0
  0
LINE
  5
C39F
330
1F
100
AcDbEntity
  8
08非表示
100
AcDbLine
 10
3300.0
 20
2470.0
 30
0.0
 11
4100.0
 21
2470.0
 31
0.0
  0
LINE
  5
C3A0
330
1F
100
AcDbEntity
  8
08非表示
100
AcDbLine
 10
3330.0
 20
2570.0
 30
0.0
 11
3330.0
 21
2510.0
 31
0.0
  0
LINE
  5
C3A1
330
1F
100
AcDbEntity
  8
08非表示
100
AcDbLine
 10
3300.0
 20
2540.0
 30
0.0
 11
4100.0
 21
2540.0
 31
0.0
  0
LINE
  5
C3A2
330
1F
100
AcDbEntity
  8
08非表示
100
AcDbLine
 10
3300.0
 20
2570.0
 30
0.0
 11
4100.0
 21
2570.0
 31
0.0
  0
LINE
  5
C3A3
330
1F
100
AcDbEntity
  8
08非表示
100
AcDbLine
 10
3330.0
 20
2600.0
 30
0.0
 11
3330.0
 21
2540.0
 31
0.0
  0
LINE
  5
C3A4
330
1F
100
AcDbEntity
  8
08非表示
100
AcDbLine
 10
3300.0
 20
2600.0
 30
0.0
 11
4100.0
 21
2600.0
 31
0.0
  0
LINE
  5
C3A5
330
1F
100
AcDbEntity
  8
08非表示
100
AcDbLine
 10
3330.0
 20
2630.0
 30
0.0
 11
3330.0
 21
2570.0
 31
0.0
  0
LINE
  5
C3A6
330
1F
100
AcDbEntity
  8
08非表示
100
AcDbLine
 10
3300.0
 20
2370.0
 30
0.0
 11
4100.0
 21
2370.0
 31
0.0
  0
LINE
  5
C3A7
330
1F
100
AcDbEntity
  8
08非表示
100
AcDbLine
 10
3330.0
 20
2400.0
 30
0.0
 11
3330.0
 21
2340.0
 31
0.0
  0
LINE
  5
C3A8
330
1F
100
AcDbEntity
  8
08非表示
100
AcDbLine
 10
3300.0
 20
2400.0
 30
0.0
 11
4100.0
 21
2400.0
 31
0.0
  0
LINE
  5
C3A9
330
1F
100
AcDbEntity
  8
08非表示
100
AcDbLine
 10
3300.0
 20
2340.0
 30
0.0
 11
4100.0
 21
2340.0
 31
0.0
  0
LINE
  5
C3AA
330
1F
100
AcDbEntity
  8
08非表示
100
AcDbLine
 10
3460.0
 20
2670.0
 30
0.0
 11
4100.0
 21
2670.0
 31
0.0
  0
LINE
  5
C3AB
330
1F
100
AcDbEntity
  8
08非表示
100
AcDbLine
 10
3780.0
 20
2710.0
 30
0.0
 11
3780.0
 21
2630.0
 31
0.0
  0
LINE
  5
C3AC
330
1F
100
AcDbEntity
  8
08非表示
100
AcDbLine
 10
3780.0
 20
2630.0
 30
0.0
 11
3780.0
 21
2430.0
 31
0.0
  0
LINE
  5
C3AD
330
1F
100
AcDbEntity
  8
08非表示
100
AcDbLine
 10
3780.0
 20
2430.0
 30
0.0
 11
3780.0
 21
2250.0
 31
0.0
  0
TEXT
  5
C3AE
330
1F
100
AcDbEntity
  8
01注記寸法
100
AcDbText
 10
3330.0
 20
1095.0
 30
0.0
 40
30.0
  1
3.品質改善のため製品の仕様は予告無く
 11
3330.0
 21
1110.0
 31
0.0
100
AcDbText
 73
     2
  0
TEXT
  5
C3AF
330
1F
100
AcDbEntity
  8
01注記寸法
100
AcDbText
 10
3330.0
 20
1035.0
 30
0.0
 40
30.0
  1
　変更する場合があります。
 11
3330.0
 21
1050.0
 31
0.0
100
AcDbText
 73
     2
  0
LINE
  5
C3B0
330
1F
100
AcDbEntity
  8
08非表示
100
AcDbLine
 10
3300.0
 20
1110.0
 30
0.0
 11
4100.0
 21
1110.0
 31
0.0
  0
LINE
  5
C3B1
330
1F
100
AcDbEntity
  8
08非表示
100
AcDbLine
 10
3300.0
 20
1080.0
 30
0.0
 11
4100.0
 21
1080.0
 31
0.0
  0
LINE
  5
C3B2
330
1F
100
AcDbEntity
  8
08非表示
100
AcDbLine
 10
3300.0
 20
1050.0
 30
0.0
 11
4100.0
 21
1050.0
 31
0.0
  0
LINE
  5
C3B3
330
1F
100
AcDbEntity
  8
08非表示
100
AcDbLine
 10
3300.0
 20
1020.0
 30
0.0
 11
4100.0
 21
1020.0
 31
0.0
  0
LINE
  5
C3B4
330
1F
100
AcDbEntity
  8
08非表示
100
AcDbLine
 10
3330.0
 20
1140.0
 30
0.0
 11
3330.0
 21
1080.0
 31
0.0
  0
LINE
  5
C3B5
330
1F
100
AcDbEntity
  8
08非表示
100
AcDbLine
 10
3330.0
 20
1080.0
 30
0.0
 11
3330.0
 21
1020.0
 31
0.0
  0
LWPOLYLINE
  5
C3E9
330
1F
100
AcDbEntity
  8
01注記寸法
100
AcDbPolyline
 90
        4
 70
     1
 43
0.0
 10
3100.0
 20
-170.0
 10
3100.0
 20
-110.0
 10
3200.0
 20
-110.0
 10
3200.0
 20
-170.0
  0
TEXT
  5
C3EA
330
1F
100
AcDbEntity
  8
01注記寸法
100
AcDbText
 10
3111.0
 20
-95.0
 30
0.0
 40
30.0
  1
番号
 72
     1
 11
3150.0
 21
-80.0
 31
0.0
100
AcDbText
 73
     2
  0
LWPOLYLINE
  5
C3EB
330
1F
100
AcDbEntity
  8
01注記寸法
100
AcDbPolyline
 90
        4
 70
     1
 43
0.0
 10
3100.0
 20
-110.0
 10
3100.0
 20
-50.0
 10
3200.0
 20
-50.0
 10
3200.0
 20
-110.0
  0
LWPOLYLINE
  5
C3EC
330
1F
100
AcDbEntity
  8
01注記寸法
100
AcDbPolyline
 90
        4
 70
     1
 43
0.0
 10
3130.0
 20
-160.0
 10
3130.0
 20
-120.0
 10
3170.0
 20
-120.0
 10
3170.0
 20
-160.0
  0
TEXT
  5
C3ED
330
1F
100
AcDbEntity
  8
01注記寸法
100
AcDbText
 10
3140.25
 20
-155.0
 30
0.0
 40
30.0
  1
1
 72
     1
 11
3150.0
 21
-140.0
 31
0.0
100
AcDbText
 73
     2
  0
LWPOLYLINE
  5
C468
330
1F
100
AcDbEntity
  8
09図枠
100
AcDbPolyline
 90
        4
 70
     1
 43
0.0
 10
2450.0
 20
2590.0
 10
2450.0
 20
2650.0
 10
2800.0
 20
2650.0
 10
2800.0
 20
2590.0
  0
LWPOLYLINE
  5
C469
330
1F
100
AcDbEntity
  8
09図枠
100
AcDbPolyline
 90
        4
 70
     1
 43
0.0
 10
2800.0
 20
2590.0
 10
2800.0
 20
2650.0
 10
3300.0
 20
2650.0
 10
3300.0
 20
2590.0
  0
TEXT
  5
C46A
330
1F
100
AcDbEntity
  8
01注記寸法
100
AcDbText
 10
2527.5
 20
2605.0
 30
0.0
 40
30.0
  1
仕　様　書
 72
     1
 11
2625.0
 21
2620.0
 31
0.0
100
AcDbText
 73
     2
  0
TEXT
  5
C46B
330
1F
100
AcDbEntity
  8
01注記寸法
100
AcDbText
 10
2952.5
 20
2605.0
 30
0.0
 40
30.0
  1
型　　　式
 72
     1
 11
3050.0
 21
2620.0
 31
0.0
100
AcDbText
 73
     2
  0
LWPOLYLINE
  5
C46C
330
1F
100
AcDbEntity
  8
09図枠
100
AcDbPolyline
 90
        4
 70
     1
 43
0.0
 10
2450.0
 20
2530.0
 10
2450.0
 20
2590.0
 10
2800.0
 20
2590.0
 10
2800.0
 20
2530.0
  0
LWPOLYLINE
  5
C46D
330
1F
100
AcDbEntity
  8
09図枠
100
AcDbPolyline
 90
        4
 70
     1
 43
0.0
 10
2800.0
 20
2530.0
 10
2800.0
 20
2590.0
 10
3300.0
 20
2590.0
 10
3300.0
 20
2530.0
  0
TEXT
  5
C46E
330
1F
100
AcDbEntity
  8
01注記寸法
100
AcDbText
 10
2469.0
 20
2545.0
 30
0.0
 40
30.0
  1
１－ＨＴＡ１７４
 72
     1
 11
2625.0
 21
2560.0
 31
0.0
100
AcDbText
 73
     2
  0
TEXT
  5
C46F
330
1F
100
AcDbEntity
  8
01注記寸法
100
AcDbText
 10
2816.0
 20
2545.0
 30
0.0
 40
30.0
  1
Ｎ－ＳＰＨ９８０ＳＴＡＺ
 72
     1
 11
3050.0
 21
2560.0
 31
0.0
100
AcDbText
 73
     2
  0
LWPOLYLINE
  5
C470
330
1F
100
AcDbEntity
  8
09図枠
100
AcDbPolyline
 90
        4
 70
     1
 43
0.0
 10
2450.0
 20
2470.0
 10
2450.0
 20
2530.0
 10
2800.0
 20
2530.0
 10
2800.0
 20
2470.0
  0
LWPOLYLINE
  5
C471
330
1F
100
AcDbEntity
  8
09図枠
100
AcDbPolyline
 90
        4
 70
     1
 43
0.0
 10
2800.0
 20
2470.0
 10
2800.0
 20
2530.0
 10
3300.0
 20
2530.0
 10
3300.0
 20
2470.0
  0
TEXT
  5
C472
330
1F
100
AcDbEntity
  8
01注記寸法
100
AcDbText
 10
2469.0
 20
2485.0
 30
0.0
 40
30.0
  1
１－ＨＴＡ１７５
 72
     1
 11
2625.0
 21
2500.0
 31
0.0
100
AcDbText
 73
     2
  0
TEXT
  5
C473
330
1F
100
AcDbEntity
  8
01注記寸法
100
AcDbText
 10
2816.0
 20
2485.0
 30
0.0
 40
30.0
  1
Ｎ－ＳＰＨ９８０ＳＴＢＺ
 72
     1
 11
3050.0
 21
2500.0
 31
0.0
100
AcDbText
 73
     2
  0
LWPOLYLINE
  5
C474
330
1F
100
AcDbEntity
  8
09図枠
100
AcDbPolyline
 90
        4
 70
     1
 43
0.0
 10
2450.0
 20
2410.0
 10
2450.0
 20
2470.0
 10
2800.0
 20
2470.0
 10
2800.0
 20
2410.0
  0
LWPOLYLINE
  5
C475
330
1F
100
AcDbEntity
  8
09図枠
100
AcDbPolyline
 90
        4
 70
     1
 43
0.0
 10
2800.0
 20
2410.0
 10
2800.0
 20
2470.0
 10
3300.0
 20
2470.0
 10
3300.0
 20
2410.0
  0
TEXT
  5
C476
330
1F
100
AcDbEntity
  8
01注記寸法
100
AcDbText
 10
2469.0
 20
2425.0
 30
0.0
 40
30.0
  1
１－ＨＴＡ１７６
 72
     1
 11
2625.0
 21
2440.0
 31
0.0
100
AcDbText
 73
     2
  0
TEXT
  5
C477
330
1F
100
AcDbEntity
  8
01注記寸法
100
AcDbText
 10
2816.0
 20
2425.0
 30
0.0
 40
30.0
  1
Ｎ－ＳＰＨ９８０ＳＴＣＺ
 72
     1
 11
3050.0
 21
2440.0
 31
0.0
100
AcDbText
 73
     2
  0
LWPOLYLINE
  5
C478
330
1F
100
AcDbEntity
  8
09図枠
100
AcDbPolyline
 90
        4
 70
     1
 43
0.0
 10
2450.0
 20
2350.0
 10
2450.0
 20
2410.0
 10
2800.0
 20
2410.0
 10
2800.0
 20
2350.0
  0
LWPOLYLINE
  5
C479
330
1F
100
AcDbEntity
  8
09図枠
100
AcDbPolyline
 90
        4
 70
     1
 43
0.0
 10
2800.0
 20
2350.0
 10
2800.0
 20
2410.0
 10
3300.0
 20
2410.0
 10
3300.0
 20
2350.0
  0
TEXT
  5
C47A
330
1F
100
AcDbEntity
  8
01注記寸法
100
AcDbText
 10
2469.0
 20
2365.0
 30
0.0
 40
30.0
  1
１－ＨＴＡ１７７
 72
     1
 11
2625.0
 21
2380.0
 31
0.0
100
AcDbText
 73
     2
  0
TEXT
  5
C47B
330
1F
100
AcDbEntity
  8
01注記寸法
100
AcDbText
 10
2816.0
 20
2365.0
 30
0.0
 40
30.0
  1
Ｎ－ＳＰＨ９８０ＳＴＤＺ
 72
     1
 11
3050.0
 21
2380.0
 31
0.0
100
AcDbText
 73
     2
  0
LWPOLYLINE
  5
C47C
330
1F
100
AcDbEntity
  8
09図枠
100
AcDbPolyline
 90
        4
 70
     1
 43
0.0
 10
2450.0
 20
2290.0
 10
2450.0
 20
2350.0
 10
2800.0
 20
2350.0
 10
2800.0
 20
2290.0
  0
LWPOLYLINE
  5
C47D
330
1F
100
AcDbEntity
  8
09図枠
100
AcDbPolyline
 90
        4
 70
     1
 43
0.0
 10
2800.0
 20
2290.0
 10
2800.0
 20
2350.0
 10
3300.0
 20
2350.0
 10
3300.0
 20
2290.0
  0
TEXT
  5
C47E
330
1F
100
AcDbEntity
  8
01注記寸法
100
AcDbText
 10
2469.0
 20
2305.0
 30
0.0
 40
30.0
  1
１－ＨＴＡ１８４
 72
     1
 11
2625.0
 21
2320.0
 31
0.0
100
AcDbText
 73
     2
  0
TEXT
  5
C47F
330
1F
100
AcDbEntity
  8
01注記寸法
100
AcDbText
 10
2816.0
 20
2305.0
 30
0.0
 40
30.0
  1
Ｎ－ＳＰＨ９８０ＳＴＥＺ
 72
     1
 11
3050.0
 21
2320.0
 31
0.0
100
AcDbText
 73
     2
  0
LWPOLYLINE
  5
C480
330
1F
100
AcDbEntity
  8
09図枠
100
AcDbPolyline
 90
        4
 70
     1
 43
0.0
 10
2450.0
 20
2650.0
 10
2450.0
 20
2710.0
 10
3300.0
 20
2710.0
 10
3300.0
 20
2650.0
  0
TEXT
  5
C481
330
1F
100
AcDbEntity
  8
01注記寸法
100
AcDbText
 10
2660.5
 20
2665.0
 30
0.0
 40
30.0
  1
適　用　防　振　架　台
 72
     1
 11
2875.0
 21
2680.0
 31
0.0
100
AcDbText
 73
     2
  0
TEXT
  5
C482
330
1F
100
AcDbEntity
  8
01注記寸法
100
AcDbText
 10
2390.25
 20
2658.137
 30
0.0
 40
30.0
  1
1
 72
     4
 11
2400.0
 21
2673.287
 31
0.0
100
AcDbText
  0
LWPOLYLINE
  5
C483
330
1F
100
AcDbEntity
  8
01注記寸法
100
AcDbPolyline
 90
        4
 70
     0
 43
0.0
 10
2400.000000000002
 20
2700.766790756225
 10
2373.576531036949
 20
2655.0
 10
2426.423468963051
 20
2655.0
 10
2400.000000000002
 20
2700.766790756225
  0
TEXT
  5
C484
330
1F
100
AcDbEntity
  8
01注記寸法
100
AcDbText
 10
3551.2
 20
2650.0
 30
0.0
 40
40.0
  1
Ｎ－ＢＨＨ９８０Ｓ－５
 41
0.8
 72
     1
 11
3780.0
 21
2670.0
 31
0.0
100
AcDbText
 73
     2
  0
TEXT
  5
C485
330
1F
100
AcDbEntity
  8
01注記寸法
100
AcDbText
 10
3500.25
 20
2648.137
 30
0.0
 40
30.0
  1
1
 72
     4
 11
3510.0
 21
2663.287
 31
0.0
100
AcDbText
  0
LWPOLYLINE
  5
C486
330
1F
100
AcDbEntity
  8
01注記寸法
100
AcDbPolyline
 90
        4
 70
     0
 43
0.0
 10
3510.000000000002
 20
2690.766790756225
 10
3483.576531036949
 20
2645.0
 10
3536.423468963051
 20
2645.0
 10
3510.000000000002
 20
2690.766790756225
  0
LWPOLYLINE
  5
C487
330
1F
100
AcDbEntity
  8
01注記寸法
100
AcDbPolyline
 90
        4
 70
     1
 43
0.0
 10
4250.0
 20
660.0
 10
4250.0
 20
720.0
 10
4350.0
 20
720.0
 10
4350.0
 20
660.0
  0
TEXT
  5
C488
330
1F
100
AcDbEntity
  8
01注記寸法
100
AcDbText
 10
4261.0
 20
675.0
 30
0.0
 40
30.0
  1
内野
 72
     1
 11
4300.0
 21
690.0
 31
0.0
100
AcDbText
 73
     2
  0
TEXT
  5
C489
330
1F
100
AcDbEntity
  8
01注記寸法
100
AcDbText
 10
4372.0
 20
675.000075415428
 30
0.0
 40
30.0
  1
N1605017
 72
     1
 11
4450.0
 21
690.000075415428
 31
0.0
100
AcDbText
 73
     2
  0
LWPOLYLINE
  5
C48A
330
1F
100
AcDbEntity
  8
01注記寸法
100
AcDbPolyline
 90
        4
 70
     1
 43
0.0
 10
4350.0
 20
660.0
 10
4350.0
 20
720.0
 10
4550.0
 20
720.0
 10
4550.0
 20
660.0
  0
LWPOLYLINE
  5
C48B
330
1F
100
AcDbEntity
  8
01注記寸法
100
AcDbPolyline
 90
        4
 70
     1
 43
0.0
 10
3400.0
 20
660.0
 10
3400.0
 20
720.0
 10
3600.0
 20
720.0
 10
3600.0
 20
660.0
  0
LWPOLYLINE
  5
C48C
330
1F
100
AcDbEntity
  8
01注記寸法
100
AcDbPolyline
 90
        4
 70
     1
 43
0.0
 10
3600.0
 20
660.0
 10
3600.0
 20
720.0
 10
4100.0
 20
720.0
 10
4100.0
 20
660.0
  0
TEXT
  5
C48E
330
1F
100
AcDbEntity
  8
01注記寸法
100
AcDbText
 10
3412.25
 20
675.0001
 30
0.0
 40
30.0
  1
'16.05.25
 72
     1
 11
3500.0
 21
690.0001
 31
0.0
100
AcDbText
 73
     2
  0
TEXT
  5
C48F
330
1F
100
AcDbEntity
  8
01注記寸法
100
AcDbText
 10
3340.25
 20
668.1370000000003
 30
0.0
 40
30.0
  1
1
 72
     4
 11
3350.0
 21
683.2870000000003
 31
0.0
100
AcDbText
  0
LWPOLYLINE
  5
C490
330
1F
100
AcDbEntity
  8
01注記寸法
100
AcDbPolyline
 90
        4
 70
     0
 43
0.0
 10
3350.000000000002
 20
710.7667907562245
 10
3323.576531036949
 20
665.0
 10
3376.423468963051
 20
665.0
 10
3350.000000000002
 20
710.7667907562245
  0
LWPOLYLINE
  5
C491
330
1F
100
AcDbEntity
  8
01注記寸法
100
AcDbPolyline
 90
        4
 70
     1
 43
0.0
 10
3300.0
 20
660.0
 10
3300.0
 20
720.0
 10
3400.0
 20
720.0
 10
3400.0
 20
660.0
  0
LWPOLYLINE
  5
C50A
330
1F
100
AcDbEntity
  8
09図枠
100
AcDbPolyline
 90
        4
 70
     1
 43
0.0
 10
2300.0
 20
2709.999999999999
 10
2300.0
 20
2789.999999999999
 10
3300.0
 20
2789.999999999999
 10
3300.0
 20
2709.999999999999
  0
TEXT
  5
C50B
330
1F
100
AcDbEntity
  8
01注記寸法
100
AcDbText
 10
2240.25
 20
2728.136999999999
 30
0.0
 40
30.0
  1
1
 72
     4
 11
2250.0
 21
2743.286999999999
 31
0.0
100
AcDbText
  0
LWPOLYLINE
  5
C50C
330
1F
100
AcDbEntity
  8
01注記寸法
100
AcDbPolyline
 90
        4
 70
     0
 43
0.0
 10
2250.000000000002
 20
2770.766790756223
 10
2223.576531036949
 20
2724.999999999999
 10
2276.423468963051
 20
2724.999999999999
 10
2250.000000000002
 20
2770.766790756223
  0
TEXT
  5
C50D
330
1F
100
AcDbEntity
  8
01注記寸法
100
AcDbText
 10
2487.999751016778
 20
2729.999765708525
 30
0.0
 40
40.0
  1
標準/耐塩/耐重塩共用仕様
 72
     1
 11
2799.999751016778
 21
2749.999765708525
 31
0.0
100
AcDbText
 73
     2
  0
TEXT
  5
C50E
330
1F
100
AcDbEntity
  8
01注記寸法
100
AcDbText
 10
3830.250335695877
 20
1948.137
 30
0.0
 40
30.0
  1
1
 72
     4
 11
3840.000335695877
 21
1963.287
 31
0.0
100
AcDbText
  0
LWPOLYLINE
  5
C50F
330
1F
100
AcDbEntity
  8
01注記寸法
100
AcDbPolyline
 90
        4
 70
     0
 43
0.0
 10
3840.00033569588
 20
1990.766790756225
 10
3813.576866732827
 20
1945.0
 10
3866.423804658928
 20
1945.0
 10
3840.00033569588
 20
1990.766790756225
  0
TEXT
  5
C510
330
1F
100
AcDbEntity
  8
01注記寸法
100
AcDbText
 10
3608.6875
 20
675.000075415428
 30
0.0
 40
30.0
  1
型式/適用防振架台追記・耐重塩共用
 41
0.75
 72
     1
 11
3850.0
 21
690.000075415428
 31
0.0
100
AcDbText
 73
     2
  0
LWPOLYLINE
  5
C568
330
1F
100
AcDbEntity
  8
09図枠
100
AcDbPolyline
 90
        4
 70
     1
 43
0.0
 10
2450.0
 20
2230.0
 10
2450.0
 20
2290.0
 10
2800.0
 20
2290.0
 10
2800.0
 20
2230.0
  0
LWPOLYLINE
  5
C569
330
1F
100
AcDbEntity
  8
09図枠
100
AcDbPolyline
 90
        4
 70
     1
 43
0.0
 10
2800.0
 20
2230.0
 10
2800.0
 20
2290.0
 10
3300.0
 20
2290.0
 10
3300.0
 20
2230.0
  0
TEXT
  5
C56A
330
1F
100
AcDbEntity
  8
01注記寸法
100
AcDbText
 10
2469.0
 20
2245.0
 30
0.0
 40
30.0
  1
１－ＨＴＡ２００
 72
     1
 11
2625.0
 21
2260.0
 31
0.0
100
AcDbText
 73
     2
  0
TEXT
  5
C56B
330
1F
100
AcDbEntity
  8
01注記寸法
100
AcDbText
 10
2816.0
 20
2245.0
 30
0.0
 40
30.0
  1
Ｎ－ＳＰＨ９８０ＳＲＣＺ
 72
     1
 11
3050.0
 21
2260.0
 31
0.0
100
AcDbText
 73
     2
  0
TEXT
  5
C56C
330
1F
100
AcDbEntity
  8
01注記寸法
100
AcDbText
 10
2390.25
 20
2238.137
 30
0.0
 40
30.0
  1
2
 72
     4
 11
2400.0
 21
2253.287
 31
0.0
100
AcDbText
  0
LWPOLYLINE
  5
C56D
330
1F
100
AcDbEntity
  8
01注記寸法
100
AcDbPolyline
 90
        4
 70
     0
 43
0.0
 10
2400.000000000002
 20
2280.766790756225
 10
2373.576531036949
 20
2235.0
 10
2426.423468963051
 20
2235.0
 10
2400.000000000002
 20
2280.766790756225
  0
LINE
  5
C57A
330
1F
100
AcDbEntity
  8
08非表示
100
AcDbLine
 10
4449.999999999997
 20
-170.0000000000002
 30
0.0
 11
4549.999999999997
 21
-170.0000000000003
 31
0.0
  0
LINE
  5
C57B
330
1F
100
AcDbEntity
  8
08非表示
100
AcDbLine
 10
4549.999999999998
 20
-70.00000000000023
 30
0.0
 11
4549.999999999997
 21
-170.0000000000003
 31
0.0
  0
VIEWPORT
  5
9F0D
330
1B
100
AcDbEntity
 67
     1
  8
0
100
AcDbViewport
 10
202.5
 20
128.5
 30
0.0
 40
486.0
 41
308.4
 68
     1
 69
     1
 12
202.5
 22
128.5
 13
0.0
 23
0.0
 14
0.5
 24
0.5
 15
0.0
 25
0.0
 16
0.0
 26
0.0
 36
1.0
 17
0.0
 27
0.0
 37
0.0
 42
50.0
 43
0.0
 44
0.0
 45
308.4
 50
0.0
 51
0.0
 72
   100
 90
   557152
  1

281
     0
 71
     1
 74
     0
110
0.0
120
0.0
130
0.0
111
1.0
121
0.0
131
0.0
112
0.0
122
1.0
132
0.0
 79
     0
146
0.0
  0
VIEWPORT
  5
9F0E
330
1B
100
AcDbEntity
 67
     1
  8
0
100
AcDbViewport
 10
202.5
 20
128.5
 30
0.0
 40
324.0
 41
205.6
 68
     2
 69
     2
 12
-3224.9849078482
 22
3553.815758143106
 13
0.0
 23
0.0
 14
0.5
 24
0.5
 15
0.0
 25
0.0
 16
0.0
 26
0.0
 36
1.0
 17
0.0
 27
0.0
 37
0.0
 42
50.0
 43
0.0
 44
0.0
 45
10712.16027781073
 50
0.0
 51
0.0
 72
   100
 90
   557152
  1

281
     0
 71
     1
 74
     0
110
0.0
120
0.0
130
0.0
111
1.0
121
0.0
131
0.0
112
0.0
122
1.0
132
0.0
 79
     0
146
0.0
  0
ENDSEC
  0
SECTION
  2
OBJECTS
  0
DICTIONARY
  5
C
330
0
100
AcDbDictionary
281
     1
  3
ACAD_DETAILVIEWSTYLE
350
C572
  3
ACAD_GROUP
350
D
  3
ACAD_IMAGE_VARS
350
6A88
  3
ACAD_LAYOUT
350
1A
  3
ACAD_MLINESTYLE
350
17
  3
ACAD_PLOTSETTINGS
350
19
  3
ACAD_PLOTSTYLENAME
350
E
  3
ACAD_SCALELIST
350
6A4E
  3
ACAD_SECTIONVIEWSTYLE
350
C573
  3
AcadDim
350
AC07
  3
AcDbVariableDictionary
350
79E
  3
APPDATA
350
6A87
  3
DWGPROPS
350
C591
  0
DICTIONARY
  5
7A6F
330
2
100
AcDbDictionary
280
     1
281
     1
  3
ACAD_LAYERSTATES
360
7A70
  3
ACLYDICTIONARY
360
C57F
  0
DICTIONARY
  5
969E
330
1F
100
AcDbDictionary
280
     1
281
     1
  3
ACAD_SORTENTS
360
969F
  0
DICTIONARY
  5
C572
102
{ACAD_REACTORS
330
C
102
}
330
C
100
AcDbDictionary
281
     1
  0
DICTIONARY
  5
D
102
{ACAD_REACTORS
330
C
102
}
330
C
100
AcDbDictionary
281
     1
  3
*A1
350
A727
  3
*A2
350
A73B
  3
*A3
350
A8C7
  0
RASTERVARIABLES
  5
6A88
102
{ACAD_REACTORS
330
C
102
}
330
C
100
AcDbRasterVariables
 90
        0
 70
     1
 71
     1
 72
     1
  0
DICTIONARY
  5
1A
102
{ACAD_REACTORS
330
C
102
}
330
C
100
AcDbDictionary
281
     1
  3
Layout1
350
1E
  3
Model
350
22
  0
DICTIONARY
  5
17
102
{ACAD_REACTORS
330
C
102
}
330
C
100
AcDbDictionary
281
     1
  3
Standard
350
18
  0
DICTIONARY
  5
19
102
{ACAD_REACTORS
330
C
102
}
330
C
100
AcDbDictionary
281
     1
  0
ACDBDICTIONARYWDFLT
  5
E
102
{ACAD_REACTORS
330
C
102
}
330
C
100
AcDbDictionary
281
     1
  3
Normal
350
F
100
AcDbDictionaryWithDefault
340
F
  0
DICTIONARY
  5
6A4E
102
{ACAD_REACTORS
330
C
102
}
330
C
100
AcDbDictionary
281
     1
  3
A0
350
6A4F
  3
A1
350
6A50
  3
A2
350
6A51
  3
A3
350
6A52
  3
A4
350
6A53
  3
A5
350
6A54
  3
A6
350
6A55
  3
A7
350
6A56
  3
A8
350
6A57
  3
A9
350
6A58
  3
B0
350
6A59
  3
B1
350
6A5A
  3
B2
350
6A5B
  3
B3
350
6A5C
  3
B4
350
6A5D
  3
B5
350
6A5E
  3
B6
350
6A5F
  3
B7
350
6A60
  3
B8
350
6A61
  3
B9
350
6A62
  3
C0
350
6A63
  3
C1
350
6A64
  3
C2
350
6A65
  3
C3
350
6A66
  3
C4
350
6A67
  3
C5
350
6A68
  3
C6
350
6A69
  3
C7
350
6A6A
  3
C8
350
6A6B
  3
C9
350
6A6C
  3
D0
350
6A6D
  3
D1
350
6A6E
  3
D2
350
6A6F
  0
DICTIONARY
  5
C573
102
{ACAD_REACTORS
330
C
102
}
330
C
100
AcDbDictionary
281
     1
  0
XRECORD
  5
AC07
102
{ACAD_REACTORS
330
C
102
}
330
C
100
AcDbXrecord
280
     1
340
0
 72
     0
 71
     0
 70
     0
 69
     0
 68
     1
 67
     3
 66
     0
 65
     0
 64
     0
 63
     3
 62
     1
 61
     0
 60
     0
 40
0.0
  0
DICTIONARY
  5
79E
102
{ACAD_REACTORS
330
C
102
}
330
C
100
AcDbDictionary
281
     1
  3
DIMASSOC
350
79F
  3
SORTENTS
350
264F
  0
DICTIONARY
  5
6A87
102
{ACAD_REACTORS
330
C
102
}
330
C
100
AcDbDictionary
281
     1
  0
XRECORD
  5
C591
102
{ACAD_REACTORS
330
C
102
}
330
C
100
AcDbXrecord
280
     1
  1
DWGPROPS COOKIE
  2

  3

  4

  6

  7

  8
Sales
  9

300
=
301
=
302
=
303
=
304
=
305
=
306
=
307
=
308
=
309
=
 40
0.0
 41
2455859.030048461
 42
2459010.03632404
  1

 90
        0
  0
DICTIONARY
  5
7A70
102
{ACAD_REACTORS
330
7A6F
102
}
330
7A6F
100
AcDbDictionary
281
     1
  0
DICTIONARY
  5
C57F
102
{ACAD_REACTORS
330
7A6F
102
}
330
7A6F
100
AcDbDictionary
281
     1
1001
ACAD
1000
<All
  0
SORTENTSTABLE
  5
969F
102
{ACAD_REACTORS
330
969E
102
}
330
969E
100
AcDbSortentsTable
330
1F
331
0
  5
7F18
331
7E6F
  5
7E76
331
7E74
  5
7E78
331
7E7B
  5
7E7D
331
7E7E
  5
7E84
331
7E7F
  5
7E85
331
7EA4
  5
7EA6
331
7EA5
  5
7EA7
331
7EA6
  5
7EA8
331
7EA7
  5
7EA9
331
7EB6
  5
7EBA
331
7EB9
  5
7EBB
331
7EBA
  5
7EBC
331
7EBB
  5
7EBD
331
7EBC
  5
7EBE
331
7EBD
  5
7EBF
331
7EBE
  5
7EC0
331
7EBF
  5
7EC1
331
7EC0
  5
7EC2
331
7EC1
  5
7EC3
331
7EC2
  5
7EC4
331
7EC3
  5
7EC5
331
7EC4
  5
7EC6
331
7EC5
  5
7EC7
331
7EC6
  5
7EC8
331
7EC7
  5
7EC9
331
7EC8
  5
7ECA
331
7EC9
  5
7ECB
331
7ECA
  5
7ECC
331
7ECB
  5
7ECD
331
7ECC
  5
7ECE
331
7ECD
  5
7ECF
331
7EDB
  5
7EDD
331
7EDC
  5
7EDE
331
7EDD
  5
7EDF
331
7EDE
  5
7EE0
331
7EDF
  5
7EE2
331
7EE0
  5
7EE3
331
7EE2
  5
7EE4
331
7EE3
  5
7EE8
331
7EE7
  5
7EE9
331
7EE8
  5
7EEA
331
7EE9
  5
7EEB
331
7EEA
  5
7EED
331
7EEB
  5
7EEE
331
7EED
  5
7EEF
331
7EEE
  5
7EF3
331
7EF2
  5
7EF4
331
7EF3
  5
7EF5
331
7EF4
  5
7EF6
331
7EF5
  5
7EF8
331
7EF6
  5
7EF9
331
7EF8
  5
7EFA
331
7EF9
  5
7EFE
331
7EFD
  5
7EFF
331
7EFE
  5
7F00
331
7EFF
  5
7F01
331
7F00
  5
7F03
331
7F01
  5
7F04
331
7F03
  5
7F05
331
7F04
  5
7F09
331
7F4E
  5
7F50
331
7F4F
  5
7F51
331
7F50
  5
7F52
331
7F51
  5
7F53
331
7F52
  5
7F54
331
7F53
  5
7F55
331
7F54
  5
7F56
331
7F55
  5
7F57
331
7F56
  5
7F58
331
7F57
  5
7F59
331
7F58
  5
7F5A
331
7F59
  5
7F5C
331
7F8D
  5
7F8F
331
7F8E
  5
7F90
331
7F91
  5
7F93
331
7F92
  5
7F94
331
7F93
  5
7F95
331
7F94
  5
7F96
331
7F95
  5
7F97
331
7F96
  5
7F98
331
7F97
  5
7FC2
331
7F98
  5
7FC3
331
7FC9
  5
7FCB
331
7FCA
  5
7FDE
331
7FCB
  5
7FDF
331
807F
  5
8081
331
8080
  5
8082
331
8081
  5
8083
331
8082
  5
8084
331
86AF
  5
86B1
331
86B0
  5
86B2
331
86B1
  5
86B3
331
86B2
  5
86B4
331
86B3
  5
86B5
331
86B4
  5
86B6
331
86B5
  5
86B7
331
86B6
  5
86B8
331
86B7
  5
86B9
331
86BD
  5
86C4
331
86F1
  5
86F3
331
86F2
  5
86F4
331
885B
  5
885D
331
8C2C
  5
8C2F
331
8C2E
  5
8C30
331
8C2F
  5
8C31
331
8C30
  5
8C35
331
8C31
  5
8C36
331
96A0
  5
96A1
331
96A1
  5
96A2
331
96A2
  5
96A3
331
96A3
  5
96C4
  0
GROUP
  5
A727
102
{ACAD_REACTORS
330
D
102
}
330
D
100
AcDbGroup
300

 70
     1
 71
     1
340
A70E
340
A70F
340
A710
340
A711
340
A712
340
A713
340
A714
340
A715
340
A716
340
A717
340
A718
340
A719
340
A71A
340
A71B
340
A71C
340
A71D
340
A71E
340
A71F
340
A720
340
A721
340
A722
340
A723
340
A724
340
A725
340
A726
  0
GROUP
  5
A73B
102
{ACAD_REACTORS
330
D
102
}
330
D
100
AcDbGroup
300

 70
     1
 71
     1
340
A728
340
A729
340
A72A
340
A72B
340
A72C
340
A72D
340
A72E
340
A72F
340
A730
340
A731
340
A732
340
A733
340
A734
340
A735
340
A736
340
A737
340
A738
340
A739
340
A73A
  0
GROUP
  5
A8C7
102
{ACAD_REACTORS
330
D
102
}
330
D
100
AcDbGroup
300

 70
     1
 71
     1
340
A565
340
A566
340
A567
340
A568
340
A569
340
A56A
340
A56B
340
A56C
340
A56D
340
A56E
340
A56F
  0
LAYOUT
  5
1E
102
{ACAD_REACTORS
330
1A
102
}
330
1A
100
AcDbPlotSettings
  1

  2
none_device
  4
ISO_A3_(420.00_x_297.00_MM)
  6

 40
7.5
 41
20.0
 42
7.5
 43
20.0
 44
420.0
 45
297.0
 46
0.0
 47
0.0
 48
0.0
 49
0.0
140
0.0
141
0.0
142
1.0
143
1.0
 70
   688
 72
     1
 73
     0
 74
     5
  7

 75
    16
147
1.0
148
0.0
149
0.0
100
AcDbLayout
  1
Layout1
 70
     1
 71
     1
 10
0.0
 20
0.0
 11
412.5
 21
277.0
 12
0.0
 22
0.0
 32
0.0
 14
1.000000000000000E+20
 24
1.000000000000000E+20
 34
1.000000000000000E+20
 15
-1.000000000000000E+20
 25
-1.000000000000000E+20
 35
-1.000000000000000E+20
146
0.0
 13
0.0
 23
0.0
 33
0.0
 16
1.0
 26
0.0
 36
0.0
 17
0.0
 27
1.0
 37
0.0
 76
     0
330
1B
331
9F0D
  0
LAYOUT
  5
22
102
{ACAD_REACTORS
330
1A
102
}
330
1A
100
AcDbPlotSettings
  1

  2
none_device
  4
A3
  6

 40
3.174999952316284
 41
3.174999952316284
 42
3.17498779296875
 43
3.17498779296875
 44
297.0318298339844
 45
420.1583251953125
 46
-3.16
 47
-3.1
 48
-90.0
 49
-90.0
140
329.9999999999998
141
207.0
142
1.0
143
1.0
 70
 11940
 72
     1
 73
     1
 74
     4
  7
monochrome.ctb
 75
     0
147
1.0
148
90.0
149
90.0
100
AcDbLayout
  1
Model
 70
     1
 71
     0
 10
0.0
 20
0.0
 11
4200.0
 21
2970.0
 12
0.0
 22
0.0
 32
0.0
 14
0.0
 24
-170.0000000000005
 34
0.0
 15
4600.0
 25
2970.0
 35
0.0
146
0.0
 13
0.0
 23
0.0
 33
0.0
 16
1.0
 26
0.0
 36
0.0
 17
0.0
 27
1.0
 37
0.0
 76
     0
330
1F
331
7A57
  0
MLINESTYLE
  5
18
102
{ACAD_REACTORS
330
17
102
}
330
17
100
AcDbMlineStyle
  2
STANDARD
 70
     0
  3

 62
   256
 51
90.0
 52
90.0
 71
     2
 49
0.5
 62
   256
  6
BYLAYER
 49
-0.5
 62
   256
  6
BYLAYER
  0
ACDBPLACEHOLDER
  5
F
102
{ACAD_REACTORS
330
E
102
}
330
E
  0
SCALE
  5
6A4F
102
{ACAD_REACTORS
330
6A4E
102
}
330
6A4E
100
AcDbScale
 70
     0
300
1:1
140
1.0
141
1.0
290
     1
  0
SCALE
  5
6A50
102
{ACAD_REACTORS
330
6A4E
102
}
330
6A4E
100
AcDbScale
 70
     0
300
1:2
140
1.0
141
2.0
290
     0
  0
SCALE
  5
6A51
102
{ACAD_REACTORS
330
6A4E
102
}
330
6A4E
100
AcDbScale
 70
     0
300
1:4
140
1.0
141
4.0
290
     0
  0
SCALE
  5
6A52
102
{ACAD_REACTORS
330
6A4E
102
}
330
6A4E
100
AcDbScale
 70
     0
300
1:5
140
1.0
141
5.0
290
     0
  0
SCALE
  5
6A53
102
{ACAD_REACTORS
330
6A4E
102
}
330
6A4E
100
AcDbScale
 70
     0
300
1:8
140
1.0
141
8.0
290
     0
  0
SCALE
  5
6A54
102
{ACAD_REACTORS
330
6A4E
102
}
330
6A4E
100
AcDbScale
 70
     0
300
1:10
140
1.0
141
10.0
290
     0
  0
SCALE
  5
6A55
102
{ACAD_REACTORS
330
6A4E
102
}
330
6A4E
100
AcDbScale
 70
     0
300
1:16
140
1.0
141
16.0
290
     0
  0
SCALE
  5
6A56
102
{ACAD_REACTORS
330
6A4E
102
}
330
6A4E
100
AcDbScale
 70
     0
300
1:20
140
1.0
141
20.0
290
     0
  0
SCALE
  5
6A57
102
{ACAD_REACTORS
330
6A4E
102
}
330
6A4E
100
AcDbScale
 70
     0
300
1:30
140
1.0
141
30.0
290
     0
  0
SCALE
  5
6A58
102
{ACAD_REACTORS
330
6A4E
102
}
330
6A4E
100
AcDbScale
 70
     0
300
1:40
140
1.0
141
40.0
290
     0
  0
SCALE
  5
6A59
102
{ACAD_REACTORS
330
6A4E
102
}
330
6A4E
100
AcDbScale
 70
     0
300
1:50
140
1.0
141
50.0
290
     0
  0
SCALE
  5
6A5A
102
{ACAD_REACTORS
330
6A4E
102
}
330
6A4E
100
AcDbScale
 70
     0
300
1:100
140
1.0
141
100.0
290
     0
  0
SCALE
  5
6A5B
102
{ACAD_REACTORS
330
6A4E
102
}
330
6A4E
100
AcDbScale
 70
     0
300
2:1
140
2.0
141
1.0
290
     0
  0
SCALE
  5
6A5C
102
{ACAD_REACTORS
330
6A4E
102
}
330
6A4E
100
AcDbScale
 70
     0
300
4:1
140
4.0
141
1.0
290
     0
  0
SCALE
  5
6A5D
102
{ACAD_REACTORS
330
6A4E
102
}
330
6A4E
100
AcDbScale
 70
     0
300
8:1
140
8.0
141
1.0
290
     0
  0
SCALE
  5
6A5E
102
{ACAD_REACTORS
330
6A4E
102
}
330
6A4E
100
AcDbScale
 70
     0
300
10:1
140
10.0
141
1.0
290
     0
  0
SCALE
  5
6A5F
102
{ACAD_REACTORS
330
6A4E
102
}
330
6A4E
100
AcDbScale
 70
     0
300
100:1
140
100.0
141
1.0
290
     0
  0
SCALE
  5
6A60
102
{ACAD_REACTORS
330
6A4E
102
}
330
6A4E
100
AcDbScale
 70
     0
300
1/128" = 1'-0"
140
0.0078125
141
12.0
290
     0
  0
SCALE
  5
6A61
102
{ACAD_REACTORS
330
6A4E
102
}
330
6A4E
100
AcDbScale
 70
     0
300
1/64" = 1'-0"
140
0.015625
141
12.0
290
     0
  0
SCALE
  5
6A62
102
{ACAD_REACTORS
330
6A4E
102
}
330
6A4E
100
AcDbScale
 70
     0
300
1/32" = 1'-0"
140
0.03125
141
12.0
290
     0
  0
SCALE
  5
6A63
102
{ACAD_REACTORS
330
6A4E
102
}
330
6A4E
100
AcDbScale
 70
     0
300
1/16" = 1'-0"
140
0.0625
141
12.0
290
     0
  0
SCALE
  5
6A64
102
{ACAD_REACTORS
330
6A4E
102
}
330
6A4E
100
AcDbScale
 70
     0
300
3/32" = 1'-0"
140
0.09375
141
12.0
290
     0
  0
SCALE
  5
6A65
102
{ACAD_REACTORS
330
6A4E
102
}
330
6A4E
100
AcDbScale
 70
     0
300
1/8" = 1'-0"
140
0.125
141
12.0
290
     0
  0
SCALE
  5
6A66
102
{ACAD_REACTORS
330
6A4E
102
}
330
6A4E
100
AcDbScale
 70
     0
300
3/16" = 1'-0"
140
0.1875
141
12.0
290
     0
  0
SCALE
  5
6A67
102
{ACAD_REACTORS
330
6A4E
102
}
330
6A4E
100
AcDbScale
 70
     0
300
1/4" = 1'-0"
140
0.25
141
12.0
290
     0
  0
SCALE
  5
6A68
102
{ACAD_REACTORS
330
6A4E
102
}
330
6A4E
100
AcDbScale
 70
     0
300
3/8" = 1'-0"
140
0.375
141
12.0
290
     0
  0
SCALE
  5
6A69
102
{ACAD_REACTORS
330
6A4E
102
}
330
6A4E
100
AcDbScale
 70
     0
300
1/2" = 1'-0"
140
0.5
141
12.0
290
     0
  0
SCALE
  5
6A6A
102
{ACAD_REACTORS
330
6A4E
102
}
330
6A4E
100
AcDbScale
 70
     0
300
3/4" = 1'-0"
140
0.75
141
12.0
290
     0
  0
SCALE
  5
6A6B
102
{ACAD_REACTORS
330
6A4E
102
}
330
6A4E
100
AcDbScale
 70
     0
300
1" = 1'-0"
140
1.0
141
12.0
290
     0
  0
SCALE
  5
6A6C
102
{ACAD_REACTORS
330
6A4E
102
}
330
6A4E
100
AcDbScale
 70
     0
300
1-1/2" = 1'-0"
140
1.5
141
12.0
290
     0
  0
SCALE
  5
6A6D
102
{ACAD_REACTORS
330
6A4E
102
}
330
6A4E
100
AcDbScale
 70
     0
300
3" = 1'-0"
140
3.0
141
12.0
290
     0
  0
SCALE
  5
6A6E
102
{ACAD_REACTORS
330
6A4E
102
}
330
6A4E
100
AcDbScale
 70
     0
300
6" = 1'-0"
140
6.0
141
12.0
290
     0
  0
SCALE
  5
6A6F
102
{ACAD_REACTORS
330
6A4E
102
}
330
6A4E
100
AcDbScale
 70
     0
300
1'-0" = 1'-0"
140
12.0
141
12.0
290
     0
  0
DICTIONARYVAR
  5
79F
102
{ACAD_REACTORS
330
79E
102
}
330
79E
100
DictionaryVariables
280
     0
  1
1
  0
DICTIONARYVAR
  5
264F
102
{ACAD_REACTORS
330
79E
102
}
330
79E
100
DictionaryVariables
280
     0
  1
96
  0
ENDSEC
  0
EOF
