  0
SECTION
  2
HEADER
  9
$ACADVER
  1
AC1015
  9
$ACADMAINTVER
 70
     6
  9
$DWGCODEPAGE
  3
ANSI_932
  9
$INSBASE
 10
0.0
 20
0.0
 30
0.0
  9
$EXTMIN
 10
1364.999999999999
 20
1640.000000000001
 30
0.0
  9
$EXTMAX
 10
3434.999999999999
 20
3704.999999999997
 30
0.0
  9
$LIMMIN
 10
0.0
 20
0.0
  9
$LIMMAX
 10
6300.0
 20
4455.0
  9
$ORTHOMODE
 70
     1
  9
$REGENMODE
 70
     1
  9
$FILLMODE
 70
     1
  9
$QTEXTMODE
 70
     0
  9
$MIRRTEXT
 70
     1
  9
$LTSCALE
 40
4.5
  9
$ATTMODE
 70
     1
  9
$TEXTSIZE
 40
45.0
  9
$TRACEWID
 40
1.0
  9
$TEXTSTYLE
  7
Standard
  9
$CLAYER
  8
01注記寸法
  9
$CELTYPE
  6
ByLayer
  9
$CECOLOR
 62
   256
  9
$CELTSCALE
 40
1.0
  9
$DISPSILH
 70
     0
  9
$DIMSCALE
 40
15.0
  9
$DIMASZ
 40
3.0
  9
$DIMEXO
 40
1.5
  9
$DIMDLI
 40
10.0
  9
$DIMRND
 40
0.0
  9
$DIMDLE
 40
0.0
  9
$DIMEXE
 40
1.0
  9
$DIMTP
 40
0.0
  9
$DIMTM
 40
0.0
  9
$DIMTXT
 40
3.0
  9
$DIMCEN
 40
1.5
  9
$DIMTSZ
 40
0.0
  9
$DIMTOL
 70
     0
  9
$DIMLIM
 70
     0
  9
$DIMTIH
 70
     0
  9
$DIMTOH
 70
     0
  9
$DIMSE1
 70
     0
  9
$DIMSE2
 70
     0
  9
$DIMTAD
 70
     1
  9
$DIMZIN
 70
     8
  9
$DIMBLK
  1
Open
  9
$DIMASO
 70
     1
  9
$DIMSHO
 70
     1
  9
$DIMPOST
  1

  9
$DIMAPOST
  1

  9
$DIMALT
 70
     0
  9
$DIMALTD
 70
     3
  9
$DIMALTF
 40
0.03937007874016
  9
$DIMLFAC
 40
1.0
  9
$DIMTOFL
 70
     1
  9
$DIMTVP
 40
0.0
  9
$DIMTIX
 70
     0
  9
$DIMSOXD
 70
     0
  9
$DIMSAH
 70
     0
  9
$DIMBLK1
  1

  9
$DIMBLK2
  1

  9
$DIMSTYLE
  2
NEMY-15
  9
$DIMCLRD
 70
     0
  9
$DIMCLRE
 70
     0
  9
$DIMCLRT
 70
     0
  9
$DIMTFAC
 40
1.0
  9
$DIMGAP
 40
1.0
  9
$DIMJUST
 70
     0
  9
$DIMSD1
 70
     0
  9
$DIMSD2
 70
     0
  9
$DIMTOLJ
 70
     0
  9
$DIMTZIN
 70
     8
  9
$DIMALTZ
 70
     0
  9
$DIMALTTZ
 70
     0
  9
$DIMUPT
 70
     0
  9
$DIMDEC
 70
     1
  9
$DIMTDEC
 70
     1
  9
$DIMALTU
 70
     2
  9
$DIMALTTD
 70
     3
  9
$DIMTXSTY
  7
Standard
  9
$DIMAUNIT
 70
     0
  9
$DIMADEC
 70
     0
  9
$DIMALTRND
 40
0.0
  9
$DIMAZIN
 70
     0
  9
$DIMDSEP
 70
    46
  9
$DIMATFIT
 70
     3
  9
$DIMFRAC
 70
     0
  9
$DIMLDRBLK
  1
Open
  9
$DIMLUNIT
 70
     2
  9
$DIMLWD
 70
    -2
  9
$DIMLWE
 70
    -2
  9
$DIMTMOVE
 70
     0
  9
$LUNITS
 70
     2
  9
$LUPREC
 70
     4
  9
$SKETCHINC
 40
1.0
  9
$FILLETRAD
 40
2.0
  9
$AUNITS
 70
     0
  9
$AUPREC
 70
     0
  9
$MENU
  1
.
  9
$ELEVATION
 40
0.0
  9
$PELEVATION
 40
0.0
  9
$THICKNESS
 40
0.0
  9
$LIMCHECK
 70
     0
  9
$CHAMFERA
 40
5.0
  9
$CHAMFERB
 40
5.0
  9
$CHAMFERC
 40
20.0
  9
$CHAMFERD
 40
0.0
  9
$SKPOLY
 70
     0
  9
$TDCREATE
 40
2455859.405048461
  9
$TDUCREATE
 40
2455859.030048461
  9
$TDUPDATE
 40
2458376.401633935
  9
$TDUUPDATE
 40
2458376.026633935
  9
$TDINDWG
 40
1.3924987384
  9
$TDUSRTIMER
 40
2458376.025192026
  9
$USRTIMER
 70
     1
  9
$ANGBASE
 50
0.0
  9
$ANGDIR
 70
     0
  9
$PDMODE
 70
     0
  9
$PDSIZE
 40
0.0
  9
$PLINEWID
 40
0.0
  9
$SPLFRAME
 70
     0
  9
$SPLINETYPE
 70
     6
  9
$SPLINESEGS
 70
     8
  9
$HANDSEED
  5
1279C
  9
$SURFTAB1
 70
     6
  9
$SURFTAB2
 70
     6
  9
$SURFTYPE
 70
     6
  9
$SURFU
 70
     6
  9
$SURFV
 70
     6
  9
$UCSBASE
  2

  9
$UCSNAME
  2

  9
$UCSORG
 10
0.0
 20
0.0
 30
0.0
  9
$UCSXDIR
 10
1.0
 20
0.0
 30
0.0
  9
$UCSYDIR
 10
0.0
 20
1.0
 30
0.0
  9
$UCSORTHOREF
  2

  9
$UCSORTHOVIEW
 70
     0
  9
$UCSORGTOP
 10
0.0
 20
0.0
 30
0.0
  9
$UCSORGBOTTOM
 10
0.0
 20
0.0
 30
0.0
  9
$UCSORGLEFT
 10
0.0
 20
0.0
 30
0.0
  9
$UCSORGRIGHT
 10
0.0
 20
0.0
 30
0.0
  9
$UCSORGFRONT
 10
0.0
 20
0.0
 30
0.0
  9
$UCSORGBACK
 10
0.0
 20
0.0
 30
0.0
  9
$PUCSBASE
  2

  9
$PUCSNAME
  2

  9
$PUCSORG
 10
0.0
 20
0.0
 30
0.0
  9
$PUCSXDIR
 10
1.0
 20
0.0
 30
0.0
  9
$PUCSYDIR
 10
0.0
 20
1.0
 30
0.0
  9
$PUCSORTHOREF
  2

  9
$PUCSORTHOVIEW
 70
     0
  9
$PUCSORGTOP
 10
0.0
 20
0.0
 30
0.0
  9
$PUCSORGBOTTOM
 10
0.0
 20
0.0
 30
0.0
  9
$PUCSORGLEFT
 10
0.0
 20
0.0
 30
0.0
  9
$PUCSORGRIGHT
 10
0.0
 20
0.0
 30
0.0
  9
$PUCSORGFRONT
 10
0.0
 20
0.0
 30
0.0
  9
$PUCSORGBACK
 10
0.0
 20
0.0
 30
0.0
  9
$USERI1
 70
     0
  9
$USERI2
 70
     0
  9
$USERI3
 70
     0
  9
$USERI4
 70
     0
  9
$USERI5
 70
     0
  9
$USERR1
 40
0.0
  9
$USERR2
 40
0.0
  9
$USERR3
 40
0.0
  9
$USERR4
 40
0.0
  9
$USERR5
 40
0.0
  9
$WORLDVIEW
 70
     1
  9
$SHADEDGE
 70
     3
  9
$SHADEDIF
 70
    70
  9
$TILEMODE
 70
     1
  9
$MAXACTVP
 70
    64
  9
$PINSBASE
 10
0.0
 20
0.0
 30
0.0
  9
$PLIMCHECK
 70
     0
  9
$PEXTMIN
 10
1.000000000000000E+20
 20
1.000000000000000E+20
 30
1.000000000000000E+20
  9
$PEXTMAX
 10
-1.000000000000000E+20
 20
-1.000000000000000E+20
 30
-1.000000000000000E+20
  9
$PLIMMIN
 10
-7.5
 20
-20.0
  9
$PLIMMAX
 10
412.5
 20
277.0
  9
$UNITMODE
 70
     0
  9
$VISRETAIN
 70
     1
  9
$PLINEGEN
 70
     0
  9
$PSLTSCALE
 70
     1
  9
$TREEDEPTH
 70
  3020
  9
$CMLSTYLE
  2
Standard
  9
$CMLJUST
 70
     0
  9
$CMLSCALE
 40
20.0
  9
$PROXYGRAPHICS
 70
     1
  9
$MEASUREMENT
 70
     1
  9
$CELWEIGHT
370
    -1
  9
$ENDCAPS
280
     0
  9
$JOINSTYLE
280
     0
  9
$LWDISPLAY
290
     0
  9
$INSUNITS
 70
     4
  9
$HYPERLINKBASE
  1

  9
$STYLESHEET
  1
monochrome.ctb
  9
$XEDIT
290
     1
  9
$CEPSNTYPE
380
     0
  9
$PSTYLEMODE
290
     1
  9
$FINGERPRINTGUID
  2
{FDEAD578-A652-11D2-9A35-0060089B3A3F}
  9
$VERSIONGUID
  2
{11DB8456-EC16-47A0-BA21-BBDA07550E8A}
  9
$EXTNAMES
290
     1
  9
$PSVPSCALE
 40
0.0
  9
$OLESTARTUP
290
     0
  0
ENDSEC
  0
SECTION
  2
CLASSES
  0
CLASS
  1
ACDBDICTIONARYWDFLT
  2
AcDbDictionaryWithDefault
  3
ObjectDBX Classes
 90
        0
280
     0
281
     0
  0
CLASS
  1
ACDBPLACEHOLDER
  2
AcDbPlaceHolder
  3
ObjectDBX Classes
 90
        0
280
     0
281
     0
  0
CLASS
  1
LAYOUT
  2
AcDbLayout
  3
ObjectDBX Classes
 90
        0
280
     0
281
     0
  0
CLASS
  1
DICTIONARYVAR
  2
AcDbDictionaryVar
  3
ObjectDBX Classes
 90
        0
280
     0
281
     0
  0
CLASS
  1
SCALE
  2
AcDbScale
  3
ObjectDBX Classes
 90
     1153
280
     0
281
     0
  0
CLASS
  1
MATERIAL
  2
AcDbMaterial
  3
ObjectDBX Classes
 90
     1153
280
     0
281
     0
  0
CLASS
  1
VISUALSTYLE
  2
AcDbVisualStyle
  3
ObjectDBX Classes
 90
     4095
280
     0
281
     0
  0
CLASS
  1
TABLESTYLE
  2
AcDbTableStyle
  3
ObjectDBX Classes
 90
     4095
280
     0
281
     0
  0
CLASS
  1
RASTERVARIABLES
  2
AcDbRasterVariables
  3
ISM
 90
        0
280
     0
281
     0
  0
CLASS
  1
SORTENTSTABLE
  2
AcDbSortentsTable
  3
ObjectDBX Classes
 90
        0
280
     0
281
     0
  0
CLASS
  1
SUN
  2
AcDbSun
  3
SCENEOE
 90
     1153
280
     0
281
     0
  0
CLASS
  1
MLEADERSTYLE
  2
AcDbMLeaderStyle
  3
ACDB_MLEADERSTYLE_CLASS
 90
     4095
280
     0
281
     0
  0
ENDSEC
  0
SECTION
  2
TABLES
  0
TABLE
  2
VPORT
  5
8
330
0
100
AcDbSymbolTable
 70
     2
  0
VPORT
  5
7A57
330
8
100
AcDbSymbolTableRecord
100
AcDbViewportTableRecord
  2
*Active
 70
     0
 10
0.0
 20
0.0
 11
1.0
 21
1.0
 12
3028.387993341542
 22
2570.481945136
 13
0.0
 23
0.0
 14
10.0
 24
10.0
 15
10.0
 25
10.0
 16
0.0
 26
0.0
 36
1.0
 17
0.0
 27
0.0
 37
0.0
 40
3843.359999999998
 41
2.293577981651376
 42
50.0
 43
0.0
 44
0.0
 50
0.0
 51
0.0
 71
    16
 72
   100
 73
     1
 74
     2
 75
     0
 76
     0
 77
     0
 78
     0
281
     0
 65
     1
110
0.0
120
0.0
130
0.0
111
1.0
121
0.0
131
0.0
112
0.0
122
1.0
132
0.0
 79
     0
146
0.0
  0
ENDTAB
  0
TABLE
  2
LTYPE
  5
5
330
0
100
AcDbSymbolTable
 70
     5
  0
LTYPE
  5
14
330
5
100
AcDbSymbolTableRecord
100
AcDbLinetypeTableRecord
  2
ByBlock
 70
     0
  3

 72
    65
 73
     0
 40
0.0
  0
LTYPE
  5
15
330
5
100
AcDbSymbolTableRecord
100
AcDbLinetypeTableRecord
  2
ByLayer
 70
     0
  3

 72
    65
 73
     0
 40
0.0
  0
LTYPE
  5
16
330
5
100
AcDbSymbolTableRecord
100
AcDbLinetypeTableRecord
  2
Continuous
 70
     0
  3
Solid line
 72
    65
 73
     0
 40
0.0
  0
LTYPE
  5
BA
330
5
100
AcDbSymbolTableRecord
100
AcDbLinetypeTableRecord
  2
HIDDEN
 70
     0
  3
Hidden __ __ __ __ __ __ __ __ __ __ __ __ __ _
 72
    65
 73
     2
 40
9.524999999999999
 49
6.35
 74
     0
 49
-3.175
 74
     0
  0
LTYPE
  5
BB
330
5
100
AcDbSymbolTableRecord
100
AcDbLinetypeTableRecord
  2
PHANTOM
 70
     0
  3
Phantom ______  __  __  ______  __  __  ______
 72
    65
 73
     6
 40
63.5
 49
31.75
 74
     0
 49
-6.35
 74
     0
 49
6.35
 74
     0
 49
-6.35
 74
     0
 49
6.35
 74
     0
 49
-6.35
 74
     0
  0
LTYPE
  5
BC
330
5
100
AcDbSymbolTableRecord
100
AcDbLinetypeTableRecord
  2
CENTER
 70
     0
  3
Center ____ _ ____ _ ____ _ ____ _ ____ _ ____
 72
    65
 73
     4
 40
50.8
 49
31.75
 74
     0
 49
-6.35
 74
     0
 49
6.35
 74
     0
 49
-6.35
 74
     0
  0
LTYPE
  5
47C
330
5
100
AcDbSymbolTableRecord
100
AcDbLinetypeTableRecord
  2
DOT
 70
     0
  3
Dot . . . . . . . . . . . . . . . . . . . . . .
 72
    65
 73
     2
 40
6.35
 49
0.0
 74
     0
 49
-6.35
 74
     0
  0
ENDTAB
  0
TABLE
  2
LAYER
  5
2
102
{ACAD_XDICTIONARY
360
7A6F
102
}
330
0
100
AcDbSymbolTable
 70
    22
  0
LAYER
  5
10
330
2
100
AcDbSymbolTableRecord
100
AcDbLayerTableRecord
  2
0
 70
     0
 62
     7
  6
Continuous
370
    -3
390
F
  0
LAYER
  5
45
330
2
100
AcDbSymbolTableRecord
100
AcDbLayerTableRecord
  2
01注記寸法
 70
     0
 62
     7
  6
Continuous
370
     9
390
F
  0
LAYER
  5
46
330
2
100
AcDbSymbolTableRecord
100
AcDbLayerTableRecord
  2
02実線
 70
     0
 62
     2
  6
Continuous
370
    15
390
F
  0
LAYER
  5
5F
330
2
100
AcDbSymbolTableRecord
100
AcDbLayerTableRecord
  2
Defpoints
 70
     0
 62
     7
  6
Continuous
290
     0
370
    -3
390
F
  0
LAYER
  5
7E52
330
2
100
AcDbSymbolTableRecord
100
AcDbLayerTableRecord
  2
03破線
 70
     0
 62
     3
  6
HIDDEN
370
     9
390
F
  0
LAYER
  5
7E55
330
2
100
AcDbSymbolTableRecord
100
AcDbLayerTableRecord
  2
04一点鎖線
 70
     0
 62
    70
  6
CENTER
370
     9
390
F
  0
LAYER
  5
7E58
330
2
100
AcDbSymbolTableRecord
100
AcDbLayerTableRecord
  2
05二点鎖線
 70
     0
 62
   110
  6
PHANTOM
370
     9
390
F
  0
LAYER
  5
7E5B
330
2
100
AcDbSymbolTableRecord
100
AcDbLayerTableRecord
  2
06点線
 70
     0
 62
    96
  6
DOT
370
     9
390
F
  0
LAYER
  5
7E5E
330
2
100
AcDbSymbolTableRecord
100
AcDbLayerTableRecord
  2
07その他
 70
     0
 62
     6
  6
Continuous
370
    13
390
F
  0
LAYER
  5
7E60
330
2
100
AcDbSymbolTableRecord
100
AcDbLayerTableRecord
  2
08非表示
 70
     0
 62
     4
  6
Continuous
290
     0
370
     0
390
F
  0
LAYER
  5
7E62
330
2
100
AcDbSymbolTableRecord
100
AcDbLayerTableRecord
  2
09図枠
 70
     0
 62
     1
  6
Continuous
370
    30
390
F
  0
LAYER
  5
835A
330
2
100
AcDbSymbolTableRecord
100
AcDbLayerTableRecord
  2
10副資材
 70
     0
 62
    51
  6
Continuous
290
     0
370
    -3
390
F
1001
AcAecLayerStandard
1000

1000

  0
LAYER
  5
8CAC
330
2
100
AcDbSymbolTableRecord
100
AcDbLayerTableRecord
  2
11機器
 70
     0
 62
    11
  6
Continuous
290
     0
370
    -3
390
F
1001
AcAecLayerStandard
1000

1000

  0
LAYER
  5
8CB1
330
2
100
AcDbSymbolTableRecord
100
AcDbLayerTableRecord
  2
12防振架台
 70
     0
 62
   190
  6
Continuous
290
     0
370
    -3
390
F
1001
AcAecLayerStandard
1000

1000

  0
LAYER
  5
A15B
330
2
100
AcDbSymbolTableRecord
100
AcDbLayerTableRecord
  2
13製作用注記
 70
     0
 62
     5
  6
Continuous
290
     0
370
     9
390
F
1001
AcAecLayerStandard
1000

1000

  0
ENDTAB
  0
TABLE
  2
STYLE
  5
3
330
0
100
AcDbSymbolTable
 70
     3
  0
STYLE
  5
11
330
3
100
AcDbSymbolTableRecord
100
AcDbTextStyleTableRecord
  2
Standard
 70
     0
 40
0.0
 41
1.0
 50
0.0
 71
     0
 42
45.0
  3
MSGOTHIC.TTC
  4

1001
ACAD
1000
MS Gothic
1071
    32817
  0
STYLE
  5
47B
330
3
100
AcDbSymbolTableRecord
100
AcDbTextStyleTableRecord
  2

 70
     1
 40
0.0
 41
1.0
 50
0.0
 71
     0
 42
3.0
  3
ltypeshp.shx
  4

  0
ENDTAB
  0
TABLE
  2
VIEW
  5
6
330
0
100
AcDbSymbolTable
 70
     0
  0
ENDTAB
  0
TABLE
  2
UCS
  5
7
330
0
100
AcDbSymbolTable
 70
     0
  0
ENDTAB
  0
TABLE
  2
APPID
  5
9
330
0
100
AcDbSymbolTable
 70
     6
  0
APPID
  5
12
330
9
100
AcDbSymbolTableRecord
100
AcDbRegAppTableRecord
  2
ACAD
 70
     0
  0
APPID
  5
6A9E
330
9
100
AcDbSymbolTableRecord
100
AcDbRegAppTableRecord
  2
ACAD_DSTYLE_DIMRADIAL_EXTENSION
 70
     0
  0
APPID
  5
742C
330
9
100
AcDbSymbolTableRecord
100
AcDbRegAppTableRecord
  2
ACAD_PSEXT
 70
     0
  0
APPID
  5
742D
330
9
100
AcDbSymbolTableRecord
100
AcDbRegAppTableRecord
  2
ACAD_DSTYLE_DIMJAG
 70
     0
  0
APPID
  5
742E
330
9
100
AcDbSymbolTableRecord
100
AcDbRegAppTableRecord
  2
ACAD_DSTYLE_DIMTALN
 70
     0
  0
APPID
  5
835C
330
9
100
AcDbSymbolTableRecord
100
AcDbRegAppTableRecord
  2
AcAecLayerStandard
 70
     0
  0
ENDTAB
  0
TABLE
  2
DIMSTYLE
  5
A
330
0
100
AcDbSymbolTable
 70
    24
100
AcDbDimStyleTable
  0
DIMSTYLE
105
73
330
A
100
AcDbSymbolTableRecord
100
AcDbDimStyleTableRecord
  2
NEMY-1
 70
     0
 41
3.0
 42
1.5
 43
10.0
 44
1.0
 73
     0
 74
     0
 77
     1
 78
     8
140
3.0
141
1.5
143
0.03937007874016
147
1.0
171
     3
172
     1
178
     0
271
     1
272
     1
274
     3
283
     0
284
     8
340
11
341
8F
342
8F
  0
DIMSTYLE
105
4DCE
330
A
100
AcDbSymbolTableRecord
100
AcDbDimStyleTableRecord
  2
NEMY-2
 70
     0
 40
2.0
 41
3.0
 42
1.5
 43
10.0
 44
1.0
 73
     0
 74
     0
 77
     1
 78
     8
140
3.0
141
1.5
143
0.03937007874016
147
1.0
171
     3
172
     1
178
     0
271
     1
272
     1
274
     3
283
     0
284
     8
340
11
341
8F
342
8F
  0
DIMSTYLE
105
4DCF
330
A
100
AcDbSymbolTableRecord
100
AcDbDimStyleTableRecord
  2
NEMY-3
 70
     0
 40
3.0
 41
3.0
 42
1.5
 43
10.0
 44
1.0
 73
     0
 74
     0
 77
     1
 78
     8
140
3.0
141
1.5
143
0.03937007874016
147
1.0
171
     3
172
     1
178
     0
271
     1
272
     1
274
     3
283
     0
284
     8
340
11
341
8F
342
8F
  0
DIMSTYLE
105
4DD0
102
{ACAD_REACTORS
330
120C2
330
120CF
330
120DC
330
120E9
330
120F6
102
}
330
A
100
AcDbSymbolTableRecord
100
AcDbDimStyleTableRecord
  2
NEMY-5
 70
     0
 40
5.0
 41
3.0
 42
1.5
 43
10.0
 44
1.0
 73
     0
 74
     0
 77
     1
 78
     8
140
3.0
141
1.5
143
0.03937007874016
147
1.0
171
     3
172
     1
178
     0
271
     1
272
     1
274
     3
283
     0
284
     8
340
11
341
8F
342
8F
  0
DIMSTYLE
105
4DD1
330
A
100
AcDbSymbolTableRecord
100
AcDbDimStyleTableRecord
  2
NEMY-8
 70
     0
 40
8.0
 41
3.0
 42
1.5
 43
10.0
 44
1.0
 73
     0
 74
     0
 77
     1
 78
     8
140
3.0
141
1.5
143
0.03937007874016
147
1.0
171
     3
172
     1
178
     0
271
     1
272
     1
274
     3
283
     0
284
     8
340
11
341
8F
342
8F
  0
DIMSTYLE
105
4DD2
102
{ACAD_REACTORS
102
}
330
A
100
AcDbSymbolTableRecord
100
AcDbDimStyleTableRecord
  2
NEMY-15
 70
     0
 40
15.0
 41
3.0
 42
1.5
 43
10.0
 44
1.0
 73
     0
 74
     0
 77
     1
 78
     8
140
3.0
141
1.5
143
0.03937007874016
147
1.0
171
     3
172
     1
178
     0
271
     1
272
     1
274
     3
283
     0
284
     8
340
11
341
8F
342
8F
  0
DIMSTYLE
105
4DD3
330
A
100
AcDbSymbolTableRecord
100
AcDbDimStyleTableRecord
  2
NEMY-10
 70
     0
 40
10.0
 41
3.0
 42
1.5
 43
10.0
 44
1.0
 73
     0
 74
     0
 77
     1
 78
     8
140
3.0
141
1.5
143
0.03937007874016
147
1.0
171
     3
172
     1
178
     0
271
     1
272
     1
274
     3
283
     0
284
     8
340
11
341
8F
342
8F
  0
DIMSTYLE
105
4DD4
330
A
100
AcDbSymbolTableRecord
100
AcDbDimStyleTableRecord
  2
NEMY-25
 70
     0
 40
25.0
 41
3.0
 42
1.5
 43
10.0
 44
1.0
 73
     0
 74
     0
 77
     1
 78
     8
140
3.0
141
1.5
143
0.03937007874016
147
1.0
171
     3
172
     1
178
     0
271
     1
272
     1
274
     3
283
     0
284
     8
340
11
341
8F
342
8F
  0
DIMSTYLE
105
4DD5
330
A
100
AcDbSymbolTableRecord
100
AcDbDimStyleTableRecord
  2
NEMY-30
 70
     0
 40
30.0
 41
3.0
 42
1.5
 43
10.0
 44
1.0
 73
     0
 74
     0
 77
     1
 78
     8
140
3.0
141
1.5
143
0.03937007874016
147
1.0
171
     3
172
     1
178
     0
271
     1
272
     1
274
     3
283
     0
284
     8
340
11
341
8F
342
8F
  0
DIMSTYLE
105
4DD6
330
A
100
AcDbSymbolTableRecord
100
AcDbDimStyleTableRecord
  2
NEMY-50
 70
     0
 40
50.0
 41
3.0
 42
1.5
 43
10.0
 44
1.0
 73
     0
 74
     0
 77
     1
 78
     8
140
3.0
141
1.5
143
0.03937007874016
147
1.0
171
     3
172
     1
178
     0
271
     1
272
     1
274
     3
283
     0
284
     8
340
11
341
8F
342
8F
  0
DIMSTYLE
105
4E6F
330
A
100
AcDbSymbolTableRecord
100
AcDbDimStyleTableRecord
  2
NEMY-20
 70
     0
 40
20.0
 41
3.0
 42
1.5
 43
10.0
 44
1.0
 73
     0
 74
     0
 77
     1
 78
     8
140
3.0
141
1.5
143
0.03937007874016
147
1.0
171
     3
172
     1
178
     0
271
     1
272
     1
274
     3
283
     0
284
     8
340
11
341
8F
342
8F
  0
DIMSTYLE
105
4F44
330
A
100
AcDbSymbolTableRecord
100
AcDbDimStyleTableRecord
  2
NEMY-10$3
 70
     0
 40
10.0
 41
3.0
 42
1.5
 43
10.0
 44
1.0
 77
     1
 78
     8
140
3.0
141
1.5
143
0.03937007874016
147
1.0
171
     3
172
     1
178
     0
271
     1
272
     1
274
     3
283
     0
284
     8
340
11
341
8F
342
8F
  0
DIMSTYLE
105
4F45
330
A
100
AcDbSymbolTableRecord
100
AcDbDimStyleTableRecord
  2
NEMY-1$3
 70
     0
 41
3.0
 42
1.5
 43
10.0
 44
1.0
 77
     1
 78
     8
140
3.0
141
1.5
143
0.03937007874016
147
1.0
171
     3
172
     1
178
     0
271
     1
272
     1
274
     3
283
     0
284
     8
340
11
341
8F
342
8F
  0
DIMSTYLE
105
4F46
330
A
100
AcDbSymbolTableRecord
100
AcDbDimStyleTableRecord
  2
NEMY-12
 70
     0
 40
12.0
 41
3.0
 42
1.5
 43
10.0
 44
1.0
 73
     0
 74
     0
 77
     1
 78
     8
140
3.0
141
1.5
143
0.03937007874016
147
1.0
171
     3
172
     1
178
     0
271
     1
272
     1
274
     3
283
     0
284
     8
340
11
341
8F
342
8F
  0
DIMSTYLE
105
4F47
330
A
100
AcDbSymbolTableRecord
100
AcDbDimStyleTableRecord
  2
NEMY-12$3
 70
     0
 40
12.0
 41
3.0
 42
1.5
 43
10.0
 44
1.0
 77
     1
 78
     8
140
3.0
141
1.5
143
0.03937007874016
147
1.0
171
     3
172
     1
178
     0
271
     1
272
     1
274
     3
283
     0
284
     8
340
11
341
8F
342
8F
  0
DIMSTYLE
105
5E6E
330
A
100
AcDbSymbolTableRecord
100
AcDbDimStyleTableRecord
  2
NEMY-8$3
 70
     0
 40
8.0
 41
3.0
 42
1.5
 43
10.0
 44
1.0
 77
     1
 78
     8
140
3.0
141
1.5
143
0.03937007874016
147
1.0
171
     3
172
     1
178
     0
271
     1
272
     1
274
     3
283
     0
284
     8
340
11
341
8F
342
8F
  0
DIMSTYLE
105
5E6F
330
A
100
AcDbSymbolTableRecord
100
AcDbDimStyleTableRecord
  2
NEMY-50$3
 70
     0
 40
50.0
 41
3.0
 42
1.5
 43
10.0
 44
1.0
 77
     1
 78
     8
140
3.0
141
1.5
143
0.03937007874016
147
1.0
171
     3
172
     1
178
     0
271
     1
272
     1
274
     3
283
     0
284
     8
340
11
341
8F
342
8F
  0
DIMSTYLE
105
5E70
330
A
100
AcDbSymbolTableRecord
100
AcDbDimStyleTableRecord
  2
NEMY-5$3
 70
     0
 40
5.0
 41
3.0
 42
1.5
 43
10.0
 44
1.0
 77
     1
 78
     8
140
3.0
141
1.5
143
0.03937007874016
147
1.0
171
     3
172
     1
178
     0
271
     1
272
     1
274
     3
283
     0
284
     8
340
11
341
8F
342
8F
  0
DIMSTYLE
105
5E71
330
A
100
AcDbSymbolTableRecord
100
AcDbDimStyleTableRecord
  2
NEMY-30$3
 70
     0
 40
30.0
 41
3.0
 42
1.5
 43
10.0
 44
1.0
 77
     1
 78
     8
140
3.0
141
1.5
143
0.03937007874016
147
1.0
171
     3
172
     1
178
     0
271
     1
272
     1
274
     3
283
     0
284
     8
340
11
341
8F
342
8F
  0
DIMSTYLE
105
5E72
330
A
100
AcDbSymbolTableRecord
100
AcDbDimStyleTableRecord
  2
NEMY-3$3
 70
     0
 40
3.0
 41
3.0
 42
1.5
 43
10.0
 44
1.0
 77
     1
 78
     8
140
3.0
141
1.5
143
0.03937007874016
147
1.0
171
     3
172
     1
178
     0
271
     1
272
     1
274
     3
283
     0
284
     8
340
11
341
8F
342
8F
  0
DIMSTYLE
105
5E73
330
A
100
AcDbSymbolTableRecord
100
AcDbDimStyleTableRecord
  2
NEMY-25$3
 70
     0
 40
25.0
 41
3.0
 42
1.5
 43
10.0
 44
1.0
 77
     1
 78
     8
140
3.0
141
1.5
143
0.03937007874016
147
1.0
171
     3
172
     1
178
     0
271
     1
272
     1
274
     3
283
     0
284
     8
340
11
341
8F
342
8F
  0
DIMSTYLE
105
5E74
330
A
100
AcDbSymbolTableRecord
100
AcDbDimStyleTableRecord
  2
NEMY-20$3
 70
     0
 40
20.0
 41
3.0
 42
1.5
 43
10.0
 44
1.0
 77
     1
 78
     8
140
3.0
141
1.5
143
0.03937007874016
147
1.0
171
     3
172
     1
178
     0
271
     1
272
     1
274
     3
283
     0
284
     8
340
11
341
8F
342
8F
  0
DIMSTYLE
105
5E75
330
A
100
AcDbSymbolTableRecord
100
AcDbDimStyleTableRecord
  2
NEMY-2$3
 70
     0
 40
2.0
 41
3.0
 42
1.5
 43
10.0
 44
1.0
 77
     1
 78
     8
140
3.0
141
1.5
143
0.03937007874016
147
1.0
171
     3
172
     1
178
     0
271
     1
272
     1
274
     3
283
     0
284
     8
340
11
341
8F
342
8F
  0
DIMSTYLE
105
5E76
330
A
100
AcDbSymbolTableRecord
100
AcDbDimStyleTableRecord
  2
NEMY-15$3
 70
     0
 40
15.0
 41
3.0
 42
1.5
 43
10.0
 44
1.0
 77
     1
 78
     8
140
3.0
141
1.5
143
0.03937007874016
147
1.0
171
     3
172
     1
178
     0
271
     1
272
     1
274
     3
283
     0
284
     8
340
11
341
8F
342
8F
  0
ENDTAB
  0
TABLE
  2
BLOCK_RECORD
  5
1
330
0
100
AcDbSymbolTable
 70
  1781
  0
BLOCK_RECORD
  5
1F
102
{ACAD_XDICTIONARY
360
969E
102
}
330
1
100
AcDbSymbolTableRecord
100
AcDbBlockTableRecord
  2
*Model_Space
340
22
  0
BLOCK_RECORD
  5
1B
330
1
100
AcDbSymbolTableRecord
100
AcDbBlockTableRecord
  2
*Paper_Space
340
1E
  0
BLOCK_RECORD
  5
8F
330
1
100
AcDbSymbolTableRecord
100
AcDbBlockTableRecord
  2
_Open
340
0
102
{BLKREFS
331
E927
331
FF3E
331
FF4A
331
FF65
331
FF71
331
120C8
331
120D5
331
120E2
331
120EF
331
120FC
331
12618
331
12643
331
12670
331
1267D
331
1268A
331
12697
331
126B4
331
126D0
331
126EC
331
12717
331
12738
331
12745
331
E928
331
FF3F
331
FF4B
331
FF66
331
FF72
331
120C9
331
120D6
331
120E3
331
120F0
331
120FD
331
12619
331
12644
331
12671
331
1267E
331
1268B
331
12698
331
126B5
331
126D1
331
126ED
331
12718
331
12739
331
12746
331
FFFA
331
1260B
331
12627
331
12636
331
12652
331
126C3
331
126FB
331
12726
331
FF32
331
FF59
331
FFFB
331
1260C
331
12628
331
12637
331
12653
331
126A7
331
126C4
331
126E0
331
126FC
331
1270B
331
12727
331
FF33
331
FF5A
331
126A8
331
126E1
331
1270C
102
}
  0
BLOCK_RECORD
  5
822C
330
1
100
AcDbSymbolTableRecord
100
AcDbBlockTableRecord
  2
L50x50xt6-破線
340
0
102
{BLKREFS
331
E6E8
331
E6E9
331
E6EA
331
E6EB
331
E706
331
E707
331
E70A
331
E70B
331
E7B8
331
E7B9
331
E7BA
331
E7BB
331
12753
331
12754
102
}
  0
BLOCK_RECORD
  5
82B8
330
1
100
AcDbSymbolTableRecord
100
AcDbBlockTableRecord
  2
L50x50xt6
340
0
102
{BLKREFS
331
8344
102
}
  0
BLOCK_RECORD
  5
82F2
330
1
100
AcDbSymbolTableRecord
100
AcDbBlockTableRecord
  2
hole-φ16
340
0
102
{BLKREFS
331
0
331
0
331
0
331
0
331
0
331
1225C
331
1225D
331
1225E
331
1225F
331
12260
331
12261
331
12262
331
12263
102
}
  0
BLOCK_RECORD
  5
8341
330
1
100
AcDbSymbolTableRecord
100
AcDbBlockTableRecord
  2
AH-アンカーL50
340
0
102
{BLKREFS
331
0
331
0
331
0
331
0
331
0
102
}
  0
BLOCK_RECORD
  5
E921
330
1
100
AcDbSymbolTableRecord
100
AcDbBlockTableRecord
  2
*D1049
340
0
  0
BLOCK_RECORD
  5
FF29
330
1
100
AcDbSymbolTableRecord
100
AcDbBlockTableRecord
  2
*D1261
340
0
  0
BLOCK_RECORD
  5
FF38
330
1
100
AcDbSymbolTableRecord
100
AcDbBlockTableRecord
  2
*D1262
340
0
  0
BLOCK_RECORD
  5
FF44
330
1
100
AcDbSymbolTableRecord
100
AcDbBlockTableRecord
  2
*D1263
340
0
  0
BLOCK_RECORD
  5
FF50
330
1
100
AcDbSymbolTableRecord
100
AcDbBlockTableRecord
  2
*D1264
340
0
  0
BLOCK_RECORD
  5
FF5F
330
1
100
AcDbSymbolTableRecord
100
AcDbBlockTableRecord
  2
*D1265
340
0
  0
BLOCK_RECORD
  5
FF6B
330
1
100
AcDbSymbolTableRecord
100
AcDbBlockTableRecord
  2
*D1266
340
0
  0
BLOCK_RECORD
  5
FFF2
330
1
100
AcDbSymbolTableRecord
100
AcDbBlockTableRecord
  2
*D1275
340
0
  0
BLOCK_RECORD
  5
11E63
330
1
100
AcDbSymbolTableRecord
100
AcDbBlockTableRecord
  2
シール(検査済)
340
0
102
{BLKREFS
331
0
102
}
  0
BLOCK_RECORD
  5
11E69
330
1
100
AcDbSymbolTableRecord
100
AcDbBlockTableRecord
  2
シール(型式)
340
0
102
{BLKREFS
331
0
102
}
  0
BLOCK_RECORD
  5
1209A
330
1
100
AcDbSymbolTableRecord
100
AcDbBlockTableRecord
  2
ECOV-EN45~67WB
340
0
102
{BLKREFS
331
0
102
}
  0
BLOCK_RECORD
  5
120C3
330
1
100
AcDbSymbolTableRecord
100
AcDbBlockTableRecord
  2
*D1718
340
0
  0
BLOCK_RECORD
  5
120D0
330
1
100
AcDbSymbolTableRecord
100
AcDbBlockTableRecord
  2
*D1719
340
0
  0
BLOCK_RECORD
  5
120DD
330
1
100
AcDbSymbolTableRecord
100
AcDbBlockTableRecord
  2
*D1720
340
0
  0
BLOCK_RECORD
  5
120EA
330
1
100
AcDbSymbolTableRecord
100
AcDbBlockTableRecord
  2
*D1721
340
0
  0
BLOCK_RECORD
  5
120F7
330
1
100
AcDbSymbolTableRecord
100
AcDbBlockTableRecord
  2
*D1722
340
0
  0
BLOCK_RECORD
  5
121F6
330
1
100
AcDbSymbolTableRecord
100
AcDbBlockTableRecord
  2
1-MDL338
340
0
102
{BLKREFS
331
0
102
}
  0
BLOCK_RECORD
  5
12603
330
1
100
AcDbSymbolTableRecord
100
AcDbBlockTableRecord
  2
*D1758
340
0
  0
BLOCK_RECORD
  5
12612
330
1
100
AcDbSymbolTableRecord
100
AcDbBlockTableRecord
  2
*D1759
340
0
  0
BLOCK_RECORD
  5
1261F
330
1
100
AcDbSymbolTableRecord
100
AcDbBlockTableRecord
  2
*D1760
340
0
  0
BLOCK_RECORD
  5
1262E
330
1
100
AcDbSymbolTableRecord
100
AcDbBlockTableRecord
  2
*D1761
340
0
  0
BLOCK_RECORD
  5
1263D
330
1
100
AcDbSymbolTableRecord
100
AcDbBlockTableRecord
  2
*D1762
340
0
  0
BLOCK_RECORD
  5
1264A
330
1
100
AcDbSymbolTableRecord
100
AcDbBlockTableRecord
  2
*D1763
340
0
  0
BLOCK_RECORD
  5
1266A
330
1
100
AcDbSymbolTableRecord
100
AcDbBlockTableRecord
  2
*D1765
340
0
  0
BLOCK_RECORD
  5
12677
330
1
100
AcDbSymbolTableRecord
100
AcDbBlockTableRecord
  2
*D1766
340
0
  0
BLOCK_RECORD
  5
12684
330
1
100
AcDbSymbolTableRecord
100
AcDbBlockTableRecord
  2
*D1767
340
0
  0
BLOCK_RECORD
  5
12691
330
1
100
AcDbSymbolTableRecord
100
AcDbBlockTableRecord
  2
*D1768
340
0
  0
BLOCK_RECORD
  5
1269E
330
1
100
AcDbSymbolTableRecord
100
AcDbBlockTableRecord
  2
*D1769
340
0
  0
BLOCK_RECORD
  5
126AE
330
1
100
AcDbSymbolTableRecord
100
AcDbBlockTableRecord
  2
*D1770
340
0
  0
BLOCK_RECORD
  5
126BB
330
1
100
AcDbSymbolTableRecord
100
AcDbBlockTableRecord
  2
*D1771
340
0
  0
BLOCK_RECORD
  5
126CA
330
1
100
AcDbSymbolTableRecord
100
AcDbBlockTableRecord
  2
*D1772
340
0
  0
BLOCK_RECORD
  5
126D7
330
1
100
AcDbSymbolTableRecord
100
AcDbBlockTableRecord
  2
*D1773
340
0
  0
BLOCK_RECORD
  5
126E6
330
1
100
AcDbSymbolTableRecord
100
AcDbBlockTableRecord
  2
*D1774
340
0
  0
BLOCK_RECORD
  5
126F3
330
1
100
AcDbSymbolTableRecord
100
AcDbBlockTableRecord
  2
*D1775
340
0
  0
BLOCK_RECORD
  5
12702
330
1
100
AcDbSymbolTableRecord
100
AcDbBlockTableRecord
  2
*D1776
340
0
  0
BLOCK_RECORD
  5
12711
330
1
100
AcDbSymbolTableRecord
100
AcDbBlockTableRecord
  2
*D1777
340
0
  0
BLOCK_RECORD
  5
1271E
330
1
100
AcDbSymbolTableRecord
100
AcDbBlockTableRecord
  2
*D1778
340
0
  0
BLOCK_RECORD
  5
12732
330
1
100
AcDbSymbolTableRecord
100
AcDbBlockTableRecord
  2
*D1779
340
0
  0
BLOCK_RECORD
  5
1273F
330
1
100
AcDbSymbolTableRecord
100
AcDbBlockTableRecord
  2
*D1780
340
0
  0
ENDTAB
  0
ENDSEC
  0
SECTION
  2
BLOCKS
  0
BLOCK
  5
20
330
1F
100
AcDbEntity
  8
0
100
AcDbBlockBegin
  2
*Model_Space
 70
     0
 10
0.0
 20
0.0
 30
0.0
  3
*Model_Space
  1

  0
ENDBLK
  5
21
330
1F
100
AcDbEntity
  8
0
100
AcDbBlockEnd
  0
BLOCK
  5
1C
330
1B
100
AcDbEntity
 67
     1
  8
0
100
AcDbBlockBegin
  2
*Paper_Space
 70
     0
 10
0.0
 20
0.0
 30
0.0
  3
*Paper_Space
  1

  0
ENDBLK
  5
1D
330
1B
100
AcDbEntity
 67
     1
  8
0
100
AcDbBlockEnd
  0
BLOCK
  5
93
330
8F
100
AcDbEntity
  8
0
100
AcDbBlockBegin
  2
_Open
 70
     0
 10
0.0
 20
0.0
 30
0.0
  3
_Open
  1

  0
LINE
  5
90
330
8F
100
AcDbEntity
  8
01注記寸法
 62
     0
370
    -2
100
AcDbLine
 10
-1.0
 20
0.1666666666666667
 30
0.0
 11
0.0
 21
0.0
 31
0.0
  0
LINE
  5
91
330
8F
100
AcDbEntity
  8
01注記寸法
 62
     0
370
    -2
100
AcDbLine
 10
-1.0
 20
-0.1666666666666667
 30
0.0
 11
0.0
 21
0.0
 31
0.0
  0
LINE
  5
92
330
8F
100
AcDbEntity
  8
01注記寸法
 62
     0
370
    -2
100
AcDbLine
 10
0.0
 20
0.0
 30
0.0
 11
-1.0
 21
0.0
 31
0.0
  0
ENDBLK
  5
94
330
8F
100
AcDbEntity
  8
0
100
AcDbBlockEnd
  0
BLOCK
  5
822D
330
822C
100
AcDbEntity
  8
0
100
AcDbBlockBegin
  2
L50x50xt6-破線
 70
     0
 10
0.0
 20
0.0
 30
0.0
  3
L50x50xt6-破線
  1

  0
LINE
  5
822E
330
822C
100
AcDbEntity
  8
03破線
  6
HIDDEN
100
AcDbLine
 10
50.0
 20
0.0
 30
0.0
 11
0.0
 21
0.0
 31
0.0
  0
LINE
  5
822F
330
822C
100
AcDbEntity
  8
03破線
  6
HIDDEN
100
AcDbLine
 10
0.0
 20
0.0
 30
0.0
 11
0.0
 21
-50.0
 31
0.0
  0
ARC
  5
8230
330
822C
100
AcDbEntity
  8
03破線
  6
HIDDEN
100
AcDbCircle
 10
12.5
 20
-12.5
 30
0.0
 40
6.500000000000003
100
AcDbArc
 50
90.0
 51
180.0
  0
ARC
  5
8231
330
822C
100
AcDbEntity
  8
03破線
  6
HIDDEN
100
AcDbCircle
 10
1.5
 20
-45.5
 30
0.0
 40
4.500000000000001
100
AcDbArc
 50
270.0
 51
0.0
  0
ARC
  5
8232
330
822C
100
AcDbEntity
  8
03破線
  6
HIDDEN
100
AcDbCircle
 10
45.5
 20
-1.5
 30
0.0
 40
4.500000000000001
100
AcDbArc
 50
270.0
 51
0.0
  0
LINE
  5
8233
330
822C
100
AcDbEntity
  8
03破線
  6
HIDDEN
100
AcDbLine
 10
1.5
 20
-50.0
 30
0.0
 11
0.0
 21
-50.0
 31
0.0
  0
LINE
  5
8234
330
822C
100
AcDbEntity
  8
03破線
  6
HIDDEN
100
AcDbLine
 10
6.0
 20
-12.5
 30
0.0
 11
6.0
 21
-45.5
 31
0.0
  0
LINE
  5
8235
330
822C
100
AcDbEntity
  8
03破線
  6
HIDDEN
100
AcDbLine
 10
50.0
 20
0.0
 30
0.0
 11
50.0
 21
-1.5
 31
0.0
  0
LINE
  5
8236
330
822C
100
AcDbEntity
  8
03破線
  6
HIDDEN
100
AcDbLine
 10
45.5
 20
-6.0
 30
0.0
 11
12.5
 21
-6.0
 31
0.0
  0
ENDBLK
  5
8237
330
822C
100
AcDbEntity
  8
0
100
AcDbBlockEnd
  0
BLOCK
  5
82B9
330
82B8
100
AcDbEntity
  8
0
100
AcDbBlockBegin
  2
L50x50xt6
 70
     0
 10
0.0
 20
0.0
 30
0.0
  3
L50x50xt6
  1

  0
LINE
  5
82BA
330
82B8
100
AcDbEntity
  8
02実線
100
AcDbLine
 10
50.0
 20
0.0
 30
0.0
 11
0.0
 21
0.0
 31
0.0
  0
LINE
  5
82BB
330
82B8
100
AcDbEntity
  8
02実線
100
AcDbLine
 10
0.0
 20
0.0
 30
0.0
 11
0.0
 21
-50.0
 31
0.0
  0
ARC
  5
82BC
330
82B8
100
AcDbEntity
  8
02実線
100
AcDbCircle
 10
12.5
 20
-12.5
 30
0.0
 40
6.500000000000003
100
AcDbArc
 50
90.0
 51
180.0
  0
ARC
  5
82BD
330
82B8
100
AcDbEntity
  8
02実線
100
AcDbCircle
 10
1.5
 20
-45.5
 30
0.0
 40
4.500000000000001
100
AcDbArc
 50
270.0
 51
0.0
  0
ARC
  5
82BE
330
82B8
100
AcDbEntity
  8
02実線
100
AcDbCircle
 10
45.5
 20
-1.5
 30
0.0
 40
4.500000000000001
100
AcDbArc
 50
270.0
 51
0.0
  0
LINE
  5
82BF
330
82B8
100
AcDbEntity
  8
02実線
100
AcDbLine
 10
1.5
 20
-50.0
 30
0.0
 11
0.0
 21
-50.0
 31
0.0
  0
LINE
  5
82C0
330
82B8
100
AcDbEntity
  8
02実線
100
AcDbLine
 10
6.0
 20
-12.5
 30
0.0
 11
6.0
 21
-45.5
 31
0.0
  0
LINE
  5
82C1
330
82B8
100
AcDbEntity
  8
02実線
100
AcDbLine
 10
50.0
 20
0.0
 30
0.0
 11
50.0
 21
-1.5
 31
0.0
  0
LINE
  5
82C2
330
82B8
100
AcDbEntity
  8
02実線
100
AcDbLine
 10
45.5
 20
-6.0
 30
0.0
 11
12.5
 21
-6.0
 31
0.0
  0
ENDBLK
  5
82C3
330
82B8
100
AcDbEntity
  8
0
100
AcDbBlockEnd
  0
BLOCK
  5
82F3
330
82F2
100
AcDbEntity
  8
0
100
AcDbBlockBegin
  2
hole-φ16
 70
     0
 10
0.0
 20
0.0
 30
0.0
  3
hole-φ16
  1

  0
CIRCLE
  5
82F4
330
82F2
100
AcDbEntity
  8
02実線
100
AcDbCircle
 10
0.0
 20
0.0
 30
0.0
 40
8.0
  0
LINE
  5
82F5
330
82F2
100
AcDbEntity
  8
04一点鎖線
  6
CENTER
 48
0.2
100
AcDbLine
 10
0.0
 20
-20.0
 30
0.0
 11
0.0
 21
20.0
 31
0.0
  0
LINE
  5
82F6
330
82F2
100
AcDbEntity
  8
04一点鎖線
  6
CENTER
 48
0.2
100
AcDbLine
 10
-20.0
 20
0.0
 30
0.0
 11
20.0
 21
0.0
 31
0.0
  0
ENDBLK
  5
82F7
330
82F2
100
AcDbEntity
  8
0
100
AcDbBlockEnd
  0
BLOCK
  5
8342
330
8341
100
AcDbEntity
  8
0
100
AcDbBlockBegin
  2
AH-アンカーL50
 70
     0
 10
0.0
 20
0.0
 30
0.0
  3
AH-アンカーL50
  1

  0
LWPOLYLINE
  5
8343
330
8341
100
AcDbEntity
  8
02実線
100
AcDbPolyline
 90
        8
 70
     1
 43
0.0
 10
-90.0
 20
0.0
 10
-90.0
 20
79.99999999999977
 10
-80.0
 20
89.99999999999977
 10
0.0
 20
89.99999999999977
 10
10.0
 20
79.99999999999977
 10
10.0
 20
0.0
 10
0.0
 20
-10.0
 10
-80.0
 20
-10.0
  0
INSERT
  5
8344
330
8341
100
AcDbEntity
  8
02実線
100
AcDbBlockReference
  2
L50x50xt6
 10
0.0
 20
0.0
 30
0.0
 50
180.0
  0
LINE
  5
8C70
330
8341
100
AcDbEntity
  8
08非表示
100
AcDbLine
 10
-60.0
 20
65.0
 30
0.0
 11
-70.0
 21
65.0
 31
0.0
  0
LINE
  5
8C71
330
8341
100
AcDbEntity
  8
08非表示
100
AcDbLine
 10
-65.0
 20
60.0
 30
0.0
 11
-65.0
 21
70.0
 31
0.0
  0
ENDBLK
  5
8351
330
8341
100
AcDbEntity
  8
0
100
AcDbBlockEnd
  0
BLOCK
  5
E922
330
E921
100
AcDbEntity
  8
0
100
AcDbBlockBegin
  2
*D1049
 70
     1
 10
0.0
 20
0.0
 30
0.0
  3
*D1049
  1

  0
LINE
  5
E924
330
E921
100
AcDbEntity
  8
08非表示
 62
     0
370
    -2
100
AcDbLine
 10
2924.999999999999
 20
2665.000000000001
 30
0.0
 11
2924.999999999999
 21
2760.000000000001
 31
0.0
  0
LINE
  5
E925
330
E921
100
AcDbEntity
  8
08非表示
 62
     0
370
    -2
100
AcDbLine
 10
3424.999999999999
 20
2665.000000000001
 30
0.0
 11
3424.999999999999
 21
2760.000000000001
 31
0.0
  0
LINE
  5
E926
330
E921
100
AcDbEntity
  8
08非表示
 62
     0
370
    -2
100
AcDbLine
 10
2954.999999999999
 20
2750.000000000001
 30
0.0
 11
3394.999999999999
 21
2750.000000000001
 31
0.0
  0
INSERT
  5
E927
330
E921
100
AcDbEntity
  8
08非表示
 62
     0
370
    -2
100
AcDbBlockReference
  2
_Open
 10
2924.999999999999
 20
2750.000000000001
 30
0.0
 41
30.0
 42
30.0
 43
30.0
 50
180.0
  0
INSERT
  5
E928
330
E921
100
AcDbEntity
  8
08非表示
 62
     0
370
    -2
100
AcDbBlockReference
  2
_Open
 10
3424.999999999999
 20
2750.000000000001
 30
0.0
 41
30.0
 42
30.0
 43
30.0
  0
MTEXT
  5
E929
330
E921
100
AcDbEntity
  8
08非表示
 62
     0
100
AcDbMText
 10
3174.999999999999
 20
2775.000000000001
 30
0.0
 40
30.0
 41
0.0
 71
     5
 72
     1
  1
500
 73
     1
 44
1.0
  0
POINT
  5
E92A
330
E921
100
AcDbEntity
  8
Defpoints
 62
     0
100
AcDbPoint
 10
2924.999999999999
 20
2650.000000000001
 30
0.0
  0
POINT
  5
E92B
330
E921
100
AcDbEntity
  8
Defpoints
 62
     0
100
AcDbPoint
 10
3424.999999999999
 20
2650.000000000001
 30
0.0
  0
POINT
  5
E92C
330
E921
100
AcDbEntity
  8
Defpoints
 62
     0
100
AcDbPoint
 10
3424.999999999999
 20
2750.000000000001
 30
0.0
  0
ENDBLK
  5
E923
330
E921
100
AcDbEntity
  8
0
100
AcDbBlockEnd
  0
BLOCK
  5
FF2A
330
FF29
100
AcDbEntity
  8
0
100
AcDbBlockBegin
  2
*D1261
 70
     1
 10
0.0
 20
0.0
 30
0.0
  3
*D1261
  1

  0
LINE
  5
FF2C
330
FF29
100
AcDbEntity
  8
01注記寸法
 62
     0
370
    -2
100
AcDbLine
 10
4500.0
 20
742.5
 30
0.0
 11
4500.0
 21
915.0
 31
0.0
  0
LINE
  5
FF2D
330
FF29
100
AcDbEntity
  8
01注記寸法
 62
     0
370
    -2
100
AcDbLine
 10
4470.0
 20
652.5
 30
0.0
 11
4470.0
 21
915.0
 31
0.0
  0
LINE
  5
FF2E
330
FF29
100
AcDbEntity
  8
01注記寸法
 62
     0
370
    -2
100
AcDbLine
 10
4500.0
 20
900.0
 30
0.0
 11
4672.0875
 21
900.0
 31
0.0
  0
LINE
  5
FF2F
330
FF29
100
AcDbEntity
  8
01注記寸法
 62
     0
370
    -2
100
AcDbLine
 10
4500.0
 20
900.0
 30
0.0
 11
4470.0
 21
900.0
 31
0.0
  0
LINE
  5
FF30
330
FF29
100
AcDbEntity
  8
01注記寸法
 62
     0
370
    -2
100
AcDbLine
 10
4545.0
 20
900.0
 30
0.0
 11
4590.0
 21
900.0
 31
0.0
  0
LINE
  5
FF31
330
FF29
100
AcDbEntity
  8
01注記寸法
 62
     0
370
    -2
100
AcDbLine
 10
4425.0
 20
900.0
 30
0.0
 11
4380.0
 21
900.0
 31
0.0
  0
INSERT
  5
FF32
330
FF29
100
AcDbEntity
  8
01注記寸法
 62
     0
370
    -2
100
AcDbBlockReference
  2
_Open
 10
4500.0
 20
900.0
 30
0.0
 41
45.0
 42
45.0
 43
45.0
 50
180.0
  0
INSERT
  5
FF33
330
FF29
100
AcDbEntity
  8
01注記寸法
 62
     0
370
    -2
100
AcDbBlockReference
  2
_Open
 10
4470.0
 20
900.0
 30
0.0
 41
45.0
 42
45.0
 43
45.0
  0
MTEXT
  5
FF34
330
FF29
100
AcDbEntity
  8
01注記寸法
 62
     0
100
AcDbMText
 10
4631.8425
 20
937.5
 30
0.0
 40
45.0
 41
0.0
 71
     5
 72
     1
  1
10
 73
     1
 44
1.0
  0
POINT
  5
FF35
330
FF29
100
AcDbEntity
  8
Defpoints
 62
     0
100
AcDbPoint
 10
4500.0
 20
720.0
 30
0.0
  0
POINT
  5
FF36
330
FF29
100
AcDbEntity
  8
Defpoints
 62
     0
100
AcDbPoint
 10
4470.0
 20
630.0
 30
0.0
  0
POINT
  5
FF37
330
FF29
100
AcDbEntity
  8
Defpoints
 62
     0
100
AcDbPoint
 10
4470.0
 20
900.0
 30
0.0
  0
ENDBLK
  5
FF2B
330
FF29
100
AcDbEntity
  8
0
100
AcDbBlockEnd
  0
BLOCK
  5
FF39
330
FF38
100
AcDbEntity
  8
0
100
AcDbBlockBegin
  2
*D1262
 70
     1
 10
0.0
 20
0.0
 30
0.0
  3
*D1262
  1

  0
LINE
  5
FF3B
330
FF38
100
AcDbEntity
  8
01注記寸法
 62
     0
370
    -2
100
AcDbLine
 10
4470.0
 20
652.5
 30
0.0
 11
4470.0
 21
915.0
 31
0.0
  0
LINE
  5
FF3C
330
FF38
100
AcDbEntity
  8
01注記寸法
 62
     0
370
    -2
100
AcDbLine
 10
4275.0
 20
757.5
 30
0.0
 11
4275.0
 21
915.0
 31
0.0
  0
LINE
  5
FF3D
330
FF38
100
AcDbEntity
  8
01注記寸法
 62
     0
370
    -2
100
AcDbLine
 10
4425.0
 20
900.0
 30
0.0
 11
4320.0
 21
900.0
 31
0.0
  0
INSERT
  5
FF3E
330
FF38
100
AcDbEntity
  8
01注記寸法
 62
     0
370
    -2
100
AcDbBlockReference
  2
_Open
 10
4470.0
 20
900.0
 30
0.0
 41
45.0
 42
45.0
 43
45.0
  0
INSERT
  5
FF3F
330
FF38
100
AcDbEntity
  8
01注記寸法
 62
     0
370
    -2
100
AcDbBlockReference
  2
_Open
 10
4275.0
 20
900.0
 30
0.0
 41
45.0
 42
45.0
 43
45.0
 50
180.0
  0
MTEXT
  5
FF40
330
FF38
100
AcDbEntity
  8
01注記寸法
 62
     0
100
AcDbMText
 10
4372.5
 20
937.5
 30
0.0
 40
45.0
 41
0.0
 71
     5
 72
     1
  1
65
 73
     1
 44
1.0
  0
POINT
  5
FF41
330
FF38
100
AcDbEntity
  8
Defpoints
 62
     0
100
AcDbPoint
 10
4470.0
 20
630.0
 30
0.0
  0
POINT
  5
FF42
330
FF38
100
AcDbEntity
  8
Defpoints
 62
     0
100
AcDbPoint
 10
4275.0
 20
735.0
 30
0.0
  0
POINT
  5
FF43
330
FF38
100
AcDbEntity
  8
Defpoints
 62
     0
100
AcDbPoint
 10
4275.0
 20
900.0
 30
0.0
  0
ENDBLK
  5
FF3A
330
FF38
100
AcDbEntity
  8
0
100
AcDbBlockEnd
  0
BLOCK
  5
FF45
330
FF44
100
AcDbEntity
  8
0
100
AcDbBlockBegin
  2
*D1263
 70
     1
 10
0.0
 20
0.0
 30
0.0
  3
*D1263
  1

  0
LINE
  5
FF47
330
FF44
100
AcDbEntity
  8
01注記寸法
 62
     0
370
    -2
100
AcDbLine
 10
4500.0
 20
742.5
 30
0.0
 11
4500.0
 21
1065.0
 31
0.0
  0
LINE
  5
FF48
330
FF44
100
AcDbEntity
  8
01注記寸法
 62
     0
370
    -2
100
AcDbLine
 10
4200.0
 20
742.5
 30
0.0
 11
4200.0
 21
1065.0
 31
0.0
  0
LINE
  5
FF49
330
FF44
100
AcDbEntity
  8
01注記寸法
 62
     0
370
    -2
100
AcDbLine
 10
4455.0
 20
1050.0
 30
0.0
 11
4245.0
 21
1050.0
 31
0.0
  0
INSERT
  5
FF4A
330
FF44
100
AcDbEntity
  8
01注記寸法
 62
     0
370
    -2
100
AcDbBlockReference
  2
_Open
 10
4500.0
 20
1050.0
 30
0.0
 41
45.0
 42
45.0
 43
45.0
  0
INSERT
  5
FF4B
330
FF44
100
AcDbEntity
  8
01注記寸法
 62
     0
370
    -2
100
AcDbBlockReference
  2
_Open
 10
4200.0
 20
1050.0
 30
0.0
 41
45.0
 42
45.0
 43
45.0
 50
180.0
  0
MTEXT
  5
FF4C
330
FF44
100
AcDbEntity
  8
01注記寸法
 62
     0
100
AcDbMText
 10
4350.0
 20
1087.5
 30
0.0
 40
45.0
 41
0.0
 71
     5
 72
     1
  1
100
 73
     1
 44
1.0
  0
POINT
  5
FF4D
330
FF44
100
AcDbEntity
  8
Defpoints
 62
     0
100
AcDbPoint
 10
4500.0
 20
720.0
 30
0.0
  0
POINT
  5
FF4E
330
FF44
100
AcDbEntity
  8
Defpoints
 62
     0
100
AcDbPoint
 10
4200.0
 20
720.0
 30
0.0
  0
POINT
  5
FF4F
330
FF44
100
AcDbEntity
  8
Defpoints
 62
     0
100
AcDbPoint
 10
4200.0
 20
1050.0
 30
0.0
  0
ENDBLK
  5
FF46
330
FF44
100
AcDbEntity
  8
0
100
AcDbBlockEnd
  0
BLOCK
  5
FF51
330
FF50
100
AcDbEntity
  8
0
100
AcDbBlockBegin
  2
*D1264
 70
     1
 10
0.0
 20
0.0
 30
0.0
  3
*D1264
  1

  0
LINE
  5
FF53
330
FF50
100
AcDbEntity
  8
01注記寸法
 62
     0
370
    -2
100
AcDbLine
 10
4207.5
 20
450.0
 30
0.0
 11
4035.0
 21
450.0
 31
0.0
  0
LINE
  5
FF54
330
FF50
100
AcDbEntity
  8
01注記寸法
 62
     0
370
    -2
100
AcDbLine
 10
4297.5
 20
480.0
 30
0.0
 11
4035.0
 21
480.0
 31
0.0
  0
LINE
  5
FF55
330
FF50
100
AcDbEntity
  8
01注記寸法
 62
     0
370
    -2
100
AcDbLine
 10
4050.0
 20
450.0
 30
0.0
 11
4050.0
 21
277.9124999999999
 31
0.0
  0
LINE
  5
FF56
330
FF50
100
AcDbEntity
  8
01注記寸法
 62
     0
370
    -2
100
AcDbLine
 10
4050.0
 20
450.0
 30
0.0
 11
4050.0
 21
480.0
 31
0.0
  0
LINE
  5
FF57
330
FF50
100
AcDbEntity
  8
01注記寸法
 62
     0
370
    -2
100
AcDbLine
 10
4050.0
 20
405.0
 30
0.0
 11
4050.0
 21
360.0
 31
0.0
  0
LINE
  5
FF58
330
FF50
100
AcDbEntity
  8
01注記寸法
 62
     0
370
    -2
100
AcDbLine
 10
4050.0
 20
525.0
 30
0.0
 11
4050.0
 21
570.0
 31
0.0
  0
INSERT
  5
FF59
330
FF50
100
AcDbEntity
  8
01注記寸法
 62
     0
370
    -2
100
AcDbBlockReference
  2
_Open
 10
4050.0
 20
450.0
 30
0.0
 41
45.0
 42
45.0
 43
45.0
 50
90.0
  0
INSERT
  5
FF5A
330
FF50
100
AcDbEntity
  8
01注記寸法
 62
     0
370
    -2
100
AcDbBlockReference
  2
_Open
 10
4050.0
 20
480.0
 30
0.0
 41
45.0
 42
45.0
 43
45.0
 50
270.0
  0
MTEXT
  5
FF5B
330
FF50
100
AcDbEntity
  8
01注記寸法
 62
     0
100
AcDbMText
 10
4012.5
 20
318.1574999999998
 30
0.0
 40
45.0
 41
0.0
 71
     5
 72
     1
  1
10
 11
0.0
 21
1.0
 31
0.0
 73
     1
 44
1.0
  0
POINT
  5
FF5C
330
FF50
100
AcDbEntity
  8
Defpoints
 62
     0
100
AcDbPoint
 10
4230.0
 20
450.0
 30
0.0
  0
POINT
  5
FF5D
330
FF50
100
AcDbEntity
  8
Defpoints
 62
     0
100
AcDbPoint
 10
4320.0
 20
480.0
 30
0.0
  0
POINT
  5
FF5E
330
FF50
100
AcDbEntity
  8
Defpoints
 62
     0
100
AcDbPoint
 10
4050.0
 20
480.0
 30
0.0
  0
ENDBLK
  5
FF52
330
FF50
100
AcDbEntity
  8
0
100
AcDbBlockEnd
  0
BLOCK
  5
FF60
330
FF5F
100
AcDbEntity
  8
0
100
AcDbBlockBegin
  2
*D1265
 70
     1
 10
0.0
 20
0.0
 30
0.0
  3
*D1265
  1

  0
LINE
  5
FF62
330
FF5F
100
AcDbEntity
  8
01注記寸法
 62
     0
370
    -2
100
AcDbLine
 10
4297.5
 20
480.0
 30
0.0
 11
4035.0
 21
480.0
 31
0.0
  0
LINE
  5
FF63
330
FF5F
100
AcDbEntity
  8
01注記寸法
 62
     0
370
    -2
100
AcDbLine
 10
4192.5
 20
675.0
 30
0.0
 11
4035.0
 21
675.0
 31
0.0
  0
LINE
  5
FF64
330
FF5F
100
AcDbEntity
  8
01注記寸法
 62
     0
370
    -2
100
AcDbLine
 10
4050.0
 20
525.0
 30
0.0
 11
4050.0
 21
630.0
 31
0.0
  0
INSERT
  5
FF65
330
FF5F
100
AcDbEntity
  8
01注記寸法
 62
     0
370
    -2
100
AcDbBlockReference
  2
_Open
 10
4050.0
 20
480.0
 30
0.0
 41
45.0
 42
45.0
 43
45.0
 50
270.0
  0
INSERT
  5
FF66
330
FF5F
100
AcDbEntity
  8
01注記寸法
 62
     0
370
    -2
100
AcDbBlockReference
  2
_Open
 10
4050.0
 20
675.0
 30
0.0
 41
45.0
 42
45.0
 43
45.0
 50
90.0
  0
MTEXT
  5
FF67
330
FF5F
100
AcDbEntity
  8
01注記寸法
 62
     0
100
AcDbMText
 10
4012.5
 20
577.5
 30
0.0
 40
45.0
 41
0.0
 71
     5
 72
     1
  1
65
 11
0.0
 21
1.0
 31
0.0
 73
     1
 44
1.0
  0
POINT
  5
FF68
330
FF5F
100
AcDbEntity
  8
Defpoints
 62
     0
100
AcDbPoint
 10
4320.0
 20
480.0
 30
0.0
  0
POINT
  5
FF69
330
FF5F
100
AcDbEntity
  8
Defpoints
 62
     0
100
AcDbPoint
 10
4215.0
 20
675.0
 30
0.0
  0
POINT
  5
FF6A
330
FF5F
100
AcDbEntity
  8
Defpoints
 62
     0
100
AcDbPoint
 10
4050.0
 20
675.0
 30
0.0
  0
ENDBLK
  5
FF61
330
FF5F
100
AcDbEntity
  8
0
100
AcDbBlockEnd
  0
BLOCK
  5
FF6C
330
FF6B
100
AcDbEntity
  8
0
100
AcDbBlockBegin
  2
*D1266
 70
     1
 10
0.0
 20
0.0
 30
0.0
  3
*D1266
  1

  0
LINE
  5
FF6E
330
FF6B
100
AcDbEntity
  8
01注記寸法
 62
     0
370
    -2
100
AcDbLine
 10
4207.5
 20
450.0
 30
0.0
 11
3885.0
 21
450.0
 31
0.0
  0
LINE
  5
FF6F
330
FF6B
100
AcDbEntity
  8
01注記寸法
 62
     0
370
    -2
100
AcDbLine
 10
4207.5
 20
750.0
 30
0.0
 11
3885.0
 21
750.0
 31
0.0
  0
LINE
  5
FF70
330
FF6B
100
AcDbEntity
  8
01注記寸法
 62
     0
370
    -2
100
AcDbLine
 10
3900.0
 20
495.0
 30
0.0
 11
3900.0
 21
705.0
 31
0.0
  0
INSERT
  5
FF71
330
FF6B
100
AcDbEntity
  8
01注記寸法
 62
     0
370
    -2
100
AcDbBlockReference
  2
_Open
 10
3900.0
 20
450.0
 30
0.0
 41
45.0
 42
45.0
 43
45.0
 50
270.0
  0
INSERT
  5
FF72
330
FF6B
100
AcDbEntity
  8
01注記寸法
 62
     0
370
    -2
100
AcDbBlockReference
  2
_Open
 10
3900.0
 20
750.0
 30
0.0
 41
45.0
 42
45.0
 43
45.0
 50
90.0
  0
MTEXT
  5
FF73
330
FF6B
100
AcDbEntity
  8
01注記寸法
 62
     0
100
AcDbMText
 10
3862.5
 20
600.0
 30
0.0
 40
45.0
 41
0.0
 71
     5
 72
     1
  1
100
 11
0.0
 21
1.0
 31
0.0
 73
     1
 44
1.0
  0
POINT
  5
FF74
330
FF6B
100
AcDbEntity
  8
Defpoints
 62
     0
100
AcDbPoint
 10
4230.0
 20
450.0
 30
0.0
  0
POINT
  5
FF75
330
FF6B
100
AcDbEntity
  8
Defpoints
 62
     0
100
AcDbPoint
 10
4230.0
 20
750.0
 30
0.0
  0
POINT
  5
FF76
330
FF6B
100
AcDbEntity
  8
Defpoints
 62
     0
100
AcDbPoint
 10
3900.0
 20
750.0
 30
0.0
  0
ENDBLK
  5
FF6D
330
FF6B
100
AcDbEntity
  8
0
100
AcDbBlockEnd
  0
BLOCK
  5
FFF3
330
FFF2
100
AcDbEntity
  8
0
100
AcDbBlockBegin
  2
*D1275
 70
     1
 10
0.0
 20
0.0
 30
0.0
  3
*D1275
  1

  0
LINE
  5
FFF5
330
FFF2
100
AcDbEntity
  8
01注記寸法
 62
     0
370
    -2
100
AcDbLine
 10
3932.985
 20
899.9999999999993
 30
0.0
 11
4050.0
 21
899.9999999999993
 31
0.0
  0
LINE
  5
FFF6
330
FFF2
100
AcDbEntity
  8
01注記寸法
 62
     0
370
    -2
100
AcDbLine
 10
4050.0
 20
899.9999999999993
 30
0.0
 11
4226.209632098128
 21
723.7903679018713
 31
0.0
  0
LINE
  5
FFF7
330
FFF2
100
AcDbEntity
  8
01注記寸法
 62
     0
370
    -2
100
AcDbLine
 10
4323.790367901872
 20
626.2096320981274
 30
0.0
 11
4355.610173055266
 21
594.3898269447327
 31
0.0
  0
MTEXT
  5
FFF8
330
FFF2
100
AcDbEntity
  8
01注記寸法
 62
     0
100
AcDbMText
 10
3983.925
 20
941.1449999999993
 30
0.0
 40
45.0
 41
0.0
 71
     5
 72
     1
  1
φ16
 73
     1
 44
1.0
  0
LINE
  5
FFF9
330
FFF2
100
AcDbEntity
  8
01注記寸法
 62
     0
370
    -2
100
AcDbLine
 10
4291.970562748477
 20
658.029437251522
 30
0.0
 11
4258.029437251523
 21
691.9705627484766
 31
0.0
  0
INSERT
  5
FFFA
330
FFF2
100
AcDbEntity
  8
01注記寸法
 62
     0
370
    -2
100
AcDbBlockReference
  2
_Open
 10
4291.970562748477
 20
658.029437251522
 30
0.0
 41
45.0
 42
45.0
 43
45.0
 50
135.0
  0
INSERT
  5
FFFB
330
FFF2
100
AcDbEntity
  8
01注記寸法
 62
     0
370
    -2
100
AcDbBlockReference
  2
_Open
 10
4258.029437251523
 20
691.9705627484766
 30
0.0
 41
45.0
 42
45.0
 43
45.0
 50
315.0
  0
POINT
  5
FFFC
330
FFF2
100
AcDbEntity
  8
Defpoints
 62
     0
100
AcDbPoint
 10
4258.029437251523
 20
691.9705627484766
 30
0.0
  0
POINT
  5
FFFD
330
FFF2
100
AcDbEntity
  8
Defpoints
 62
     0
100
AcDbPoint
 10
4291.970562748477
 20
658.029437251522
 30
0.0
  0
ENDBLK
  5
FFF4
330
FFF2
100
AcDbEntity
  8
0
100
AcDbBlockEnd
  0
BLOCK
  5
11E66
330
11E63
100
AcDbEntity
  8
0
100
AcDbBlockBegin
  2
シール(検査済)
 70
     0
 10
0.0
 20
0.0
 30
0.0
  3
シール(検査済)
  1

  0
LWPOLYLINE
  5
11E64
330
11E63
100
AcDbEntity
  8
07その他
100
AcDbPolyline
 90
        4
 70
     1
 43
0.0
 10
0.0
 20
0.0
 10
0.0
 20
25.0
 10
75.0
 20
25.0
 10
75.0
 20
0.0
  0
TEXT
  5
11E65
330
11E63
100
AcDbEntity
  8
08非表示
100
AcDbText
 10
8.25
 20
5.0
 30
0.0
 40
15.0
  1
検査済
 72
     1
 11
37.5
 21
12.5
 31
0.0
100
AcDbText
 73
     2
  0
ENDBLK
  5
11E67
330
11E63
100
AcDbEntity
  8
0
100
AcDbBlockEnd
  0
BLOCK
  5
11E6C
330
11E69
100
AcDbEntity
  8
0
100
AcDbBlockBegin
  2
シール(型式)
 70
     0
 10
0.0
 20
0.0
 30
0.0
  3
シール(型式)
  1

  0
LWPOLYLINE
  5
11E6A
330
11E69
100
AcDbEntity
  8
07その他
100
AcDbPolyline
 90
        4
 70
     1
 43
0.0
 10
0.0
 20
0.0
 10
0.0
 20
24.0
 10
94.0
 20
24.0
 10
94.0
 20
0.0
  0
TEXT
  5
11E6B
330
11E69
100
AcDbEntity
  8
08非表示
100
AcDbText
 10
27.5
 20
5.0
 30
0.0
 40
15.0
  1
型式
 72
     1
 11
47.0
 21
12.5
 31
0.0
100
AcDbText
 73
     2
  0
ENDBLK
  5
11E6D
330
11E69
100
AcDbEntity
  8
0
100
AcDbBlockEnd
  0
BLOCK
  5
1209B
330
1209A
100
AcDbEntity
  8
0
100
AcDbBlockBegin
  2
ECOV-EN45~67WB
 70
     0
 10
0.0
 20
0.0
 30
0.0
  3
ECOV-EN45~67WB
  1

  0
LWPOLYLINE
  5
1209C
330
1209A
100
AcDbEntity
  8
11機器
100
AcDbPolyline
 90
        4
 70
     1
 43
0.0
 10
0.0
 20
0.0
 10
0.0
 20
476.0000000000005
 10
1150.0
 20
476.0000000000005
 10
1150.0
 20
0.0
  0
LWPOLYLINE
  5
1209D
330
1209A
100
AcDbEntity
  8
11機器
100
AcDbPolyline
 90
        4
 70
     1
 43
0.0
 10
0.0
 20
0.0
 10
0.0
 20
72.0
 10
1150.0
 20
72.0
 10
1150.0
 20
0.0
  0
LWPOLYLINE
  5
1209E
330
1209A
100
AcDbEntity
  8
11機器
100
AcDbPolyline
 90
        4
 70
     1
 43
0.0
 10
0.0
 20
476.0000000000005
 10
0.0
 20
404.0000000000005
 10
1150.0
 20
404.0000000000005
 10
1150.0
 20
476.0000000000005
  0
LWPOLYLINE
  5
1209F
330
1209A
100
AcDbEntity
  8
11機器
100
AcDbPolyline
 90
        8
 70
     1
 43
0.0
 10
142.5
 20
11.5
 10
142.5
 20
18.5
 42
-0.414213562373095
 10
150.0
 20
26.0
 10
150.0
 20
26.0
 42
-0.414213562373095
 10
157.5
 20
18.5
 10
157.5
 20
11.5
 42
-0.414213562373095
 10
150.0
 20
4.0
 10
150.0
 20
4.0
 42
-0.414213562373095
  0
CIRCLE
  5
120A0
330
1209A
100
AcDbEntity
  8
11機器
100
AcDbCircle
 10
150.0
 20
15.0
 30
0.0
 40
7.5
  0
LWPOLYLINE
  5
120A1
330
1209A
100
AcDbEntity
  8
11機器
100
AcDbPolyline
 90
        8
 70
     1
 43
0.0
 10
202.5
 20
11.5
 10
202.5
 20
18.5
 42
-0.414213562373095
 10
210.0
 20
26.0
 10
210.0
 20
26.0
 42
-0.414213562373095
 10
217.5
 20
18.5
 10
217.5
 20
11.5
 42
-0.414213562373095
 10
210.0
 20
4.0
 10
210.0
 20
4.0
 42
-0.414213562373095
  0
CIRCLE
  5
120A2
330
1209A
100
AcDbEntity
  8
11機器
100
AcDbCircle
 10
210.0
 20
15.0
 30
0.0
 40
7.5
  0
LWPOLYLINE
  5
120A3
330
1209A
100
AcDbEntity
  8
11機器
100
AcDbPolyline
 90
        8
 70
     1
 43
0.0
 10
142.5
 20
49.49999999999955
 10
142.5
 20
56.49999999999955
 42
-0.414213562373095
 10
150.0
 20
63.99999999999955
 10
150.0
 20
63.99999999999955
 42
-0.414213562373095
 10
157.5
 20
56.49999999999955
 10
157.5
 20
49.49999999999955
 42
-0.414213562373095
 10
150.0
 20
41.99999999999955
 10
150.0
 20
41.99999999999955
 42
-0.414213562373095
  0
CIRCLE
  5
120A4
330
1209A
100
AcDbEntity
  8
11機器
100
AcDbCircle
 10
150.0
 20
52.99999999999955
 30
0.0
 40
7.5
  0
LWPOLYLINE
  5
120A5
330
1209A
100
AcDbEntity
  8
11機器
100
AcDbPolyline
 90
        8
 70
     1
 43
0.0
 10
202.5
 20
49.49999999999955
 10
202.5
 20
56.49999999999955
 42
-0.414213562373095
 10
210.0
 20
63.99999999999955
 10
210.0
 20
63.99999999999955
 42
-0.414213562373095
 10
217.5
 20
56.49999999999955
 10
217.5
 20
49.49999999999955
 42
-0.414213562373095
 10
210.0
 20
41.99999999999955
 10
210.0
 20
41.99999999999955
 42
-0.414213562373095
  0
CIRCLE
  5
120A6
330
1209A
100
AcDbEntity
  8
11機器
100
AcDbCircle
 10
210.0
 20
52.99999999999955
 30
0.0
 40
7.5
  0
LWPOLYLINE
  5
120A7
330
1209A
100
AcDbEntity
  8
11機器
100
AcDbPolyline
 90
        8
 70
     1
 43
0.0
 10
142.5
 20
419.4999999999995
 10
142.5
 20
426.4999999999995
 42
-0.414213562373095
 10
150.0
 20
433.9999999999995
 10
150.0
 20
433.9999999999995
 42
-0.414213562373095
 10
157.5
 20
426.4999999999995
 10
157.5
 20
419.4999999999995
 42
-0.414213562373095
 10
150.0
 20
411.9999999999995
 10
150.0
 20
411.9999999999995
 42
-0.414213562373095
  0
CIRCLE
  5
120A8
330
1209A
100
AcDbEntity
  8
11機器
100
AcDbCircle
 10
150.0
 20
422.9999999999995
 30
0.0
 40
7.5
  0
LWPOLYLINE
  5
120A9
330
1209A
100
AcDbEntity
  8
11機器
100
AcDbPolyline
 90
        8
 70
     1
 43
0.0
 10
202.5
 20
419.4999999999995
 10
202.5
 20
426.4999999999995
 42
-0.414213562373095
 10
210.0
 20
433.9999999999995
 10
210.0
 20
433.9999999999995
 42
-0.414213562373095
 10
217.5
 20
426.4999999999995
 10
217.5
 20
419.4999999999995
 42
-0.414213562373095
 10
210.0
 20
411.9999999999995
 10
210.0
 20
411.9999999999995
 42
-0.414213562373095
  0
CIRCLE
  5
120AA
330
1209A
100
AcDbEntity
  8
11機器
100
AcDbCircle
 10
210.0
 20
422.9999999999995
 30
0.0
 40
7.5
  0
LWPOLYLINE
  5
120AB
330
1209A
100
AcDbEntity
  8
11機器
100
AcDbPolyline
 90
        8
 70
     1
 43
0.0
 10
142.5
 20
458.4999999999995
 10
142.5
 20
465.4999999999995
 42
-0.414213562373095
 10
150.0
 20
472.9999999999995
 10
150.0
 20
472.9999999999995
 42
-0.414213562373095
 10
157.5
 20
465.4999999999995
 10
157.5
 20
458.4999999999995
 42
-0.414213562373095
 10
150.0
 20
450.9999999999995
 10
150.0
 20
450.9999999999995
 42
-0.414213562373095
  0
CIRCLE
  5
120AC
330
1209A
100
AcDbEntity
  8
11機器
100
AcDbCircle
 10
150.0
 20
461.9999999999995
 30
0.0
 40
7.5
  0
LWPOLYLINE
  5
120AD
330
1209A
100
AcDbEntity
  8
11機器
100
AcDbPolyline
 90
        8
 70
     1
 43
0.0
 10
202.5
 20
458.4999999999995
 10
202.5
 20
465.4999999999995
 42
-0.414213562373095
 10
210.0
 20
472.9999999999995
 10
210.0
 20
472.9999999999995
 42
-0.414213562373095
 10
217.5
 20
465.4999999999995
 10
217.5
 20
458.4999999999995
 42
-0.414213562373095
 10
210.0
 20
450.9999999999995
 10
210.0
 20
450.9999999999995
 42
-0.414213562373095
  0
CIRCLE
  5
120AE
330
1209A
100
AcDbEntity
  8
11機器
100
AcDbCircle
 10
210.0
 20
461.9999999999995
 30
0.0
 40
7.5
  0
LWPOLYLINE
  5
120AF
330
1209A
100
AcDbEntity
  8
11機器
100
AcDbPolyline
 90
        8
 70
     1
 43
0.0
 10
932.5
 20
11.5
 10
932.5
 20
18.5
 42
-0.414213562373095
 10
940.0
 20
26.0
 10
940.0
 20
26.0
 42
-0.414213562373095
 10
947.5
 20
18.5
 10
947.5
 20
11.5
 42
-0.414213562373095
 10
940.0
 20
4.0
 10
940.0
 20
4.0
 42
-0.414213562373095
  0
CIRCLE
  5
120B0
330
1209A
100
AcDbEntity
  8
11機器
100
AcDbCircle
 10
940.0
 20
15.0
 30
0.0
 40
7.5
  0
LWPOLYLINE
  5
120B1
330
1209A
100
AcDbEntity
  8
11機器
100
AcDbPolyline
 90
        8
 70
     1
 43
0.0
 10
932.5
 20
49.49999999999955
 10
932.5
 20
56.49999999999955
 42
-0.414213562373095
 10
940.0
 20
63.99999999999955
 10
940.0
 20
63.99999999999955
 42
-0.414213562373095
 10
947.5
 20
56.49999999999955
 10
947.5
 20
49.49999999999955
 42
-0.414213562373095
 10
940.0
 20
41.99999999999955
 10
940.0
 20
41.99999999999955
 42
-0.414213562373095
  0
CIRCLE
  5
120B2
330
1209A
100
AcDbEntity
  8
11機器
100
AcDbCircle
 10
940.0
 20
52.99999999999955
 30
0.0
 40
7.5
  0
LWPOLYLINE
  5
120B3
330
1209A
100
AcDbEntity
  8
11機器
100
AcDbPolyline
 90
        8
 70
     1
 43
0.0
 10
932.5
 20
419.4999999999995
 10
932.5
 20
426.4999999999995
 42
-0.414213562373095
 10
940.0
 20
433.9999999999995
 10
940.0
 20
433.9999999999995
 42
-0.414213562373095
 10
947.5
 20
426.4999999999995
 10
947.5
 20
419.4999999999995
 42
-0.414213562373095
 10
940.0
 20
411.9999999999995
 10
940.0
 20
411.9999999999995
 42
-0.414213562373095
  0
CIRCLE
  5
120B4
330
1209A
100
AcDbEntity
  8
11機器
100
AcDbCircle
 10
940.0
 20
422.9999999999995
 30
0.0
 40
7.5
  0
LWPOLYLINE
  5
120B5
330
1209A
100
AcDbEntity
  8
11機器
100
AcDbPolyline
 90
        8
 70
     1
 43
0.0
 10
932.5
 20
458.4999999999995
 10
932.5
 20
465.4999999999995
 42
-0.414213562373095
 10
940.0
 20
472.9999999999995
 10
940.0
 20
472.9999999999995
 42
-0.414213562373095
 10
947.5
 20
465.4999999999995
 10
947.5
 20
458.4999999999995
 42
-0.414213562373095
 10
940.0
 20
450.9999999999995
 10
940.0
 20
450.9999999999995
 42
-0.414213562373095
  0
CIRCLE
  5
120B6
330
1209A
100
AcDbEntity
  8
11機器
100
AcDbCircle
 10
940.0
 20
461.9999999999995
 30
0.0
 40
7.5
  0
LWPOLYLINE
  5
120B7
330
1209A
100
AcDbEntity
  8
11機器
100
AcDbPolyline
 90
        8
 70
     1
 43
0.0
 10
992.5
 20
11.5
 10
992.5
 20
18.5
 42
-0.414213562373095
 10
1000.0
 20
26.0
 10
1000.0
 20
26.0
 42
-0.414213562373095
 10
1007.5
 20
18.5
 10
1007.5
 20
11.5
 42
-0.414213562373095
 10
1000.0
 20
4.0
 10
1000.0
 20
4.0
 42
-0.414213562373095
  0
CIRCLE
  5
120B8
330
1209A
100
AcDbEntity
  8
11機器
100
AcDbCircle
 10
1000.0
 20
15.0
 30
0.0
 40
7.5
  0
LWPOLYLINE
  5
120B9
330
1209A
100
AcDbEntity
  8
11機器
100
AcDbPolyline
 90
        8
 70
     1
 43
0.0
 10
992.5
 20
49.49999999999955
 10
992.5
 20
56.49999999999955
 42
-0.414213562373095
 10
1000.0
 20
63.99999999999955
 10
1000.0
 20
63.99999999999955
 42
-0.414213562373095
 10
1007.5
 20
56.49999999999955
 10
1007.5
 20
49.49999999999955
 42
-0.414213562373095
 10
1000.0
 20
41.99999999999955
 10
1000.0
 20
41.99999999999955
 42
-0.414213562373095
  0
CIRCLE
  5
120BA
330
1209A
100
AcDbEntity
  8
11機器
100
AcDbCircle
 10
1000.0
 20
52.99999999999955
 30
0.0
 40
7.5
  0
LWPOLYLINE
  5
120BB
330
1209A
100
AcDbEntity
  8
11機器
100
AcDbPolyline
 90
        8
 70
     1
 43
0.0
 10
992.5
 20
419.4999999999995
 10
992.5
 20
426.4999999999995
 42
-0.414213562373095
 10
1000.0
 20
433.9999999999995
 10
1000.0
 20
433.9999999999995
 42
-0.414213562373095
 10
1007.5
 20
426.4999999999995
 10
1007.5
 20
419.4999999999995
 42
-0.414213562373095
 10
1000.0
 20
411.9999999999995
 10
1000.0
 20
411.9999999999995
 42
-0.414213562373095
  0
CIRCLE
  5
120BC
330
1209A
100
AcDbEntity
  8
11機器
100
AcDbCircle
 10
1000.0
 20
422.9999999999995
 30
0.0
 40
7.5
  0
LWPOLYLINE
  5
120BD
330
1209A
100
AcDbEntity
  8
11機器
100
AcDbPolyline
 90
        8
 70
     1
 43
0.0
 10
992.5
 20
458.4999999999995
 10
992.5
 20
465.4999999999995
 42
-0.414213562373095
 10
1000.0
 20
472.9999999999995
 10
1000.0
 20
472.9999999999995
 42
-0.414213562373095
 10
1007.5
 20
465.4999999999995
 10
1007.5
 20
458.4999999999995
 42
-0.414213562373095
 10
1000.0
 20
450.9999999999995
 10
1000.0
 20
450.9999999999995
 42
-0.414213562373095
  0
CIRCLE
  5
120BE
330
1209A
100
AcDbEntity
  8
11機器
100
AcDbCircle
 10
1000.0
 20
461.9999999999995
 30
0.0
 40
7.5
  0
CIRCLE
  5
120BF
330
1209A
100
AcDbEntity
  8
11機器
100
AcDbCircle
 10
665.0
 20
226.0
 30
0.0
 40
30.0
  0
CIRCLE
  5
120C0
330
1209A
100
AcDbEntity
  8
11機器
100
AcDbCircle
 10
677.0
 20
224.0
 30
0.0
 40
30.0
  0
CIRCLE
  5
120C1
330
1209A
100
AcDbEntity
  8
11機器
100
AcDbCircle
 10
670.0
 20
224.0
 30
0.0
 40
30.0
  0
DIMENSION
  5
120C2
330
1209A
100
AcDbEntity
  8
11機器
100
AcDbDimension
  2
*D1718
 10
569.1125925067136
 20
52.99999999999952
 30
0.0
 11
556.6125925067136
 21
139.4999999999998
 31
0.0
 70
    32
 71
     5
 42
173.0000000000005
  3
NEMY-5
100
AcDbAlignedDimension
 13
635.0
 23
226.0
 33
0.0
 14
210.0
 24
52.99999999999955
 34
0.0
 50
90.0
100
AcDbRotatedDimension
  0
DIMENSION
  5
120CF
330
1209A
100
AcDbEntity
  8
11機器
100
AcDbDimension
  2
*D1719
 10
804.3990187133531
 20
52.99999999999955
 30
0.0
 11
791.8990187133531
 21
138.4999999999998
 31
0.0
 70
    32
 71
     5
 42
171.0000000000004
  3
NEMY-5
100
AcDbAlignedDimension
 13
707.0
 23
224.0
 33
0.0
 14
940.0
 24
52.99999999999955
 34
0.0
 50
90.0
100
AcDbRotatedDimension
  0
DIMENSION
  5
120DC
330
1209A
100
AcDbEntity
  8
11機器
100
AcDbDimension
  2
*D1720
 10
0.0
 20
293.6514910682577
 30
0.0
 11
332.5
 21
306.1514910682577
 31
0.0
 70
    32
 71
     5
 42
665.0
  3
NEMY-5
100
AcDbAlignedDimension
 13
665.0
 23
256.0
 33
0.0
 14
0.0
 24
256.0
 34
0.0
100
AcDbRotatedDimension
  0
DIMENSION
  5
120E9
330
1209A
100
AcDbEntity
  8
11機器
100
AcDbDimension
  2
*D1721
 10
0.0
 20
348.5399466680374
 30
0.0
 11
338.5
 21
348.5399466680374
 31
0.0
 70
   160
 71
     5
 42
677.0
  3
NEMY-5
100
AcDbAlignedDimension
 13
677.0
 23
254.0
 33
0.0
 14
0.0
 24
256.0
 34
0.0
100
AcDbRotatedDimension
  0
DIMENSION
  5
120F6
330
1209A
100
AcDbEntity
  8
11機器
100
AcDbDimension
  2
*D1722
 10
0.0
 20
321.5730210283077
 30
0.0
 11
335.0
 21
321.5730210283077
 31
0.0
 70
   160
 71
     5
 42
670.0
  3
NEMY-5
100
AcDbAlignedDimension
 13
670.0
 23
254.0
 33
0.0
 14
0.0
 24
256.0
 34
0.0
100
AcDbRotatedDimension
  0
LWPOLYLINE
  5
12103
102
{ACAD_REACTORS
330
12104
102
}
330
1209A
100
AcDbEntity
  8
11機器
100
AcDbPolyline
 90
        4
 70
     1
 43
0.0
 10
1042.0
 20
85.0
 10
1042.0
 20
165.0
 10
1132.0
 20
165.0
 10
1132.0
 20
85.0
  0
HATCH
  5
12104
330
1209A
100
AcDbEntity
  8
11機器
100
AcDbHatch
 10
0.0
 20
0.0
 30
0.0
210
0.0
220
0.0
230
1.0
  2
ANSI31
 70
     0
 71
     1
 91
        1
 92
        1
 93
        4
 72
     1
 10
1042.0
 20
85.0
 11
1042.0
 21
165.0
 72
     1
 10
1042.0
 20
165.0
 11
1132.0
 21
165.0
 72
     1
 10
1132.0
 20
165.0
 11
1132.0
 21
85.0
 72
     1
 10
1132.0
 20
85.0
 11
1042.0
 21
85.0
 97
        1
330
12103
 75
     0
 76
     1
 52
0.0
 41
5.0
 77
     0
 78
     1
 53
45.0
 43
10382.76075826087
 44
-3734.696859644615
 45
-11.22532015133644
 46
11.22532015133644
 79
     0
 98
        1
 10
10382.76075826087
 20
-3734.696859644615
1001
ACAD
1010
0.0
1020
0.0
1030
0.0
  0
ENDBLK
  5
12105
330
1209A
100
AcDbEntity
  8
0
100
AcDbBlockEnd
  0
BLOCK
  5
120C4
330
120C3
100
AcDbEntity
  8
0
100
AcDbBlockBegin
  2
*D1718
 70
     1
 10
0.0
 20
0.0
 30
0.0
  3
*D1718
  1

  0
LINE
  5
120C5
330
120C3
100
AcDbEntity
  8
11機器
 62
     0
370
    -2
100
AcDbLine
 10
627.5
 20
226.0
 30
0.0
 11
564.1125925067136
 21
226.0
 31
0.0
  0
LINE
  5
120C6
330
120C3
100
AcDbEntity
  8
11機器
 62
     0
370
    -2
100
AcDbLine
 10
217.5
 20
52.99999999999955
 30
0.0
 11
574.1125925067136
 21
52.99999999999952
 31
0.0
  0
LINE
  5
120C7
330
120C3
100
AcDbEntity
  8
11機器
 62
     0
370
    -2
100
AcDbLine
 10
569.1125925067136
 20
211.0
 30
0.0
 11
569.1125925067136
 21
67.99999999999952
 31
0.0
  0
INSERT
  5
120C8
330
120C3
100
AcDbEntity
  8
11機器
 62
     0
370
    -2
100
AcDbBlockReference
  2
_Open
 10
569.1125925067136
 20
226.0
 30
0.0
 41
15.0
 42
15.0
 43
15.0
 50
90.0
  0
INSERT
  5
120C9
330
120C3
100
AcDbEntity
  8
11機器
 62
     0
370
    -2
100
AcDbBlockReference
  2
_Open
 10
569.1125925067136
 20
52.99999999999952
 30
0.0
 41
15.0
 42
15.0
 43
15.0
 50
270.0
  0
MTEXT
  5
120CA
330
120C3
100
AcDbEntity
  8
11機器
 62
     0
100
AcDbMText
 10
556.6125925067136
 20
139.4999999999998
 30
0.0
 40
15.0
 41
0.0
 71
     5
 72
     1
  1
173
 11
0.0
 21
1.0
 31
0.0
 73
     1
 44
1.0
  0
POINT
  5
120CB
330
120C3
100
AcDbEntity
  8
Defpoints
 62
     0
100
AcDbPoint
 10
635.0
 20
226.0
 30
0.0
  0
POINT
  5
120CC
330
120C3
100
AcDbEntity
  8
Defpoints
 62
     0
100
AcDbPoint
 10
210.0
 20
52.99999999999955
 30
0.0
  0
POINT
  5
120CD
330
120C3
100
AcDbEntity
  8
Defpoints
 62
     0
100
AcDbPoint
 10
569.1125925067136
 20
52.99999999999952
 30
0.0
  0
ENDBLK
  5
120CE
330
120C3
100
AcDbEntity
  8
0
100
AcDbBlockEnd
  0
BLOCK
  5
120D1
330
120D0
100
AcDbEntity
  8
0
100
AcDbBlockBegin
  2
*D1719
 70
     1
 10
0.0
 20
0.0
 30
0.0
  3
*D1719
  1

  0
LINE
  5
120D2
330
120D0
100
AcDbEntity
  8
11機器
 62
     0
370
    -2
100
AcDbLine
 10
714.5
 20
224.0
 30
0.0
 11
809.3990187133531
 21
224.0
 31
0.0
  0
LINE
  5
120D3
330
120D0
100
AcDbEntity
  8
11機器
 62
     0
370
    -2
100
AcDbLine
 10
932.5
 20
52.99999999999955
 30
0.0
 11
799.3990187133531
 21
52.99999999999955
 31
0.0
  0
LINE
  5
120D4
330
120D0
100
AcDbEntity
  8
11機器
 62
     0
370
    -2
100
AcDbLine
 10
804.3990187133531
 20
209.0
 30
0.0
 11
804.3990187133531
 21
67.99999999999955
 31
0.0
  0
INSERT
  5
120D5
330
120D0
100
AcDbEntity
  8
11機器
 62
     0
370
    -2
100
AcDbBlockReference
  2
_Open
 10
804.3990187133531
 20
224.0
 30
0.0
 41
15.0
 42
15.0
 43
15.0
 50
90.0
  0
INSERT
  5
120D6
330
120D0
100
AcDbEntity
  8
11機器
 62
     0
370
    -2
100
AcDbBlockReference
  2
_Open
 10
804.3990187133531
 20
52.99999999999955
 30
0.0
 41
15.0
 42
15.0
 43
15.0
 50
270.0
  0
MTEXT
  5
120D7
330
120D0
100
AcDbEntity
  8
11機器
 62
     0
100
AcDbMText
 10
791.8990187133531
 20
138.4999999999998
 30
0.0
 40
15.0
 41
0.0
 71
     5
 72
     1
  1
171
 11
0.0
 21
1.0
 31
0.0
 73
     1
 44
1.0
  0
POINT
  5
120D8
330
120D0
100
AcDbEntity
  8
Defpoints
 62
     0
100
AcDbPoint
 10
707.0
 20
224.0
 30
0.0
  0
POINT
  5
120D9
330
120D0
100
AcDbEntity
  8
Defpoints
 62
     0
100
AcDbPoint
 10
940.0
 20
52.99999999999955
 30
0.0
  0
POINT
  5
120DA
330
120D0
100
AcDbEntity
  8
Defpoints
 62
     0
100
AcDbPoint
 10
804.3990187133531
 20
52.99999999999955
 30
0.0
  0
ENDBLK
  5
120DB
330
120D0
100
AcDbEntity
  8
0
100
AcDbBlockEnd
  0
BLOCK
  5
120DE
330
120DD
100
AcDbEntity
  8
0
100
AcDbBlockBegin
  2
*D1720
 70
     1
 10
0.0
 20
0.0
 30
0.0
  3
*D1720
  1

  0
LINE
  5
120DF
330
120DD
100
AcDbEntity
  8
11機器
 62
     0
370
    -2
100
AcDbLine
 10
665.0
 20
263.5
 30
0.0
 11
665.0
 21
298.6514910682577
 31
0.0
  0
LINE
  5
120E0
330
120DD
100
AcDbEntity
  8
11機器
 62
     0
370
    -2
100
AcDbLine
 10
0.0
 20
263.5
 30
0.0
 11
0.0
 21
298.6514910682577
 31
0.0
  0
LINE
  5
120E1
330
120DD
100
AcDbEntity
  8
11機器
 62
     0
370
    -2
100
AcDbLine
 10
650.0
 20
293.6514910682577
 30
0.0
 11
15.0
 21
293.6514910682577
 31
0.0
  0
INSERT
  5
120E2
330
120DD
100
AcDbEntity
  8
11機器
 62
     0
370
    -2
100
AcDbBlockReference
  2
_Open
 10
665.0
 20
293.6514910682577
 30
0.0
 41
15.0
 42
15.0
 43
15.0
  0
INSERT
  5
120E3
330
120DD
100
AcDbEntity
  8
11機器
 62
     0
370
    -2
100
AcDbBlockReference
  2
_Open
 10
0.0
 20
293.6514910682577
 30
0.0
 41
15.0
 42
15.0
 43
15.0
 50
180.0
  0
MTEXT
  5
120E4
330
120DD
100
AcDbEntity
  8
11機器
 62
     0
100
AcDbMText
 10
332.5
 20
306.1514910682577
 30
0.0
 40
15.0
 41
0.0
 71
     5
 72
     1
  1
665
 73
     1
 44
1.0
  0
POINT
  5
120E5
330
120DD
100
AcDbEntity
  8
Defpoints
 62
     0
100
AcDbPoint
 10
665.0
 20
256.0
 30
0.0
  0
POINT
  5
120E6
330
120DD
100
AcDbEntity
  8
Defpoints
 62
     0
100
AcDbPoint
 10
0.0
 20
256.0
 30
0.0
  0
POINT
  5
120E7
330
120DD
100
AcDbEntity
  8
Defpoints
 62
     0
100
AcDbPoint
 10
0.0
 20
293.6514910682577
 30
0.0
  0
ENDBLK
  5
120E8
330
120DD
100
AcDbEntity
  8
0
100
AcDbBlockEnd
  0
BLOCK
  5
120EB
330
120EA
100
AcDbEntity
  8
0
100
AcDbBlockBegin
  2
*D1721
 70
     1
 10
0.0
 20
0.0
 30
0.0
  3
*D1721
  1

  0
LINE
  5
120EC
330
120EA
100
AcDbEntity
  8
11機器
 62
     0
370
    -2
100
AcDbLine
 10
677.0
 20
261.5
 30
0.0
 11
677.0
 21
353.5399466680374
 31
0.0
  0
LINE
  5
120ED
330
120EA
100
AcDbEntity
  8
11機器
 62
     0
370
    -2
100
AcDbLine
 10
0.0
 20
263.5
 30
0.0
 11
0.0
 21
353.5399466680374
 31
0.0
  0
LINE
  5
120EE
330
120EA
100
AcDbEntity
  8
11機器
 62
     0
370
    -2
100
AcDbLine
 10
662.0
 20
348.5399466680374
 30
0.0
 11
15.0
 21
348.5399466680374
 31
0.0
  0
INSERT
  5
120EF
330
120EA
100
AcDbEntity
  8
11機器
 62
     0
370
    -2
100
AcDbBlockReference
  2
_Open
 10
677.0
 20
348.5399466680374
 30
0.0
 41
15.0
 42
15.0
 43
15.0
  0
INSERT
  5
120F0
330
120EA
100
AcDbEntity
  8
11機器
 62
     0
370
    -2
100
AcDbBlockReference
  2
_Open
 10
0.0
 20
348.5399466680374
 30
0.0
 41
15.0
 42
15.0
 43
15.0
 50
180.0
  0
MTEXT
  5
120F1
330
120EA
100
AcDbEntity
  8
11機器
 62
     0
100
AcDbMText
 10
338.5
 20
361.0399466680374
 30
0.0
 40
15.0
 41
0.0
 71
     5
 72
     1
  1
677
 73
     1
 44
1.0
  0
POINT
  5
120F2
330
120EA
100
AcDbEntity
  8
Defpoints
 62
     0
100
AcDbPoint
 10
677.0
 20
254.0
 30
0.0
  0
POINT
  5
120F3
330
120EA
100
AcDbEntity
  8
Defpoints
 62
     0
100
AcDbPoint
 10
0.0
 20
256.0
 30
0.0
  0
POINT
  5
120F4
330
120EA
100
AcDbEntity
  8
Defpoints
 62
     0
100
AcDbPoint
 10
0.0
 20
348.5399466680374
 30
0.0
  0
ENDBLK
  5
120F5
330
120EA
100
AcDbEntity
  8
0
100
AcDbBlockEnd
  0
BLOCK
  5
120F8
330
120F7
100
AcDbEntity
  8
0
100
AcDbBlockBegin
  2
*D1722
 70
     1
 10
0.0
 20
0.0
 30
0.0
  3
*D1722
  1

  0
LINE
  5
120F9
330
120F7
100
AcDbEntity
  8
11機器
 62
     0
370
    -2
100
AcDbLine
 10
670.0
 20
261.5
 30
0.0
 11
670.0
 21
326.5730210283077
 31
0.0
  0
LINE
  5
120FA
330
120F7
100
AcDbEntity
  8
11機器
 62
     0
370
    -2
100
AcDbLine
 10
0.0
 20
263.5
 30
0.0
 11
0.0
 21
326.5730210283077
 31
0.0
  0
LINE
  5
120FB
330
120F7
100
AcDbEntity
  8
11機器
 62
     0
370
    -2
100
AcDbLine
 10
655.0
 20
321.5730210283077
 30
0.0
 11
15.0
 21
321.5730210283077
 31
0.0
  0
INSERT
  5
120FC
330
120F7
100
AcDbEntity
  8
11機器
 62
     0
370
    -2
100
AcDbBlockReference
  2
_Open
 10
670.0
 20
321.5730210283077
 30
0.0
 41
15.0
 42
15.0
 43
15.0
  0
INSERT
  5
120FD
330
120F7
100
AcDbEntity
  8
11機器
 62
     0
370
    -2
100
AcDbBlockReference
  2
_Open
 10
0.0
 20
321.5730210283077
 30
0.0
 41
15.0
 42
15.0
 43
15.0
 50
180.0
  0
MTEXT
  5
120FE
330
120F7
100
AcDbEntity
  8
11機器
 62
     0
100
AcDbMText
 10
335.0
 20
334.0730210283077
 30
0.0
 40
15.0
 41
0.0
 71
     5
 72
     1
  1
670
 73
     1
 44
1.0
  0
POINT
  5
120FF
330
120F7
100
AcDbEntity
  8
Defpoints
 62
     0
100
AcDbPoint
 10
670.0
 20
254.0
 30
0.0
  0
POINT
  5
12100
330
120F7
100
AcDbEntity
  8
Defpoints
 62
     0
100
AcDbPoint
 10
0.0
 20
256.0
 30
0.0
  0
POINT
  5
12101
330
120F7
100
AcDbEntity
  8
Defpoints
 62
     0
100
AcDbPoint
 10
0.0
 20
321.5730210283077
 30
0.0
  0
ENDBLK
  5
12102
330
120F7
100
AcDbEntity
  8
0
100
AcDbBlockEnd
  0
BLOCK
  5
1224F
330
121F6
100
AcDbEntity
  8
0
100
AcDbBlockBegin
  2
1-MDL338
 70
     0
 10
0.0
 20
0.0
 30
0.0
  3
1-MDL338
  1

  0
LINE
  5
121F7
330
121F6
100
AcDbEntity
  8
12防振架台
100
AcDbLine
 10
0.0
 20
-187.5
 30
0.0
 11
0.0
 21
187.5
 31
0.0
  0
LINE
  5
121F8
330
121F6
100
AcDbEntity
  8
12防振架台
100
AcDbLine
 10
0.0
 20
187.5
 30
0.0
 11
60.0
 21
187.5
 31
0.0
  0
LINE
  5
121F9
330
121F6
100
AcDbEntity
  8
12防振架台
100
AcDbLine
 10
60.0
 20
187.5
 30
0.0
 11
60.0
 21
-187.5
 31
0.0
  0
LINE
  5
121FA
330
121F6
100
AcDbEntity
  8
12防振架台
100
AcDbLine
 10
60.0
 20
-187.5
 30
0.0
 11
0.0
 21
-187.5
 31
0.0
  0
LINE
  5
121FB
330
121F6
100
AcDbEntity
  8
12防振架台
100
AcDbLine
 10
60.0
 20
-247.5
 30
0.0
 11
60.0
 21
-187.5
 31
0.0
  0
LINE
  5
121FC
330
121F6
100
AcDbEntity
  8
12防振架台
100
AcDbLine
 10
60.0
 20
-187.5
 30
0.0
 11
1090.0
 21
-187.5
 31
0.0
  0
LINE
  5
121FD
330
121F6
100
AcDbEntity
  8
12防振架台
100
AcDbLine
 10
1090.0
 20
-187.5
 30
0.0
 11
1090.0
 21
-247.5
 31
0.0
  0
LINE
  5
121FE
330
121F6
100
AcDbEntity
  8
12防振架台
100
AcDbLine
 10
1090.0
 20
-247.5
 30
0.0
 11
60.0
 21
-247.5
 31
0.0
  0
LINE
  5
121FF
330
121F6
100
AcDbEntity
  8
12防振架台
100
AcDbLine
 10
60.0
 20
187.5
 30
0.0
 11
60.0
 21
247.5
 31
0.0
  0
LINE
  5
12200
330
121F6
100
AcDbEntity
  8
12防振架台
100
AcDbLine
 10
60.0
 20
247.5
 30
0.0
 11
1090.0
 21
247.5
 31
0.0
  0
LINE
  5
12201
330
121F6
100
AcDbEntity
  8
12防振架台
100
AcDbLine
 10
1090.0
 20
247.5
 30
0.0
 11
1090.0
 21
187.5
 31
0.0
  0
LINE
  5
12202
330
121F6
100
AcDbEntity
  8
12防振架台
100
AcDbLine
 10
1090.0
 20
187.5
 30
0.0
 11
60.0
 21
187.5
 31
0.0
  0
LINE
  5
12203
330
121F6
100
AcDbEntity
  8
12防振架台
100
AcDbLine
 10
1090.0
 20
-187.5
 30
0.0
 11
1090.0
 21
187.5
 31
0.0
  0
LINE
  5
12204
330
121F6
100
AcDbEntity
  8
12防振架台
100
AcDbLine
 10
1090.0
 20
187.5
 30
0.0
 11
1150.0
 21
187.5
 31
0.0
  0
LINE
  5
12205
330
121F6
100
AcDbEntity
  8
12防振架台
100
AcDbLine
 10
1150.0
 20
187.5
 30
0.0
 11
1150.0
 21
-187.5
 31
0.0
  0
LINE
  5
12206
330
121F6
100
AcDbEntity
  8
12防振架台
100
AcDbLine
 10
1150.0
 20
-187.5
 30
0.0
 11
1090.0
 21
-187.5
 31
0.0
  0
CIRCLE
  5
12207
330
121F6
100
AcDbEntity
  8
12防振架台
100
AcDbCircle
 10
100.0
 20
217.5
 30
0.0
 40
8.0
  0
CIRCLE
  5
12208
330
121F6
100
AcDbEntity
  8
12防振架台
100
AcDbCircle
 10
1050.0
 20
217.5
 30
0.0
 40
8.0
  0
CIRCLE
  5
12209
330
121F6
100
AcDbEntity
  8
12防振架台
100
AcDbCircle
 10
1050.0
 20
-217.5
 30
0.0
 40
8.0
  0
CIRCLE
  5
1220A
330
121F6
100
AcDbEntity
  8
12防振架台
100
AcDbCircle
 10
100.0
 20
-217.5
 30
0.0
 40
8.0
  0
LINE
  5
1220B
330
121F6
100
AcDbEntity
  8
12防振架台
100
AcDbLine
 10
0.0
 20
-187.5
 30
0.0
 11
55.5
 21
-187.5
 31
0.0
  0
LINE
  5
1220C
330
121F6
100
AcDbEntity
  8
12防振架台
100
AcDbLine
 10
60.0
 20
-192.0
 30
0.0
 11
60.0
 21
-247.5
 31
0.0
  0
LINE
  5
1220D
330
121F6
100
AcDbEntity
  8
12防振架台
100
AcDbLine
 10
50.5
 20
-247.5
 30
0.0
 11
15.0
 21
-247.5
 31
0.0
  0
LINE
  5
1220E
330
121F6
100
AcDbEntity
  8
12防振架台
100
AcDbLine
 10
0.0
 20
-232.5
 30
0.0
 11
0.0
 21
-187.5
 31
0.0
  0
LINE
  5
1220F
330
121F6
100
AcDbEntity
  8
12防振架台
100
AcDbLine
 10
55.5
 20
-192.0
 30
0.0
 11
55.5
 21
-247.5
 31
0.0
  0
LINE
  5
12210
330
121F6
100
AcDbEntity
  8
12防振架台
100
AcDbLine
 10
48.0
 20
-187.5
 30
0.0
 11
48.0
 21
-192.0
 31
0.0
  0
ARC
  5
12211
330
121F6
100
AcDbEntity
  8
12防振架台
100
AcDbCircle
 10
55.5
 20
-192.0
 30
0.0
 40
4.5
100
AcDbArc
 50
0.0
 51
90.0
  0
LINE
  5
12212
330
121F6
100
AcDbEntity
  8
12防振架台
100
AcDbLine
 10
60.0
 20
-247.5
 30
0.0
 11
55.5
 21
-247.5
 31
0.0
  0
ARC
  5
12213
330
121F6
100
AcDbEntity
  8
12防振架台
100
AcDbCircle
 10
15.0
 20
-232.5
 30
0.0
 40
15.0
100
AcDbArc
 50
180.0
 51
270.0
  0
LINE
  5
12214
330
121F6
100
AcDbEntity
  8
12防振架台
100
AcDbLine
 10
48.0
 20
-192.0
 30
0.0
 11
48.0
 21
-194.5
 31
0.0
  0
ARC
  5
12215
330
121F6
100
AcDbEntity
  8
12防振架台
100
AcDbCircle
 10
50.5
 20
-242.5
 30
0.0
 40
5.0
100
AcDbArc
 50
270.0
 51
0.0
  0
ARC
  5
12216
330
121F6
100
AcDbEntity
  8
12防振架台
100
AcDbCircle
 10
53.0
 20
-194.5
 30
0.0
 40
5.0
100
AcDbArc
 50
180.0
 51
270.0
  0
LINE
  5
12217
330
121F6
100
AcDbEntity
  8
12防振架台
100
AcDbLine
 10
55.5
 20
-192.0
 30
0.0
 11
48.0
 21
-192.0
 31
0.0
  0
LINE
  5
12218
330
121F6
100
AcDbEntity
  8
12防振架台
100
AcDbLine
 10
60.0
 20
-199.5
 30
0.0
 11
53.0
 21
-199.5
 31
0.0
  0
LINE
  5
12219
330
121F6
100
AcDbEntity
  8
12防振架台
100
AcDbLine
 10
55.5
 20
-247.5
 30
0.0
 11
55.55000000000109
 21
-247.5
 31
0.0
  0
CIRCLE
  5
1221A
330
121F6
100
AcDbEntity
  8
12防振架台
100
AcDbCircle
 10
25.0
 20
-222.5
 30
0.0
 40
12.0
  0
LINE
  5
1221B
330
121F6
100
AcDbEntity
  8
12防振架台
100
AcDbLine
 10
1090.0
 20
-247.5
 30
0.0
 11
1090.0
 21
-192.0
 31
0.0
  0
LINE
  5
1221C
330
121F6
100
AcDbEntity
  8
12防振架台
100
AcDbLine
 10
1094.5
 20
-187.5
 30
0.0
 11
1150.0
 21
-187.5
 31
0.0
  0
LINE
  5
1221D
330
121F6
100
AcDbEntity
  8
12防振架台
100
AcDbLine
 10
1150.0
 20
-197.0
 30
0.0
 11
1150.0
 21
-232.5
 31
0.0
  0
LINE
  5
1221E
330
121F6
100
AcDbEntity
  8
12防振架台
100
AcDbLine
 10
1135.0
 20
-247.5
 30
0.0
 11
1090.0
 21
-247.5
 31
0.0
  0
LINE
  5
1221F
330
121F6
100
AcDbEntity
  8
12防振架台
100
AcDbLine
 10
1094.5
 20
-192.0
 30
0.0
 11
1150.0
 21
-192.0
 31
0.0
  0
LINE
  5
12220
330
121F6
100
AcDbEntity
  8
12防振架台
100
AcDbLine
 10
1090.0
 20
-199.5
 30
0.0
 11
1094.5
 21
-199.5
 31
0.0
  0
ARC
  5
12221
330
121F6
100
AcDbEntity
  8
12防振架台
100
AcDbCircle
 10
1094.5
 20
-192.0
 30
0.0
 40
4.5
100
AcDbArc
 50
90.0
 51
180.0
  0
LINE
  5
12222
330
121F6
100
AcDbEntity
  8
12防振架台
100
AcDbLine
 10
1150.0
 20
-187.5
 30
0.0
 11
1150.0
 21
-192.0
 31
0.0
  0
ARC
  5
12223
330
121F6
100
AcDbEntity
  8
12防振架台
100
AcDbCircle
 10
1135.0
 20
-232.5
 30
0.0
 40
15.0
100
AcDbArc
 50
270.0
 51
0.0
  0
LINE
  5
12224
330
121F6
100
AcDbEntity
  8
12防振架台
100
AcDbLine
 10
1094.5
 20
-199.5
 30
0.0
 11
1097.0
 21
-199.5
 31
0.0
  0
ARC
  5
12225
330
121F6
100
AcDbEntity
  8
12防振架台
100
AcDbCircle
 10
1145.0
 20
-197.0
 30
0.0
 40
5.0
100
AcDbArc
 50
0.0
 51
90.0
  0
ARC
  5
12226
330
121F6
100
AcDbEntity
  8
12防振架台
100
AcDbCircle
 10
1097.0
 20
-194.5
 30
0.0
 40
5.0
100
AcDbArc
 50
270.0
 51
0.0
  0
LINE
  5
12227
330
121F6
100
AcDbEntity
  8
12防振架台
100
AcDbLine
 10
1094.5
 20
-192.0
 30
0.0
 11
1094.5
 21
-199.5
 31
0.0
  0
LINE
  5
12228
330
121F6
100
AcDbEntity
  8
12防振架台
100
AcDbLine
 10
1102.0
 20
-187.5
 30
0.0
 11
1102.0
 21
-194.5
 31
0.0
  0
LINE
  5
12229
330
121F6
100
AcDbEntity
  8
12防振架台
100
AcDbLine
 10
1150.0
 20
-192.0
 30
0.0
 11
1150.0
 21
-191.9499999999998
 31
0.0
  0
CIRCLE
  5
1222A
330
121F6
100
AcDbEntity
  8
12防振架台
100
AcDbCircle
 10
1125.0
 20
-222.5
 30
0.0
 40
12.0
  0
LINE
  5
1222B
330
121F6
100
AcDbEntity
  8
12防振架台
100
AcDbLine
 10
1150.0
 20
187.5
 30
0.0
 11
1094.5
 21
187.5
 31
0.0
  0
LINE
  5
1222C
330
121F6
100
AcDbEntity
  8
12防振架台
100
AcDbLine
 10
1090.0
 20
192.0
 30
0.0
 11
1090.0
 21
247.5
 31
0.0
  0
LINE
  5
1222D
330
121F6
100
AcDbEntity
  8
12防振架台
100
AcDbLine
 10
1099.5
 20
247.5
 30
0.0
 11
1135.0
 21
247.5
 31
0.0
  0
LINE
  5
1222E
330
121F6
100
AcDbEntity
  8
12防振架台
100
AcDbLine
 10
1150.0
 20
232.5
 30
0.0
 11
1150.0
 21
187.5
 31
0.0
  0
LINE
  5
1222F
330
121F6
100
AcDbEntity
  8
12防振架台
100
AcDbLine
 10
1094.5
 20
192.0
 30
0.0
 11
1094.5
 21
247.5
 31
0.0
  0
LINE
  5
12230
330
121F6
100
AcDbEntity
  8
12防振架台
100
AcDbLine
 10
1102.0
 20
187.5
 30
0.0
 11
1102.0
 21
192.0
 31
0.0
  0
ARC
  5
12231
330
121F6
100
AcDbEntity
  8
12防振架台
100
AcDbCircle
 10
1094.5
 20
192.0
 30
0.0
 40
4.5
100
AcDbArc
 50
180.0
 51
270.0
  0
LINE
  5
12232
330
121F6
100
AcDbEntity
  8
12防振架台
100
AcDbLine
 10
1090.0
 20
247.5
 30
0.0
 11
1094.5
 21
247.5
 31
0.0
  0
ARC
  5
12233
330
121F6
100
AcDbEntity
  8
12防振架台
100
AcDbCircle
 10
1135.0
 20
232.5
 30
0.0
 40
15.0
100
AcDbArc
 50
0.0
 51
90.0
  0
LINE
  5
12234
330
121F6
100
AcDbEntity
  8
12防振架台
100
AcDbLine
 10
1102.0
 20
192.0
 30
0.0
 11
1102.0
 21
194.5
 31
0.0
  0
ARC
  5
12235
330
121F6
100
AcDbEntity
  8
12防振架台
100
AcDbCircle
 10
1099.5
 20
242.5
 30
0.0
 40
5.0
100
AcDbArc
 50
90.0
 51
180.0
  0
ARC
  5
12236
330
121F6
100
AcDbEntity
  8
12防振架台
100
AcDbCircle
 10
1097.0
 20
194.5
 30
0.0
 40
5.0
100
AcDbArc
 50
0.0
 51
90.0
  0
LINE
  5
12237
330
121F6
100
AcDbEntity
  8
12防振架台
100
AcDbLine
 10
1094.5
 20
192.0
 30
0.0
 11
1102.0
 21
192.0
 31
0.0
  0
LINE
  5
12238
330
121F6
100
AcDbEntity
  8
12防振架台
100
AcDbLine
 10
1090.0
 20
199.5
 30
0.0
 11
1097.0
 21
199.5
 31
0.0
  0
LINE
  5
12239
330
121F6
100
AcDbEntity
  8
12防振架台
100
AcDbLine
 10
1094.5
 20
247.5
 30
0.0
 11
1094.450000000001
 21
247.5
 31
0.0
  0
CIRCLE
  5
1223A
330
121F6
100
AcDbEntity
  8
12防振架台
100
AcDbCircle
 10
1125.0
 20
222.5
 30
0.0
 40
12.0
  0
LINE
  5
1223B
330
121F6
100
AcDbEntity
  8
12防振架台
100
AcDbLine
 10
60.0
 20
247.5
 30
0.0
 11
60.0
 21
192.0
 31
0.0
  0
LINE
  5
1223C
330
121F6
100
AcDbEntity
  8
12防振架台
100
AcDbLine
 10
55.5
 20
187.5
 30
0.0
 11
0.0
 21
187.5
 31
0.0
  0
LINE
  5
1223D
330
121F6
100
AcDbEntity
  8
12防振架台
100
AcDbLine
 10
0.0
 20
197.0
 30
0.0
 11
0.0
 21
232.5
 31
0.0
  0
LINE
  5
1223E
330
121F6
100
AcDbEntity
  8
12防振架台
100
AcDbLine
 10
15.0
 20
247.5
 30
0.0
 11
60.0
 21
247.5
 31
0.0
  0
LINE
  5
1223F
330
121F6
100
AcDbEntity
  8
12防振架台
100
AcDbLine
 10
55.5
 20
192.0
 30
0.0
 11
0.0
 21
192.0
 31
0.0
  0
LINE
  5
12240
330
121F6
100
AcDbEntity
  8
12防振架台
100
AcDbLine
 10
60.0
 20
199.5
 30
0.0
 11
55.5
 21
199.5
 31
0.0
  0
ARC
  5
12241
330
121F6
100
AcDbEntity
  8
12防振架台
100
AcDbCircle
 10
55.5
 20
192.0
 30
0.0
 40
4.5
100
AcDbArc
 50
270.0
 51
0.0
  0
LINE
  5
12242
330
121F6
100
AcDbEntity
  8
12防振架台
100
AcDbLine
 10
0.0
 20
187.5
 30
0.0
 11
0.0
 21
192.0
 31
0.0
  0
ARC
  5
12243
330
121F6
100
AcDbEntity
  8
12防振架台
100
AcDbCircle
 10
15.0
 20
232.5
 30
0.0
 40
15.0
100
AcDbArc
 50
89.99999999999305
 51
180.0
  0
LINE
  5
12244
330
121F6
100
AcDbEntity
  8
12防振架台
100
AcDbLine
 10
55.5
 20
199.5
 30
0.0
 11
53.0
 21
199.5
 31
0.0
  0
ARC
  5
12245
330
121F6
100
AcDbEntity
  8
12防振架台
100
AcDbCircle
 10
5.0
 20
197.0
 30
0.0
 40
5.0
100
AcDbArc
 50
180.0
 51
270.0
  0
ARC
  5
12246
330
121F6
100
AcDbEntity
  8
12防振架台
100
AcDbCircle
 10
53.0
 20
194.5
 30
0.0
 40
5.0
100
AcDbArc
 50
90.0
 51
180.0
  0
LINE
  5
12247
330
121F6
100
AcDbEntity
  8
12防振架台
100
AcDbLine
 10
55.5
 20
192.0
 30
0.0
 11
55.5
 21
199.5
 31
0.0
  0
LINE
  5
12248
330
121F6
100
AcDbEntity
  8
12防振架台
100
AcDbLine
 10
48.0
 20
187.5
 30
0.0
 11
48.0
 21
194.5
 31
0.0
  0
LINE
  5
12249
330
121F6
100
AcDbEntity
  8
12防振架台
100
AcDbLine
 10
0.0
 20
192.0
 30
0.0
 11
0.0
 21
191.9499999999998
 31
0.0
  0
CIRCLE
  5
1224A
330
121F6
100
AcDbEntity
  8
12防振架台
100
AcDbCircle
 10
25.0
 20
222.5
 30
0.0
 40
12.0
  0
CIRCLE
  5
1224B
330
121F6
100
AcDbEntity
  8
12防振架台
100
AcDbCircle
 10
150.0
 20
223.5
 30
0.0
 40
8.0
  0
CIRCLE
  5
1224C
330
121F6
100
AcDbEntity
  8
12防振架台
100
AcDbCircle
 10
1000.0
 20
223.5
 30
0.0
 40
8.0
  0
CIRCLE
  5
1224D
330
121F6
100
AcDbEntity
  8
12防振架台
100
AcDbCircle
 10
150.0
 20
-223.5
 30
0.0
 40
8.0
  0
CIRCLE
  5
1224E
330
121F6
100
AcDbEntity
  8
12防振架台
100
AcDbCircle
 10
1000.0
 20
-223.5
 30
0.0
 40
8.0
  0
ENDBLK
  5
12250
330
121F6
100
AcDbEntity
  8
0
100
AcDbBlockEnd
  0
BLOCK
  5
12604
330
12603
100
AcDbEntity
  8
0
100
AcDbBlockBegin
  2
*D1758
 70
     1
 10
0.0
 20
0.0
 30
0.0
  3
*D1758
  1

  0
LINE
  5
12606
330
12603
100
AcDbEntity
  8
01注記寸法
 62
     0
370
    -2
100
AcDbLine
 10
1352.499999999999
 20
450.0
 30
0.0
 11
1209.999999999999
 21
450.0
 31
0.0
  0
LINE
  5
12607
330
12603
100
AcDbEntity
  8
01注記寸法
 62
     0
370
    -2
100
AcDbLine
 10
1397.499999999999
 20
515.0000000000009
 30
0.0
 11
1209.999999999999
 21
515.0000000000009
 31
0.0
  0
LINE
  5
12608
330
12603
100
AcDbEntity
  8
01注記寸法
 62
     0
370
    -2
100
AcDbLine
 10
1224.999999999999
 20
450.0
 30
0.0
 11
1224.999999999999
 21
515.0000000000009
 31
0.0
  0
LINE
  5
12609
330
12603
100
AcDbEntity
  8
01注記寸法
 62
     0
370
    -2
100
AcDbLine
 10
1224.999999999999
 20
405.0
 30
0.0
 11
1224.999999999999
 21
360.0
 31
0.0
  0
LINE
  5
1260A
330
12603
100
AcDbEntity
  8
01注記寸法
 62
     0
370
    -2
100
AcDbLine
 10
1224.999999999999
 20
560.0000000000009
 30
0.0
 11
1224.999999999999
 21
605.0000000000009
 31
0.0
  0
INSERT
  5
1260B
330
12603
100
AcDbEntity
  8
01注記寸法
 62
     0
370
    -2
100
AcDbBlockReference
  2
_Open
 10
1224.999999999999
 20
450.0
 30
0.0
 41
45.0
 42
45.0
 43
45.0
 50
90.0
  0
INSERT
  5
1260C
330
12603
100
AcDbEntity
  8
01注記寸法
 62
     0
370
    -2
100
AcDbBlockReference
  2
_Open
 10
1224.999999999999
 20
515.0000000000009
 30
0.0
 41
45.0
 42
45.0
 43
45.0
 50
270.0
  0
MTEXT
  5
1260D
330
12603
100
AcDbEntity
  8
01注記寸法
 62
     0
100
AcDbMText
 10
1187.499999999999
 20
482.5000000000005
 30
0.0
 40
45.0
 41
0.0
 71
     5
 72
     1
  1
65
 11
0.0
 21
1.0
 31
0.0
 73
     1
 44
1.0
  0
POINT
  5
1260E
330
12603
100
AcDbEntity
  8
Defpoints
 62
     0
100
AcDbPoint
 10
1374.999999999999
 20
450.0
 30
0.0
  0
POINT
  5
1260F
330
12603
100
AcDbEntity
  8
Defpoints
 62
     0
100
AcDbPoint
 10
1419.999999999999
 20
515.0000000000009
 30
0.0
  0
POINT
  5
12610
330
12603
100
AcDbEntity
  8
Defpoints
 62
     0
100
AcDbPoint
 10
1224.999999999999
 20
515.0000000000009
 30
0.0
  0
ENDBLK
  5
12605
330
12603
100
AcDbEntity
  8
0
100
AcDbBlockEnd
  0
BLOCK
  5
12613
330
12612
100
AcDbEntity
  8
0
100
AcDbBlockBegin
  2
*D1759
 70
     1
 10
0.0
 20
0.0
 30
0.0
  3
*D1759
  1

  0
LINE
  5
12615
330
12612
100
AcDbEntity
  8
01注記寸法
 62
     0
370
    -2
100
AcDbLine
 10
1397.499999999999
 20
515.0000000000009
 30
0.0
 11
1209.999999999999
 21
515.0000000000009
 31
0.0
  0
LINE
  5
12616
330
12612
100
AcDbEntity
  8
01注記寸法
 62
     0
370
    -2
100
AcDbLine
 10
1397.499999999999
 20
885.0000000000009
 30
0.0
 11
1209.999999999999
 21
885.0000000000009
 31
0.0
  0
LINE
  5
12617
330
12612
100
AcDbEntity
  8
01注記寸法
 62
     0
370
    -2
100
AcDbLine
 10
1224.999999999999
 20
560.0000000000009
 30
0.0
 11
1224.999999999999
 21
840.0000000000009
 31
0.0
  0
INSERT
  5
12618
330
12612
100
AcDbEntity
  8
01注記寸法
 62
     0
370
    -2
100
AcDbBlockReference
  2
_Open
 10
1224.999999999999
 20
515.0000000000009
 30
0.0
 41
45.0
 42
45.0
 43
45.0
 50
270.0
  0
INSERT
  5
12619
330
12612
100
AcDbEntity
  8
01注記寸法
 62
     0
370
    -2
100
AcDbBlockReference
  2
_Open
 10
1224.999999999999
 20
885.0000000000009
 30
0.0
 41
45.0
 42
45.0
 43
45.0
 50
90.0
  0
MTEXT
  5
1261A
330
12612
100
AcDbEntity
  8
01注記寸法
 62
     0
100
AcDbMText
 10
1187.499999999999
 20
700.0000000000009
 30
0.0
 40
45.0
 41
0.0
 71
     5
 72
     1
  1
370
 11
0.0
 21
1.0
 31
0.0
 73
     1
 44
1.0
  0
POINT
  5
1261B
330
12612
100
AcDbEntity
  8
Defpoints
 62
     0
100
AcDbPoint
 10
1419.999999999999
 20
515.0000000000009
 30
0.0
  0
POINT
  5
1261C
330
12612
100
AcDbEntity
  8
Defpoints
 62
     0
100
AcDbPoint
 10
1419.999999999999
 20
885.0000000000009
 30
0.0
  0
POINT
  5
1261D
330
12612
100
AcDbEntity
  8
Defpoints
 62
     0
100
AcDbPoint
 10
1224.999999999999
 20
885.0000000000009
 30
0.0
  0
ENDBLK
  5
12614
330
12612
100
AcDbEntity
  8
0
100
AcDbBlockEnd
  0
BLOCK
  5
12620
330
1261F
100
AcDbEntity
  8
0
100
AcDbBlockBegin
  2
*D1760
 70
     1
 10
0.0
 20
0.0
 30
0.0
  3
*D1760
  1

  0
LINE
  5
12622
330
1261F
100
AcDbEntity
  8
01注記寸法
 62
     0
370
    -2
100
AcDbLine
 10
1397.499999999999
 20
885.0000000000009
 30
0.0
 11
1209.999999999999
 21
885.0000000000009
 31
0.0
  0
LINE
  5
12623
330
1261F
100
AcDbEntity
  8
01注記寸法
 62
     0
370
    -2
100
AcDbLine
 10
1352.499999999999
 20
950.0000000000009
 30
0.0
 11
1209.999999999999
 21
950.0000000000009
 31
0.0
  0
LINE
  5
12624
330
1261F
100
AcDbEntity
  8
01注記寸法
 62
     0
370
    -2
100
AcDbLine
 10
1224.999999999999
 20
885.0000000000009
 30
0.0
 11
1224.999999999999
 21
950.0000000000009
 31
0.0
  0
LINE
  5
12625
330
1261F
100
AcDbEntity
  8
01注記寸法
 62
     0
370
    -2
100
AcDbLine
 10
1224.999999999999
 20
840.0000000000009
 30
0.0
 11
1224.999999999999
 21
795.0000000000009
 31
0.0
  0
LINE
  5
12626
330
1261F
100
AcDbEntity
  8
01注記寸法
 62
     0
370
    -2
100
AcDbLine
 10
1224.999999999999
 20
995.0000000000009
 30
0.0
 11
1224.999999999999
 21
1040.000000000001
 31
0.0
  0
INSERT
  5
12627
330
1261F
100
AcDbEntity
  8
01注記寸法
 62
     0
370
    -2
100
AcDbBlockReference
  2
_Open
 10
1224.999999999999
 20
885.0000000000009
 30
0.0
 41
45.0
 42
45.0
 43
45.0
 50
90.0
  0
INSERT
  5
12628
330
1261F
100
AcDbEntity
  8
01注記寸法
 62
     0
370
    -2
100
AcDbBlockReference
  2
_Open
 10
1224.999999999999
 20
950.0000000000009
 30
0.0
 41
45.0
 42
45.0
 43
45.0
 50
270.0
  0
MTEXT
  5
12629
330
1261F
100
AcDbEntity
  8
01注記寸法
 62
     0
100
AcDbMText
 10
1187.499999999999
 20
917.5000000000009
 30
0.0
 40
45.0
 41
0.0
 71
     5
 72
     1
  1
65
 11
0.0
 21
1.0
 31
0.0
 73
     1
 44
1.0
  0
POINT
  5
1262A
330
1261F
100
AcDbEntity
  8
Defpoints
 62
     0
100
AcDbPoint
 10
1419.999999999999
 20
885.0000000000009
 30
0.0
  0
POINT
  5
1262B
330
1261F
100
AcDbEntity
  8
Defpoints
 62
     0
100
AcDbPoint
 10
1374.999999999999
 20
950.0000000000009
 30
0.0
  0
POINT
  5
1262C
330
1261F
100
AcDbEntity
  8
Defpoints
 62
     0
100
AcDbPoint
 10
1224.999999999999
 20
950.0000000000009
 30
0.0
  0
ENDBLK
  5
12621
330
1261F
100
AcDbEntity
  8
0
100
AcDbBlockEnd
  0
BLOCK
  5
1262F
330
1262E
100
AcDbEntity
  8
0
100
AcDbBlockBegin
  2
*D1761
 70
     1
 10
0.0
 20
0.0
 30
0.0
  3
*D1761
  1

  0
LINE
  5
12631
330
1262E
100
AcDbEntity
  8
01注記寸法
 62
     0
370
    -2
100
AcDbLine
 10
1374.999999999999
 20
972.5000000000009
 30
0.0
 11
1374.999999999999
 21
1115.000000000001
 31
0.0
  0
LINE
  5
12632
330
1262E
100
AcDbEntity
  8
01注記寸法
 62
     0
370
    -2
100
AcDbLine
 10
1439.999999999999
 20
927.5000000000009
 30
0.0
 11
1439.999999999999
 21
1115.000000000001
 31
0.0
  0
LINE
  5
12633
330
1262E
100
AcDbEntity
  8
01注記寸法
 62
     0
370
    -2
100
AcDbLine
 10
1374.999999999999
 20
1100.000000000001
 30
0.0
 11
1439.999999999999
 21
1100.000000000001
 31
0.0
  0
LINE
  5
12634
330
1262E
100
AcDbEntity
  8
01注記寸法
 62
     0
370
    -2
100
AcDbLine
 10
1329.999999999999
 20
1100.000000000001
 30
0.0
 11
1284.999999999999
 21
1100.000000000001
 31
0.0
  0
LINE
  5
12635
330
1262E
100
AcDbEntity
  8
01注記寸法
 62
     0
370
    -2
100
AcDbLine
 10
1484.999999999999
 20
1100.000000000001
 30
0.0
 11
1529.999999999999
 21
1100.000000000001
 31
0.0
  0
INSERT
  5
12636
330
1262E
100
AcDbEntity
  8
01注記寸法
 62
     0
370
    -2
100
AcDbBlockReference
  2
_Open
 10
1374.999999999999
 20
1100.000000000001
 30
0.0
 41
45.0
 42
45.0
 43
45.0
  0
INSERT
  5
12637
330
1262E
100
AcDbEntity
  8
01注記寸法
 62
     0
370
    -2
100
AcDbBlockReference
  2
_Open
 10
1439.999999999999
 20
1100.000000000001
 30
0.0
 41
45.0
 42
45.0
 43
45.0
 50
180.0
  0
MTEXT
  5
12638
330
1262E
100
AcDbEntity
  8
01注記寸法
 62
     0
100
AcDbMText
 10
1407.499999999999
 20
1137.500000000001
 30
0.0
 40
45.0
 41
0.0
 71
     5
 72
     1
  1
65
 73
     1
 44
1.0
  0
POINT
  5
12639
330
1262E
100
AcDbEntity
  8
Defpoints
 62
     0
100
AcDbPoint
 10
1374.999999999999
 20
950.0000000000009
 30
0.0
  0
POINT
  5
1263A
330
1262E
100
AcDbEntity
  8
Defpoints
 62
     0
100
AcDbPoint
 10
1439.999999999999
 20
905.0000000000009
 30
0.0
  0
POINT
  5
1263B
330
1262E
100
AcDbEntity
  8
Defpoints
 62
     0
100
AcDbPoint
 10
1439.999999999999
 20
1100.000000000001
 30
0.0
  0
ENDBLK
  5
12630
330
1262E
100
AcDbEntity
  8
0
100
AcDbBlockEnd
  0
BLOCK
  5
1263E
330
1263D
100
AcDbEntity
  8
0
100
AcDbBlockBegin
  2
*D1762
 70
     1
 10
0.0
 20
0.0
 30
0.0
  3
*D1762
  1

  0
LINE
  5
12640
330
1263D
100
AcDbEntity
  8
01注記寸法
 62
     0
370
    -2
100
AcDbLine
 10
1439.999999999999
 20
927.5000000000009
 30
0.0
 11
1439.999999999999
 21
1115.000000000001
 31
0.0
  0
LINE
  5
12641
330
1263D
100
AcDbEntity
  8
01注記寸法
 62
     0
370
    -2
100
AcDbLine
 10
2459.999999999999
 20
927.5000000000009
 30
0.0
 11
2459.999999999999
 21
1115.000000000001
 31
0.0
  0
LINE
  5
12642
330
1263D
100
AcDbEntity
  8
01注記寸法
 62
     0
370
    -2
100
AcDbLine
 10
1484.999999999999
 20
1100.000000000001
 30
0.0
 11
2414.999999999999
 21
1100.000000000001
 31
0.0
  0
INSERT
  5
12643
330
1263D
100
AcDbEntity
  8
01注記寸法
 62
     0
370
    -2
100
AcDbBlockReference
  2
_Open
 10
1439.999999999999
 20
1100.000000000001
 30
0.0
 41
45.0
 42
45.0
 43
45.0
 50
180.0
  0
INSERT
  5
12644
330
1263D
100
AcDbEntity
  8
01注記寸法
 62
     0
370
    -2
100
AcDbBlockReference
  2
_Open
 10
2459.999999999999
 20
1100.000000000001
 30
0.0
 41
45.0
 42
45.0
 43
45.0
  0
MTEXT
  5
12645
330
1263D
100
AcDbEntity
  8
01注記寸法
 62
     0
100
AcDbMText
 10
1949.999999999999
 20
1137.500000000001
 30
0.0
 40
45.0
 41
0.0
 71
     5
 72
     1
  1
1020
 73
     1
 44
1.0
  0
POINT
  5
12646
330
1263D
100
AcDbEntity
  8
Defpoints
 62
     0
100
AcDbPoint
 10
1439.999999999999
 20
905.0000000000009
 30
0.0
  0
POINT
  5
12647
330
1263D
100
AcDbEntity
  8
Defpoints
 62
     0
100
AcDbPoint
 10
2459.999999999999
 20
905.0000000000009
 30
0.0
  0
POINT
  5
12648
330
1263D
100
AcDbEntity
  8
Defpoints
 62
     0
100
AcDbPoint
 10
2459.999999999999
 20
1100.000000000001
 30
0.0
  0
ENDBLK
  5
1263F
330
1263D
100
AcDbEntity
  8
0
100
AcDbBlockEnd
  0
BLOCK
  5
1264B
330
1264A
100
AcDbEntity
  8
0
100
AcDbBlockBegin
  2
*D1763
 70
     1
 10
0.0
 20
0.0
 30
0.0
  3
*D1763
  1

  0
LINE
  5
1264D
330
1264A
100
AcDbEntity
  8
01注記寸法
 62
     0
370
    -2
100
AcDbLine
 10
2459.999999999999
 20
927.5000000000009
 30
0.0
 11
2459.999999999999
 21
1115.000000000001
 31
0.0
  0
LINE
  5
1264E
330
1264A
100
AcDbEntity
  8
01注記寸法
 62
     0
370
    -2
100
AcDbLine
 10
2524.999999999999
 20
972.5000000000009
 30
0.0
 11
2524.999999999999
 21
1115.000000000001
 31
0.0
  0
LINE
  5
1264F
330
1264A
100
AcDbEntity
  8
01注記寸法
 62
     0
370
    -2
100
AcDbLine
 10
2459.999999999999
 20
1100.000000000001
 30
0.0
 11
2524.999999999999
 21
1100.000000000001
 31
0.0
  0
LINE
  5
12650
330
1264A
100
AcDbEntity
  8
01注記寸法
 62
     0
370
    -2
100
AcDbLine
 10
2414.999999999999
 20
1100.000000000001
 30
0.0
 11
2369.999999999999
 21
1100.000000000001
 31
0.0
  0
LINE
  5
12651
330
1264A
100
AcDbEntity
  8
01注記寸法
 62
     0
370
    -2
100
AcDbLine
 10
2569.999999999999
 20
1100.000000000001
 30
0.0
 11
2614.999999999999
 21
1100.000000000001
 31
0.0
  0
INSERT
  5
12652
330
1264A
100
AcDbEntity
  8
01注記寸法
 62
     0
370
    -2
100
AcDbBlockReference
  2
_Open
 10
2459.999999999999
 20
1100.000000000001
 30
0.0
 41
45.0
 42
45.0
 43
45.0
  0
INSERT
  5
12653
330
1264A
100
AcDbEntity
  8
01注記寸法
 62
     0
370
    -2
100
AcDbBlockReference
  2
_Open
 10
2524.999999999999
 20
1100.000000000001
 30
0.0
 41
45.0
 42
45.0
 43
45.0
 50
180.0
  0
MTEXT
  5
12654
330
1264A
100
AcDbEntity
  8
01注記寸法
 62
     0
100
AcDbMText
 10
2492.499999999999
 20
1137.500000000001
 30
0.0
 40
45.0
 41
0.0
 71
     5
 72
     1
  1
65
 73
     1
 44
1.0
  0
POINT
  5
12655
330
1264A
100
AcDbEntity
  8
Defpoints
 62
     0
100
AcDbPoint
 10
2459.999999999999
 20
905.0000000000009
 30
0.0
  0
POINT
  5
12656
330
1264A
100
AcDbEntity
  8
Defpoints
 62
     0
100
AcDbPoint
 10
2524.999999999999
 20
950.0000000000009
 30
0.0
  0
POINT
  5
12657
330
1264A
100
AcDbEntity
  8
Defpoints
 62
     0
100
AcDbPoint
 10
2524.999999999999
 20
1100.000000000001
 30
0.0
  0
ENDBLK
  5
1264C
330
1264A
100
AcDbEntity
  8
0
100
AcDbBlockEnd
  0
BLOCK
  5
1266B
330
1266A
100
AcDbEntity
  8
0
100
AcDbBlockBegin
  2
*D1765
 70
     1
 10
0.0
 20
0.0
 30
0.0
  3
*D1765
  1

  0
LINE
  5
1266D
330
1266A
100
AcDbEntity
  8
01注記寸法
 62
     0
370
    -2
100
AcDbLine
 10
1374.999999999999
 20
3727.499999999997
 30
0.0
 11
1374.999999999999
 21
4019.999999999997
 31
0.0
  0
LINE
  5
1266E
330
1266A
100
AcDbEntity
  8
01注記寸法
 62
     0
370
    -2
100
AcDbLine
 10
1524.999999999999
 20
3720.999999999997
 30
0.0
 11
1524.999999999999
 21
4019.999999999997
 31
0.0
  0
LINE
  5
1266F
330
1266A
100
AcDbEntity
  8
01注記寸法
 62
     0
370
    -2
100
AcDbLine
 10
1419.999999999999
 20
4004.999999999997
 30
0.0
 11
1479.999999999999
 21
4004.999999999997
 31
0.0
  0
INSERT
  5
12670
330
1266A
100
AcDbEntity
  8
01注記寸法
 62
     0
370
    -2
100
AcDbBlockReference
  2
_Open
 10
1374.999999999999
 20
4004.999999999997
 30
0.0
 41
45.0
 42
45.0
 43
45.0
 50
180.0
  0
INSERT
  5
12671
330
1266A
100
AcDbEntity
  8
01注記寸法
 62
     0
370
    -2
100
AcDbBlockReference
  2
_Open
 10
1524.999999999999
 20
4004.999999999997
 30
0.0
 41
45.0
 42
45.0
 43
45.0
  0
MTEXT
  5
12672
330
1266A
100
AcDbEntity
  8
01注記寸法
 62
     0
100
AcDbMText
 10
1449.999999999999
 20
4042.499999999997
 30
0.0
 40
45.0
 41
0.0
 71
     5
 72
     1
  1
150
 73
     1
 44
1.0
  0
POINT
  5
12673
330
1266A
100
AcDbEntity
  8
Defpoints
 62
     0
100
AcDbPoint
 10
1374.999999999999
 20
3704.999999999997
 30
0.0
  0
POINT
  5
12674
330
1266A
100
AcDbEntity
  8
Defpoints
 62
     0
100
AcDbPoint
 10
1524.999999999999
 20
3698.499999999997
 30
0.0
  0
POINT
  5
12675
330
1266A
100
AcDbEntity
  8
Defpoints
 62
     0
100
AcDbPoint
 10
1524.999999999999
 20
4004.999999999997
 30
0.0
  0
ENDBLK
  5
1266C
330
1266A
100
AcDbEntity
  8
0
100
AcDbBlockEnd
  0
BLOCK
  5
12678
330
12677
100
AcDbEntity
  8
0
100
AcDbBlockBegin
  2
*D1766
 70
     1
 10
0.0
 20
0.0
 30
0.0
  3
*D1766
  1

  0
LINE
  5
1267A
330
12677
100
AcDbEntity
  8
01注記寸法
 62
     0
370
    -2
100
AcDbLine
 10
1524.999999999999
 20
3720.999999999997
 30
0.0
 11
1524.999999999999
 21
4019.999999999997
 31
0.0
  0
LINE
  5
1267B
330
12677
100
AcDbEntity
  8
01注記寸法
 62
     0
370
    -2
100
AcDbLine
 10
2374.999999999999
 20
3720.999999999998
 30
0.0
 11
2374.999999999999
 21
4019.999999999997
 31
0.0
  0
LINE
  5
1267C
330
12677
100
AcDbEntity
  8
01注記寸法
 62
     0
370
    -2
100
AcDbLine
 10
1569.999999999999
 20
4004.999999999997
 30
0.0
 11
2329.999999999999
 21
4004.999999999997
 31
0.0
  0
INSERT
  5
1267D
330
12677
100
AcDbEntity
  8
01注記寸法
 62
     0
370
    -2
100
AcDbBlockReference
  2
_Open
 10
1524.999999999999
 20
4004.999999999997
 30
0.0
 41
45.0
 42
45.0
 43
45.0
 50
180.0
  0
INSERT
  5
1267E
330
12677
100
AcDbEntity
  8
01注記寸法
 62
     0
370
    -2
100
AcDbBlockReference
  2
_Open
 10
2374.999999999999
 20
4004.999999999997
 30
0.0
 41
45.0
 42
45.0
 43
45.0
  0
MTEXT
  5
1267F
330
12677
100
AcDbEntity
  8
01注記寸法
 62
     0
100
AcDbMText
 10
1949.999999999999
 20
4042.499999999997
 30
0.0
 40
45.0
 41
0.0
 71
     5
 72
     1
  1
850
 73
     1
 44
1.0
  0
POINT
  5
12680
330
12677
100
AcDbEntity
  8
Defpoints
 62
     0
100
AcDbPoint
 10
1524.999999999999
 20
3698.499999999997
 30
0.0
  0
POINT
  5
12681
330
12677
100
AcDbEntity
  8
Defpoints
 62
     0
100
AcDbPoint
 10
2374.999999999999
 20
3698.499999999998
 30
0.0
  0
POINT
  5
12682
330
12677
100
AcDbEntity
  8
Defpoints
 62
     0
100
AcDbPoint
 10
2374.999999999999
 20
4004.999999999997
 30
0.0
  0
ENDBLK
  5
12679
330
12677
100
AcDbEntity
  8
0
100
AcDbBlockEnd
  0
BLOCK
  5
12685
330
12684
100
AcDbEntity
  8
0
100
AcDbBlockBegin
  2
*D1767
 70
     1
 10
0.0
 20
0.0
 30
0.0
  3
*D1767
  1

  0
LINE
  5
12687
330
12684
100
AcDbEntity
  8
01注記寸法
 62
     0
370
    -2
100
AcDbLine
 10
2374.999999999999
 20
3720.999999999998
 30
0.0
 11
2374.999999999999
 21
4019.999999999997
 31
0.0
  0
LINE
  5
12688
330
12684
100
AcDbEntity
  8
01注記寸法
 62
     0
370
    -2
100
AcDbLine
 10
2524.999999999999
 20
3727.499999999997
 30
0.0
 11
2524.999999999999
 21
4019.999999999997
 31
0.0
  0
LINE
  5
12689
330
12684
100
AcDbEntity
  8
01注記寸法
 62
     0
370
    -2
100
AcDbLine
 10
2419.999999999999
 20
4004.999999999997
 30
0.0
 11
2479.999999999999
 21
4004.999999999997
 31
0.0
  0
INSERT
  5
1268A
330
12684
100
AcDbEntity
  8
01注記寸法
 62
     0
370
    -2
100
AcDbBlockReference
  2
_Open
 10
2374.999999999999
 20
4004.999999999997
 30
0.0
 41
45.0
 42
45.0
 43
45.0
 50
180.0
  0
INSERT
  5
1268B
330
12684
100
AcDbEntity
  8
01注記寸法
 62
     0
370
    -2
100
AcDbBlockReference
  2
_Open
 10
2524.999999999999
 20
4004.999999999997
 30
0.0
 41
45.0
 42
45.0
 43
45.0
  0
MTEXT
  5
1268C
330
12684
100
AcDbEntity
  8
01注記寸法
 62
     0
100
AcDbMText
 10
2449.999999999999
 20
4042.499999999997
 30
0.0
 40
45.0
 41
0.0
 71
     5
 72
     1
  1
150
 73
     1
 44
1.0
  0
POINT
  5
1268D
330
12684
100
AcDbEntity
  8
Defpoints
 62
     0
100
AcDbPoint
 10
2374.999999999999
 20
3698.499999999998
 30
0.0
  0
POINT
  5
1268E
330
12684
100
AcDbEntity
  8
Defpoints
 62
     0
100
AcDbPoint
 10
2524.999999999999
 20
3704.999999999997
 30
0.0
  0
POINT
  5
1268F
330
12684
100
AcDbEntity
  8
Defpoints
 62
     0
100
AcDbPoint
 10
2524.999999999999
 20
4004.999999999997
 30
0.0
  0
ENDBLK
  5
12686
330
12684
100
AcDbEntity
  8
0
100
AcDbBlockEnd
  0
BLOCK
  5
12692
330
12691
100
AcDbEntity
  8
0
100
AcDbBlockBegin
  2
*D1768
 70
     1
 10
0.0
 20
0.0
 30
0.0
  3
*D1768
  1

  0
LINE
  5
12694
330
12691
100
AcDbEntity
  8
01注記寸法
 62
     0
370
    -2
100
AcDbLine
 10
2524.999999999999
 20
3727.499999999997
 30
0.0
 11
2524.999999999999
 21
4169.999999999997
 31
0.0
  0
LINE
  5
12695
330
12691
100
AcDbEntity
  8
01注記寸法
 62
     0
370
    -2
100
AcDbLine
 10
1374.999999999999
 20
3727.499999999997
 30
0.0
 11
1374.999999999999
 21
4169.999999999997
 31
0.0
  0
LINE
  5
12696
330
12691
100
AcDbEntity
  8
01注記寸法
 62
     0
370
    -2
100
AcDbLine
 10
2479.999999999999
 20
4154.999999999997
 30
0.0
 11
1419.999999999999
 21
4154.999999999997
 31
0.0
  0
INSERT
  5
12697
330
12691
100
AcDbEntity
  8
01注記寸法
 62
     0
370
    -2
100
AcDbBlockReference
  2
_Open
 10
2524.999999999999
 20
4154.999999999997
 30
0.0
 41
45.0
 42
45.0
 43
45.0
  0
INSERT
  5
12698
330
12691
100
AcDbEntity
  8
01注記寸法
 62
     0
370
    -2
100
AcDbBlockReference
  2
_Open
 10
1374.999999999999
 20
4154.999999999997
 30
0.0
 41
45.0
 42
45.0
 43
45.0
 50
180.0
  0
MTEXT
  5
12699
330
12691
100
AcDbEntity
  8
01注記寸法
 62
     0
100
AcDbMText
 10
1949.999999999999
 20
4192.499999999997
 30
0.0
 40
45.0
 41
0.0
 71
     5
 72
     1
  1
1150
 73
     1
 44
1.0
  0
POINT
  5
1269A
330
12691
100
AcDbEntity
  8
Defpoints
 62
     0
100
AcDbPoint
 10
2524.999999999999
 20
3704.999999999997
 30
0.0
  0
POINT
  5
1269B
330
12691
100
AcDbEntity
  8
Defpoints
 62
     0
100
AcDbPoint
 10
1374.999999999999
 20
3704.999999999997
 30
0.0
  0
POINT
  5
1269C
330
12691
100
AcDbEntity
  8
Defpoints
 62
     0
100
AcDbPoint
 10
1374.999999999999
 20
4154.999999999997
 30
0.0
  0
ENDBLK
  5
12693
330
12691
100
AcDbEntity
  8
0
100
AcDbBlockEnd
  0
BLOCK
  5
1269F
330
1269E
100
AcDbEntity
  8
0
100
AcDbBlockBegin
  2
*D1769
 70
     1
 10
0.0
 20
0.0
 30
0.0
  3
*D1769
  1

  0
LINE
  5
126A1
330
1269E
100
AcDbEntity
  8
01注記寸法
 62
     0
370
    -2
100
AcDbLine
 10
1352.499999999999
 20
3704.999999999997
 30
0.0
 11
1209.999999999999
 21
3704.999999999997
 31
0.0
  0
LINE
  5
126A2
330
1269E
100
AcDbEntity
  8
01注記寸法
 62
     0
370
    -2
100
AcDbLine
 10
1482.499999999999
 20
3678.499999999997
 30
0.0
 11
1209.999999999999
 21
3678.499999999997
 31
0.0
  0
LINE
  5
126A3
330
1269E
100
AcDbEntity
  8
01注記寸法
 62
     0
370
    -2
100
AcDbLine
 10
1224.999999999999
 20
3704.999999999997
 30
0.0
 11
1224.999999999999
 21
3935.789999999997
 31
0.0
  0
LINE
  5
126A4
330
1269E
100
AcDbEntity
  8
01注記寸法
 62
     0
370
    -2
100
AcDbLine
 10
1224.999999999999
 20
3704.999999999997
 30
0.0
 11
1224.999999999999
 21
3678.499999999997
 31
0.0
  0
LINE
  5
126A5
330
1269E
100
AcDbEntity
  8
01注記寸法
 62
     0
370
    -2
100
AcDbLine
 10
1224.999999999999
 20
3749.999999999997
 30
0.0
 11
1224.999999999999
 21
3794.999999999997
 31
0.0
  0
LINE
  5
126A6
330
1269E
100
AcDbEntity
  8
01注記寸法
 62
     0
370
    -2
100
AcDbLine
 10
1224.999999999999
 20
3633.499999999997
 30
0.0
 11
1224.999999999999
 21
3588.499999999997
 31
0.0
  0
INSERT
  5
126A7
330
1269E
100
AcDbEntity
  8
01注記寸法
 62
     0
370
    -2
100
AcDbBlockReference
  2
_Open
 10
1224.999999999999
 20
3704.999999999997
 30
0.0
 41
45.0
 42
45.0
 43
45.0
 50
270.0
  0
INSERT
  5
126A8
330
1269E
100
AcDbEntity
  8
01注記寸法
 62
     0
370
    -2
100
AcDbBlockReference
  2
_Open
 10
1224.999999999999
 20
3678.499999999997
 30
0.0
 41
45.0
 42
45.0
 43
45.0
 50
90.0
  0
MTEXT
  5
126A9
330
1269E
100
AcDbEntity
  8
01注記寸法
 62
     0
100
AcDbMText
 10
1187.499999999999
 20
3865.394999999997
 30
0.0
 40
45.0
 41
0.0
 71
     5
 72
     1
  1
26.5
 11
0.0
 21
1.0
 31
0.0
 73
     1
 44
1.0
  0
POINT
  5
126AA
330
1269E
100
AcDbEntity
  8
Defpoints
 62
     0
100
AcDbPoint
 10
1374.999999999999
 20
3704.999999999997
 30
0.0
  0
POINT
  5
126AB
330
1269E
100
AcDbEntity
  8
Defpoints
 62
     0
100
AcDbPoint
 10
1504.999999999999
 20
3678.499999999997
 30
0.0
  0
POINT
  5
126AC
330
1269E
100
AcDbEntity
  8
Defpoints
 62
     0
100
AcDbPoint
 10
1224.999999999999
 20
3678.499999999997
 30
0.0
  0
ENDBLK
  5
126A0
330
1269E
100
AcDbEntity
  8
0
100
AcDbBlockEnd
  0
BLOCK
  5
126AF
330
126AE
100
AcDbEntity
  8
0
100
AcDbBlockBegin
  2
*D1770
 70
     1
 10
0.0
 20
0.0
 30
0.0
  3
*D1770
  1

  0
LINE
  5
126B1
330
126AE
100
AcDbEntity
  8
01注記寸法
 62
     0
370
    -2
100
AcDbLine
 10
1482.499999999999
 20
3678.499999999997
 30
0.0
 11
1209.999999999999
 21
3678.499999999997
 31
0.0
  0
LINE
  5
126B2
330
126AE
100
AcDbEntity
  8
01注記寸法
 62
     0
370
    -2
100
AcDbLine
 10
1482.499999999999
 20
3231.499999999997
 30
0.0
 11
1209.999999999999
 21
3231.499999999997
 31
0.0
  0
LINE
  5
126B3
330
126AE
100
AcDbEntity
  8
01注記寸法
 62
     0
370
    -2
100
AcDbLine
 10
1224.999999999999
 20
3633.499999999997
 30
0.0
 11
1224.999999999999
 21
3276.499999999997
 31
0.0
  0
INSERT
  5
126B4
330
126AE
100
AcDbEntity
  8
01注記寸法
 62
     0
370
    -2
100
AcDbBlockReference
  2
_Open
 10
1224.999999999999
 20
3678.499999999997
 30
0.0
 41
45.0
 42
45.0
 43
45.0
 50
90.0
  0
INSERT
  5
126B5
330
126AE
100
AcDbEntity
  8
01注記寸法
 62
     0
370
    -2
100
AcDbBlockReference
  2
_Open
 10
1224.999999999999
 20
3231.499999999997
 30
0.0
 41
45.0
 42
45.0
 43
45.0
 50
270.0
  0
MTEXT
  5
126B6
330
126AE
100
AcDbEntity
  8
01注記寸法
 62
     0
100
AcDbMText
 10
1187.499999999999
 20
3454.999999999997
 30
0.0
 40
45.0
 41
0.0
 71
     5
 72
     1
  1
447
 11
0.0
 21
1.0
 31
0.0
 73
     1
 44
1.0
  0
POINT
  5
126B7
330
126AE
100
AcDbEntity
  8
Defpoints
 62
     0
100
AcDbPoint
 10
1504.999999999999
 20
3678.499999999997
 30
0.0
  0
POINT
  5
126B8
330
126AE
100
AcDbEntity
  8
Defpoints
 62
     0
100
AcDbPoint
 10
1504.999999999999
 20
3231.499999999997
 30
0.0
  0
POINT
  5
126B9
330
126AE
100
AcDbEntity
  8
Defpoints
 62
     0
100
AcDbPoint
 10
1224.999999999999
 20
3231.499999999997
 30
0.0
  0
ENDBLK
  5
126B0
330
126AE
100
AcDbEntity
  8
0
100
AcDbBlockEnd
  0
BLOCK
  5
126BC
330
126BB
100
AcDbEntity
  8
0
100
AcDbBlockBegin
  2
*D1771
 70
     1
 10
0.0
 20
0.0
 30
0.0
  3
*D1771
  1

  0
LINE
  5
126BE
330
126BB
100
AcDbEntity
  8
01注記寸法
 62
     0
370
    -2
100
AcDbLine
 10
1482.499999999999
 20
3231.499999999997
 30
0.0
 11
1209.999999999999
 21
3231.499999999997
 31
0.0
  0
LINE
  5
126BF
330
126BB
100
AcDbEntity
  8
01注記寸法
 62
     0
370
    -2
100
AcDbLine
 10
1352.499999999999
 20
3204.999999999997
 30
0.0
 11
1209.999999999999
 21
3204.999999999997
 31
0.0
  0
LINE
  5
126C0
330
126BB
100
AcDbEntity
  8
01注記寸法
 62
     0
370
    -2
100
AcDbLine
 10
1224.999999999999
 20
3159.999999999997
 30
0.0
 11
1224.999999999999
 21
2974.209999999997
 31
0.0
  0
LINE
  5
126C1
330
126BB
100
AcDbEntity
  8
01注記寸法
 62
     0
370
    -2
100
AcDbLine
 10
1224.999999999999
 20
3231.499999999997
 30
0.0
 11
1224.999999999999
 21
3204.999999999997
 31
0.0
  0
LINE
  5
126C2
330
126BB
100
AcDbEntity
  8
01注記寸法
 62
     0
370
    -2
100
AcDbLine
 10
1224.999999999999
 20
3276.499999999997
 30
0.0
 11
1224.999999999999
 21
3321.499999999997
 31
0.0
  0
INSERT
  5
126C3
330
126BB
100
AcDbEntity
  8
01注記寸法
 62
     0
370
    -2
100
AcDbBlockReference
  2
_Open
 10
1224.999999999999
 20
3231.499999999997
 30
0.0
 41
45.0
 42
45.0
 43
45.0
 50
270.0
  0
INSERT
  5
126C4
330
126BB
100
AcDbEntity
  8
01注記寸法
 62
     0
370
    -2
100
AcDbBlockReference
  2
_Open
 10
1224.999999999999
 20
3204.999999999997
 30
0.0
 41
45.0
 42
45.0
 43
45.0
 50
90.0
  0
MTEXT
  5
126C5
330
126BB
100
AcDbEntity
  8
01注記寸法
 62
     0
100
AcDbMText
 10
1187.499999999999
 20
3044.604999999997
 30
0.0
 40
45.0
 41
0.0
 71
     5
 72
     1
  1
26.5
 11
0.0
 21
1.0
 31
0.0
 73
     1
 44
1.0
  0
POINT
  5
126C6
330
126BB
100
AcDbEntity
  8
Defpoints
 62
     0
100
AcDbPoint
 10
1504.999999999999
 20
3231.499999999997
 30
0.0
  0
POINT
  5
126C7
330
126BB
100
AcDbEntity
  8
Defpoints
 62
     0
100
AcDbPoint
 10
1374.999999999999
 20
3204.999999999997
 30
0.0
  0
POINT
  5
126C8
330
126BB
100
AcDbEntity
  8
Defpoints
 62
     0
100
AcDbPoint
 10
1224.999999999999
 20
3204.999999999997
 30
0.0
  0
ENDBLK
  5
126BD
330
126BB
100
AcDbEntity
  8
0
100
AcDbBlockEnd
  0
BLOCK
  5
126CB
330
126CA
100
AcDbEntity
  8
0
100
AcDbBlockBegin
  2
*D1772
 70
     1
 10
0.0
 20
0.0
 30
0.0
  3
*D1772
  1

  0
LINE
  5
126CD
330
126CA
100
AcDbEntity
  8
01注記寸法
 62
     0
370
    -2
100
AcDbLine
 10
1352.499999999999
 20
3204.999999999997
 30
0.0
 11
1059.999999999999
 21
3204.999999999997
 31
0.0
  0
LINE
  5
126CE
330
126CA
100
AcDbEntity
  8
01注記寸法
 62
     0
370
    -2
100
AcDbLine
 10
1352.499999999999
 20
3704.999999999997
 30
0.0
 11
1059.999999999999
 21
3704.999999999997
 31
0.0
  0
LINE
  5
126CF
330
126CA
100
AcDbEntity
  8
01注記寸法
 62
     0
370
    -2
100
AcDbLine
 10
1074.999999999999
 20
3249.999999999997
 30
0.0
 11
1074.999999999999
 21
3659.999999999997
 31
0.0
  0
INSERT
  5
126D0
330
126CA
100
AcDbEntity
  8
01注記寸法
 62
     0
370
    -2
100
AcDbBlockReference
  2
_Open
 10
1074.999999999999
 20
3204.999999999997
 30
0.0
 41
45.0
 42
45.0
 43
45.0
 50
270.0
  0
INSERT
  5
126D1
330
126CA
100
AcDbEntity
  8
01注記寸法
 62
     0
370
    -2
100
AcDbBlockReference
  2
_Open
 10
1074.999999999999
 20
3704.999999999997
 30
0.0
 41
45.0
 42
45.0
 43
45.0
 50
90.0
  0
MTEXT
  5
126D2
330
126CA
100
AcDbEntity
  8
01注記寸法
 62
     0
100
AcDbMText
 10
1037.499999999999
 20
3454.999999999997
 30
0.0
 40
45.0
 41
0.0
 71
     5
 72
     1
  1
500
 11
0.0
 21
1.0
 31
0.0
 73
     1
 44
1.0
  0
POINT
  5
126D3
330
126CA
100
AcDbEntity
  8
Defpoints
 62
     0
100
AcDbPoint
 10
1374.999999999999
 20
3204.999999999997
 30
0.0
  0
POINT
  5
126D4
330
126CA
100
AcDbEntity
  8
Defpoints
 62
     0
100
AcDbPoint
 10
1374.999999999999
 20
3704.999999999997
 30
0.0
  0
POINT
  5
126D5
330
126CA
100
AcDbEntity
  8
Defpoints
 62
     0
100
AcDbPoint
 10
1074.999999999999
 20
3704.999999999997
 30
0.0
  0
ENDBLK
  5
126CC
330
126CA
100
AcDbEntity
  8
0
100
AcDbBlockEnd
  0
BLOCK
  5
126D8
330
126D7
100
AcDbEntity
  8
0
100
AcDbBlockBegin
  2
*D1773
 70
     1
 10
0.0
 20
0.0
 30
0.0
  3
*D1773
  1

  0
LINE
  5
126DA
330
126D7
100
AcDbEntity
  8
01注記寸法
 62
     0
370
    -2
100
AcDbLine
 10
1374.999999999999
 20
3182.499999999997
 30
0.0
 11
1374.999999999999
 21
2889.999999999997
 31
0.0
  0
LINE
  5
126DB
330
126D7
100
AcDbEntity
  8
01注記寸法
 62
     0
370
    -2
100
AcDbLine
 10
1474.999999999999
 20
3194.999999999997
 30
0.0
 11
1474.999999999999
 21
2889.999999999997
 31
0.0
  0
LINE
  5
126DC
330
126D7
100
AcDbEntity
  8
01注記寸法
 62
     0
370
    -2
100
AcDbLine
 10
1374.999999999999
 20
2904.999999999997
 30
0.0
 11
1175.259999999999
 21
2904.999999999997
 31
0.0
  0
LINE
  5
126DD
330
126D7
100
AcDbEntity
  8
01注記寸法
 62
     0
370
    -2
100
AcDbLine
 10
1374.999999999999
 20
2904.999999999997
 30
0.0
 11
1474.999999999999
 21
2904.999999999997
 31
0.0
  0
LINE
  5
126DE
330
126D7
100
AcDbEntity
  8
01注記寸法
 62
     0
370
    -2
100
AcDbLine
 10
1329.999999999999
 20
2904.999999999997
 30
0.0
 11
1284.999999999999
 21
2904.999999999997
 31
0.0
  0
LINE
  5
126DF
330
126D7
100
AcDbEntity
  8
01注記寸法
 62
     0
370
    -2
100
AcDbLine
 10
1519.999999999999
 20
2904.999999999997
 30
0.0
 11
1564.999999999999
 21
2904.999999999997
 31
0.0
  0
INSERT
  5
126E0
330
126D7
100
AcDbEntity
  8
01注記寸法
 62
     0
370
    -2
100
AcDbBlockReference
  2
_Open
 10
1374.999999999999
 20
2904.999999999997
 30
0.0
 41
45.0
 42
45.0
 43
45.0
  0
INSERT
  5
126E1
330
126D7
100
AcDbEntity
  8
01注記寸法
 62
     0
370
    -2
100
AcDbBlockReference
  2
_Open
 10
1474.999999999999
 20
2904.999999999997
 30
0.0
 41
45.0
 42
45.0
 43
45.0
 50
180.0
  0
MTEXT
  5
126E2
330
126D7
100
AcDbEntity
  8
01注記寸法
 62
     0
100
AcDbMText
 10
1230.129999999999
 20
2942.499999999997
 30
0.0
 40
45.0
 41
0.0
 71
     5
 72
     1
  1
100
 73
     1
 44
1.0
  0
POINT
  5
126E3
330
126D7
100
AcDbEntity
  8
Defpoints
 62
     0
100
AcDbPoint
 10
1374.999999999999
 20
3204.999999999997
 30
0.0
  0
POINT
  5
126E4
330
126D7
100
AcDbEntity
  8
Defpoints
 62
     0
100
AcDbPoint
 10
1474.999999999999
 20
3217.499999999997
 30
0.0
  0
POINT
  5
1272D
330
126D7
100
AcDbEntity
  8
Defpoints
 62
     0
100
AcDbPoint
 10
1474.999999999999
 20
2904.999999999997
 30
0.0
  0
ENDBLK
  5
126D9
330
126D7
100
AcDbEntity
  8
0
100
AcDbBlockEnd
  0
BLOCK
  5
126E7
330
126E6
100
AcDbEntity
  8
0
100
AcDbBlockBegin
  2
*D1774
 70
     1
 10
0.0
 20
0.0
 30
0.0
  3
*D1774
  1

  0
LINE
  5
126E9
330
126E6
100
AcDbEntity
  8
01注記寸法
 62
     0
370
    -2
100
AcDbLine
 10
1474.999999999999
 20
3194.999999999997
 30
0.0
 11
1474.999999999999
 21
2889.999999999997
 31
0.0
  0
LINE
  5
126EA
330
126E6
100
AcDbEntity
  8
01注記寸法
 62
     0
370
    -2
100
AcDbLine
 10
2424.999999999999
 20
3194.999999999997
 30
0.0
 11
2424.999999999999
 21
2889.999999999997
 31
0.0
  0
LINE
  5
126EB
330
126E6
100
AcDbEntity
  8
01注記寸法
 62
     0
370
    -2
100
AcDbLine
 10
1519.999999999999
 20
2904.999999999997
 30
0.0
 11
2379.999999999999
 21
2904.999999999997
 31
0.0
  0
INSERT
  5
126EC
330
126E6
100
AcDbEntity
  8
01注記寸法
 62
     0
370
    -2
100
AcDbBlockReference
  2
_Open
 10
1474.999999999999
 20
2904.999999999997
 30
0.0
 41
45.0
 42
45.0
 43
45.0
 50
180.0
  0
INSERT
  5
126ED
330
126E6
100
AcDbEntity
  8
01注記寸法
 62
     0
370
    -2
100
AcDbBlockReference
  2
_Open
 10
2424.999999999999
 20
2904.999999999997
 30
0.0
 41
45.0
 42
45.0
 43
45.0
  0
MTEXT
  5
126EE
330
126E6
100
AcDbEntity
  8
01注記寸法
 62
     0
100
AcDbMText
 10
1949.999999999999
 20
2943.984999999997
 30
0.0
 40
45.0
 41
0.0
 71
     5
 72
     1
  1
※ 950
 73
     1
 44
1.0
  0
POINT
  5
126EF
330
126E6
100
AcDbEntity
  8
Defpoints
 62
     0
100
AcDbPoint
 10
1474.999999999999
 20
3217.499999999997
 30
0.0
  0
POINT
  5
126F0
330
126E6
100
AcDbEntity
  8
Defpoints
 62
     0
100
AcDbPoint
 10
2424.999999999999
 20
3217.499999999997
 30
0.0
  0
POINT
  5
126F1
330
126E6
100
AcDbEntity
  8
Defpoints
 62
     0
100
AcDbPoint
 10
2424.999999999999
 20
2904.999999999997
 30
0.0
  0
ENDBLK
  5
126E8
330
126E6
100
AcDbEntity
  8
0
100
AcDbBlockEnd
  0
BLOCK
  5
126F4
330
126F3
100
AcDbEntity
  8
0
100
AcDbBlockBegin
  2
*D1775
 70
     1
 10
0.0
 20
0.0
 30
0.0
  3
*D1775
  1

  0
LINE
  5
126F6
330
126F3
100
AcDbEntity
  8
01注記寸法
 62
     0
370
    -2
100
AcDbLine
 10
2424.999999999999
 20
3194.999999999997
 30
0.0
 11
2424.999999999999
 21
2889.999999999997
 31
0.0
  0
LINE
  5
126F7
330
126F3
100
AcDbEntity
  8
01注記寸法
 62
     0
370
    -2
100
AcDbLine
 10
2524.999999999999
 20
3182.499999999997
 30
0.0
 11
2524.999999999999
 21
2889.999999999997
 31
0.0
  0
LINE
  5
126F8
330
126F3
100
AcDbEntity
  8
01注記寸法
 62
     0
370
    -2
100
AcDbLine
 10
2569.999999999999
 20
2904.999999999997
 30
0.0
 11
2724.739999999999
 21
2904.999999999997
 31
0.0
  0
LINE
  5
126F9
330
126F3
100
AcDbEntity
  8
01注記寸法
 62
     0
370
    -2
100
AcDbLine
 10
2424.999999999999
 20
2904.999999999997
 30
0.0
 11
2524.999999999999
 21
2904.999999999997
 31
0.0
  0
LINE
  5
126FA
330
126F3
100
AcDbEntity
  8
01注記寸法
 62
     0
370
    -2
100
AcDbLine
 10
2379.999999999999
 20
2904.999999999997
 30
0.0
 11
2334.999999999999
 21
2904.999999999997
 31
0.0
  0
INSERT
  5
126FB
330
126F3
100
AcDbEntity
  8
01注記寸法
 62
     0
370
    -2
100
AcDbBlockReference
  2
_Open
 10
2424.999999999999
 20
2904.999999999997
 30
0.0
 41
45.0
 42
45.0
 43
45.0
  0
INSERT
  5
126FC
330
126F3
100
AcDbEntity
  8
01注記寸法
 62
     0
370
    -2
100
AcDbBlockReference
  2
_Open
 10
2524.999999999999
 20
2904.999999999997
 30
0.0
 41
45.0
 42
45.0
 43
45.0
 50
180.0
  0
MTEXT
  5
126FD
330
126F3
100
AcDbEntity
  8
01注記寸法
 62
     0
100
AcDbMText
 10
2669.869999999999
 20
2942.499999999997
 30
0.0
 40
45.0
 41
0.0
 71
     5
 72
     1
  1
100
 73
     1
 44
1.0
  0
POINT
  5
126FE
330
126F3
100
AcDbEntity
  8
Defpoints
 62
     0
100
AcDbPoint
 10
2424.999999999999
 20
3217.499999999997
 30
0.0
  0
POINT
  5
126FF
330
126F3
100
AcDbEntity
  8
Defpoints
 62
     0
100
AcDbPoint
 10
2524.999999999999
 20
3204.999999999997
 30
0.0
  0
POINT
  5
12700
330
126F3
100
AcDbEntity
  8
Defpoints
 62
     0
100
AcDbPoint
 10
2524.999999999999
 20
2904.999999999997
 30
0.0
  0
ENDBLK
  5
126F5
330
126F3
100
AcDbEntity
  8
0
100
AcDbBlockEnd
  0
BLOCK
  5
12703
330
12702
100
AcDbEntity
  8
0
100
AcDbBlockBegin
  2
*D1776
 70
     1
 10
0.0
 20
0.0
 30
0.0
  3
*D1776
  1

  0
LINE
  5
12705
330
12702
100
AcDbEntity
  8
01注記寸法
 62
     0
370
    -2
100
AcDbLine
 10
2547.499999999999
 20
3204.999999999997
 30
0.0
 11
2839.999999999999
 21
3204.999999999997
 31
0.0
  0
LINE
  5
12706
330
12702
100
AcDbEntity
  8
01注記寸法
 62
     0
370
    -2
100
AcDbLine
 10
2467.499999999999
 20
3237.499999999997
 30
0.0
 11
2839.999999999999
 21
3237.499999999997
 31
0.0
  0
LINE
  5
12707
330
12702
100
AcDbEntity
  8
01注記寸法
 62
     0
370
    -2
100
AcDbLine
 10
2824.999999999999
 20
3204.999999999997
 30
0.0
 11
2824.999999999999
 21
2973.984999999997
 31
0.0
  0
LINE
  5
12708
330
12702
100
AcDbEntity
  8
01注記寸法
 62
     0
370
    -2
100
AcDbLine
 10
2824.999999999999
 20
3204.999999999997
 30
0.0
 11
2824.999999999999
 21
3237.499999999997
 31
0.0
  0
LINE
  5
12709
330
12702
100
AcDbEntity
  8
01注記寸法
 62
     0
370
    -2
100
AcDbLine
 10
2824.999999999999
 20
3159.999999999997
 30
0.0
 11
2824.999999999999
 21
3114.999999999997
 31
0.0
  0
LINE
  5
1270A
330
12702
100
AcDbEntity
  8
01注記寸法
 62
     0
370
    -2
100
AcDbLine
 10
2824.999999999999
 20
3282.499999999997
 30
0.0
 11
2824.999999999999
 21
3327.499999999997
 31
0.0
  0
INSERT
  5
1270B
330
12702
100
AcDbEntity
  8
01注記寸法
 62
     0
370
    -2
100
AcDbBlockReference
  2
_Open
 10
2824.999999999999
 20
3204.999999999997
 30
0.0
 41
45.0
 42
45.0
 43
45.0
 50
90.0
  0
INSERT
  5
1270C
330
12702
100
AcDbEntity
  8
01注記寸法
 62
     0
370
    -2
100
AcDbBlockReference
  2
_Open
 10
2824.999999999999
 20
3237.499999999997
 30
0.0
 41
45.0
 42
45.0
 43
45.0
 50
270.0
  0
MTEXT
  5
1270D
330
12702
100
AcDbEntity
  8
01注記寸法
 62
     0
100
AcDbMText
 10
2787.499999999999
 20
3044.492499999997
 30
0.0
 40
45.0
 41
0.0
 71
     5
 72
     1
  1
32.5
 11
0.0
 21
1.0
 31
0.0
 73
     1
 44
1.0
  0
POINT
  5
1270E
330
12702
100
AcDbEntity
  8
Defpoints
 62
     0
100
AcDbPoint
 10
2524.999999999999
 20
3204.999999999997
 30
0.0
  0
POINT
  5
1270F
330
12702
100
AcDbEntity
  8
Defpoints
 62
     0
100
AcDbPoint
 10
2444.999999999999
 20
3237.499999999997
 30
0.0
  0
POINT
  5
1272C
330
12702
100
AcDbEntity
  8
Defpoints
 62
     0
100
AcDbPoint
 10
2824.999999999999
 20
3237.499999999997
 30
0.0
  0
ENDBLK
  5
12704
330
12702
100
AcDbEntity
  8
0
100
AcDbBlockEnd
  0
BLOCK
  5
12712
330
12711
100
AcDbEntity
  8
0
100
AcDbBlockBegin
  2
*D1777
 70
     1
 10
0.0
 20
0.0
 30
0.0
  3
*D1777
  1

  0
LINE
  5
12714
330
12711
100
AcDbEntity
  8
01注記寸法
 62
     0
370
    -2
100
AcDbLine
 10
2467.499999999999
 20
3237.499999999997
 30
0.0
 11
2839.999999999999
 21
3237.499999999997
 31
0.0
  0
LINE
  5
12715
330
12711
100
AcDbEntity
  8
01注記寸法
 62
     0
370
    -2
100
AcDbLine
 10
2467.499999999999
 20
3672.499999999997
 30
0.0
 11
2839.999999999999
 21
3672.499999999997
 31
0.0
  0
LINE
  5
12716
330
12711
100
AcDbEntity
  8
01注記寸法
 62
     0
370
    -2
100
AcDbLine
 10
2824.999999999999
 20
3282.499999999997
 30
0.0
 11
2824.999999999999
 21
3627.499999999997
 31
0.0
  0
INSERT
  5
12717
330
12711
100
AcDbEntity
  8
01注記寸法
 62
     0
370
    -2
100
AcDbBlockReference
  2
_Open
 10
2824.999999999999
 20
3237.499999999997
 30
0.0
 41
45.0
 42
45.0
 43
45.0
 50
270.0
  0
INSERT
  5
12718
330
12711
100
AcDbEntity
  8
01注記寸法
 62
     0
370
    -2
100
AcDbBlockReference
  2
_Open
 10
2824.999999999999
 20
3672.499999999997
 30
0.0
 41
45.0
 42
45.0
 43
45.0
 50
90.0
  0
MTEXT
  5
12719
330
12711
100
AcDbEntity
  8
01注記寸法
 62
     0
100
AcDbMText
 10
2786.014999999999
 20
3454.999999999997
 30
0.0
 40
45.0
 41
0.0
 71
     5
 72
     1
  1
※ 435
 11
0.0
 21
1.0
 31
0.0
 73
     1
 44
1.0
  0
POINT
  5
1271A
330
12711
100
AcDbEntity
  8
Defpoints
 62
     0
100
AcDbPoint
 10
2444.999999999999
 20
3237.499999999997
 30
0.0
  0
POINT
  5
1271B
330
12711
100
AcDbEntity
  8
Defpoints
 62
     0
100
AcDbPoint
 10
2444.999999999999
 20
3672.499999999997
 30
0.0
  0
POINT
  5
1271C
330
12711
100
AcDbEntity
  8
Defpoints
 62
     0
100
AcDbPoint
 10
2824.999999999999
 20
3672.499999999997
 30
0.0
  0
ENDBLK
  5
12713
330
12711
100
AcDbEntity
  8
0
100
AcDbBlockEnd
  0
BLOCK
  5
1271F
330
1271E
100
AcDbEntity
  8
0
100
AcDbBlockBegin
  2
*D1778
 70
     1
 10
0.0
 20
0.0
 30
0.0
  3
*D1778
  1

  0
LINE
  5
12721
330
1271E
100
AcDbEntity
  8
01注記寸法
 62
     0
370
    -2
100
AcDbLine
 10
2467.499999999999
 20
3672.499999999997
 30
0.0
 11
2839.999999999999
 21
3672.499999999997
 31
0.0
  0
LINE
  5
12722
330
1271E
100
AcDbEntity
  8
01注記寸法
 62
     0
370
    -2
100
AcDbLine
 10
2547.499999999999
 20
3704.999999999997
 30
0.0
 11
2839.999999999999
 21
3704.999999999997
 31
0.0
  0
LINE
  5
12723
330
1271E
100
AcDbEntity
  8
01注記寸法
 62
     0
370
    -2
100
AcDbLine
 10
2824.999999999999
 20
3749.999999999997
 30
0.0
 11
2824.999999999999
 21
3936.014999999998
 31
0.0
  0
LINE
  5
12724
330
1271E
100
AcDbEntity
  8
01注記寸法
 62
     0
370
    -2
100
AcDbLine
 10
2824.999999999999
 20
3672.499999999997
 30
0.0
 11
2824.999999999999
 21
3704.999999999997
 31
0.0
  0
LINE
  5
12725
330
1271E
100
AcDbEntity
  8
01注記寸法
 62
     0
370
    -2
100
AcDbLine
 10
2824.999999999999
 20
3627.499999999997
 30
0.0
 11
2824.999999999999
 21
3582.499999999997
 31
0.0
  0
INSERT
  5
12726
330
1271E
100
AcDbEntity
  8
01注記寸法
 62
     0
370
    -2
100
AcDbBlockReference
  2
_Open
 10
2824.999999999999
 20
3672.499999999997
 30
0.0
 41
45.0
 42
45.0
 43
45.0
 50
90.0
  0
INSERT
  5
12727
330
1271E
100
AcDbEntity
  8
01注記寸法
 62
     0
370
    -2
100
AcDbBlockReference
  2
_Open
 10
2824.999999999999
 20
3704.999999999997
 30
0.0
 41
45.0
 42
45.0
 43
45.0
 50
270.0
  0
MTEXT
  5
12728
330
1271E
100
AcDbEntity
  8
01注記寸法
 62
     0
100
AcDbMText
 10
2787.499999999999
 20
3865.507499999997
 30
0.0
 40
45.0
 41
0.0
 71
     5
 72
     1
  1
32.5
 11
0.0
 21
1.0
 31
0.0
 73
     1
 44
1.0
  0
POINT
  5
12729
330
1271E
100
AcDbEntity
  8
Defpoints
 62
     0
100
AcDbPoint
 10
2444.999999999999
 20
3672.499999999997
 30
0.0
  0
POINT
  5
1272A
330
1271E
100
AcDbEntity
  8
Defpoints
 62
     0
100
AcDbPoint
 10
2524.999999999999
 20
3704.999999999997
 30
0.0
  0
POINT
  5
1272B
330
1271E
100
AcDbEntity
  8
Defpoints
 62
     0
100
AcDbPoint
 10
2824.999999999999
 20
3704.999999999997
 30
0.0
  0
ENDBLK
  5
12720
330
1271E
100
AcDbEntity
  8
0
100
AcDbBlockEnd
  0
BLOCK
  5
12733
330
12732
100
AcDbEntity
  8
0
100
AcDbBlockBegin
  2
*D1779
 70
     1
 10
0.0
 20
0.0
 30
0.0
  3
*D1779
  1

  0
LINE
  5
12735
330
12732
100
AcDbEntity
  8
01注記寸法
 62
     0
370
    -2
100
AcDbLine
 10
1342.499999999999
 20
1650.000000000001
 30
0.0
 11
1209.999999999999
 21
1650.000000000001
 31
0.0
  0
LINE
  5
12736
330
12732
100
AcDbEntity
  8
01注記寸法
 62
     0
370
    -2
100
AcDbLine
 10
1352.499999999999
 20
1850.000000000001
 30
0.0
 11
1209.999999999999
 21
1850.000000000001
 31
0.0
  0
LINE
  5
12737
330
12732
100
AcDbEntity
  8
01注記寸法
 62
     0
370
    -2
100
AcDbLine
 10
1224.999999999999
 20
1695.000000000001
 30
0.0
 11
1224.999999999999
 21
1805.000000000001
 31
0.0
  0
INSERT
  5
12738
330
12732
100
AcDbEntity
  8
01注記寸法
 62
     0
370
    -2
100
AcDbBlockReference
  2
_Open
 10
1224.999999999999
 20
1650.000000000001
 30
0.0
 41
45.0
 42
45.0
 43
45.0
 50
270.0
  0
INSERT
  5
12739
330
12732
100
AcDbEntity
  8
01注記寸法
 62
     0
370
    -2
100
AcDbBlockReference
  2
_Open
 10
1224.999999999999
 20
1850.000000000001
 30
0.0
 41
45.0
 42
45.0
 43
45.0
 50
90.0
  0
MTEXT
  5
1273A
330
12732
100
AcDbEntity
  8
01注記寸法
 62
     0
100
AcDbMText
 10
1187.499999999999
 20
1750.000000000001
 30
0.0
 40
45.0
 41
0.0
 71
     5
 72
     1
  1
200
 11
0.0
 21
1.0
 31
0.0
 73
     1
 44
1.0
  0
POINT
  5
1273B
330
12732
100
AcDbEntity
  8
Defpoints
 62
     0
100
AcDbPoint
 10
1364.999999999999
 20
1650.000000000001
 30
0.0
  0
POINT
  5
1273C
330
12732
100
AcDbEntity
  8
Defpoints
 62
     0
100
AcDbPoint
 10
1374.999999999999
 20
1850.000000000001
 30
0.0
  0
POINT
  5
1273D
330
12732
100
AcDbEntity
  8
Defpoints
 62
     0
100
AcDbPoint
 10
1224.999999999999
 20
1850.000000000001
 30
0.0
  0
ENDBLK
  5
12734
330
12732
100
AcDbEntity
  8
0
100
AcDbBlockEnd
  0
BLOCK
  5
12740
330
1273F
100
AcDbEntity
  8
0
100
AcDbBlockBegin
  2
*D1780
 70
     1
 10
0.0
 20
0.0
 30
0.0
  3
*D1780
  1

  0
LINE
  5
12742
330
1273F
100
AcDbEntity
  8
01注記寸法
 62
     0
370
    -2
100
AcDbLine
 10
1342.499999999999
 20
1650.000000000001
 30
0.0
 11
1059.999999999999
 21
1650.000000000001
 31
0.0
  0
LINE
  5
12743
330
1273F
100
AcDbEntity
  8
01注記寸法
 62
     0
370
    -2
100
AcDbLine
 10
1352.499999999999
 20
2650.000000000001
 30
0.0
 11
1059.999999999999
 21
2650.000000000001
 31
0.0
  0
LINE
  5
12744
330
1273F
100
AcDbEntity
  8
01注記寸法
 62
     0
370
    -2
100
AcDbLine
 10
1074.999999999999
 20
1695.000000000001
 30
0.0
 11
1074.999999999999
 21
2605.000000000001
 31
0.0
  0
INSERT
  5
12745
330
1273F
100
AcDbEntity
  8
01注記寸法
 62
     0
370
    -2
100
AcDbBlockReference
  2
_Open
 10
1074.999999999999
 20
1650.000000000001
 30
0.0
 41
45.0
 42
45.0
 43
45.0
 50
270.0
  0
INSERT
  5
12746
330
1273F
100
AcDbEntity
  8
01注記寸法
 62
     0
370
    -2
100
AcDbBlockReference
  2
_Open
 10
1074.999999999999
 20
2650.000000000001
 30
0.0
 41
45.0
 42
45.0
 43
45.0
 50
90.0
  0
MTEXT
  5
12747
330
1273F
100
AcDbEntity
  8
01注記寸法
 62
     0
100
AcDbMText
 10
1037.499999999999
 20
2150.000000000001
 30
0.0
 40
45.0
 41
0.0
 71
     5
 72
     1
  1
1000
 11
0.0
 21
1.0
 31
0.0
 73
     1
 44
1.0
  0
POINT
  5
12748
330
1273F
100
AcDbEntity
  8
Defpoints
 62
     0
100
AcDbPoint
 10
1364.999999999999
 20
1650.000000000001
 30
0.0
  0
POINT
  5
12749
330
1273F
100
AcDbEntity
  8
Defpoints
 62
     0
100
AcDbPoint
 10
1374.999999999999
 20
2650.000000000001
 30
0.0
  0
POINT
  5
1274A
330
1273F
100
AcDbEntity
  8
Defpoints
 62
     0
100
AcDbPoint
 10
1074.999999999999
 20
2650.000000000001
 30
0.0
  0
ENDBLK
  5
12741
330
1273F
100
AcDbEntity
  8
0
100
AcDbBlockEnd
  0
ENDSEC
  0
SECTION
  2
ENTITIES
  0
LWPOLYLINE
  5
E6DB
330
1F
100
AcDbEntity
  8
02実線
100
AcDbPolyline
 90
        4
 70
     1
 43
0.0
 10
1374.999999999999
 20
3204.999999999997
 10
1374.999999999999
 20
3704.999999999997
 10
2524.999999999999
 20
3704.999999999997
 10
2524.999999999999
 20
3204.999999999997
  0
LWPOLYLINE
  5
E6DC
330
1F
100
AcDbEntity
  8
03破線
100
AcDbPolyline
 90
        8
 70
     1
 43
0.0
 10
1380.999999999999
 20
3217.499999999997
 10
1380.999999999999
 20
3692.499999999997
 42
-0.4142135623730948
 10
1387.499999999999
 20
3698.999999999997
 10
2512.499999999999
 20
3698.999999999997
 42
-0.4142135623730948
 10
2518.999999999999
 20
3692.499999999997
 10
2518.999999999999
 20
3217.499999999997
 42
-0.4142135623730948
 10
2512.499999999999
 20
3210.999999999997
 10
1387.499999999999
 20
3210.999999999997
 42
-0.4142135623730948
  0
LWPOLYLINE
  5
E6DD
330
1F
100
AcDbEntity
  8
02実線
100
AcDbPolyline
 90
        4
 70
     1
 43
0.0
 10
1424.999999999999
 20
3254.999999999997
 10
1424.999999999999
 20
3654.999999999997
 10
2474.999999999999
 20
3654.999999999997
 10
2474.999999999999
 20
3254.999999999997
  0
LWPOLYLINE
  5
E6DE
330
1F
100
AcDbEntity
  8
02実線
100
AcDbPolyline
 90
        4
 70
     0
 43
0.0
 10
1374.999999999999
 20
1656.000000000001
 10
1374.999999999999
 20
2650.000000000001
 10
2524.999999999999
 20
2650.000000000001
 10
2524.999999999999
 20
1656.000000000001
  0
LWPOLYLINE
  5
E6DF
330
1F
100
AcDbEntity
  8
03破線
100
AcDbPolyline
 90
        6
 70
     0
 43
0.0
 10
1380.999999999999
 20
1656.000000000001
 10
1380.999999999999
 20
2637.500000000001
 42
-0.4142135623730948
 10
1387.499999999999
 20
2644.000000000001
 10
2512.499999999999
 20
2644.000000000001
 42
-0.4142135623730948
 10
2518.999999999999
 20
2637.500000000001
 10
2518.999999999999
 20
1656.000000000001
  0
LWPOLYLINE
  5
E6E0
330
1F
100
AcDbEntity
  8
02実線
100
AcDbPolyline
 90
        4
 70
     0
 43
0.0
 10
1424.999999999999
 20
1656.000000000001
 10
1424.999999999999
 20
2600.000000000001
 10
2474.999999999999
 20
2600.000000000001
 10
2474.999999999999
 20
1656.000000000001
  0
LWPOLYLINE
  5
E6E1
330
1F
100
AcDbEntity
  8
02実線
100
AcDbPolyline
 90
        4
 70
     1
 43
0.0
 10
1364.999999999999
 20
1650.000000000001
 10
1364.999999999999
 20
1656.000000000001
 10
1464.999999999999
 20
1656.000000000001
 10
1464.999999999999
 20
1650.000000000001
  0
LINE
  5
E6E2
330
1F
100
AcDbEntity
  8
04一点鎖線
  6
CENTER
100
AcDbLine
 10
1439.999999999999
 20
1640.000000000001
 30
0.0
 11
1439.999999999999
 21
1666.000000000001
 31
0.0
  0
LWPOLYLINE
  5
E6E3
330
1F
100
AcDbEntity
  8
02実線
100
AcDbPolyline
 90
        4
 70
     1
 43
0.0
 10
2534.999999999999
 20
1650.000000000001
 10
2534.999999999999
 20
1656.000000000001
 10
2434.999999999999
 20
1656.000000000001
 10
2434.999999999999
 20
1650.000000000001
  0
LINE
  5
E6E4
330
1F
100
AcDbEntity
  8
04一点鎖線
  6
CENTER
100
AcDbLine
 10
2459.999999999999
 20
1640.000000000001
 30
0.0
 11
2459.999999999999
 21
1666.000000000001
 31
0.0
  0
INSERT
  5
E6E8
330
1F
100
AcDbEntity
  8
03破線
100
AcDbBlockReference
  2
L50x50xt6-破線
 10
1374.999999999999
 20
1850.000000000001
 30
0.0
  0
INSERT
  5
E6E9
330
1F
100
AcDbEntity
  8
03破線
100
AcDbBlockReference
  2
L50x50xt6-破線
 10
2524.999999999999
 20
1850.000000000001
 30
0.0
 41
-1.0
  0
INSERT
  5
E6EA
330
1F
100
AcDbEntity
  8
03破線
100
AcDbBlockReference
  2
L50x50xt6-破線
 10
1374.999999999999
 20
2650.000000000001
 30
0.0
  0
INSERT
  5
E6EB
330
1F
100
AcDbEntity
  8
03破線
100
AcDbBlockReference
  2
L50x50xt6-破線
 10
2524.999999999999
 20
2650.000000000001
 30
0.0
 41
-1.0
  0
INSERT
  5
E706
330
1F
100
AcDbEntity
  8
03破線
100
AcDbBlockReference
  2
L50x50xt6-破線
 10
1374.999999999999
 20
3704.999999999997
 30
0.0
  0
INSERT
  5
E707
330
1F
100
AcDbEntity
  8
03破線
100
AcDbBlockReference
  2
L50x50xt6-破線
 10
2524.999999999999
 20
3704.999999999997
 30
0.0
 41
-1.0
  0
INSERT
  5
E70A
330
1F
100
AcDbEntity
  8
03破線
100
AcDbBlockReference
  2
L50x50xt6-破線
 10
1374.999999999999
 20
3204.999999999997
 30
0.0
 41
-1.0
 50
180.0
  0
INSERT
  5
E70B
330
1F
100
AcDbEntity
  8
03破線
100
AcDbBlockReference
  2
L50x50xt6-破線
 10
2524.999999999999
 20
3204.999999999997
 30
0.0
 50
180.0
  0
LWPOLYLINE
  5
E7AE
330
1F
100
AcDbEntity
  8
02実線
100
AcDbPolyline
 90
        4
 70
     0
 43
0.0
 10
2924.999999999999
 20
1656.000000000001
 10
2924.999999999999
 20
2650.000000000001
 10
3424.999999999999
 20
2650.000000000001
 10
3424.999999999999
 20
1656.000000000001
  0
LWPOLYLINE
  5
E7AF
330
1F
100
AcDbEntity
  8
03破線
100
AcDbPolyline
 90
        6
 70
     0
 43
0.0
 10
2930.999999999999
 20
1656.000000000001
 10
2930.999999999999
 20
2637.500000000001
 42
-0.4142135623730948
 10
2937.499999999999
 20
2644.000000000001
 10
3412.499999999999
 20
2644.000000000001
 42
-0.4142135623730948
 10
3418.999999999999
 20
2637.500000000001
 10
3418.999999999999
 20
1656.000000000001
  0
LWPOLYLINE
  5
E7B0
330
1F
100
AcDbEntity
  8
02実線
100
AcDbPolyline
 90
        4
 70
     0
 43
0.0
 10
2974.999999999999
 20
1656.000000000001
 10
2974.999999999999
 20
2600.000000000001
 10
3374.999999999999
 20
2600.000000000001
 10
3374.999999999999
 20
1656.000000000001
  0
LWPOLYLINE
  5
E7B1
330
1F
100
AcDbEntity
  8
02実線
100
AcDbPolyline
 90
        4
 70
     1
 43
0.0
 10
2914.999999999999
 20
1650.000000000001
 10
2914.999999999999
 20
1656.000000000001
 10
3014.999999999999
 20
1656.000000000001
 10
3014.999999999999
 20
1650.000000000001
  0
LINE
  5
E7B2
330
1F
100
AcDbEntity
  8
04一点鎖線
  6
CENTER
100
AcDbLine
 10
2989.999999999999
 20
1640.000000000001
 30
0.0
 11
2989.999999999999
 21
1666.000000000001
 31
0.0
  0
LWPOLYLINE
  5
E7B3
330
1F
100
AcDbEntity
  8
02実線
100
AcDbPolyline
 90
        4
 70
     1
 43
0.0
 10
3434.999999999999
 20
1650.000000000001
 10
3434.999999999999
 20
1656.000000000001
 10
3334.999999999999
 20
1656.000000000001
 10
3334.999999999999
 20
1650.000000000001
  0
LINE
  5
E7B4
330
1F
100
AcDbEntity
  8
04一点鎖線
  6
CENTER
100
AcDbLine
 10
3359.999999999999
 20
1640.000000000001
 30
0.0
 11
3359.999999999999
 21
1666.000000000001
 31
0.0
  0
LINE
  5
E7B5
330
1F
100
AcDbEntity
  8
02実線
100
AcDbLine
 10
3374.999999999999
 20
1850.000000000001
 30
0.0
 11
2974.999999999999
 21
1850.000000000001
 31
0.0
  0
LINE
  5
E7B6
330
1F
100
AcDbEntity
  8
03破線
100
AcDbLine
 10
3374.999999999999
 20
1844.000000000001
 30
0.0
 11
2974.999999999999
 21
1844.000000000001
 31
0.0
  0
LINE
  5
E7B7
330
1F
100
AcDbEntity
  8
02実線
100
AcDbLine
 10
3374.999999999999
 20
1800.000000000001
 30
0.0
 11
2974.999999999999
 21
1800.000000000001
 31
0.0
  0
INSERT
  5
E7B8
330
1F
100
AcDbEntity
  8
03破線
100
AcDbBlockReference
  2
L50x50xt6-破線
 10
2924.999999999999
 20
1850.000000000001
 30
0.0
  0
INSERT
  5
E7B9
330
1F
100
AcDbEntity
  8
03破線
100
AcDbBlockReference
  2
L50x50xt6-破線
 10
3424.999999999999
 20
1850.000000000001
 30
0.0
 41
-1.0
  0
INSERT
  5
E7BA
330
1F
100
AcDbEntity
  8
03破線
100
AcDbBlockReference
  2
L50x50xt6-破線
 10
2924.999999999999
 20
2650.000000000001
 30
0.0
  0
INSERT
  5
E7BB
330
1F
100
AcDbEntity
  8
03破線
100
AcDbBlockReference
  2
L50x50xt6-破線
 10
3424.999999999999
 20
2650.000000000001
 30
0.0
 41
-1.0
  0
LINE
  5
E7BD
102
{ACAD_REACTORS
330
E8BF
102
}
330
1F
100
AcDbEntity
  8
03破線
100
AcDbLine
 10
2518.999999999999
 20
3610.999999999997
 30
0.0
 11
1380.999999999999
 21
3610.999999999997
 31
0.0
  0
LINE
  5
E7BE
102
{ACAD_REACTORS
330
E8BF
102
}
330
1F
100
AcDbEntity
  8
03破線
100
AcDbLine
 10
1424.999999999999
 20
3604.999999999997
 30
0.0
 11
1380.999999999999
 21
3604.999999999997
 31
0.0
  0
LINE
  5
E7BF
102
{ACAD_REACTORS
330
E8BF
102
}
330
1F
100
AcDbEntity
  8
03破線
100
AcDbLine
 10
2474.999999999999
 20
3604.999999999997
 30
0.0
 11
2518.999999999999
 21
3604.999999999997
 31
0.0
  0
LWPOLYLINE
  5
E887
102
{ACAD_REACTORS
330
E8BF
102
}
330
1F
100
AcDbEntity
  8
02実線
100
AcDbPolyline
 90
        4
 70
     1
 43
0.0
 10
1424.999999999999
 20
3604.999999999997
 10
1424.999999999999
 20
3654.999999999997
 10
2474.999999999999
 20
3654.999999999997
 10
2474.999999999999
 20
3604.999999999997
  0
LINE
  5
E888
102
{ACAD_REACTORS
330
E8BF
102
}
330
1F
100
AcDbEntity
  8
08非表示
100
AcDbLine
 10
1424.999999999999
 20
3629.999999999997
 30
0.0
 11
2474.999999999999
 21
3629.999999999997
 31
0.0
  0
LINE
  5
E8A3
330
1F
100
AcDbEntity
  8
02実線
100
AcDbLine
 10
2474.999999999999
 20
1800.000000000001
 30
0.0
 11
1424.999999999999
 21
1800.000000000001
 31
0.0
  0
LINE
  5
E8A4
330
1F
100
AcDbEntity
  8
02実線
100
AcDbLine
 10
2474.999999999999
 20
1850.000000000001
 30
0.0
 11
1424.999999999999
 21
1850.000000000001
 31
0.0
  0
LINE
  5
E8A5
330
1F
100
AcDbEntity
  8
03破線
100
AcDbLine
 10
2474.999999999999
 20
1844.000000000001
 30
0.0
 11
1424.999999999999
 21
1844.000000000001
 31
0.0
  0
INSERT
  5
1225C
330
1F
100
AcDbEntity
  8
02実線
100
AcDbBlockReference
  2
hole-φ16
 10
1524.999999999999
 20
3678.499999999997
 30
0.0
  0
INSERT
  5
1225D
330
1F
100
AcDbEntity
  8
02実線
100
AcDbBlockReference
  2
hole-φ16
 10
2374.999999999999
 20
3678.499999999998
 30
0.0
  0
INSERT
  5
1225E
330
1F
100
AcDbEntity
  8
02実線
100
AcDbBlockReference
  2
hole-φ16
 10
2374.999999999999
 20
3231.499999999997
 30
0.0
  0
INSERT
  5
1225F
330
1F
100
AcDbEntity
  8
02実線
100
AcDbBlockReference
  2
hole-φ16
 10
1524.999999999999
 20
3231.499999999997
 30
0.0
  0
INSERT
  5
12260
330
1F
100
AcDbEntity
  8
02実線
100
AcDbBlockReference
  2
hole-φ16
 10
1474.999999999999
 20
3237.499999999997
 30
0.0
  0
INSERT
  5
12261
330
1F
100
AcDbEntity
  8
02実線
100
AcDbBlockReference
  2
hole-φ16
 10
2424.999999999999
 20
3237.499999999997
 30
0.0
  0
INSERT
  5
12262
330
1F
100
AcDbEntity
  8
02実線
100
AcDbBlockReference
  2
hole-φ16
 10
2424.999999999999
 20
3672.499999999997
 30
0.0
  0
INSERT
  5
12263
330
1F
100
AcDbEntity
  8
02実線
100
AcDbBlockReference
  2
hole-φ16
 10
1474.999999999999
 20
3672.499999999997
 30
0.0
  0
LINE
  5
1274D
102
{ACAD_REACTORS
330
12752
102
}
330
1F
100
AcDbEntity
  8
08非表示
100
AcDbLine
 10
1424.999999999999
 20
3279.999999999997
 30
0.0
 11
2474.999999999999
 21
3279.999999999997
 31
0.0
  0
LINE
  5
1274E
102
{ACAD_REACTORS
330
12752
102
}
330
1F
100
AcDbEntity
  8
03破線
100
AcDbLine
 10
2518.999999999999
 20
3298.999999999997
 30
0.0
 11
1380.999999999999
 21
3298.999999999997
 31
0.0
  0
LINE
  5
1274F
102
{ACAD_REACTORS
330
12752
102
}
330
1F
100
AcDbEntity
  8
03破線
100
AcDbLine
 10
1424.999999999999
 20
3304.999999999997
 30
0.0
 11
1380.999999999999
 21
3304.999999999997
 31
0.0
  0
LINE
  5
12750
102
{ACAD_REACTORS
330
12752
102
}
330
1F
100
AcDbEntity
  8
03破線
100
AcDbLine
 10
2474.999999999999
 20
3304.999999999997
 30
0.0
 11
2518.999999999999
 21
3304.999999999997
 31
0.0
  0
LWPOLYLINE
  5
12751
102
{ACAD_REACTORS
330
12752
102
}
330
1F
100
AcDbEntity
  8
02実線
100
AcDbPolyline
 90
        4
 70
     1
 43
0.0
 10
1424.999999999999
 20
3304.999999999997
 10
1424.999999999999
 20
3254.999999999997
 10
2474.999999999999
 20
3254.999999999997
 10
2474.999999999999
 20
3304.999999999997
  0
INSERT
  5
12753
330
1F
100
AcDbEntity
  8
03破線
100
AcDbBlockReference
  2
L50x50xt6-破線
 10
3324.999999999999
 20
2650.000000000001
 30
0.0
  0
INSERT
  5
12754
330
1F
100
AcDbEntity
  8
03破線
100
AcDbBlockReference
  2
L50x50xt6-破線
 10
3024.999999999999
 20
2650.000000000001
 30
0.0
 41
-1.0
  0
VIEWPORT
  5
9F0D
330
1B
100
AcDbEntity
 67
     1
  8
0
100
AcDbViewport
 10
202.5
 20
128.5
 30
0.0
 40
486.0
 41
308.4
 68
     1
 69
     1
 12
202.5
 22
128.5
 13
0.0
 23
0.0
 14
0.5
 24
0.5
 15
0.0
 25
0.0
 16
0.0
 26
0.0
 36
1.0
 17
0.0
 27
0.0
 37
0.0
 42
50.0
 43
0.0
 44
0.0
 45
308.4
 50
0.0
 51
0.0
 72
   100
 90
   557152
  1

281
     0
 71
     1
 74
     0
110
0.0
120
0.0
130
0.0
111
1.0
121
0.0
131
0.0
112
0.0
122
1.0
132
0.0
 79
     0
146
0.0
  0
VIEWPORT
  5
9F0E
330
1B
100
AcDbEntity
 67
     1
  8
0
100
AcDbViewport
 10
202.5
 20
128.5
 30
0.0
 40
324.0
 41
205.6
 68
     2
 69
     2
 12
-3224.9849078482
 22
3553.815758143106
 13
0.0
 23
0.0
 14
0.5
 24
0.5
 15
0.0
 25
0.0
 16
0.0
 26
0.0
 36
1.0
 17
0.0
 27
0.0
 37
0.0
 42
50.0
 43
0.0
 44
0.0
 45
10712.16027781073
 50
0.0
 51
0.0
 72
   100
 90
   557152
  1

281
     0
 71
     1
 74
     0
110
0.0
120
0.0
130
0.0
111
1.0
121
0.0
131
0.0
112
0.0
122
1.0
132
0.0
 79
     0
146
0.0
  0
ENDSEC
  0
SECTION
  2
OBJECTS
  0
DICTIONARY
  5
C
330
0
100
AcDbDictionary
281
     1
  3
ACAD_DETAILVIEWSTYLE
350
125EC
  3
ACAD_GROUP
350
D
  3
ACAD_IMAGE_VARS
350
6A88
  3
ACAD_LAYOUT
350
1A
  3
ACAD_MLINESTYLE
350
17
  3
ACAD_PLOTSETTINGS
350
19
  3
ACAD_PLOTSTYLENAME
350
E
  3
ACAD_SCALELIST
350
6A4E
  3
ACAD_SECTIONVIEWSTYLE
350
125ED
  3
AcadDim
350
FB97
  3
AcDbVariableDictionary
350
79E
  3
APPDATA
350
6A87
  3
DWGPROPS
350
1279B
  0
DICTIONARY
  5
7A6F
330
2
100
AcDbDictionary
280
     1
281
     1
  3
ACAD_LAYERSTATES
360
7A70
  3
ACLYDICTIONARY
360
F959
  0
DICTIONARY
  5
969E
330
1F
100
AcDbDictionary
280
     1
281
     1
  3
ACAD_SORTENTS
360
969F
  0
DICTIONARY
  5
125EC
102
{ACAD_REACTORS
330
C
102
}
330
C
100
AcDbDictionary
281
     1
  0
DICTIONARY
  5
D
102
{ACAD_REACTORS
330
C
102
}
330
C
100
AcDbDictionary
281
     1
  3
*A1
350
E8BF
  3
*A2
350
12752
  0
RASTERVARIABLES
  5
6A88
102
{ACAD_REACTORS
330
C
102
}
330
C
100
AcDbRasterVariables
 90
        0
 70
     1
 71
     1
 72
     1
  0
DICTIONARY
  5
1A
102
{ACAD_REACTORS
330
C
102
}
330
C
100
AcDbDictionary
281
     1
  3
Layout1
350
1E
  3
Model
350
22
  0
DICTIONARY
  5
17
102
{ACAD_REACTORS
330
C
102
}
330
C
100
AcDbDictionary
281
     1
  3
Standard
350
18
  0
DICTIONARY
  5
19
102
{ACAD_REACTORS
330
C
102
}
330
C
100
AcDbDictionary
281
     1
  0
ACDBDICTIONARYWDFLT
  5
E
102
{ACAD_REACTORS
330
C
102
}
330
C
100
AcDbDictionary
281
     1
  3
Normal
350
F
100
AcDbDictionaryWithDefault
340
F
  0
DICTIONARY
  5
6A4E
102
{ACAD_REACTORS
330
C
102
}
330
C
100
AcDbDictionary
281
     1
  3
A0
350
6A4F
  3
A1
350
6A50
  3
A2
350
6A51
  3
A3
350
6A52
  3
A4
350
6A53
  3
A5
350
6A54
  3
A6
350
6A55
  3
A7
350
6A56
  3
A8
350
6A57
  3
A9
350
6A58
  3
B0
350
6A59
  3
B1
350
6A5A
  3
B2
350
6A5B
  3
B3
350
6A5C
  3
B4
350
6A5D
  3
B5
350
6A5E
  3
B6
350
6A5F
  3
B7
350
6A60
  3
B8
350
6A61
  3
B9
350
6A62
  3
C0
350
6A63
  3
C1
350
6A64
  3
C2
350
6A65
  3
C3
350
6A66
  3
C4
350
6A67
  3
C5
350
6A68
  3
C6
350
6A69
  3
C7
350
6A6A
  3
C8
350
6A6B
  3
C9
350
6A6C
  3
D0
350
6A6D
  3
D1
350
6A6E
  3
D2
350
6A6F
  0
DICTIONARY
  5
125ED
102
{ACAD_REACTORS
330
C
102
}
330
C
100
AcDbDictionary
281
     1
  0
XRECORD
  5
FB97
102
{ACAD_REACTORS
330
C
102
}
330
C
100
AcDbXrecord
280
     1
340
0
 72
     0
 71
     0
 70
     0
 69
     0
 68
     1
 67
     3
 66
     0
 65
     0
 64
     0
 63
     3
 62
     1
 61
     0
 60
     0
 40
0.0
  0
DICTIONARY
  5
79E
102
{ACAD_REACTORS
330
C
102
}
330
C
100
AcDbDictionary
281
     1
  3
DIMASSOC
350
79F
  3
SORTENTS
350
264F
  0
DICTIONARY
  5
6A87
102
{ACAD_REACTORS
330
C
102
}
330
C
100
AcDbDictionary
281
     1
  0
XRECORD
  5
1279B
102
{ACAD_REACTORS
330
C
102
}
330
C
100
AcDbXrecord
280
     1
  1
DWGPROPS COOKIE
  2

  3

  4

  6

  7

  8
2328
  9

300
=
301
=
302
=
303
=
304
=
305
=
306
=
307
=
308
=
309
=
 40
0.0
 41
2455859.030048461
 42
2458376.026633935
  1

 90
        0
  0
DICTIONARY
  5
7A70
102
{ACAD_REACTORS
330
7A6F
102
}
330
7A6F
100
AcDbDictionary
281
     1
  0
DICTIONARY
  5
F959
102
{ACAD_REACTORS
330
7A6F
102
}
330
7A6F
100
AcDbDictionary
281
     1
1001
ACAD
1000
<All
  0
SORTENTSTABLE
  5
969F
102
{ACAD_REACTORS
330
969E
102
}
330
969E
100
AcDbSortentsTable
330
1F
331
0
  5
B8CF
331
0
  5
7E8F
331
0
  5
89CF
331
0
  5
8ABB
331
0
  5
8ABC
331
0
  5
8ABD
331
0
  5
8ABE
331
0
  5
7E90
331
0
  5
8EBB
331
0
  5
8EBC
331
0
  5
8EBD
331
0
  5
8EBE
331
0
  5
8EBF
331
0
  5
8ED5
331
0
  5
8ED6
331
0
  5
8ED7
331
0
  5
8ED8
331
0
  5
8EDF
331
0
  5
886E
331
0
  5
886F
331
0
  5
8871
331
0
  5
8874
331
0
  5
8878
331
0
  5
8879
331
0
  5
887A
331
0
  5
887B
331
0
  5
887C
331
0
  5
8EE0
331
0
  5
8EE1
331
0
  5
8EE2
331
0
  5
8EE3
331
0
  5
8EE4
331
0
  5
8EE5
331
0
  5
8EE7
331
0
  5
8EE8
331
0
  5
8EEB
331
0
  5
8EEC
331
0
  5
8EED
331
0
  5
8EEE
331
0
  5
8EEF
331
0
  5
7E94
331
0
  5
7E95
331
0
  5
7E97
331
0
  5
8EF0
331
0
  5
8EF3
331
0
  5
8EF5
331
0
  5
8EF6
331
0
  5
8EF7
331
0
  5
8EF8
331
0
  5
7E98
331
0
  5
7EA4
331
0
  5
8EFD
331
0
  5
8EFE
331
0
  5
8EFF
331
0
  5
8F00
331
0
  5
8F01
331
0
  5
7EA5
331
0
  5
7EA6
331
0
  5
8F02
331
0
  5
8F03
331
0
  5
8F04
331
0
  5
8F05
331
0
  5
8F07
331
0
  5
7EA7
331
0
  5
7EA8
331
0
  5
8F08
331
0
  5
8F0D
331
0
  5
8F0E
331
0
  5
8F0F
331
0
  5
8F11
331
0
  5
7EA9
331
0
  5
7EAA
331
0
  5
8F12
331
0
  5
8F13
331
0
  5
8F14
331
0
  5
7EB1
331
0
  5
8F15
331
0
  5
8F16
331
0
  5
8F17
331
0
  5
8F18
331
0
  5
8F19
331
0
  5
8F1A
331
0
  5
8F1B
331
0
  5
8F1C
331
0
  5
8F1D
331
0
  5
8F22
331
0
  5
8F24
331
0
  5
8F31
331
0
  5
8F35
331
0
  5
8F36
331
0
  5
8F38
331
0
  5
8F39
331
0
  5
8F3A
331
0
  5
8F3B
331
0
  5
8F3C
331
0
  5
8F3D
331
0
  5
8F3F
331
0
  5
8F40
331
0
  5
8F41
331
0
  5
8F42
331
0
  5
8F43
331
0
  5
8F44
331
0
  5
8F49
331
0
  5
8F4A
331
0
  5
8F4B
331
0
  5
8F4C
331
0
  5
8F4D
331
0
  5
8F4E
331
0
  5
8F4F
331
0
  5
8F52
331
0
  5
8F53
331
0
  5
8F54
331
0
  5
8F57
331
0
  5
8F58
331
0
  5
8F5A
331
0
  5
8F5B
331
0
  5
8F5C
331
0
  5
8F5D
331
0
  5
8F5E
331
0
  5
8F5F
331
0
  5
8F61
331
0
  5
8F67
331
0
  5
8F68
331
0
  5
7EB2
331
0
  5
7EB3
331
0
  5
7EB5
331
0
  5
7EB6
331
0
  5
7EB9
331
0
  5
7ECB
331
0
  5
8F73
331
0
  5
8F90
331
0
  5
8F94
331
0
  5
8F95
331
0
  5
8FAD
331
0
  5
7ED0
331
0
  5
7ED1
331
0
  5
7ED2
331
0
  5
7ED4
331
0
  5
7ED7
331
0
  5
7EDC
331
0
  5
7EDD
331
0
  5
7EDE
331
0
  5
7EDF
331
0
  5
8FBC
331
0
  5
91C3
331
0
  5
91C4
331
0
  5
91C5
331
0
  5
91C6
331
0
  5
91C7
331
0
  5
91C8
331
0
  5
7EE0
331
0
  5
7EE2
331
0
  5
7EE3
331
0
  5
7EE4
331
0
  5
7EE8
331
0
  5
7EE9
331
0
  5
91C9
331
0
  5
91D6
331
0
  5
91F3
331
0
  5
7EEA
331
0
  5
91F6
331
0
  5
7E8D
331
0
  5
7EEB
331
0
  5
7EED
331
0
  5
7EEE
331
0
  5
7EEF
331
0
  5
7EF3
331
0
  5
7EF4
331
0
  5
7EF5
331
0
  5
7EF6
331
0
  5
7EF8
331
0
  5
7EF9
331
0
  5
7EFA
331
0
  5
7EFE
331
0
  5
7EFF
331
0
  5
7F00
331
0
  5
7F03
331
0
  5
7F04
331
0
  5
7F05
331
0
  5
7F09
331
0
  5
7F0A
331
0
  5
7F0B
331
0
  5
7F0C
331
0
  5
7F0D
331
0
  5
7F12
331
0
  5
7F13
331
0
  5
7F16
331
0
  5
7F17
331
0
  5
7F4B
331
0
  5
7F4C
331
0
  5
7F4D
331
0
  5
7F4E
331
0
  5
7F50
331
0
  5
7F51
331
0
  5
7F52
331
0
  5
7F58
331
0
  5
7F59
331
0
  5
7F5A
331
0
  5
7F5C
331
0
  5
7F8F
331
0
  5
7F90
331
0
  5
7F91
331
0
  5
7F92
331
0
  5
7F93
331
0
  5
7F94
331
0
  5
7F95
331
0
  5
7F96
331
0
  5
7F97
331
0
  5
7F98
331
0
  5
7FC2
331
0
  5
7FC3
331
0
  5
7FCB
331
0
  5
7FDE
331
0
  5
7FDF
331
0
  5
8081
331
0
  5
8082
331
0
  5
8083
331
0
  5
8084
331
0
  5
8192
331
0
  5
8193
331
0
  5
8194
331
0
  5
8195
331
0
  5
8196
331
0
  5
8197
331
0
  5
B8F5
331
0
  5
B8F6
331
0
  5
B8F7
331
0
  5
B8F8
331
0
  5
B8F9
331
0
  5
B8FA
331
0
  5
B920
331
0
  5
C4DA
331
0
  5
C4DB
331
0
  5
C4DC
331
0
  5
D0BC
331
0
  5
D174
331
0
  5
D6DC
331
0
  5
81AB
331
0
  5
81AC
331
0
  5
D77A
331
0
  5
D77B
331
0
  5
896C
331
0
  5
896D
331
0
  5
896E
331
0
  5
896F
331
0
  5
8970
331
0
  5
89AD
331
0
  5
89AE
331
0
  5
89CE
331
E6DB
  5
E7CC
331
E6DC
  5
E7CD
331
E6DD
  5
E7CE
331
E6DE
  5
E7CF
331
E6DF
  5
E7D0
331
E6E0
  5
E7D1
331
E6E1
  5
E7D2
331
E6E2
  5
E82A
331
E6E3
  5
E82B
331
E6E4
  5
E83F
331
E6E8
  5
E840
331
E6E9
  5
E841
331
E6EA
  5
E84A
331
E6EB
  5
E84B
331
E706
  5
E84C
331
E707
  5
E84F
331
E70A
  5
E850
331
E70B
  5
E851
331
E7AE
  5
E86D
331
E7AF
  5
E86E
331
E7B0
  5
E871
331
E7B1
  5
E873
331
E7B2
  5
E874
331
E7B3
  5
E875
331
E7B4
  5
E876
331
E7B5
  5
E898
331
E7B6
  5
E899
331
E7B7
  5
EBBE
331
E7B8
  5
EBBF
331
E7B9
  5
EBC0
331
E7BA
  5
ECD5
331
E7BB
  5
F277
331
0
  5
81AF
331
E7BD
  5
F278
331
E7BE
  5
F279
331
E7BF
  5
F27A
331
0
  5
F285
331
0
  5
F286
331
0
  5
F287
331
0
  5
F2AA
331
0
  5
F2AE
331
0
  5
F2AF
331
0
  5
F6E7
331
0
  5
F6FC
331
0
  5
F711
331
E887
  5
F719
331
E888
  5
81BD
331
E8A3
  5
F7DB
331
E8A4
  5
F7E1
331
E8A5
  5
F7E4
331
0
  5
F7EA
331
0
  5
F9D1
331
0
  5
FBE7
331
0
  5
FBEA
331
0
  5
FBF9
331
0
  5
FBFC
331
0
  5
FC84
331
0
  5
FC85
331
0
  5
81C5
331
0
  5
81C6
331
0
  5
86B2
331
0
  5
86B3
331
0
  5
FC86
331
0
  5
86B4
331
0
  5
86B5
331
0
  5
FC87
331
0
  5
86B7
331
0
  5
86B8
331
0
  5
86B9
331
0
  5
FC88
331
0
  5
FC89
331
0
  5
86C4
331
0
  5
FC8A
331
0
  5
FCCD
331
0
  5
FCCE
331
0
  5
FCCF
331
0
  5
FCD0
331
0
  5
FCD1
331
0
  5
FF8E
331
0
  5
FF8F
331
0
  5
FF90
331
0
  5
FF91
331
0
  5
FF92
331
0
  5
86C5
331
0
  5
FF93
331
0
  5
10066
331
0
  5
86F1
331
0
  5
86F2
331
0
  5
10067
331
0
  5
10780
331
0
  5
10781
331
0
  5
10782
331
0
  5
10783
331
0
  5
10784
331
0
  5
10785
331
0
  5
110E9
331
0
  5
11D0E
331
0
  5
11D0F
331
0
  5
86F3
331
0
  5
11D4A
331
0
  5
11D50
331
0
  5
86F4
331
0
  5
86F5
331
0
  5
86FF
331
0
  5
11D74
331
0
  5
11D75
331
0
  5
11DFC
331
0
  5
11E0B
331
0
  5
885D
331
0
  5
11E68
331
0
  5
11E6E
331
0
  5
11E91
331
0
  5
11E92
331
0
  5
11EA2
331
0
  5
11EA3
331
0
  5
11F7C
331
0
  5
11F7E
331
0
  5
11F82
331
0
  5
885F
331
0
  5
8864
331
0
  5
8865
331
0
  5
11F83
331
0
  5
8867
  0
GROUP
  5
E8BF
102
{ACAD_REACTORS
330
D
102
}
330
D
100
AcDbGroup
300

 70
     1
 71
     1
340
E7BD
340
E7BE
340
E7BF
340
E887
340
E888
  0
GROUP
  5
12752
102
{ACAD_REACTORS
330
D
102
}
330
D
100
AcDbGroup
300

 70
     1
 71
     1
340
1274D
340
1274E
340
1274F
340
12750
340
12751
  0
LAYOUT
  5
1E
102
{ACAD_REACTORS
330
1A
102
}
330
1A
100
AcDbPlotSettings
  1

  2
none_device
  4
ISO_A3_(420.00_x_297.00_MM)
  6

 40
7.5
 41
20.0
 42
7.5
 43
20.0
 44
420.0
 45
297.0
 46
0.0
 47
0.0
 48
0.0
 49
0.0
140
0.0
141
0.0
142
1.0
143
1.0
 70
   688
 72
     1
 73
     0
 74
     5
  7

 75
    16
147
1.0
148
0.0
149
0.0
100
AcDbLayout
  1
Layout1
 70
     1
 71
     1
 10
0.0
 20
0.0
 11
412.5
 21
277.0
 12
0.0
 22
0.0
 32
0.0
 14
1.000000000000000E+20
 24
1.000000000000000E+20
 34
1.000000000000000E+20
 15
-1.000000000000000E+20
 25
-1.000000000000000E+20
 35
-1.000000000000000E+20
146
0.0
 13
0.0
 23
0.0
 33
0.0
 16
1.0
 26
0.0
 36
0.0
 17
0.0
 27
1.0
 37
0.0
 76
     0
330
1B
331
9F0D
  0
LAYOUT
  5
22
102
{ACAD_REACTORS
330
1A
102
}
330
1A
100
AcDbPlotSettings
  1

  2
none_device
  4
A3
  6

 40
3.174999952316284
 41
3.174999952316284
 42
3.17498779296875
 43
3.17498779296875
 44
297.0318298339844
 45
420.1583251953125
 46
-3.16
 47
-3.1
 48
-90.0
 49
-90.0
140
329.9999999999998
141
207.0
142
1.0
143
1.0
 70
 11940
 72
     1
 73
     1
 74
     4
  7
monochrome.ctb
 75
     0
147
1.0
148
90.0
149
90.0
100
AcDbLayout
  1
Model
 70
     1
 71
     0
 10
0.0
 20
0.0
 11
6300.0
 21
4455.0
 12
0.0
 22
0.0
 32
0.0
 14
1364.999999999999
 24
1640.000000000001
 34
0.0
 15
3434.999999999999
 25
3704.999999999997
 35
0.0
146
0.0
 13
0.0
 23
0.0
 33
0.0
 16
1.0
 26
0.0
 36
0.0
 17
0.0
 27
1.0
 37
0.0
 76
     0
330
1F
331
7A57
  0
MLINESTYLE
  5
18
102
{ACAD_REACTORS
330
17
102
}
330
17
100
AcDbMlineStyle
  2
STANDARD
 70
     0
  3

 62
   256
 51
90.0
 52
90.0
 71
     2
 49
0.5
 62
   256
  6
BYLAYER
 49
-0.5
 62
   256
  6
BYLAYER
  0
ACDBPLACEHOLDER
  5
F
102
{ACAD_REACTORS
330
E
102
}
330
E
  0
SCALE
  5
6A4F
102
{ACAD_REACTORS
330
6A4E
102
}
330
6A4E
100
AcDbScale
 70
     0
300
1:1
140
1.0
141
1.0
290
     1
  0
SCALE
  5
6A50
102
{ACAD_REACTORS
330
6A4E
102
}
330
6A4E
100
AcDbScale
 70
     0
300
1:2
140
1.0
141
2.0
290
     0
  0
SCALE
  5
6A51
102
{ACAD_REACTORS
330
6A4E
102
}
330
6A4E
100
AcDbScale
 70
     0
300
1:4
140
1.0
141
4.0
290
     0
  0
SCALE
  5
6A52
102
{ACAD_REACTORS
330
6A4E
102
}
330
6A4E
100
AcDbScale
 70
     0
300
1:5
140
1.0
141
5.0
290
     0
  0
SCALE
  5
6A53
102
{ACAD_REACTORS
330
6A4E
102
}
330
6A4E
100
AcDbScale
 70
     0
300
1:8
140
1.0
141
8.0
290
     0
  0
SCALE
  5
6A54
102
{ACAD_REACTORS
330
6A4E
102
}
330
6A4E
100
AcDbScale
 70
     0
300
1:10
140
1.0
141
10.0
290
     0
  0
SCALE
  5
6A55
102
{ACAD_REACTORS
330
6A4E
102
}
330
6A4E
100
AcDbScale
 70
     0
300
1:16
140
1.0
141
16.0
290
     0
  0
SCALE
  5
6A56
102
{ACAD_REACTORS
330
6A4E
102
}
330
6A4E
100
AcDbScale
 70
     0
300
1:20
140
1.0
141
20.0
290
     0
  0
SCALE
  5
6A57
102
{ACAD_REACTORS
330
6A4E
102
}
330
6A4E
100
AcDbScale
 70
     0
300
1:30
140
1.0
141
30.0
290
     0
  0
SCALE
  5
6A58
102
{ACAD_REACTORS
330
6A4E
102
}
330
6A4E
100
AcDbScale
 70
     0
300
1:40
140
1.0
141
40.0
290
     0
  0
SCALE
  5
6A59
102
{ACAD_REACTORS
330
6A4E
102
}
330
6A4E
100
AcDbScale
 70
     0
300
1:50
140
1.0
141
50.0
290
     0
  0
SCALE
  5
6A5A
102
{ACAD_REACTORS
330
6A4E
102
}
330
6A4E
100
AcDbScale
 70
     0
300
1:100
140
1.0
141
100.0
290
     0
  0
SCALE
  5
6A5B
102
{ACAD_REACTORS
330
6A4E
102
}
330
6A4E
100
AcDbScale
 70
     0
300
2:1
140
2.0
141
1.0
290
     0
  0
SCALE
  5
6A5C
102
{ACAD_REACTORS
330
6A4E
102
}
330
6A4E
100
AcDbScale
 70
     0
300
4:1
140
4.0
141
1.0
290
     0
  0
SCALE
  5
6A5D
102
{ACAD_REACTORS
330
6A4E
102
}
330
6A4E
100
AcDbScale
 70
     0
300
8:1
140
8.0
141
1.0
290
     0
  0
SCALE
  5
6A5E
102
{ACAD_REACTORS
330
6A4E
102
}
330
6A4E
100
AcDbScale
 70
     0
300
10:1
140
10.0
141
1.0
290
     0
  0
SCALE
  5
6A5F
102
{ACAD_REACTORS
330
6A4E
102
}
330
6A4E
100
AcDbScale
 70
     0
300
100:1
140
100.0
141
1.0
290
     0
  0
SCALE
  5
6A60
102
{ACAD_REACTORS
330
6A4E
102
}
330
6A4E
100
AcDbScale
 70
     0
300
1/128" = 1'-0"
140
0.0078125
141
12.0
290
     0
  0
SCALE
  5
6A61
102
{ACAD_REACTORS
330
6A4E
102
}
330
6A4E
100
AcDbScale
 70
     0
300
1/64" = 1'-0"
140
0.015625
141
12.0
290
     0
  0
SCALE
  5
6A62
102
{ACAD_REACTORS
330
6A4E
102
}
330
6A4E
100
AcDbScale
 70
     0
300
1/32" = 1'-0"
140
0.03125
141
12.0
290
     0
  0
SCALE
  5
6A63
102
{ACAD_REACTORS
330
6A4E
102
}
330
6A4E
100
AcDbScale
 70
     0
300
1/16" = 1'-0"
140
0.0625
141
12.0
290
     0
  0
SCALE
  5
6A64
102
{ACAD_REACTORS
330
6A4E
102
}
330
6A4E
100
AcDbScale
 70
     0
300
3/32" = 1'-0"
140
0.09375
141
12.0
290
     0
  0
SCALE
  5
6A65
102
{ACAD_REACTORS
330
6A4E
102
}
330
6A4E
100
AcDbScale
 70
     0
300
1/8" = 1'-0"
140
0.125
141
12.0
290
     0
  0
SCALE
  5
6A66
102
{ACAD_REACTORS
330
6A4E
102
}
330
6A4E
100
AcDbScale
 70
     0
300
3/16" = 1'-0"
140
0.1875
141
12.0
290
     0
  0
SCALE
  5
6A67
102
{ACAD_REACTORS
330
6A4E
102
}
330
6A4E
100
AcDbScale
 70
     0
300
1/4" = 1'-0"
140
0.25
141
12.0
290
     0
  0
SCALE
  5
6A68
102
{ACAD_REACTORS
330
6A4E
102
}
330
6A4E
100
AcDbScale
 70
     0
300
3/8" = 1'-0"
140
0.375
141
12.0
290
     0
  0
SCALE
  5
6A69
102
{ACAD_REACTORS
330
6A4E
102
}
330
6A4E
100
AcDbScale
 70
     0
300
1/2" = 1'-0"
140
0.5
141
12.0
290
     0
  0
SCALE
  5
6A6A
102
{ACAD_REACTORS
330
6A4E
102
}
330
6A4E
100
AcDbScale
 70
     0
300
3/4" = 1'-0"
140
0.75
141
12.0
290
     0
  0
SCALE
  5
6A6B
102
{ACAD_REACTORS
330
6A4E
102
}
330
6A4E
100
AcDbScale
 70
     0
300
1" = 1'-0"
140
1.0
141
12.0
290
     0
  0
SCALE
  5
6A6C
102
{ACAD_REACTORS
330
6A4E
102
}
330
6A4E
100
AcDbScale
 70
     0
300
1-1/2" = 1'-0"
140
1.5
141
12.0
290
     0
  0
SCALE
  5
6A6D
102
{ACAD_REACTORS
330
6A4E
102
}
330
6A4E
100
AcDbScale
 70
     0
300
3" = 1'-0"
140
3.0
141
12.0
290
     0
  0
SCALE
  5
6A6E
102
{ACAD_REACTORS
330
6A4E
102
}
330
6A4E
100
AcDbScale
 70
     0
300
6" = 1'-0"
140
6.0
141
12.0
290
     0
  0
SCALE
  5
6A6F
102
{ACAD_REACTORS
330
6A4E
102
}
330
6A4E
100
AcDbScale
 70
     0
300
1'-0" = 1'-0"
140
12.0
141
12.0
290
     0
  0
DICTIONARYVAR
  5
79F
102
{ACAD_REACTORS
330
79E
102
}
330
79E
100
DictionaryVariables
280
     0
  1
1
  0
DICTIONARYVAR
  5
264F
102
{ACAD_REACTORS
330
79E
102
}
330
79E
100
DictionaryVariables
280
     0
  1
96
  0
ENDSEC
  0
EOF
