  0
SECTION
  2
HEADER
  9
$ACADVER
  1
AC1015
  9
$ACADMAINTVER
 70
     6
  9
$DWGCODEPAGE
  3
ANSI_932
  9
$INSBASE
 10
0.0
 20
0.0
 30
0.0
  9
$EXTMIN
 10
686.7999999999993
 20
1084.999999999997
 30
0.0
  9
$EXTMAX
 10
2759.700000000001
 20
2474.699999999998
 30
0.0
  9
$LIMMIN
 10
0.0
 20
0.0
  9
$LIMMAX
 10
4200.0
 20
2970.0
  9
$ORTHOMODE
 70
     1
  9
$REGENMODE
 70
     1
  9
$FILLMODE
 70
     1
  9
$QTEXTMODE
 70
     0
  9
$MIRRTEXT
 70
     1
  9
$LTSCALE
 40
3.0
  9
$ATTMODE
 70
     1
  9
$TEXTSIZE
 40
30.0
  9
$TRACEWID
 40
1.0
  9
$TEXTSTYLE
  7
Standard
  9
$CLAYER
  8
01注記寸法
  9
$CELTYPE
  6
ByLayer
  9
$CECOLOR
 62
   256
  9
$CELTSCALE
 40
1.0
  9
$DISPSILH
 70
     0
  9
$DIMSCALE
 40
10.0
  9
$DIMASZ
 40
3.0
  9
$DIMEXO
 40
1.5
  9
$DIMDLI
 40
10.0
  9
$DIMRND
 40
0.0
  9
$DIMDLE
 40
0.0
  9
$DIMEXE
 40
1.0
  9
$DIMTP
 40
0.0
  9
$DIMTM
 40
0.0
  9
$DIMTXT
 40
3.0
  9
$DIMCEN
 40
1.5
  9
$DIMTSZ
 40
0.0
  9
$DIMTOL
 70
     0
  9
$DIMLIM
 70
     0
  9
$DIMTIH
 70
     0
  9
$DIMTOH
 70
     0
  9
$DIMSE1
 70
     0
  9
$DIMSE2
 70
     0
  9
$DIMTAD
 70
     1
  9
$DIMZIN
 70
     8
  9
$DIMBLK
  1
Open
  9
$DIMASO
 70
     1
  9
$DIMSHO
 70
     1
  9
$DIMPOST
  1

  9
$DIMAPOST
  1

  9
$DIMALT
 70
     0
  9
$DIMALTD
 70
     3
  9
$DIMALTF
 40
0.03937007874016
  9
$DIMLFAC
 40
1.0
  9
$DIMTOFL
 70
     1
  9
$DIMTVP
 40
0.0
  9
$DIMTIX
 70
     0
  9
$DIMSOXD
 70
     0
  9
$DIMSAH
 70
     0
  9
$DIMBLK1
  1

  9
$DIMBLK2
  1

  9
$DIMSTYLE
  2
NEMY-10
  9
$DIMCLRD
 70
     0
  9
$DIMCLRE
 70
     0
  9
$DIMCLRT
 70
     0
  9
$DIMTFAC
 40
1.0
  9
$DIMGAP
 40
1.0
  9
$DIMJUST
 70
     0
  9
$DIMSD1
 70
     0
  9
$DIMSD2
 70
     0
  9
$DIMTOLJ
 70
     0
  9
$DIMTZIN
 70
     8
  9
$DIMALTZ
 70
     0
  9
$DIMALTTZ
 70
     0
  9
$DIMUPT
 70
     0
  9
$DIMDEC
 70
     1
  9
$DIMTDEC
 70
     1
  9
$DIMALTU
 70
     2
  9
$DIMALTTD
 70
     3
  9
$DIMTXSTY
  7
Standard
  9
$DIMAUNIT
 70
     0
  9
$DIMADEC
 70
     0
  9
$DIMALTRND
 40
0.0
  9
$DIMAZIN
 70
     0
  9
$DIMDSEP
 70
    46
  9
$DIMATFIT
 70
     3
  9
$DIMFRAC
 70
     0
  9
$DIMLDRBLK
  1
Open
  9
$DIMLUNIT
 70
     2
  9
$DIMLWD
 70
    -2
  9
$DIMLWE
 70
    -2
  9
$DIMTMOVE
 70
     0
  9
$LUNITS
 70
     2
  9
$LUPREC
 70
     4
  9
$SKETCHINC
 40
1.0
  9
$FILLETRAD
 40
2.0
  9
$AUNITS
 70
     0
  9
$AUPREC
 70
     0
  9
$MENU
  1
.
  9
$ELEVATION
 40
0.0
  9
$PELEVATION
 40
0.0
  9
$THICKNESS
 40
0.0
  9
$LIMCHECK
 70
     0
  9
$CHAMFERA
 40
5.0
  9
$CHAMFERB
 40
5.0
  9
$CHAMFERC
 40
20.0
  9
$CHAMFERD
 40
0.0
  9
$SKPOLY
 70
     0
  9
$TDCREATE
 40
2455859.405048461
  9
$TDUCREATE
 40
2455859.030048461
  9
$TDUPDATE
 40
2458586.558161597
  9
$TDUUPDATE
 40
2458586.183161597
  9
$TDINDWG
 40
1.3787611458
  9
$TDUSRTIMER
 40
0.0019148727
  9
$USRTIMER
 70
     1
  9
$ANGBASE
 50
0.0
  9
$ANGDIR
 70
     0
  9
$PDMODE
 70
     0
  9
$PDSIZE
 40
0.0
  9
$PLINEWID
 40
0.0
  9
$SPLFRAME
 70
     0
  9
$SPLINETYPE
 70
     6
  9
$SPLINESEGS
 70
     8
  9
$HANDSEED
  5
1270E
  9
$SURFTAB1
 70
     6
  9
$SURFTAB2
 70
     6
  9
$SURFTYPE
 70
     6
  9
$SURFU
 70
     6
  9
$SURFV
 70
     6
  9
$UCSBASE
  2

  9
$UCSNAME
  2

  9
$UCSORG
 10
0.0
 20
0.0
 30
0.0
  9
$UCSXDIR
 10
1.0
 20
0.0
 30
0.0
  9
$UCSYDIR
 10
0.0
 20
1.0
 30
0.0
  9
$UCSORTHOREF
  2

  9
$UCSORTHOVIEW
 70
     0
  9
$UCSORGTOP
 10
0.0
 20
0.0
 30
0.0
  9
$UCSORGBOTTOM
 10
0.0
 20
0.0
 30
0.0
  9
$UCSORGLEFT
 10
0.0
 20
0.0
 30
0.0
  9
$UCSORGRIGHT
 10
0.0
 20
0.0
 30
0.0
  9
$UCSORGFRONT
 10
0.0
 20
0.0
 30
0.0
  9
$UCSORGBACK
 10
0.0
 20
0.0
 30
0.0
  9
$PUCSBASE
  2

  9
$PUCSNAME
  2

  9
$PUCSORG
 10
0.0
 20
0.0
 30
0.0
  9
$PUCSXDIR
 10
1.0
 20
0.0
 30
0.0
  9
$PUCSYDIR
 10
0.0
 20
1.0
 30
0.0
  9
$PUCSORTHOREF
  2

  9
$PUCSORTHOVIEW
 70
     0
  9
$PUCSORGTOP
 10
0.0
 20
0.0
 30
0.0
  9
$PUCSORGBOTTOM
 10
0.0
 20
0.0
 30
0.0
  9
$PUCSORGLEFT
 10
0.0
 20
0.0
 30
0.0
  9
$PUCSORGRIGHT
 10
0.0
 20
0.0
 30
0.0
  9
$PUCSORGFRONT
 10
0.0
 20
0.0
 30
0.0
  9
$PUCSORGBACK
 10
0.0
 20
0.0
 30
0.0
  9
$USERI1
 70
     0
  9
$USERI2
 70
     0
  9
$USERI3
 70
     0
  9
$USERI4
 70
     0
  9
$USERI5
 70
     0
  9
$USERR1
 40
0.0
  9
$USERR2
 40
0.0
  9
$USERR3
 40
0.0
  9
$USERR4
 40
0.0
  9
$USERR5
 40
0.0
  9
$WORLDVIEW
 70
     1
  9
$SHADEDGE
 70
     3
  9
$SHADEDIF
 70
    70
  9
$TILEMODE
 70
     1
  9
$MAXACTVP
 70
    64
  9
$PINSBASE
 10
0.0
 20
0.0
 30
0.0
  9
$PLIMCHECK
 70
     0
  9
$PEXTMIN
 10
1.000000000000000E+20
 20
1.000000000000000E+20
 30
1.000000000000000E+20
  9
$PEXTMAX
 10
-1.000000000000000E+20
 20
-1.000000000000000E+20
 30
-1.000000000000000E+20
  9
$PLIMMIN
 10
-7.5
 20
-20.0
  9
$PLIMMAX
 10
412.5
 20
277.0
  9
$UNITMODE
 70
     0
  9
$VISRETAIN
 70
     1
  9
$PLINEGEN
 70
     0
  9
$PSLTSCALE
 70
     1
  9
$TREEDEPTH
 70
  3020
  9
$CMLSTYLE
  2
Standard
  9
$CMLJUST
 70
     0
  9
$CMLSCALE
 40
20.0
  9
$PROXYGRAPHICS
 70
     1
  9
$MEASUREMENT
 70
     1
  9
$CELWEIGHT
370
    -1
  9
$ENDCAPS
280
     0
  9
$JOINSTYLE
280
     0
  9
$LWDISPLAY
290
     0
  9
$INSUNITS
 70
     4
  9
$HYPERLINKBASE
  1

  9
$STYLESHEET
  1
monochrome.ctb
  9
$XEDIT
290
     1
  9
$CEPSNTYPE
380
     0
  9
$PSTYLEMODE
290
     1
  9
$FINGERPRINTGUID
  2
{FDEAD578-A652-11D2-9A35-0060089B3A3F}
  9
$VERSIONGUID
  2
{11DB8456-EC16-47A0-BA21-BBDA07550E8A}
  9
$EXTNAMES
290
     1
  9
$PSVPSCALE
 40
0.0
  9
$OLESTARTUP
290
     0
  0
ENDSEC
  0
SECTION
  2
CLASSES
  0
CLASS
  1
ACDBDICTIONARYWDFLT
  2
AcDbDictionaryWithDefault
  3
ObjectDBX Classes
 90
        0
280
     0
281
     0
  0
CLASS
  1
ACDBPLACEHOLDER
  2
AcDbPlaceHolder
  3
ObjectDBX Classes
 90
        0
280
     0
281
     0
  0
CLASS
  1
LAYOUT
  2
AcDbLayout
  3
ObjectDBX Classes
 90
        0
280
     0
281
     0
  0
CLASS
  1
DICTIONARYVAR
  2
AcDbDictionaryVar
  3
ObjectDBX Classes
 90
        0
280
     0
281
     0
  0
CLASS
  1
SCALE
  2
AcDbScale
  3
ObjectDBX Classes
 90
     1153
280
     0
281
     0
  0
CLASS
  1
MATERIAL
  2
AcDbMaterial
  3
ObjectDBX Classes
 90
     1153
280
     0
281
     0
  0
CLASS
  1
VISUALSTYLE
  2
AcDbVisualStyle
  3
ObjectDBX Classes
 90
     4095
280
     0
281
     0
  0
CLASS
  1
TABLESTYLE
  2
AcDbTableStyle
  3
ObjectDBX Classes
 90
     4095
280
     0
281
     0
  0
CLASS
  1
RASTERVARIABLES
  2
AcDbRasterVariables
  3
ISM
 90
        0
280
     0
281
     0
  0
CLASS
  1
SORTENTSTABLE
  2
AcDbSortentsTable
  3
ObjectDBX Classes
 90
        0
280
     0
281
     0
  0
CLASS
  1
SUN
  2
AcDbSun
  3
SCENEOE
 90
     1153
280
     0
281
     0
  0
CLASS
  1
MLEADERSTYLE
  2
AcDbMLeaderStyle
  3
ACDB_MLEADERSTYLE_CLASS
 90
     4095
280
     0
281
     0
  0
ENDSEC
  0
SECTION
  2
TABLES
  0
TABLE
  2
VPORT
  5
8
330
0
100
AcDbSymbolTable
 70
     2
  0
VPORT
  5
7A57
330
8
100
AcDbSymbolTableRecord
100
AcDbViewportTableRecord
  2
*Active
 70
     0
 10
0.0
 20
0.0
 11
1.0
 21
1.0
 12
1566.266466707979
 22
1264.600873647641
 13
0.0
 23
0.0
 14
10.0
 24
10.0
 15
10.0
 25
10.0
 16
0.0
 26
0.0
 36
1.0
 17
0.0
 27
0.0
 37
0.0
 40
784.003146068995
 41
2.782608695652174
 42
50.0
 43
0.0
 44
0.0
 50
0.0
 51
0.0
 71
    16
 72
   100
 73
     1
 74
     2
 75
     0
 76
     0
 77
     0
 78
     0
281
     0
 65
     1
110
0.0
120
0.0
130
0.0
111
1.0
121
0.0
131
0.0
112
0.0
122
1.0
132
0.0
 79
     0
146
0.0
  0
ENDTAB
  0
TABLE
  2
LTYPE
  5
5
330
0
100
AcDbSymbolTable
 70
     5
  0
LTYPE
  5
14
330
5
100
AcDbSymbolTableRecord
100
AcDbLinetypeTableRecord
  2
ByBlock
 70
     0
  3

 72
    65
 73
     0
 40
0.0
  0
LTYPE
  5
15
330
5
100
AcDbSymbolTableRecord
100
AcDbLinetypeTableRecord
  2
ByLayer
 70
     0
  3

 72
    65
 73
     0
 40
0.0
  0
LTYPE
  5
16
330
5
100
AcDbSymbolTableRecord
100
AcDbLinetypeTableRecord
  2
Continuous
 70
     0
  3
Solid line
 72
    65
 73
     0
 40
0.0
  0
LTYPE
  5
BA
330
5
100
AcDbSymbolTableRecord
100
AcDbLinetypeTableRecord
  2
HIDDEN
 70
     0
  3
Hidden __ __ __ __ __ __ __ __ __ __ __ __ __ _
 72
    65
 73
     2
 40
9.524999999999999
 49
6.35
 74
     0
 49
-3.175
 74
     0
  0
LTYPE
  5
BB
330
5
100
AcDbSymbolTableRecord
100
AcDbLinetypeTableRecord
  2
PHANTOM
 70
     0
  3
Phantom ______  __  __  ______  __  __  ______
 72
    65
 73
     6
 40
63.5
 49
31.75
 74
     0
 49
-6.35
 74
     0
 49
6.35
 74
     0
 49
-6.35
 74
     0
 49
6.35
 74
     0
 49
-6.35
 74
     0
  0
LTYPE
  5
BC
330
5
100
AcDbSymbolTableRecord
100
AcDbLinetypeTableRecord
  2
CENTER
 70
     0
  3
Center ____ _ ____ _ ____ _ ____ _ ____ _ ____
 72
    65
 73
     4
 40
50.8
 49
31.75
 74
     0
 49
-6.35
 74
     0
 49
6.35
 74
     0
 49
-6.35
 74
     0
  0
LTYPE
  5
47C
330
5
100
AcDbSymbolTableRecord
100
AcDbLinetypeTableRecord
  2
DOT
 70
     0
  3
Dot . . . . . . . . . . . . . . . . . . . . . .
 72
    65
 73
     2
 40
6.35
 49
0.0
 74
     0
 49
-6.35
 74
     0
  0
ENDTAB
  0
TABLE
  2
LAYER
  5
2
102
{ACAD_XDICTIONARY
360
7A6F
102
}
330
0
100
AcDbSymbolTable
 70
    22
  0
LAYER
  5
10
330
2
100
AcDbSymbolTableRecord
100
AcDbLayerTableRecord
  2
0
 70
     0
 62
     7
  6
Continuous
370
    -3
390
F
  0
LAYER
  5
45
330
2
100
AcDbSymbolTableRecord
100
AcDbLayerTableRecord
  2
01注記寸法
 70
     0
 62
     7
  6
Continuous
370
     9
390
F
  0
LAYER
  5
46
330
2
100
AcDbSymbolTableRecord
100
AcDbLayerTableRecord
  2
02実線
 70
     0
 62
     2
  6
Continuous
370
    15
390
F
  0
LAYER
  5
5F
330
2
100
AcDbSymbolTableRecord
100
AcDbLayerTableRecord
  2
Defpoints
 70
     0
 62
     7
  6
Continuous
290
     0
370
    -3
390
F
  0
LAYER
  5
7E52
330
2
100
AcDbSymbolTableRecord
100
AcDbLayerTableRecord
  2
03破線
 70
     0
 62
     3
  6
HIDDEN
370
     9
390
F
  0
LAYER
  5
7E55
330
2
100
AcDbSymbolTableRecord
100
AcDbLayerTableRecord
  2
04一点鎖線
 70
     0
 62
    70
  6
CENTER
370
     9
390
F
  0
LAYER
  5
7E58
330
2
100
AcDbSymbolTableRecord
100
AcDbLayerTableRecord
  2
05二点鎖線
 70
     0
 62
   110
  6
PHANTOM
370
     9
390
F
  0
LAYER
  5
7E5B
330
2
100
AcDbSymbolTableRecord
100
AcDbLayerTableRecord
  2
06点線
 70
     0
 62
    96
  6
DOT
370
     9
390
F
  0
LAYER
  5
7E5E
330
2
100
AcDbSymbolTableRecord
100
AcDbLayerTableRecord
  2
07その他
 70
     0
 62
     6
  6
Continuous
370
    13
390
F
  0
LAYER
  5
7E60
330
2
100
AcDbSymbolTableRecord
100
AcDbLayerTableRecord
  2
08非表示
 70
     0
 62
     4
  6
Continuous
290
     0
370
     0
390
F
  0
LAYER
  5
7E62
330
2
100
AcDbSymbolTableRecord
100
AcDbLayerTableRecord
  2
09図枠
 70
     0
 62
     1
  6
Continuous
370
    30
390
F
  0
LAYER
  5
835A
330
2
100
AcDbSymbolTableRecord
100
AcDbLayerTableRecord
  2
10副資材
 70
     0
 62
    51
  6
Continuous
290
     0
370
    -3
390
F
1001
AcAecLayerStandard
1000

1000

  0
LAYER
  5
8CAC
330
2
100
AcDbSymbolTableRecord
100
AcDbLayerTableRecord
  2
11機器
 70
     0
 62
    11
  6
Continuous
290
     0
370
    -3
390
F
1001
AcAecLayerStandard
1000

1000

  0
LAYER
  5
8CB1
330
2
100
AcDbSymbolTableRecord
100
AcDbLayerTableRecord
  2
12防振架台
 70
     0
 62
   190
  6
Continuous
290
     0
370
    -3
390
F
1001
AcAecLayerStandard
1000

1000

  0
LAYER
  5
A15B
330
2
100
AcDbSymbolTableRecord
100
AcDbLayerTableRecord
  2
13製作用注記
 70
     0
 62
     5
  6
Continuous
290
     0
370
     9
390
F
1001
AcAecLayerStandard
1000

1000

  0
ENDTAB
  0
TABLE
  2
STYLE
  5
3
330
0
100
AcDbSymbolTable
 70
     3
  0
STYLE
  5
11
330
3
100
AcDbSymbolTableRecord
100
AcDbTextStyleTableRecord
  2
Standard
 70
     0
 40
0.0
 41
1.0
 50
0.0
 71
     0
 42
30.0
  3
MSGOTHIC.TTC
  4

1001
ACAD
1000
MS Gothic
1071
    32817
  0
STYLE
  5
47B
330
3
100
AcDbSymbolTableRecord
100
AcDbTextStyleTableRecord
  2

 70
     1
 40
0.0
 41
1.0
 50
0.0
 71
     0
 42
3.0
  3
ltypeshp.shx
  4

  0
ENDTAB
  0
TABLE
  2
VIEW
  5
6
330
0
100
AcDbSymbolTable
 70
     0
  0
ENDTAB
  0
TABLE
  2
UCS
  5
7
330
0
100
AcDbSymbolTable
 70
     0
  0
ENDTAB
  0
TABLE
  2
APPID
  5
9
330
0
100
AcDbSymbolTable
 70
     6
  0
APPID
  5
12
330
9
100
AcDbSymbolTableRecord
100
AcDbRegAppTableRecord
  2
ACAD
 70
     0
  0
APPID
  5
6A9E
330
9
100
AcDbSymbolTableRecord
100
AcDbRegAppTableRecord
  2
ACAD_DSTYLE_DIMRADIAL_EXTENSION
 70
     0
  0
APPID
  5
742C
330
9
100
AcDbSymbolTableRecord
100
AcDbRegAppTableRecord
  2
ACAD_PSEXT
 70
     0
  0
APPID
  5
742D
330
9
100
AcDbSymbolTableRecord
100
AcDbRegAppTableRecord
  2
ACAD_DSTYLE_DIMJAG
 70
     0
  0
APPID
  5
742E
330
9
100
AcDbSymbolTableRecord
100
AcDbRegAppTableRecord
  2
ACAD_DSTYLE_DIMTALN
 70
     0
  0
APPID
  5
835C
330
9
100
AcDbSymbolTableRecord
100
AcDbRegAppTableRecord
  2
AcAecLayerStandard
 70
     0
  0
ENDTAB
  0
TABLE
  2
DIMSTYLE
  5
A
330
0
100
AcDbSymbolTable
 70
    24
100
AcDbDimStyleTable
  0
DIMSTYLE
105
73
330
A
100
AcDbSymbolTableRecord
100
AcDbDimStyleTableRecord
  2
NEMY-1
 70
     0
 41
3.0
 42
1.5
 43
10.0
 44
1.0
 73
     0
 74
     0
 77
     1
 78
     8
140
3.0
141
1.5
143
0.03937007874016
147
1.0
171
     3
172
     1
178
     0
271
     1
272
     1
274
     3
283
     0
284
     8
340
11
341
8F
342
8F
  0
DIMSTYLE
105
4DCE
330
A
100
AcDbSymbolTableRecord
100
AcDbDimStyleTableRecord
  2
NEMY-2
 70
     0
 40
2.0
 41
3.0
 42
1.5
 43
10.0
 44
1.0
 73
     0
 74
     0
 77
     1
 78
     8
140
3.0
141
1.5
143
0.03937007874016
147
1.0
171
     3
172
     1
178
     0
271
     1
272
     1
274
     3
283
     0
284
     8
340
11
341
8F
342
8F
  0
DIMSTYLE
105
4DCF
330
A
100
AcDbSymbolTableRecord
100
AcDbDimStyleTableRecord
  2
NEMY-3
 70
     0
 40
3.0
 41
3.0
 42
1.5
 43
10.0
 44
1.0
 73
     0
 74
     0
 77
     1
 78
     8
140
3.0
141
1.5
143
0.03937007874016
147
1.0
171
     3
172
     1
178
     0
271
     1
272
     1
274
     3
283
     0
284
     8
340
11
341
8F
342
8F
  0
DIMSTYLE
105
4DD0
102
{ACAD_REACTORS
330
120C2
330
120CF
330
120DC
330
120E9
330
120F6
102
}
330
A
100
AcDbSymbolTableRecord
100
AcDbDimStyleTableRecord
  2
NEMY-5
 70
     0
 40
5.0
 41
3.0
 42
1.5
 43
10.0
 44
1.0
 73
     0
 74
     0
 77
     1
 78
     8
140
3.0
141
1.5
143
0.03937007874016
147
1.0
171
     3
172
     1
178
     0
271
     1
272
     1
274
     3
283
     0
284
     8
340
11
341
8F
342
8F
  0
DIMSTYLE
105
4DD1
330
A
100
AcDbSymbolTableRecord
100
AcDbDimStyleTableRecord
  2
NEMY-8
 70
     0
 40
8.0
 41
3.0
 42
1.5
 43
10.0
 44
1.0
 73
     0
 74
     0
 77
     1
 78
     8
140
3.0
141
1.5
143
0.03937007874016
147
1.0
171
     3
172
     1
178
     0
271
     1
272
     1
274
     3
283
     0
284
     8
340
11
341
8F
342
8F
  0
DIMSTYLE
105
4DD2
330
A
100
AcDbSymbolTableRecord
100
AcDbDimStyleTableRecord
  2
NEMY-15
 70
     0
 40
15.0
 41
3.0
 42
1.5
 43
10.0
 44
1.0
 73
     0
 74
     0
 77
     1
 78
     8
140
3.0
141
1.5
143
0.03937007874016
147
1.0
171
     3
172
     1
178
     0
271
     1
272
     1
274
     3
283
     0
284
     8
340
11
341
8F
342
8F
  0
DIMSTYLE
105
4DD3
102
{ACAD_REACTORS
102
}
330
A
100
AcDbSymbolTableRecord
100
AcDbDimStyleTableRecord
  2
NEMY-10
 70
     0
 40
10.0
 41
3.0
 42
1.5
 43
10.0
 44
1.0
 73
     0
 74
     0
 77
     1
 78
     8
140
3.0
141
1.5
143
0.03937007874016
147
1.0
171
     3
172
     1
178
     0
271
     1
272
     1
274
     3
283
     0
284
     8
340
11
341
8F
342
8F
  0
DIMSTYLE
105
4DD4
330
A
100
AcDbSymbolTableRecord
100
AcDbDimStyleTableRecord
  2
NEMY-25
 70
     0
 40
25.0
 41
3.0
 42
1.5
 43
10.0
 44
1.0
 73
     0
 74
     0
 77
     1
 78
     8
140
3.0
141
1.5
143
0.03937007874016
147
1.0
171
     3
172
     1
178
     0
271
     1
272
     1
274
     3
283
     0
284
     8
340
11
341
8F
342
8F
  0
DIMSTYLE
105
4DD5
330
A
100
AcDbSymbolTableRecord
100
AcDbDimStyleTableRecord
  2
NEMY-30
 70
     0
 40
30.0
 41
3.0
 42
1.5
 43
10.0
 44
1.0
 73
     0
 74
     0
 77
     1
 78
     8
140
3.0
141
1.5
143
0.03937007874016
147
1.0
171
     3
172
     1
178
     0
271
     1
272
     1
274
     3
283
     0
284
     8
340
11
341
8F
342
8F
  0
DIMSTYLE
105
4DD6
330
A
100
AcDbSymbolTableRecord
100
AcDbDimStyleTableRecord
  2
NEMY-50
 70
     0
 40
50.0
 41
3.0
 42
1.5
 43
10.0
 44
1.0
 73
     0
 74
     0
 77
     1
 78
     8
140
3.0
141
1.5
143
0.03937007874016
147
1.0
171
     3
172
     1
178
     0
271
     1
272
     1
274
     3
283
     0
284
     8
340
11
341
8F
342
8F
  0
DIMSTYLE
105
4E6F
330
A
100
AcDbSymbolTableRecord
100
AcDbDimStyleTableRecord
  2
NEMY-20
 70
     0
 40
20.0
 41
3.0
 42
1.5
 43
10.0
 44
1.0
 73
     0
 74
     0
 77
     1
 78
     8
140
3.0
141
1.5
143
0.03937007874016
147
1.0
171
     3
172
     1
178
     0
271
     1
272
     1
274
     3
283
     0
284
     8
340
11
341
8F
342
8F
  0
DIMSTYLE
105
4F44
330
A
100
AcDbSymbolTableRecord
100
AcDbDimStyleTableRecord
  2
NEMY-10$3
 70
     0
 40
10.0
 41
3.0
 42
1.5
 43
10.0
 44
1.0
 77
     1
 78
     8
140
3.0
141
1.5
143
0.03937007874016
147
1.0
171
     3
172
     1
178
     0
271
     1
272
     1
274
     3
283
     0
284
     8
340
11
341
8F
342
8F
  0
DIMSTYLE
105
4F45
330
A
100
AcDbSymbolTableRecord
100
AcDbDimStyleTableRecord
  2
NEMY-1$3
 70
     0
 41
3.0
 42
1.5
 43
10.0
 44
1.0
 77
     1
 78
     8
140
3.0
141
1.5
143
0.03937007874016
147
1.0
171
     3
172
     1
178
     0
271
     1
272
     1
274
     3
283
     0
284
     8
340
11
341
8F
342
8F
  0
DIMSTYLE
105
4F46
330
A
100
AcDbSymbolTableRecord
100
AcDbDimStyleTableRecord
  2
NEMY-12
 70
     0
 40
12.0
 41
3.0
 42
1.5
 43
10.0
 44
1.0
 73
     0
 74
     0
 77
     1
 78
     8
140
3.0
141
1.5
143
0.03937007874016
147
1.0
171
     3
172
     1
178
     0
271
     1
272
     1
274
     3
283
     0
284
     8
340
11
341
8F
342
8F
  0
DIMSTYLE
105
4F47
330
A
100
AcDbSymbolTableRecord
100
AcDbDimStyleTableRecord
  2
NEMY-12$3
 70
     0
 40
12.0
 41
3.0
 42
1.5
 43
10.0
 44
1.0
 77
     1
 78
     8
140
3.0
141
1.5
143
0.03937007874016
147
1.0
171
     3
172
     1
178
     0
271
     1
272
     1
274
     3
283
     0
284
     8
340
11
341
8F
342
8F
  0
DIMSTYLE
105
5E6E
330
A
100
AcDbSymbolTableRecord
100
AcDbDimStyleTableRecord
  2
NEMY-8$3
 70
     0
 40
8.0
 41
3.0
 42
1.5
 43
10.0
 44
1.0
 77
     1
 78
     8
140
3.0
141
1.5
143
0.03937007874016
147
1.0
171
     3
172
     1
178
     0
271
     1
272
     1
274
     3
283
     0
284
     8
340
11
341
8F
342
8F
  0
DIMSTYLE
105
5E6F
330
A
100
AcDbSymbolTableRecord
100
AcDbDimStyleTableRecord
  2
NEMY-50$3
 70
     0
 40
50.0
 41
3.0
 42
1.5
 43
10.0
 44
1.0
 77
     1
 78
     8
140
3.0
141
1.5
143
0.03937007874016
147
1.0
171
     3
172
     1
178
     0
271
     1
272
     1
274
     3
283
     0
284
     8
340
11
341
8F
342
8F
  0
DIMSTYLE
105
5E70
330
A
100
AcDbSymbolTableRecord
100
AcDbDimStyleTableRecord
  2
NEMY-5$3
 70
     0
 40
5.0
 41
3.0
 42
1.5
 43
10.0
 44
1.0
 77
     1
 78
     8
140
3.0
141
1.5
143
0.03937007874016
147
1.0
171
     3
172
     1
178
     0
271
     1
272
     1
274
     3
283
     0
284
     8
340
11
341
8F
342
8F
  0
DIMSTYLE
105
5E71
330
A
100
AcDbSymbolTableRecord
100
AcDbDimStyleTableRecord
  2
NEMY-30$3
 70
     0
 40
30.0
 41
3.0
 42
1.5
 43
10.0
 44
1.0
 77
     1
 78
     8
140
3.0
141
1.5
143
0.03937007874016
147
1.0
171
     3
172
     1
178
     0
271
     1
272
     1
274
     3
283
     0
284
     8
340
11
341
8F
342
8F
  0
DIMSTYLE
105
5E72
330
A
100
AcDbSymbolTableRecord
100
AcDbDimStyleTableRecord
  2
NEMY-3$3
 70
     0
 40
3.0
 41
3.0
 42
1.5
 43
10.0
 44
1.0
 77
     1
 78
     8
140
3.0
141
1.5
143
0.03937007874016
147
1.0
171
     3
172
     1
178
     0
271
     1
272
     1
274
     3
283
     0
284
     8
340
11
341
8F
342
8F
  0
DIMSTYLE
105
5E73
330
A
100
AcDbSymbolTableRecord
100
AcDbDimStyleTableRecord
  2
NEMY-25$3
 70
     0
 40
25.0
 41
3.0
 42
1.5
 43
10.0
 44
1.0
 77
     1
 78
     8
140
3.0
141
1.5
143
0.03937007874016
147
1.0
171
     3
172
     1
178
     0
271
     1
272
     1
274
     3
283
     0
284
     8
340
11
341
8F
342
8F
  0
DIMSTYLE
105
5E74
330
A
100
AcDbSymbolTableRecord
100
AcDbDimStyleTableRecord
  2
NEMY-20$3
 70
     0
 40
20.0
 41
3.0
 42
1.5
 43
10.0
 44
1.0
 77
     1
 78
     8
140
3.0
141
1.5
143
0.03937007874016
147
1.0
171
     3
172
     1
178
     0
271
     1
272
     1
274
     3
283
     0
284
     8
340
11
341
8F
342
8F
  0
DIMSTYLE
105
5E75
330
A
100
AcDbSymbolTableRecord
100
AcDbDimStyleTableRecord
  2
NEMY-2$3
 70
     0
 40
2.0
 41
3.0
 42
1.5
 43
10.0
 44
1.0
 77
     1
 78
     8
140
3.0
141
1.5
143
0.03937007874016
147
1.0
171
     3
172
     1
178
     0
271
     1
272
     1
274
     3
283
     0
284
     8
340
11
341
8F
342
8F
  0
DIMSTYLE
105
5E76
330
A
100
AcDbSymbolTableRecord
100
AcDbDimStyleTableRecord
  2
NEMY-15$3
 70
     0
 40
15.0
 41
3.0
 42
1.5
 43
10.0
 44
1.0
 77
     1
 78
     8
140
3.0
141
1.5
143
0.03937007874016
147
1.0
171
     3
172
     1
178
     0
271
     1
272
     1
274
     3
283
     0
284
     8
340
11
341
8F
342
8F
  0
ENDTAB
  0
TABLE
  2
BLOCK_RECORD
  5
1
330
0
100
AcDbSymbolTable
 70
  1769
  0
BLOCK_RECORD
  5
1F
102
{ACAD_XDICTIONARY
360
969E
102
}
330
1
100
AcDbSymbolTableRecord
100
AcDbBlockTableRecord
  2
*Model_Space
340
22
  0
BLOCK_RECORD
  5
1B
330
1
100
AcDbSymbolTableRecord
100
AcDbBlockTableRecord
  2
*Paper_Space
340
1E
  0
BLOCK_RECORD
  5
8F
330
1
100
AcDbSymbolTableRecord
100
AcDbBlockTableRecord
  2
_Open
340
0
102
{BLKREFS
331
BE95
331
BEAF
331
BEBB
331
BEE5
331
BEF1
331
BF15
331
BF21
331
C054
331
C060
331
11E12
331
120C8
331
120D5
331
120E2
331
120EF
331
120FC
331
122D2
331
122DF
331
122EC
331
12308
331
12325
331
12332
331
1233F
331
1235B
331
125D8
331
125E5
331
125F2
331
125FF
331
12628
331
12634
331
12640
331
1264C
331
12675
331
12681
331
1268D
331
12699
331
BE96
331
BEB0
331
BEBC
331
BEE6
331
BEF2
331
BF16
331
BF22
331
C055
331
C061
331
D6F8
331
11E13
331
120C9
331
120D6
331
120E3
331
120F0
331
120FD
331
122D3
331
122E0
331
122ED
331
12309
331
12326
331
12333
331
12340
331
1235C
331
125D9
331
125E6
331
125F3
331
12600
331
12629
331
12635
331
12641
331
1264D
331
12676
331
12682
331
1268E
331
1269A
331
BEA3
331
D6F9
331
11E05
331
12317
331
1236A
331
BEA4
331
BECA
331
11E06
331
122FC
331
12318
331
1234F
331
1236B
331
BECB
331
122FD
331
12350
102
}
  0
BLOCK_RECORD
  5
82F2
330
1
100
AcDbSymbolTableRecord
100
AcDbBlockTableRecord
  2
hole-φ16
340
0
102
{BLKREFS
331
12266
331
12267
331
12268
331
12269
331
1226A
331
1226B
331
1226C
331
1226D
102
}
  0
BLOCK_RECORD
  5
841D
330
1
100
AcDbSymbolTableRecord
100
AcDbBlockTableRecord
  2
BH-端柱補強桟(L40x15xt3.2)
340
0
102
{BLKREFS
331
843A
102
}
  0
BLOCK_RECORD
  5
842A
330
1
100
AcDbSymbolTableRecord
100
AcDbBlockTableRecord
  2
BH-端柱(L60)-500H-正面
340
0
102
{BLKREFS
331
BDFD
331
BDFF
102
}
  0
BLOCK_RECORD
  5
843D
330
1
100
AcDbSymbolTableRecord
100
AcDbBlockTableRecord
  2
BH-端柱(L60)-500H-側面
340
0
102
{BLKREFS
331
BDFE
331
BE00
102
}
  0
BLOCK_RECORD
  5
8522
330
1
100
AcDbSymbolTableRecord
100
AcDbBlockTableRecord
  2
BH-anchor-L60-背面
340
0
102
{BLKREFS
331
BE0C
331
BE0D
102
}
  0
BLOCK_RECORD
  5
8548
330
1
100
AcDbSymbolTableRecord
100
AcDbBlockTableRecord
  2
BH-anchor-L60-立面
340
0
102
{BLKREFS
331
BE0E
331
BE0F
102
}
  0
BLOCK_RECORD
  5
856D
330
1
100
AcDbSymbolTableRecord
100
AcDbBlockTableRecord
  2
BH-端柱(L60)-平面
340
0
102
{BLKREFS
331
A846
331
A847
331
A848
331
A849
331
0
331
0
331
0
331
0
331
0
331
0
331
0
331
0
331
0
331
0
331
0
331
0
102
}
  0
BLOCK_RECORD
  5
858C
330
1
100
AcDbSymbolTableRecord
100
AcDbBlockTableRecord
  2
BH-anchor-L60-平面(実線)
340
0
102
{BLKREFS
331
0
331
0
331
0
331
0
331
0
331
0
331
0
331
0
331
0
331
0
331
0
331
0
102
}
  0
BLOCK_RECORD
  5
85C5
330
1
100
AcDbSymbolTableRecord
100
AcDbBlockTableRecord
  2
BH-レベル調整ボルト
340
0
102
{BLKREFS
331
0
102
}
  0
BLOCK_RECORD
  5
9928
330
1
100
AcDbSymbolTableRecord
100
AcDbBlockTableRecord
  2
BH-筋交(柱L60)-500H
340
0
102
{BLKREFS
331
BDFC
331
0
102
}
  0
BLOCK_RECORD
  5
BE8F
330
1
100
AcDbSymbolTableRecord
100
AcDbBlockTableRecord
  2
*D541
340
0
  0
BLOCK_RECORD
  5
BE9B
330
1
100
AcDbSymbolTableRecord
100
AcDbBlockTableRecord
  2
*D542
340
0
  0
BLOCK_RECORD
  5
BEA9
330
1
100
AcDbSymbolTableRecord
100
AcDbBlockTableRecord
  2
*D543
340
0
  0
BLOCK_RECORD
  5
BEB5
330
1
100
AcDbSymbolTableRecord
100
AcDbBlockTableRecord
  2
*D544
340
0
  0
BLOCK_RECORD
  5
BEC1
330
1
100
AcDbSymbolTableRecord
100
AcDbBlockTableRecord
  2
*D545
340
0
  0
BLOCK_RECORD
  5
BEDF
330
1
100
AcDbSymbolTableRecord
100
AcDbBlockTableRecord
  2
*D547
340
0
  0
BLOCK_RECORD
  5
BEEB
330
1
100
AcDbSymbolTableRecord
100
AcDbBlockTableRecord
  2
*D548
340
0
  0
BLOCK_RECORD
  5
BF0F
330
1
100
AcDbSymbolTableRecord
100
AcDbBlockTableRecord
  2
*D551
340
0
  0
BLOCK_RECORD
  5
BF1B
330
1
100
AcDbSymbolTableRecord
100
AcDbBlockTableRecord
  2
*D552
340
0
  0
BLOCK_RECORD
  5
C04E
330
1
100
AcDbSymbolTableRecord
100
AcDbBlockTableRecord
  2
*D560
340
0
  0
BLOCK_RECORD
  5
C05A
330
1
100
AcDbSymbolTableRecord
100
AcDbBlockTableRecord
  2
*D561
340
0
  0
BLOCK_RECORD
  5
D6F1
330
1
100
AcDbSymbolTableRecord
100
AcDbBlockTableRecord
  2
*D825
340
0
  0
BLOCK_RECORD
  5
F690
330
1
100
AcDbSymbolTableRecord
100
AcDbBlockTableRecord
  2
BH-組立ボルトセット
340
0
102
{BLKREFS
331
F6AB
102
}
  0
BLOCK_RECORD
  5
F6BD
330
1
100
AcDbSymbolTableRecord
100
AcDbBlockTableRecord
  2
BH-筋交(柱L60)-300H-平面
340
0
102
{BLKREFS
331
0
102
}
  0
BLOCK_RECORD
  5
11DFD
330
1
100
AcDbSymbolTableRecord
100
AcDbBlockTableRecord
  2
*D1708
340
0
  0
BLOCK_RECORD
  5
11E0C
330
1
100
AcDbSymbolTableRecord
100
AcDbBlockTableRecord
  2
*D1709
340
0
  0
BLOCK_RECORD
  5
11E63
330
1
100
AcDbSymbolTableRecord
100
AcDbBlockTableRecord
  2
シール(検査済)
340
0
102
{BLKREFS
331
0
102
}
  0
BLOCK_RECORD
  5
11E69
330
1
100
AcDbSymbolTableRecord
100
AcDbBlockTableRecord
  2
シール(型式)
340
0
102
{BLKREFS
331
0
102
}
  0
BLOCK_RECORD
  5
1209A
330
1
100
AcDbSymbolTableRecord
100
AcDbBlockTableRecord
  2
ECOV-EN45~67WB
340
0
102
{BLKREFS
331
0
102
}
  0
BLOCK_RECORD
  5
120C3
330
1
100
AcDbSymbolTableRecord
100
AcDbBlockTableRecord
  2
*D1718
340
0
  0
BLOCK_RECORD
  5
120D0
330
1
100
AcDbSymbolTableRecord
100
AcDbBlockTableRecord
  2
*D1719
340
0
  0
BLOCK_RECORD
  5
120DD
330
1
100
AcDbSymbolTableRecord
100
AcDbBlockTableRecord
  2
*D1720
340
0
  0
BLOCK_RECORD
  5
120EA
330
1
100
AcDbSymbolTableRecord
100
AcDbBlockTableRecord
  2
*D1721
340
0
  0
BLOCK_RECORD
  5
120F7
330
1
100
AcDbSymbolTableRecord
100
AcDbBlockTableRecord
  2
*D1722
340
0
  0
BLOCK_RECORD
  5
121F6
330
1
100
AcDbSymbolTableRecord
100
AcDbBlockTableRecord
  2
1-MDL338
340
0
102
{BLKREFS
331
0
102
}
  0
BLOCK_RECORD
  5
122CC
330
1
100
AcDbSymbolTableRecord
100
AcDbBlockTableRecord
  2
*D1729
340
0
  0
BLOCK_RECORD
  5
122D9
330
1
100
AcDbSymbolTableRecord
100
AcDbBlockTableRecord
  2
*D1730
340
0
  0
BLOCK_RECORD
  5
122E6
330
1
100
AcDbSymbolTableRecord
100
AcDbBlockTableRecord
  2
*D1731
340
0
  0
BLOCK_RECORD
  5
122F3
330
1
100
AcDbSymbolTableRecord
100
AcDbBlockTableRecord
  2
*D1732
340
0
  0
BLOCK_RECORD
  5
12302
330
1
100
AcDbSymbolTableRecord
100
AcDbBlockTableRecord
  2
*D1733
340
0
  0
BLOCK_RECORD
  5
1230F
330
1
100
AcDbSymbolTableRecord
100
AcDbBlockTableRecord
  2
*D1734
340
0
  0
BLOCK_RECORD
  5
1231F
330
1
100
AcDbSymbolTableRecord
100
AcDbBlockTableRecord
  2
*D1735
340
0
  0
BLOCK_RECORD
  5
1232C
330
1
100
AcDbSymbolTableRecord
100
AcDbBlockTableRecord
  2
*D1736
340
0
  0
BLOCK_RECORD
  5
12339
330
1
100
AcDbSymbolTableRecord
100
AcDbBlockTableRecord
  2
*D1737
340
0
  0
BLOCK_RECORD
  5
12346
330
1
100
AcDbSymbolTableRecord
100
AcDbBlockTableRecord
  2
*D1738
340
0
  0
BLOCK_RECORD
  5
12355
330
1
100
AcDbSymbolTableRecord
100
AcDbBlockTableRecord
  2
*D1739
340
0
  0
BLOCK_RECORD
  5
12362
330
1
100
AcDbSymbolTableRecord
100
AcDbBlockTableRecord
  2
*D1740
340
0
  0
BLOCK_RECORD
  5
125D2
330
1
100
AcDbSymbolTableRecord
100
AcDbBlockTableRecord
  2
*D1757
340
0
  0
BLOCK_RECORD
  5
125DF
330
1
100
AcDbSymbolTableRecord
100
AcDbBlockTableRecord
  2
*D1758
340
0
  0
BLOCK_RECORD
  5
125EC
330
1
100
AcDbSymbolTableRecord
100
AcDbBlockTableRecord
  2
*D1759
340
0
  0
BLOCK_RECORD
  5
125F9
330
1
100
AcDbSymbolTableRecord
100
AcDbBlockTableRecord
  2
*D1760
340
0
  0
BLOCK_RECORD
  5
12622
330
1
100
AcDbSymbolTableRecord
100
AcDbBlockTableRecord
  2
*D1761
340
0
  0
BLOCK_RECORD
  5
1262E
330
1
100
AcDbSymbolTableRecord
100
AcDbBlockTableRecord
  2
*D1762
340
0
  0
BLOCK_RECORD
  5
1263A
330
1
100
AcDbSymbolTableRecord
100
AcDbBlockTableRecord
  2
*D1763
340
0
  0
BLOCK_RECORD
  5
12646
330
1
100
AcDbSymbolTableRecord
100
AcDbBlockTableRecord
  2
*D1764
340
0
  0
BLOCK_RECORD
  5
1266F
330
1
100
AcDbSymbolTableRecord
100
AcDbBlockTableRecord
  2
*D1765
340
0
  0
BLOCK_RECORD
  5
1267B
330
1
100
AcDbSymbolTableRecord
100
AcDbBlockTableRecord
  2
*D1766
340
0
  0
BLOCK_RECORD
  5
12687
330
1
100
AcDbSymbolTableRecord
100
AcDbBlockTableRecord
  2
*D1767
340
0
  0
BLOCK_RECORD
  5
12693
330
1
100
AcDbSymbolTableRecord
100
AcDbBlockTableRecord
  2
*D1768
340
0
  0
ENDTAB
  0
ENDSEC
  0
SECTION
  2
BLOCKS
  0
BLOCK
  5
20
330
1F
100
AcDbEntity
  8
0
100
AcDbBlockBegin
  2
*Model_Space
 70
     0
 10
0.0
 20
0.0
 30
0.0
  3
*Model_Space
  1

  0
ENDBLK
  5
21
330
1F
100
AcDbEntity
  8
0
100
AcDbBlockEnd
  0
BLOCK
  5
1C
330
1B
100
AcDbEntity
 67
     1
  8
0
100
AcDbBlockBegin
  2
*Paper_Space
 70
     0
 10
0.0
 20
0.0
 30
0.0
  3
*Paper_Space
  1

  0
ENDBLK
  5
1D
330
1B
100
AcDbEntity
 67
     1
  8
0
100
AcDbBlockEnd
  0
BLOCK
  5
93
330
8F
100
AcDbEntity
  8
0
100
AcDbBlockBegin
  2
_Open
 70
     0
 10
0.0
 20
0.0
 30
0.0
  3
_Open
  1

  0
LINE
  5
90
330
8F
100
AcDbEntity
  8
01注記寸法
 62
     0
370
    -2
100
AcDbLine
 10
-1.0
 20
0.1666666666666667
 30
0.0
 11
0.0
 21
0.0
 31
0.0
  0
LINE
  5
91
330
8F
100
AcDbEntity
  8
01注記寸法
 62
     0
370
    -2
100
AcDbLine
 10
-1.0
 20
-0.1666666666666667
 30
0.0
 11
0.0
 21
0.0
 31
0.0
  0
LINE
  5
92
330
8F
100
AcDbEntity
  8
01注記寸法
 62
     0
370
    -2
100
AcDbLine
 10
0.0
 20
0.0
 30
0.0
 11
-1.0
 21
0.0
 31
0.0
  0
ENDBLK
  5
94
330
8F
100
AcDbEntity
  8
0
100
AcDbBlockEnd
  0
BLOCK
  5
82F3
330
82F2
100
AcDbEntity
  8
0
100
AcDbBlockBegin
  2
hole-φ16
 70
     0
 10
0.0
 20
0.0
 30
0.0
  3
hole-φ16
  1

  0
CIRCLE
  5
82F4
330
82F2
100
AcDbEntity
  8
02実線
100
AcDbCircle
 10
0.0
 20
0.0
 30
0.0
 40
8.0
  0
LINE
  5
82F5
330
82F2
100
AcDbEntity
  8
04一点鎖線
  6
CENTER
 48
0.2
100
AcDbLine
 10
0.0
 20
-20.0
 30
0.0
 11
0.0
 21
20.0
 31
0.0
  0
LINE
  5
82F6
330
82F2
100
AcDbEntity
  8
04一点鎖線
  6
CENTER
 48
0.2
100
AcDbLine
 10
-20.0
 20
0.0
 30
0.0
 11
20.0
 21
0.0
 31
0.0
  0
ENDBLK
  5
82F7
330
82F2
100
AcDbEntity
  8
0
100
AcDbBlockEnd
  0
BLOCK
  5
841E
330
841D
100
AcDbEntity
  8
0
100
AcDbBlockBegin
  2
BH-端柱補強桟(L40x15xt3.2)
 70
     0
 10
0.0
 20
0.0
 30
0.0
  3
BH-端柱補強桟(L40x15xt3.2)
  1

  0
LINE
  5
841F
330
841D
100
AcDbEntity
  8
03破線
  6
HIDDEN
 48
0.5
100
AcDbLine
 10
3.199999999999818
 20
-3.199999999999818
 30
0.0
 11
3.199999999999818
 21
-40.0
 31
0.0
  0
LINE
  5
8420
330
841D
100
AcDbEntity
  8
03破線
  6
HIDDEN
 48
0.5
100
AcDbLine
 10
15.0
 20
0.0
 30
0.0
 11
15.0
 21
-3.199999999999818
 31
0.0
  0
LINE
  5
8421
330
841D
100
AcDbEntity
  8
03破線
  6
HIDDEN
 48
0.5
100
AcDbLine
 10
15.0
 20
-3.199999999999818
 30
0.0
 11
3.199999999999818
 21
-3.199999999999818
 31
0.0
  0
LINE
  5
8422
330
841D
100
AcDbEntity
  8
03破線
  6
HIDDEN
 48
0.5
100
AcDbLine
 10
0.0
 20
0.0
 30
0.0
 11
0.0
 21
-40.0
 31
0.0
  0
LINE
  5
8423
330
841D
100
AcDbEntity
  8
03破線
  6
HIDDEN
 48
0.5
100
AcDbLine
 10
15.0
 20
0.0
 30
0.0
 11
0.0
 21
0.0
 31
0.0
  0
LINE
  5
8424
330
841D
100
AcDbEntity
  8
03破線
  6
HIDDEN
 48
0.5
100
AcDbLine
 10
3.199999999999818
 20
-40.0
 30
0.0
 11
0.0
 21
-40.0
 31
0.0
  0
ENDBLK
  5
8425
330
841D
100
AcDbEntity
  8
0
100
AcDbBlockEnd
  0
BLOCK
  5
842B
330
842A
100
AcDbEntity
  8
0
100
AcDbBlockBegin
  2
BH-端柱(L60)-500H-正面
 70
     0
 10
0.0
 20
0.0
 30
0.0
  3
BH-端柱(L60)-500H-正面
  1

  0
LWPOLYLINE
  5
842C
330
842A
100
AcDbEntity
  8
02実線
100
AcDbPolyline
 90
        4
 70
     1
 43
0.0
 10
0.0
 20
0.0
 10
0.0
 20
497.0000000000005
 10
60.0
 20
497.0000000000005
 10
60.0
 20
0.0
  0
LINE
  5
842D
330
842A
100
AcDbEntity
  8
03破線
100
AcDbLine
 10
3.200000000000728
 20
0.0
 30
0.0
 11
3.200000000000728
 21
497.0000000000005
 31
0.0
  0
ARC
  5
842E
330
842A
100
AcDbEntity
  8
02実線
100
AcDbCircle
 10
22.00000000000091
 20
30.0
 30
0.0
 40
7.0
100
AcDbArc
 50
90.0
 51
270.0
  0
LINE
  5
842F
330
842A
100
AcDbEntity
  8
02実線
100
AcDbLine
 10
22.00000000000091
 20
23.0
 30
0.0
 11
42.00000000000091
 21
23.0
 31
0.0
  0
LINE
  5
8430
330
842A
100
AcDbEntity
  8
02実線
100
AcDbLine
 10
22.00000000000091
 20
37.0
 30
0.0
 11
42.00000000000091
 21
37.0
 31
0.0
  0
ARC
  5
8431
330
842A
100
AcDbEntity
  8
02実線
100
AcDbCircle
 10
42.00000000000091
 20
30.0
 30
0.0
 40
7.0
100
AcDbArc
 50
270.0
 51
90.0
  0
CIRCLE
  5
8432
330
842A
100
AcDbEntity
  8
02実線
100
AcDbCircle
 10
30.00000000000091
 20
215.0000000000002
 30
0.0
 40
6.5
  0
CIRCLE
  5
8433
330
842A
100
AcDbEntity
  8
02実線
100
AcDbCircle
 10
30.00000000000091
 20
466.0000000000005
 30
0.0
 40
6.5
  0
LINE
  5
8434
330
842A
100
AcDbEntity
  8
04一点鎖線
 48
0.2
100
AcDbLine
 10
59.0
 20
30.0
 30
0.0
 11
-10.0
 21
30.0
 31
0.0
  0
LINE
  5
8435
330
842A
100
AcDbEntity
  8
04一点鎖線
 48
0.2
100
AcDbLine
 10
46.5
 20
466.0000000000005
 30
0.0
 11
13.50000000000091
 21
466.0000000000005
 31
0.0
  0
LINE
  5
8436
330
842A
100
AcDbEntity
  8
04一点鎖線
 48
0.2
100
AcDbLine
 10
32.00000000000091
 20
13.0
 30
0.0
 11
32.00000000000091
 21
47.0
 31
0.0
  0
LINE
  5
8437
330
842A
100
AcDbEntity
  8
04一点鎖線
 48
0.2
100
AcDbLine
 10
30.00000000000182
 20
198.5000000000002
 30
0.0
 11
30.0
 21
231.5000000000002
 31
0.0
  0
LINE
  5
8438
330
842A
100
AcDbEntity
  8
04一点鎖線
 48
0.2
100
AcDbLine
 10
30.00000000000182
 20
449.5000000000005
 30
0.0
 11
30.0
 21
482.5000000000005
 31
0.0
  0
LINE
  5
8439
330
842A
100
AcDbEntity
  8
04一点鎖線
 48
0.2
100
AcDbLine
 10
46.5
 20
215.0000000000002
 30
0.0
 11
13.50000000000091
 21
215.0000000000002
 31
0.0
  0
INSERT
  5
843A
330
842A
100
AcDbEntity
  8
03破線
100
AcDbBlockReference
  2
BH-端柱補強桟(L40x15xt3.2)
 10
3.200000000000728
 20
250.0
 30
0.0
  0
ENDBLK
  5
843B
330
842A
100
AcDbEntity
  8
0
100
AcDbBlockEnd
  0
BLOCK
  5
843E
330
843D
100
AcDbEntity
  8
0
100
AcDbBlockBegin
  2
BH-端柱(L60)-500H-側面
 70
     0
 10
0.0
 20
0.0
 30
0.0
  3
BH-端柱(L60)-500H-側面
  1

  0
ARC
  5
843F
330
843D
100
AcDbEntity
  8
02実線
100
AcDbCircle
 10
42.00000000000091
 20
29.99999999999886
 30
0.0
 40
7.0
100
AcDbArc
 50
270.0
 51
90.0
  0
LINE
  5
8440
330
843D
100
AcDbEntity
  8
02実線
100
AcDbLine
 10
22.00000000000091
 20
36.99999999999886
 30
0.0
 11
42.00000000000091
 21
36.99999999999886
 31
0.0
  0
LINE
  5
8441
330
843D
100
AcDbEntity
  8
02実線
100
AcDbLine
 10
22.00000000000091
 20
22.99999999999886
 30
0.0
 11
42.00000000000091
 21
22.99999999999886
 31
0.0
  0
ARC
  5
8442
330
843D
100
AcDbEntity
  8
02実線
100
AcDbCircle
 10
22.00000000000091
 20
29.99999999999886
 30
0.0
 40
7.0
100
AcDbArc
 50
90.0
 51
270.0
  0
LINE
  5
8443
330
843D
100
AcDbEntity
  8
03破線
100
AcDbLine
 10
3.200000000000728
 20
-0.0000000000011369
 30
0.0
 11
3.200000000000728
 21
496.9999999999993
 31
0.0
  0
LWPOLYLINE
  5
8444
330
843D
100
AcDbEntity
  8
02実線
100
AcDbPolyline
 90
        4
 70
     1
 43
0.0
 10
0.0
 20
0.0
 10
0.0
 20
497.0000000000002
 10
60.0
 20
497.0000000000002
 10
60.0
 20
0.0
  0
CIRCLE
  5
8445
330
843D
100
AcDbEntity
  8
02実線
100
AcDbCircle
 10
34.69999999999982
 20
469.9999999999993
 30
0.0
 40
6.5
  0
CIRCLE
  5
8446
330
843D
100
AcDbEntity
  8
02実線
100
AcDbCircle
 10
34.69999999999982
 20
399.9999999999991
 30
0.0
 40
6.5
  0
LINE
  5
8447
330
843D
100
AcDbEntity
  8
04一点鎖線
 48
0.2
100
AcDbLine
 10
59.00000000000091
 20
29.99999999999886
 30
0.0
 11
-10.0
 21
29.99999999999886
 31
0.0
  0
LINE
  5
8448
330
843D
100
AcDbEntity
  8
04一点鎖線
 48
0.2
100
AcDbLine
 10
32.00000000000091
 20
12.99999999999886
 30
0.0
 11
32.00000000000091
 21
46.99999999999886
 31
0.0
  0
LINE
  5
8449
330
843D
100
AcDbEntity
  8
04一点鎖線
 48
0.2
100
AcDbLine
 10
51.20000000000073
 20
469.9999999999989
 30
0.0
 11
18.20000000000073
 21
469.9999999999989
 31
0.0
  0
LINE
  5
844A
330
843D
100
AcDbEntity
  8
04一点鎖線
 48
0.2
100
AcDbLine
 10
51.19999999999982
 20
399.9999999999991
 30
0.0
 11
18.19999999999982
 21
399.9999999999991
 31
0.0
  0
LINE
  5
844B
330
843D
100
AcDbEntity
  8
04一点鎖線
 48
0.2
100
AcDbLine
 10
34.69999999999982
 20
383.4999999999991
 30
0.0
 11
34.69999999999982
 21
416.4999999999991
 31
0.0
  0
LINE
  5
844C
330
843D
100
AcDbEntity
  8
04一点鎖線
 48
0.2
100
AcDbLine
 10
34.70000000000073
 20
453.4999999999989
 30
0.0
 11
34.70000000000073
 21
486.4999999999989
 31
0.0
  0
ENDBLK
  5
844D
330
843D
100
AcDbEntity
  8
0
100
AcDbBlockEnd
  0
BLOCK
  5
8523
330
8522
100
AcDbEntity
  8
0
100
AcDbBlockBegin
  2
BH-anchor-L60-背面
 70
     0
 10
0.0
 20
0.0
 30
0.0
  3
BH-anchor-L60-背面
  1

  0
LINE
  5
8524
330
8522
100
AcDbEntity
  8
04一点鎖線
 48
0.2
100
AcDbLine
 10
0.0
 20
-15.0
 30
0.0
 11
0.0
 21
19.5
 31
0.0
  0
LINE
  5
8525
330
8522
100
AcDbEntity
  8
03破線
100
AcDbLine
 10
-28.5
 20
4.5
 30
0.0
 11
28.5
 21
4.5
 31
0.0
  0
LINE
  5
8526
330
8522
100
AcDbEntity
  8
03破線
100
AcDbLine
 10
-28.5
 20
0.0
 30
0.0
 11
28.5
 21
0.0
 31
0.0
  0
LINE
  5
8527
330
8522
100
AcDbEntity
  8
03破線
100
AcDbLine
 10
-15.82435206036507
 20
56.11709862642329
 30
0.0
 11
4.175647939634928
 21
26.11709862642329
 31
0.0
  0
LINE
  5
8528
330
8522
100
AcDbEntity
  8
03破線
100
AcDbLine
 10
-4.175647939634928
 20
63.88290137357671
 30
0.0
 11
15.82435206036507
 21
33.88290137357671
 31
0.0
  0
ARC
  5
8529
330
8522
100
AcDbEntity
  8
03破線
100
AcDbCircle
 10
10.0
 20
30.0
 30
0.0
 40
7.0
100
AcDbArc
 50
213.6900675259766
 51
33.69006752597669
  0
ARC
  5
852A
330
8522
100
AcDbEntity
  8
03破線
100
AcDbCircle
 10
-10.0
 20
60.0
 30
0.0
 40
7.0
100
AcDbArc
 50
33.69006752597669
 51
213.6900675259766
  0
LINE
  5
852B
330
8522
100
AcDbEntity
  8
03破線
100
AcDbLine
 10
-23.5
 20
80.0
 30
0.0
 11
-28.5
 21
75.0
 31
0.0
  0
LINE
  5
852C
330
8522
100
AcDbEntity
  8
03破線
100
AcDbLine
 10
-28.5
 20
0.0
 30
0.0
 11
-28.5
 21
75.0
 31
0.0
  0
LINE
  5
852D
330
8522
100
AcDbEntity
  8
03破線
100
AcDbLine
 10
28.5
 20
75.0
 30
0.0
 11
23.5
 21
80.0
 31
0.0
  0
LINE
  5
852E
330
8522
100
AcDbEntity
  8
03破線
100
AcDbLine
 10
-23.5
 20
80.0
 30
0.0
 11
23.5
 21
80.0
 31
0.0
  0
LINE
  5
852F
330
8522
100
AcDbEntity
  8
03破線
100
AcDbLine
 10
28.5
 20
0.0
 30
0.0
 11
28.5
 21
75.0
 31
0.0
  0
ENDBLK
  5
8530
330
8522
100
AcDbEntity
  8
0
100
AcDbBlockEnd
  0
BLOCK
  5
8549
330
8548
100
AcDbEntity
  8
0
100
AcDbBlockBegin
  2
BH-anchor-L60-立面
 70
     0
 10
0.0
 20
0.0
 30
0.0
  3
BH-anchor-L60-立面
  1

  0
LINE
  5
854A
330
8548
100
AcDbEntity
  8
04一点鎖線
 48
0.2
100
AcDbLine
 10
-22.5
 20
45.0
 30
0.0
 11
-47.0
 21
45.0
 31
0.0
  0
ARC
  5
854B
330
8548
100
AcDbEntity
  8
03破線
100
AcDbCircle
 10
-29.19999999999982
 20
7.799999999999727
 30
0.0
 40
3.300000000000002
100
AcDbArc
 50
180.0
 51
270.0
  0
ARC
  5
854C
330
8548
100
AcDbEntity
  8
03破線
100
AcDbCircle
 10
-29.19999999999982
 20
7.799999999999727
 30
0.0
 40
7.800000000000002
100
AcDbArc
 50
179.9999999999967
 51
270.0
  0
LINE
  5
854D
330
8548
100
AcDbEntity
  8
03破線
100
AcDbLine
 10
-37.0
 20
80.0
 30
0.0
 11
-32.5
 21
80.0
 31
0.0
  0
LINE
  5
854E
330
8548
100
AcDbEntity
  8
03破線
100
AcDbLine
 10
23.0
 20
4.5
 30
0.0
 11
23.0
 21
0.0
 31
0.0
  0
LINE
  5
854F
330
8548
100
AcDbEntity
  8
03破線
100
AcDbLine
 10
-32.5
 20
80.0
 30
0.0
 11
-32.5
 21
7.799999999999727
 31
0.0
  0
LINE
  5
8550
330
8548
100
AcDbEntity
  8
03破線
100
AcDbLine
 10
-29.19999999999982
 20
4.5
 30
0.0
 11
23.0
 21
4.5
 31
0.0
  0
LINE
  5
8551
330
8548
100
AcDbEntity
  8
03破線
100
AcDbLine
 10
-37.0
 20
80.0
 30
0.0
 11
-37.0
 21
7.799999999999727
 31
0.0
  0
LINE
  5
8552
330
8548
100
AcDbEntity
  8
03破線
100
AcDbLine
 10
-29.19999999999982
 20
0.0
 30
0.0
 11
23.0
 21
0.0
 31
0.0
  0
LINE
  5
8553
330
8548
100
AcDbEntity
  8
04一点鎖線
 48
0.2
100
AcDbLine
 10
0.0
 20
19.5
 30
0.0
 11
0.0
 21
-15.0
 31
0.0
  0
ENDBLK
  5
8554
330
8548
100
AcDbEntity
  8
0
100
AcDbBlockEnd
  0
BLOCK
  5
856E
330
856D
100
AcDbEntity
  8
0
100
AcDbBlockBegin
  2
BH-端柱(L60)-平面
 70
     0
 10
0.0
 20
0.0
 30
0.0
  3
BH-端柱(L60)-平面
  1

  0
LINE
  5
856F
330
856D
100
AcDbEntity
  8
02実線
100
AcDbLine
 10
60.0
 20
3.199999999999818
 30
0.0
 11
60.0
 21
0.0
 31
0.0
  0
LINE
  5
8570
330
856D
100
AcDbEntity
  8
02実線
100
AcDbLine
 10
3.200000000000728
 20
3.199999999999818
 30
0.0
 11
60.0
 21
3.199999999999818
 31
0.0
  0
LINE
  5
8571
330
856D
100
AcDbEntity
  8
02実線
100
AcDbLine
 10
0.0
 20
60.0
 30
0.0
 11
3.200000000000728
 21
60.0
 31
0.0
  0
LINE
  5
8572
330
856D
100
AcDbEntity
  8
02実線
100
AcDbLine
 10
0.0
 20
0.0
 30
0.0
 11
60.0
 21
0.0
 31
0.0
  0
LINE
  5
8573
330
856D
100
AcDbEntity
  8
02実線
100
AcDbLine
 10
0.0
 20
60.0
 30
0.0
 11
0.0
 21
0.0
 31
0.0
  0
LINE
  5
8574
330
856D
100
AcDbEntity
  8
02実線
100
AcDbLine
 10
3.200000000000728
 20
60.0
 30
0.0
 11
3.200000000000728
 21
3.199999999999818
 31
0.0
  0
LINE
  5
8575
330
856D
100
AcDbEntity
  8
08非表示
100
AcDbLine
 10
3.200000000000728
 20
4.699999999999818
 30
0.0
 11
60.0
 21
4.699999999999818
 31
0.0
  0
ENDBLK
  5
8576
330
856D
100
AcDbEntity
  8
0
100
AcDbBlockEnd
  0
BLOCK
  5
858D
330
858C
100
AcDbEntity
  8
0
100
AcDbBlockBegin
  2
BH-anchor-L60-平面(実線)
 70
     0
 10
0.0
 20
0.0
 30
0.0
  3
BH-anchor-L60-平面(実線)
  1

  0
LINE
  5
858E
330
858C
100
AcDbEntity
  8
02実線
100
AcDbLine
 10
-32.5
 20
-28.5
 30
0.0
 11
-32.5
 21
28.5
 31
0.0
  0
LINE
  5
858F
330
858C
100
AcDbEntity
  8
02実線
100
AcDbLine
 10
-37.0
 20
-28.5
 30
0.0
 11
-37.0
 21
28.5
 31
0.0
  0
CIRCLE
  5
8590
330
858C
100
AcDbEntity
  8
02実線
100
AcDbCircle
 10
0.0
 20
0.0
 30
0.0
 40
8.0
  0
LINE
  5
8591
330
858C
100
AcDbEntity
  8
02実線
100
AcDbLine
 10
23.0
 20
18.5
 30
0.0
 11
13.0
 21
28.5
 31
0.0
  0
LINE
  5
8592
330
858C
100
AcDbEntity
  8
02実線
100
AcDbLine
 10
23.0
 20
-18.5
 30
0.0
 11
13.0
 21
-28.5
 31
0.0
  0
LINE
  5
8593
330
858C
100
AcDbEntity
  8
02実線
100
AcDbLine
 10
-37.0
 20
28.5
 30
0.0
 11
13.0
 21
28.5
 31
0.0
  0
LINE
  5
8594
330
858C
100
AcDbEntity
  8
02実線
100
AcDbLine
 10
-37.0
 20
-28.5
 30
0.0
 11
13.0
 21
-28.5
 31
0.0
  0
LINE
  5
8595
330
858C
100
AcDbEntity
  8
02実線
100
AcDbLine
 10
23.0
 20
-18.5
 30
0.0
 11
23.0
 21
18.5
 31
0.0
  0
ARC
  5
A0C7
330
858C
100
AcDbEntity
  8
08非表示
100
AcDbCircle
 10
-5.0
 20
0.0
 30
0.0
 40
8.0
100
AcDbArc
 50
90.0
 51
270.0
  0
ARC
  5
A0C8
330
858C
100
AcDbEntity
  8
08非表示
100
AcDbCircle
 10
5.0
 20
0.0
 30
0.0
 40
8.0
100
AcDbArc
 50
270.0
 51
90.0
  0
LINE
  5
A0C9
330
858C
100
AcDbEntity
  8
08非表示
100
AcDbLine
 10
5.0
 20
-8.0
 30
0.0
 11
-5.0
 21
-8.0
 31
0.0
  0
LINE
  5
A0CA
330
858C
100
AcDbEntity
  8
08非表示
100
AcDbLine
 10
5.0
 20
8.0
 30
0.0
 11
-5.0
 21
8.0
 31
0.0
  0
ENDBLK
  5
8596
330
858C
100
AcDbEntity
  8
0
100
AcDbBlockEnd
  0
BLOCK
  5
85C6
330
85C5
100
AcDbEntity
  8
0
100
AcDbBlockBegin
  2
BH-レベル調整ボルト
 70
     0
 10
0.0
 20
0.0
 30
0.0
  3
BH-レベル調整ボルト
  1

  0
LINE
  5
85C7
330
85C5
100
AcDbEntity
  8
04一点鎖線
  6
CENTER
 48
0.2
100
AcDbLine
 10
-28.39999999999964
 20
0.0
 30
0.0
 11
13.00000001115222
 21
0.0
 31
0.0
  0
LINE
  5
85C8
330
85C5
100
AcDbEntity
  8
02実線
100
AcDbLine
 10
-23.39999999999964
 20
-4.0
 30
0.0
 11
-17.3000000111515
 21
-4.0
 31
0.0
  0
LINE
  5
85C9
330
85C5
100
AcDbEntity
  8
02実線
100
AcDbLine
 10
-23.39999999999964
 20
4.0
 30
0.0
 11
-17.3000000111515
 21
4.0
 31
0.0
  0
LINE
  5
85CA
330
85C5
100
AcDbEntity
  8
02実線
100
AcDbLine
 10
-23.39999999999964
 20
-4.0
 30
0.0
 11
-23.39999999999964
 21
4.0
 31
0.0
  0
LINE
  5
85CB
330
85C5
100
AcDbEntity
  8
02実線
100
AcDbLine
 10
-22.39999999999964
 20
5.0
 30
0.0
 11
-17.3000000111515
 21
5.0
 31
0.0
  0
LINE
  5
85CC
330
85C5
100
AcDbEntity
  8
02実線
100
AcDbLine
 10
-22.39999999999964
 20
-5.0
 30
0.0
 11
-22.39999999999964
 21
5.0
 31
0.0
  0
LINE
  5
85CD
330
85C5
100
AcDbEntity
  8
02実線
100
AcDbLine
 10
-22.39999999999964
 20
-5.0
 30
0.0
 11
-17.3000000111515
 21
-5.0
 31
0.0
  0
LINE
  5
85CE
330
85C5
100
AcDbEntity
  8
02実線
100
AcDbLine
 10
-23.39999999999964
 20
-4.0
 30
0.0
 11
-22.39999999999964
 21
-5.0
 31
0.0
  0
LINE
  5
85CF
330
85C5
100
AcDbEntity
  8
02実線
100
AcDbLine
 10
-22.39999999999964
 20
5.0
 30
0.0
 11
-23.39999999999964
 21
4.0
 31
0.0
  0
LINE
  5
85D0
330
85C5
100
AcDbEntity
  8
02実線
100
AcDbLine
 10
-7.700000000000728
 20
11.0
 30
0.0
 11
-7.700000000000728
 21
-11.0
 31
0.0
  0
LINE
  5
85D1
330
85C5
100
AcDbEntity
  8
02実線
100
AcDbLine
 10
-9.299999999999272
 20
11.0
 30
0.0
 11
-7.700000000000728
 21
11.0
 31
0.0
  0
LINE
  5
85D2
330
85C5
100
AcDbEntity
  8
02実線
100
AcDbLine
 10
-9.299999999999272
 20
-11.0
 30
0.0
 11
-7.700000000000728
 21
-11.0
 31
0.0
  0
LINE
  5
85D3
330
85C5
100
AcDbEntity
  8
02実線
100
AcDbLine
 10
-9.299999999999272
 20
11.0
 30
0.0
 11
-9.299999999999272
 21
-11.0
 31
0.0
  0
LINE
  5
85D4
330
85C5
100
AcDbEntity
  8
02実線
100
AcDbLine
 10
-9.299999999999272
 20
9.237604307033962
 30
0.0
 11
-9.299999999999272
 21
-9.237604307033962
 31
0.0
  0
ARC
  5
85D5
330
85C5
100
AcDbEntity
  8
02実線
100
AcDbCircle
 10
-12.68119784648297
 20
6.927925269031675
 30
0.0
 40
4.618802164669552
100
AcDbArc
 50
149.9960184984644
 51
209.9960184984832
  0
ARC
  5
85D6
330
85C5
100
AcDbEntity
  8
02実線
100
AcDbCircle
 10
-12.68119784648297
 20
-6.927925269031675
 30
0.0
 40
4.618802164669552
100
AcDbArc
 50
150.0039815015167
 51
210.0039815015356
  0
ARC
  5
85D7
330
85C5
100
AcDbEntity
  8
02実線
100
AcDbCircle
 10
0.2513967268932902
 20
0.0
 30
0.0
 40
17.55139672689282
100
AcDbArc
 50
164.7424308899368
 51
195.2575691100632
  0
LINE
  5
85D8
330
85C5
100
AcDbEntity
  8
02実線
100
AcDbLine
 10
-9.299999999999272
 20
4.618802153516754
 30
0.0
 11
-16.68135832748158
 21
4.618802153516754
 31
0.0
  0
LINE
  5
85D9
330
85C5
100
AcDbEntity
  8
02実線
100
AcDbLine
 10
-17.3000000111515
 20
6.927925269031675
 30
0.0
 11
-17.3000000111515
 21
-6.927925269031675
 31
0.0
  0
LINE
  5
85DA
330
85C5
100
AcDbEntity
  8
02実線
100
AcDbLine
 10
-9.299999999999272
 20
-4.618802153516754
 30
0.0
 11
-16.68135832748158
 21
-4.618802153516754
 31
0.0
  0
LINE
  5
85DB
330
85C5
100
AcDbEntity
  8
02実線
100
AcDbLine
 10
-9.299999999999272
 20
-9.237604307033962
 30
0.0
 11
-16.68103736548437
 21
-9.237604307033962
 31
0.0
  0
LINE
  5
85DC
330
85C5
100
AcDbEntity
  8
02実線
100
AcDbLine
 10
-9.299999999999272
 20
9.237604307033962
 30
0.0
 11
-16.68103736548437
 21
9.237604307033962
 31
0.0
  0
LINE
  5
85DD
330
85C5
100
AcDbEntity
  8
02実線
100
AcDbLine
 10
0.0
 20
-11.0
 30
0.0
 11
1.600000000000364
 21
-11.0
 31
0.0
  0
LINE
  5
85DE
330
85C5
100
AcDbEntity
  8
02実線
100
AcDbLine
 10
0.0
 20
11.0
 30
0.0
 11
1.600000000000364
 21
11.0
 31
0.0
  0
LINE
  5
85DF
330
85C5
100
AcDbEntity
  8
02実線
100
AcDbLine
 10
1.600000000000364
 20
11.0
 30
0.0
 11
1.600000000000364
 21
-11.0
 31
0.0
  0
LINE
  5
85E0
330
85C5
100
AcDbEntity
  8
02実線
100
AcDbLine
 10
0.0
 20
11.0
 30
0.0
 11
0.0
 21
-11.0
 31
0.0
  0
LINE
  5
85E1
330
85C5
100
AcDbEntity
  8
02実線
100
AcDbLine
 10
1.600000000000364
 20
-4.618802153516754
 30
0.0
 11
7.381358327482303
 21
-4.618802153516754
 31
0.0
  0
LINE
  5
85E2
330
85C5
100
AcDbEntity
  8
02実線
100
AcDbLine
 10
1.600000000000364
 20
-9.237604307033962
 30
0.0
 11
7.38103736548328
 21
-9.237604307033962
 31
0.0
  0
LINE
  5
85E3
330
85C5
100
AcDbEntity
  8
02実線
100
AcDbLine
 10
8.000000011152224
 20
6.927925269031675
 30
0.0
 11
8.000000011152224
 21
-6.927925269031675
 31
0.0
  0
LINE
  5
85E4
330
85C5
100
AcDbEntity
  8
02実線
100
AcDbLine
 10
1.600000000000364
 20
4.618802153516754
 30
0.0
 11
7.381358327482303
 21
4.618802153516754
 31
0.0
  0
LINE
  5
85E5
330
85C5
100
AcDbEntity
  8
02実線
100
AcDbLine
 10
1.600000000000364
 20
9.237604307033962
 30
0.0
 11
7.38103736548328
 21
9.237604307033962
 31
0.0
  0
ARC
  5
85E6
330
85C5
100
AcDbEntity
  8
02実線
100
AcDbCircle
 10
-9.551396726892563
 20
0.0
 30
0.0
 40
17.55139672689282
100
AcDbArc
 50
344.7424308899368
 51
15.25756911006317
  0
ARC
  5
85E7
330
85C5
100
AcDbEntity
  8
02実線
100
AcDbCircle
 10
3.381197846481882
 20
-6.927925269031675
 30
0.0
 40
4.618802164669552
100
AcDbArc
 50
329.9960184984644
 51
29.99601849845809
  0
ARC
  5
85E8
330
85C5
100
AcDbEntity
  8
02実線
100
AcDbCircle
 10
3.381197846481882
 20
6.927925269031675
 30
0.0
 40
4.618802164669552
100
AcDbArc
 50
330.0039815015419
 51
30.00398150153562
  0
LINE
  5
85E9
330
85C5
100
AcDbEntity
  8
02実線
100
AcDbLine
 10
1.600000000000364
 20
9.237604307033962
 30
0.0
 11
1.600000000000364
 21
-9.237604307033962
 31
0.0
  0
ENDBLK
  5
85EA
330
85C5
100
AcDbEntity
  8
0
100
AcDbBlockEnd
  0
BLOCK
  5
9929
330
9928
100
AcDbEntity
  8
0
100
AcDbBlockBegin
  2
BH-筋交(柱L60)-500H
 70
     0
 10
0.0
 20
0.0
 30
0.0
  3
BH-筋交(柱L60)-500H
  1

  0
CIRCLE
  5
992B
330
9928
100
AcDbEntity
  8
03破線
100
AcDbCircle
 10
312.2304049160912
 20
250.0243473062876
 30
0.0
 40
6.499999999999988
  0
LINE
  5
992C
330
9928
100
AcDbEntity
  8
03破線
100
AcDbLine
 10
316.5633268549091
 20
268.6110572752962
 30
0.0
 11
-19.0843584298882
 21
-0.1651160789606365
 31
0.0
  0
CIRCLE
  5
992D
330
9928
100
AcDbEntity
  8
03破線
100
AcDbCircle
 10
0.0
 20
0.0
 30
0.0
 40
6.499999999999988
  0
LINE
  5
992E
330
9928
100
AcDbEntity
  8
03破線
100
AcDbLine
 10
-5.458031501695586
 20
-17.18167314688799
 30
0.0
 11
-21.08455320833764
 21
2.332727160368449
 31
0.0
  0
LINE
  5
992F
330
9928
100
AcDbEntity
  8
03破線
100
AcDbLine
 10
314.5631320764578
 20
271.1089005146271
 30
0.0
 11
330.1896537831008
 21
251.5945002073715
 31
0.0
  0
LINE
  5
9930
330
9928
100
AcDbEntity
  8
03破線
100
AcDbLine
 10
330.1896537831008
 20
251.5945002073715
 30
0.0
 11
329.4120780629773
 21
244.5663158045902
 31
0.0
  0
LINE
  5
9931
330
9928
100
AcDbEntity
  8
03破線
100
AcDbLine
 10
1.570152901083929
 20
-17.9592488670105
 30
0.0
 11
-5.458031501695586
 21
-17.18167314688799
 31
0.0
  0
LINE
  5
9932
330
9928
100
AcDbEntity
  8
03破線
100
AcDbLine
 10
329.4120780629773
 20
244.5663158045902
 30
0.0
 11
304.9776628862055
 21
225.0000000000005
 31
0.0
  0
LINE
  5
9933
330
9928
100
AcDbEntity
  8
03破線
100
AcDbLine
 10
-21.08455320833764
 20
2.332727160368449
 30
0.0
 11
30.0
 21
43.23964036371416
 31
0.0
  0
LINE
  5
9934
330
9928
100
AcDbEntity
  8
03破線
100
AcDbLine
 10
256.9823371137927
 20
225.0000000000005
 30
0.0
 11
314.5631320764578
 21
271.1089005146271
 31
0.0
  0
LINE
  5
9935
330
9928
100
AcDbEntity
  8
02実線
100
AcDbLine
 10
304.9776628862055
 20
225.0000000000005
 30
0.0
 11
30.0
 21
4.806483915593844
 31
0.0
  0
LINE
  5
9936
330
9928
100
AcDbEntity
  8
02実線
100
AcDbLine
 10
30.0
 20
43.23964036371416
 30
0.0
 11
256.9823371137927
 21
225.0000000000005
 31
0.0
  0
LINE
  5
9937
330
9928
100
AcDbEntity
  8
03破線
100
AcDbLine
 10
30.0
 20
4.806483915593844
 30
0.0
 11
1.570152901083929
 21
-17.9592488670105
 31
0.0
  0
ENDBLK
  5
992A
330
9928
100
AcDbEntity
  8
0
100
AcDbBlockEnd
  0
BLOCK
  5
BE90
330
BE8F
100
AcDbEntity
  8
0
100
AcDbBlockBegin
  2
*D541
 70
     1
 10
0.0
 20
0.0
 30
0.0
  3
*D541
  1

  0
LINE
  5
BE92
330
BE8F
100
AcDbEntity
  8
08非表示
 62
     0
370
    -2
100
AcDbLine
 10
2250.0
 20
1614.999999999997
 30
0.0
 11
2250.0
 21
1709.999999999997
 31
0.0
  0
LINE
  5
BE93
330
BE8F
100
AcDbEntity
  8
08非表示
 62
     0
370
    -2
100
AcDbLine
 10
2745.0
 20
1614.999999999997
 30
0.0
 11
2745.0
 21
1709.999999999997
 31
0.0
  0
LINE
  5
BE94
330
BE8F
100
AcDbEntity
  8
08非表示
 62
     0
370
    -2
100
AcDbLine
 10
2280.0
 20
1699.999999999997
 30
0.0
 11
2715.0
 21
1699.999999999997
 31
0.0
  0
INSERT
  5
BE95
330
BE8F
100
AcDbEntity
  8
08非表示
 62
     0
370
    -2
100
AcDbBlockReference
  2
_Open
 10
2250.0
 20
1699.999999999997
 30
0.0
 41
30.0
 42
30.0
 43
30.0
 50
180.0
  0
INSERT
  5
BE96
330
BE8F
100
AcDbEntity
  8
08非表示
 62
     0
370
    -2
100
AcDbBlockReference
  2
_Open
 10
2745.0
 20
1699.999999999997
 30
0.0
 41
30.0
 42
30.0
 43
30.0
  0
MTEXT
  5
BE97
330
BE8F
100
AcDbEntity
  8
08非表示
 62
     0
100
AcDbMText
 10
2497.5
 20
1724.999999999997
 30
0.0
 40
30.0
 41
0.0
 71
     5
 72
     1
  1
495
 73
     1
 44
1.0
  0
POINT
  5
BE98
330
BE8F
100
AcDbEntity
  8
Defpoints
 62
     0
100
AcDbPoint
 10
2250.0
 20
1599.999999999997
 30
0.0
  0
POINT
  5
BE99
330
BE8F
100
AcDbEntity
  8
Defpoints
 62
     0
100
AcDbPoint
 10
2745.0
 20
1599.999999999997
 30
0.0
  0
POINT
  5
BE9A
330
BE8F
100
AcDbEntity
  8
Defpoints
 62
     0
100
AcDbPoint
 10
2745.0
 20
1699.999999999997
 30
0.0
  0
ENDBLK
  5
BE91
330
BE8F
100
AcDbEntity
  8
0
100
AcDbBlockEnd
  0
BLOCK
  5
BE9C
330
BE9B
100
AcDbEntity
  8
0
100
AcDbBlockBegin
  2
*D542
 70
     1
 10
0.0
 20
0.0
 30
0.0
  3
*D542
  1

  0
LINE
  5
BE9E
330
BE9B
100
AcDbEntity
  8
13製作用注記
 62
     0
370
    -2
100
AcDbLine
 10
726.7999999999993
 20
1346.499999999997
 30
0.0
 11
726.7999999999993
 21
1399.03712822468
 31
0.0
  0
LINE
  5
BE9F
330
BE9B
100
AcDbEntity
  8
13製作用注記
 62
     0
370
    -2
100
AcDbLine
 10
696.7999999999993
 20
1346.499999999997
 30
0.0
 11
696.7999999999993
 21
1399.03712822468
 31
0.0
  0
LINE
  5
BEA0
330
BE9B
100
AcDbEntity
  8
13製作用注記
 62
     0
370
    -2
100
AcDbLine
 10
666.7999999999993
 20
1389.03712822468
 30
0.0
 11
581.0099999999993
 21
1389.03712822468
 31
0.0
  0
LINE
  5
BEA1
330
BE9B
100
AcDbEntity
  8
13製作用注記
 62
     0
370
    -2
100
AcDbLine
 10
726.7999999999993
 20
1389.03712822468
 30
0.0
 11
696.7999999999993
 21
1389.03712822468
 31
0.0
  0
LINE
  5
BEA2
330
BE9B
100
AcDbEntity
  8
13製作用注記
 62
     0
370
    -2
100
AcDbLine
 10
756.7999999999993
 20
1389.03712822468
 30
0.0
 11
786.7999999999993
 21
1389.03712822468
 31
0.0
  0
INSERT
  5
BEA3
330
BE9B
100
AcDbEntity
  8
13製作用注記
 62
     0
370
    -2
100
AcDbBlockReference
  2
_Open
 10
726.7999999999993
 20
1389.03712822468
 30
0.0
 41
30.0
 42
30.0
 43
30.0
 50
180.0
  0
INSERT
  5
BEA4
330
BE9B
100
AcDbEntity
  8
13製作用注記
 62
     0
370
    -2
100
AcDbBlockReference
  2
_Open
 10
696.7999999999993
 20
1389.03712822468
 30
0.0
 41
30.0
 42
30.0
 43
30.0
  0
MTEXT
  5
BEA5
330
BE9B
100
AcDbEntity
  8
13製作用注記
 62
     0
100
AcDbMText
 10
608.9049999999993
 20
1414.03712822468
 30
0.0
 40
30.0
 41
0.0
 71
     5
 72
     1
  1
30
 73
     1
 44
1.0
  0
POINT
  5
BEA6
330
BE9B
100
AcDbEntity
  8
Defpoints
 62
     0
100
AcDbPoint
 10
726.7999999999993
 20
1331.499999999997
 30
0.0
  0
POINT
  5
BEA7
330
BE9B
100
AcDbEntity
  8
Defpoints
 62
     0
100
AcDbPoint
 10
696.7999999999993
 20
1331.499999999997
 30
0.0
  0
POINT
  5
BEA8
330
BE9B
100
AcDbEntity
  8
Defpoints
 62
     0
100
AcDbPoint
 10
696.7999999999993
 20
1389.03712822468
 30
0.0
  0
ENDBLK
  5
BE9D
330
BE9B
100
AcDbEntity
  8
0
100
AcDbBlockEnd
  0
BLOCK
  5
BEAA
330
BEA9
100
AcDbEntity
  8
0
100
AcDbBlockBegin
  2
*D543
 70
     1
 10
0.0
 20
0.0
 30
0.0
  3
*D543
  1

  0
LINE
  5
BEAC
330
BEA9
100
AcDbEntity
  8
13製作用注記
 62
     0
370
    -2
100
AcDbLine
 10
681.7999999999993
 20
1099.999999999997
 30
0.0
 11
586.7999999999993
 21
1099.999999999997
 31
0.0
  0
LINE
  5
BEAD
330
BEA9
100
AcDbEntity
  8
13製作用注記
 62
     0
370
    -2
100
AcDbLine
 10
695.2999999999993
 20
1314.999999999997
 30
0.0
 11
586.7999999999993
 21
1314.999999999997
 31
0.0
  0
LINE
  5
BEAE
330
BEA9
100
AcDbEntity
  8
13製作用注記
 62
     0
370
    -2
100
AcDbLine
 10
596.7999999999993
 20
1129.999999999997
 30
0.0
 11
596.7999999999993
 21
1284.999999999997
 31
0.0
  0
INSERT
  5
BEAF
330
BEA9
100
AcDbEntity
  8
13製作用注記
 62
     0
370
    -2
100
AcDbBlockReference
  2
_Open
 10
596.7999999999993
 20
1099.999999999997
 30
0.0
 41
30.0
 42
30.0
 43
30.0
 50
270.0
  0
INSERT
  5
BEB0
330
BEA9
100
AcDbEntity
  8
13製作用注記
 62
     0
370
    -2
100
AcDbBlockReference
  2
_Open
 10
596.7999999999993
 20
1314.999999999997
 30
0.0
 41
30.0
 42
30.0
 43
30.0
 50
90.0
  0
MTEXT
  5
BEB1
330
BEA9
100
AcDbEntity
  8
13製作用注記
 62
     0
100
AcDbMText
 10
571.7999999999993
 20
1207.499999999997
 30
0.0
 40
30.0
 41
0.0
 71
     5
 72
     1
  1
215
 11
0.0
 21
1.0
 31
0.0
 73
     1
 44
1.0
  0
POINT
  5
BEB2
330
BEA9
100
AcDbEntity
  8
Defpoints
 62
     0
100
AcDbPoint
 10
696.7999999999993
 20
1099.999999999997
 30
0.0
  0
POINT
  5
BEB3
330
BEA9
100
AcDbEntity
  8
Defpoints
 62
     0
100
AcDbPoint
 10
710.2999999999993
 20
1314.999999999997
 30
0.0
  0
POINT
  5
BEB4
330
BEA9
100
AcDbEntity
  8
Defpoints
 62
     0
100
AcDbPoint
 10
596.7999999999993
 20
1314.999999999997
 30
0.0
  0
ENDBLK
  5
BEAB
330
BEA9
100
AcDbEntity
  8
0
100
AcDbBlockEnd
  0
BLOCK
  5
BEB6
330
BEB5
100
AcDbEntity
  8
0
100
AcDbBlockBegin
  2
*D544
 70
     1
 10
0.0
 20
0.0
 30
0.0
  3
*D544
  1

  0
LINE
  5
BEB8
330
BEB5
100
AcDbEntity
  8
01注記寸法
 62
     0
370
    -2
100
AcDbLine
 10
681.7999999999993
 20
1099.999999999997
 30
0.0
 11
489.9999999999999
 21
1099.999999999997
 31
0.0
  0
LINE
  5
BEB9
330
BEB5
100
AcDbEntity
  8
01注記寸法
 62
     0
370
    -2
100
AcDbLine
 10
685.0
 20
1599.999999999997
 30
0.0
 11
490.0
 21
1599.999999999997
 31
0.0
  0
LINE
  5
BEBA
330
BEB5
100
AcDbEntity
  8
01注記寸法
 62
     0
370
    -2
100
AcDbLine
 10
499.9999999999999
 20
1129.999999999997
 30
0.0
 11
500.0
 21
1569.999999999997
 31
0.0
  0
INSERT
  5
BEBB
330
BEB5
100
AcDbEntity
  8
01注記寸法
 62
     0
370
    -2
100
AcDbBlockReference
  2
_Open
 10
499.9999999999999
 20
1099.999999999997
 30
0.0
 41
30.0
 42
30.0
 43
30.0
 50
270.0
  0
INSERT
  5
BEBC
330
BEB5
100
AcDbEntity
  8
01注記寸法
 62
     0
370
    -2
100
AcDbBlockReference
  2
_Open
 10
500.0
 20
1599.999999999997
 30
0.0
 41
30.0
 42
30.0
 43
30.0
 50
90.0
  0
MTEXT
  5
BEBD
330
BEB5
100
AcDbEntity
  8
01注記寸法
 62
     0
100
AcDbMText
 10
475.0
 20
1349.999999999997
 30
0.0
 40
30.0
 41
0.0
 71
     5
 72
     1
  1
500
 11
1.136868377216160E-16
 21
1.0
 31
0.0
 73
     1
 44
1.0
  0
POINT
  5
BEBE
330
BEB5
100
AcDbEntity
  8
Defpoints
 62
     0
100
AcDbPoint
 10
696.7999999999993
 20
1099.999999999997
 30
0.0
  0
POINT
  5
BEBF
330
BEB5
100
AcDbEntity
  8
Defpoints
 62
     0
100
AcDbPoint
 10
700.0
 20
1599.999999999997
 30
0.0
  0
POINT
  5
BEC0
330
BEB5
100
AcDbEntity
  8
Defpoints
 62
     0
100
AcDbPoint
 10
500.0
 20
1599.999999999997
 30
0.0
  0
ENDBLK
  5
BEB7
330
BEB5
100
AcDbEntity
  8
0
100
AcDbBlockEnd
  0
BLOCK
  5
BEC2
330
BEC1
100
AcDbEntity
  8
0
100
AcDbBlockBegin
  2
*D545
 70
     1
 10
0.0
 20
0.0
 30
0.0
  3
*D545
  1

  0
LINE
  5
BEC4
330
BEC1
100
AcDbEntity
  8
13製作用注記
 62
     0
370
    -2
100
AcDbLine
 10
1070.5
 20
1564.999999999997
 30
0.0
 11
1114.123046468208
 21
1564.999999999997
 31
0.0
  0
LINE
  5
BEC5
330
BEC1
100
AcDbEntity
  8
13製作用注記
 62
     0
370
    -2
100
AcDbLine
 10
1070.5
 20
1599.999999999997
 30
0.0
 11
1114.123046468208
 21
1599.999999999997
 31
0.0
  0
LINE
  5
BEC6
330
BEC1
100
AcDbEntity
  8
13製作用注記
 62
     0
370
    -2
100
AcDbLine
 10
1104.123046468208
 20
1564.999999999997
 30
0.0
 11
1104.123046468208
 21
1449.989999999997
 31
0.0
  0
LINE
  5
BEC7
330
BEC1
100
AcDbEntity
  8
13製作用注記
 62
     0
370
    -2
100
AcDbLine
 10
1104.123046468208
 20
1564.999999999997
 30
0.0
 11
1104.123046468208
 21
1599.999999999997
 31
0.0
  0
LINE
  5
BEC8
330
BEC1
100
AcDbEntity
  8
13製作用注記
 62
     0
370
    -2
100
AcDbLine
 10
1104.123046468208
 20
1534.999999999997
 30
0.0
 11
1104.123046468208
 21
1504.999999999997
 31
0.0
  0
LINE
  5
BEC9
330
BEC1
100
AcDbEntity
  8
13製作用注記
 62
     0
370
    -2
100
AcDbLine
 10
1104.123046468208
 20
1629.999999999997
 30
0.0
 11
1104.123046468208
 21
1659.999999999997
 31
0.0
  0
INSERT
  5
BECA
330
BEC1
100
AcDbEntity
  8
13製作用注記
 62
     0
370
    -2
100
AcDbBlockReference
  2
_Open
 10
1104.123046468208
 20
1564.999999999997
 30
0.0
 41
30.0
 42
30.0
 43
30.0
 50
90.0
  0
INSERT
  5
BECB
330
BEC1
100
AcDbEntity
  8
13製作用注記
 62
     0
370
    -2
100
AcDbBlockReference
  2
_Open
 10
1104.123046468208
 20
1599.999999999997
 30
0.0
 41
30.0
 42
30.0
 43
30.0
 50
270.0
  0
MTEXT
  5
BECC
330
BEC1
100
AcDbEntity
  8
13製作用注記
 62
     0
100
AcDbMText
 10
1079.123046468208
 20
1477.494999999997
 30
0.0
 40
30.0
 41
0.0
 71
     5
 72
     1
  1
35
 11
0.0
 21
1.0
 31
0.0
 73
     1
 44
1.0
  0
POINT
  5
BECD
330
BEC1
100
AcDbEntity
  8
Defpoints
 62
     0
100
AcDbPoint
 10
1055.5
 20
1564.999999999997
 30
0.0
  0
POINT
  5
BECE
330
BEC1
100
AcDbEntity
  8
Defpoints
 62
     0
100
AcDbPoint
 10
1055.5
 20
1599.999999999997
 30
0.0
  0
POINT
  5
BECF
330
BEC1
100
AcDbEntity
  8
Defpoints
 62
     0
100
AcDbPoint
 10
1104.123046468208
 20
1599.999999999997
 30
0.0
  0
ENDBLK
  5
BEC3
330
BEC1
100
AcDbEntity
  8
0
100
AcDbBlockEnd
  0
BLOCK
  5
BEE0
330
BEDF
100
AcDbEntity
  8
0
100
AcDbBlockBegin
  2
*D547
 70
     1
 10
0.0
 20
0.0
 30
0.0
  3
*D547
  1

  0
LINE
  5
BEE2
330
BEDF
100
AcDbEntity
  8
13製作用注記
 62
     0
370
    -2
100
AcDbLine
 10
700.0
 20
1614.999999999997
 30
0.0
 11
700.0
 21
1679.999999999997
 31
0.0
  0
LINE
  5
BEE3
330
BEDF
100
AcDbEntity
  8
13製作用注記
 62
     0
370
    -2
100
AcDbLine
 10
1039.0
 20
1596.499999999997
 30
0.0
 11
1039.0
 21
1679.999999999997
 31
0.0
  0
LINE
  5
BEE4
330
BEDF
100
AcDbEntity
  8
13製作用注記
 62
     0
370
    -2
100
AcDbLine
 10
730.0
 20
1669.999999999997
 30
0.0
 11
1009.0
 21
1669.999999999997
 31
0.0
  0
INSERT
  5
BEE5
330
BEDF
100
AcDbEntity
  8
13製作用注記
 62
     0
370
    -2
100
AcDbBlockReference
  2
_Open
 10
700.0
 20
1669.999999999997
 30
0.0
 41
30.0
 42
30.0
 43
30.0
 50
180.0
  0
INSERT
  5
BEE6
330
BEDF
100
AcDbEntity
  8
13製作用注記
 62
     0
370
    -2
100
AcDbBlockReference
  2
_Open
 10
1039.0
 20
1669.999999999997
 30
0.0
 41
30.0
 42
30.0
 43
30.0
  0
MTEXT
  5
BEE7
330
BEDF
100
AcDbEntity
  8
13製作用注記
 62
     0
100
AcDbMText
 10
869.5
 20
1694.999999999997
 30
0.0
 40
30.0
 41
0.0
 71
     5
 72
     1
  1
339
 73
     1
 44
1.0
  0
POINT
  5
BEE8
330
BEDF
100
AcDbEntity
  8
Defpoints
 62
     0
100
AcDbPoint
 10
700.0
 20
1599.999999999997
 30
0.0
  0
POINT
  5
BEE9
330
BEDF
100
AcDbEntity
  8
Defpoints
 62
     0
100
AcDbPoint
 10
1039.0
 20
1581.499999999997
 30
0.0
  0
POINT
  5
BEEA
330
BEDF
100
AcDbEntity
  8
Defpoints
 62
     0
100
AcDbPoint
 10
1039.0
 20
1669.999999999997
 30
0.0
  0
ENDBLK
  5
BEE1
330
BEDF
100
AcDbEntity
  8
0
100
AcDbBlockEnd
  0
BLOCK
  5
BEEC
330
BEEB
100
AcDbEntity
  8
0
100
AcDbBlockBegin
  2
*D548
 70
     1
 10
0.0
 20
0.0
 30
0.0
  3
*D548
  1

  0
LINE
  5
BEEE
330
BEEB
100
AcDbEntity
  8
13製作用注記
 62
     0
370
    -2
100
AcDbLine
 10
1039.0
 20
1596.499999999997
 30
0.0
 11
1039.0
 21
1679.999999999997
 31
0.0
  0
LINE
  5
BEEF
330
BEEB
100
AcDbEntity
  8
13製作用注記
 62
     0
370
    -2
100
AcDbLine
 10
1511.0
 20
1596.499999999997
 30
0.0
 11
1511.0
 21
1679.999999999997
 31
0.0
  0
LINE
  5
BEF0
330
BEEB
100
AcDbEntity
  8
13製作用注記
 62
     0
370
    -2
100
AcDbLine
 10
1069.0
 20
1669.999999999997
 30
0.0
 11
1481.0
 21
1669.999999999997
 31
0.0
  0
INSERT
  5
BEF1
330
BEEB
100
AcDbEntity
  8
13製作用注記
 62
     0
370
    -2
100
AcDbBlockReference
  2
_Open
 10
1039.0
 20
1669.999999999997
 30
0.0
 41
30.0
 42
30.0
 43
30.0
 50
180.0
  0
INSERT
  5
BEF2
330
BEEB
100
AcDbEntity
  8
13製作用注記
 62
     0
370
    -2
100
AcDbBlockReference
  2
_Open
 10
1511.0
 20
1669.999999999997
 30
0.0
 41
30.0
 42
30.0
 43
30.0
  0
MTEXT
  5
BEF3
330
BEEB
100
AcDbEntity
  8
13製作用注記
 62
     0
100
AcDbMText
 10
1275.0
 20
1694.999999999997
 30
0.0
 40
30.0
 41
0.0
 71
     5
 72
     1
  1
472
 73
     1
 44
1.0
  0
POINT
  5
BEF4
330
BEEB
100
AcDbEntity
  8
Defpoints
 62
     0
100
AcDbPoint
 10
1039.0
 20
1581.499999999997
 30
0.0
  0
POINT
  5
BEF5
330
BEEB
100
AcDbEntity
  8
Defpoints
 62
     0
100
AcDbPoint
 10
1511.0
 20
1581.499999999997
 30
0.0
  0
POINT
  5
BEF6
330
BEEB
100
AcDbEntity
  8
Defpoints
 62
     0
100
AcDbPoint
 10
1511.0
 20
1669.999999999997
 30
0.0
  0
ENDBLK
  5
BEED
330
BEEB
100
AcDbEntity
  8
0
100
AcDbBlockEnd
  0
BLOCK
  5
BF10
330
BF0F
100
AcDbEntity
  8
0
100
AcDbBlockBegin
  2
*D551
 70
     1
 10
0.0
 20
0.0
 30
0.0
  3
*D551
  1

  0
LINE
  5
BF12
330
BF0F
100
AcDbEntity
  8
13製作用注記
 62
     0
370
    -2
100
AcDbLine
 10
1511.0
 20
1596.499999999997
 30
0.0
 11
1511.0
 21
1679.999999999997
 31
0.0
  0
LINE
  5
BF13
330
BF0F
100
AcDbEntity
  8
13製作用注記
 62
     0
370
    -2
100
AcDbLine
 10
1850.0
 20
1614.999999999997
 30
0.0
 11
1850.0
 21
1679.999999999997
 31
0.0
  0
LINE
  5
BF14
330
BF0F
100
AcDbEntity
  8
13製作用注記
 62
     0
370
    -2
100
AcDbLine
 10
1541.0
 20
1669.999999999997
 30
0.0
 11
1820.0
 21
1669.999999999997
 31
0.0
  0
INSERT
  5
BF15
330
BF0F
100
AcDbEntity
  8
13製作用注記
 62
     0
370
    -2
100
AcDbBlockReference
  2
_Open
 10
1511.0
 20
1669.999999999997
 30
0.0
 41
30.0
 42
30.0
 43
30.0
 50
180.0
  0
INSERT
  5
BF16
330
BF0F
100
AcDbEntity
  8
13製作用注記
 62
     0
370
    -2
100
AcDbBlockReference
  2
_Open
 10
1850.0
 20
1669.999999999997
 30
0.0
 41
30.0
 42
30.0
 43
30.0
  0
MTEXT
  5
BF17
330
BF0F
100
AcDbEntity
  8
13製作用注記
 62
     0
100
AcDbMText
 10
1680.5
 20
1694.999999999997
 30
0.0
 40
30.0
 41
0.0
 71
     5
 72
     1
  1
339
 73
     1
 44
1.0
  0
POINT
  5
BF18
330
BF0F
100
AcDbEntity
  8
Defpoints
 62
     0
100
AcDbPoint
 10
1511.0
 20
1581.499999999997
 30
0.0
  0
POINT
  5
BF19
330
BF0F
100
AcDbEntity
  8
Defpoints
 62
     0
100
AcDbPoint
 10
1850.0
 20
1599.999999999997
 30
0.0
  0
POINT
  5
BF1A
330
BF0F
100
AcDbEntity
  8
Defpoints
 62
     0
100
AcDbPoint
 10
1850.0
 20
1669.999999999997
 30
0.0
  0
ENDBLK
  5
BF11
330
BF0F
100
AcDbEntity
  8
0
100
AcDbBlockEnd
  0
BLOCK
  5
BF1C
330
BF1B
100
AcDbEntity
  8
0
100
AcDbBlockBegin
  2
*D552
 70
     1
 10
0.0
 20
0.0
 30
0.0
  3
*D552
  1

  0
LINE
  5
BF1E
330
BF1B
100
AcDbEntity
  8
01注記寸法
 62
     0
370
    -2
100
AcDbLine
 10
2230.299999999999
 20
1100.0
 30
0.0
 11
2138.5
 21
1100.0
 31
0.0
  0
LINE
  5
BF1F
330
BF1B
100
AcDbEntity
  8
01注記寸法
 62
     0
370
    -2
100
AcDbLine
 10
2241.000000000002
 20
1349.999999999997
 30
0.0
 11
2138.5
 21
1349.999999999997
 31
0.0
  0
LINE
  5
BF20
330
BF1B
100
AcDbEntity
  8
01注記寸法
 62
     0
370
    -2
100
AcDbLine
 10
2148.5
 20
1130.0
 30
0.0
 11
2148.5
 21
1319.999999999997
 31
0.0
  0
INSERT
  5
BF21
330
BF1B
100
AcDbEntity
  8
01注記寸法
 62
     0
370
    -2
100
AcDbBlockReference
  2
_Open
 10
2148.5
 20
1100.0
 30
0.0
 41
30.0
 42
30.0
 43
30.0
 50
270.0
  0
INSERT
  5
BF22
330
BF1B
100
AcDbEntity
  8
01注記寸法
 62
     0
370
    -2
100
AcDbBlockReference
  2
_Open
 10
2148.5
 20
1349.999999999997
 30
0.0
 41
30.0
 42
30.0
 43
30.0
 50
90.0
  0
MTEXT
  5
BF23
330
BF1B
100
AcDbEntity
  8
01注記寸法
 62
     0
100
AcDbMText
 10
2123.5
 20
1224.999999999999
 30
0.0
 40
30.0
 41
0.0
 71
     5
 72
     1
  1
250
 11
0.0
 21
1.0
 31
0.0
 73
     1
 44
1.0
  0
POINT
  5
BF24
330
BF1B
100
AcDbEntity
  8
Defpoints
 62
     0
100
AcDbPoint
 10
2245.299999999999
 20
1100.0
 30
0.0
  0
POINT
  5
BF25
330
BF1B
100
AcDbEntity
  8
Defpoints
 62
     0
100
AcDbPoint
 10
2256.000000000002
 20
1349.999999999997
 30
0.0
  0
POINT
  5
BF26
330
BF1B
100
AcDbEntity
  8
Defpoints
 62
     0
100
AcDbPoint
 10
2148.5
 20
1349.999999999997
 30
0.0
  0
ENDBLK
  5
BF1D
330
BF1B
100
AcDbEntity
  8
0
100
AcDbBlockEnd
  0
BLOCK
  5
C04F
330
C04E
100
AcDbEntity
  8
0
100
AcDbBlockBegin
  2
*D560
 70
     1
 10
0.0
 20
0.0
 30
0.0
  3
*D560
  1

  0
LINE
  5
C051
330
C04E
100
AcDbEntity
  8
01注記寸法
 62
     0
370
    -2
100
AcDbLine
 10
700.0
 20
2486.499999999999
 30
0.0
 11
700.0
 21
2779.999999999997
 31
0.0
  0
LINE
  5
C052
330
C04E
100
AcDbEntity
  8
01注記寸法
 62
     0
370
    -2
100
AcDbLine
 10
1850.0
 20
2486.499999999997
 30
0.0
 11
1850.0
 21
2779.999999999997
 31
0.0
  0
LINE
  5
C053
330
C04E
100
AcDbEntity
  8
01注記寸法
 62
     0
370
    -2
100
AcDbLine
 10
730.0
 20
2769.999999999997
 30
0.0
 11
1820.0
 21
2769.999999999997
 31
0.0
  0
INSERT
  5
C054
330
C04E
100
AcDbEntity
  8
01注記寸法
 62
     0
370
    -2
100
AcDbBlockReference
  2
_Open
 10
700.0
 20
2769.999999999997
 30
0.0
 41
30.0
 42
30.0
 43
30.0
 50
180.0
  0
INSERT
  5
C055
330
C04E
100
AcDbEntity
  8
01注記寸法
 62
     0
370
    -2
100
AcDbBlockReference
  2
_Open
 10
1850.0
 20
2769.999999999997
 30
0.0
 41
30.0
 42
30.0
 43
30.0
  0
MTEXT
  5
C056
330
C04E
100
AcDbEntity
  8
01注記寸法
 62
     0
100
AcDbMText
 10
1275.0
 20
2794.999999999997
 30
0.0
 40
30.0
 41
0.0
 71
     5
 72
     1
  1
1150
 73
     1
 44
1.0
  0
POINT
  5
C057
330
C04E
100
AcDbEntity
  8
Defpoints
 62
     0
100
AcDbPoint
 10
700.0
 20
2471.499999999999
 30
0.0
  0
POINT
  5
C058
330
C04E
100
AcDbEntity
  8
Defpoints
 62
     0
100
AcDbPoint
 10
1850.0
 20
2471.499999999997
 30
0.0
  0
POINT
  5
C059
330
C04E
100
AcDbEntity
  8
Defpoints
 62
     0
100
AcDbPoint
 10
1850.0
 20
2769.999999999997
 30
0.0
  0
ENDBLK
  5
C050
330
C04E
100
AcDbEntity
  8
0
100
AcDbBlockEnd
  0
BLOCK
  5
C05B
330
C05A
100
AcDbEntity
  8
0
100
AcDbBlockBegin
  2
*D561
 70
     1
 10
0.0
 20
0.0
 30
0.0
  3
*D561
  1

  0
LINE
  5
C05D
330
C05A
100
AcDbEntity
  8
01注記寸法
 62
     0
370
    -2
100
AcDbLine
 10
685.0
 20
2469.999999999997
 30
0.0
 11
490.0000000000001
 21
2469.999999999997
 31
0.0
  0
LINE
  5
C05E
330
C05A
100
AcDbEntity
  8
01注記寸法
 62
     0
370
    -2
100
AcDbLine
 10
685.0
 20
1974.999999999997
 30
0.0
 11
490.0
 21
1974.999999999997
 31
0.0
  0
LINE
  5
C05F
330
C05A
100
AcDbEntity
  8
01注記寸法
 62
     0
370
    -2
100
AcDbLine
 10
500.0000000000001
 20
2439.999999999997
 30
0.0
 11
500.0
 21
2004.999999999997
 31
0.0
  0
INSERT
  5
C060
330
C05A
100
AcDbEntity
  8
01注記寸法
 62
     0
370
    -2
100
AcDbBlockReference
  2
_Open
 10
500.0000000000001
 20
2469.999999999997
 30
0.0
 41
30.0
 42
30.0
 43
30.0
 50
90.0
  0
INSERT
  5
C061
330
C05A
100
AcDbEntity
  8
01注記寸法
 62
     0
370
    -2
100
AcDbBlockReference
  2
_Open
 10
500.0
 20
1974.999999999997
 30
0.0
 41
30.0
 42
30.0
 43
30.0
 50
270.0
  0
MTEXT
  5
C062
330
C05A
100
AcDbEntity
  8
01注記寸法
 62
     0
100
AcDbMText
 10
475.0
 20
2222.499999999997
 30
0.0
 40
30.0
 41
0.0
 71
     5
 72
     1
  1
495
 11
1.148351896177940E-16
 21
1.0
 31
0.0
 73
     1
 44
1.0
  0
POINT
  5
C063
330
C05A
100
AcDbEntity
  8
Defpoints
 62
     0
100
AcDbPoint
 10
700.0
 20
2469.999999999997
 30
0.0
  0
POINT
  5
C064
330
C05A
100
AcDbEntity
  8
Defpoints
 62
     0
100
AcDbPoint
 10
700.0
 20
1974.999999999997
 30
0.0
  0
POINT
  5
C065
330
C05A
100
AcDbEntity
  8
Defpoints
 62
     0
100
AcDbPoint
 10
500.0
 20
1974.999999999997
 30
0.0
  0
ENDBLK
  5
C05C
330
C05A
100
AcDbEntity
  8
0
100
AcDbBlockEnd
  0
BLOCK
  5
D6F2
330
D6F1
100
AcDbEntity
  8
0
100
AcDbBlockBegin
  2
*D825
 70
     1
 10
0.0
 20
0.0
 30
0.0
  3
*D825
  1

  0
LINE
  5
D6F4
330
D6F1
100
AcDbEntity
  8
01注記寸法
 62
     0
370
    -2
100
AcDbLine
 10
2998.945876303434
 20
239.1336530409826
 30
0.0
 11
2918.353113124998
 21
239.1336530409826
 31
0.0
  0
LINE
  5
D6F5
330
D6F1
100
AcDbEntity
  8
01注記寸法
 62
     0
370
    -2
100
AcDbLine
 10
2998.945876303434
 20
149.1336530409799
 30
0.0
 11
2918.353113124998
 21
149.1336530409799
 31
0.0
  0
LINE
  5
D6F6
330
D6F1
100
AcDbEntity
  8
01注記寸法
 62
     0
370
    -2
100
AcDbLine
 10
2928.353113124998
 20
239.1336530409826
 30
0.0
 11
2928.353113124998
 21
442.5236530409834
 31
0.0
  0
LINE
  5
D6F7
330
D6F1
100
AcDbEntity
  8
01注記寸法
 62
     0
370
    -2
100
AcDbLine
 10
2928.353113124998
 20
209.1336530409826
 30
0.0
 11
2928.353113124998
 21
179.1336530409799
 31
0.0
  0
INSERT
  5
D6F8
330
D6F1
100
AcDbEntity
  8
01注記寸法
 62
     0
370
    -2
100
AcDbBlockReference
  2
_Open
 10
2928.353113124998
 20
239.1336530409826
 30
0.0
 41
30.0
 42
30.0
 43
30.0
 50
90.0
  0
INSERT
  5
D6F9
330
D6F1
100
AcDbEntity
  8
01注記寸法
 62
     0
370
    -2
100
AcDbBlockReference
  2
_Open
 10
2928.353113124998
 20
149.1336530409799
 30
0.0
 41
30.0
 42
30.0
 43
30.0
 50
270.0
  0
MTEXT
  5
D6FA
330
D6F1
100
AcDbEntity
  8
01注記寸法
 62
     0
100
AcDbMText
 10
2903.353113124998
 20
355.8286530409832
 30
0.0
 40
30.0
 41
0.0
 71
     5
 72
     1
  1
MAX 30mm
 11
0.0
 21
1.0
 31
0.0
 73
     1
 44
1.0
  0
POINT
  5
D6FB
330
D6F1
100
AcDbEntity
  8
Defpoints
 62
     0
100
AcDbPoint
 10
3013.945876303434
 20
239.1336530409826
 30
0.0
  0
POINT
  5
D6FC
330
D6F1
100
AcDbEntity
  8
Defpoints
 62
     0
100
AcDbPoint
 10
3013.945876303434
 20
149.1336530409799
 30
0.0
  0
POINT
  5
D6FD
330
D6F1
100
AcDbEntity
  8
Defpoints
 62
     0
100
AcDbPoint
 10
2928.353113124998
 20
149.1336530409799
 30
0.0
  0
ENDBLK
  5
D6F3
330
D6F1
100
AcDbEntity
  8
0
100
AcDbBlockEnd
  0
BLOCK
  5
F6A9
330
F690
100
AcDbEntity
  8
0
100
AcDbBlockBegin
  2
BH-組立ボルトセット
 70
     0
 10
0.0
 20
0.0
 30
0.0
  3
BH-組立ボルトセット
  1

  0
LINE
  5
F691
330
F690
100
AcDbEntity
  8
10副資材
100
AcDbLine
 10
-15.0
 20
9.237604307034417
 30
0.0
 11
-8.0
 21
9.237604307034417
 31
0.0
  0
LINE
  5
F692
330
F690
100
AcDbEntity
  8
10副資材
100
AcDbLine
 10
-8.0
 20
9.237604307034417
 30
0.0
 11
-8.0
 21
-9.237604307034417
 31
0.0
  0
LINE
  5
F693
330
F690
100
AcDbEntity
  8
10副資材
100
AcDbLine
 10
-15.0
 20
-9.237604307034417
 30
0.0
 11
-8.0
 21
-9.237604307034417
 31
0.0
  0
LINE
  5
F694
330
F690
100
AcDbEntity
  8
10副資材
100
AcDbLine
 10
-16.0
 20
6.928203230274448
 30
0.0
 11
-16.0
 21
-6.928203230274448
 31
0.0
  0
LINE
  5
F695
330
F690
100
AcDbEntity
  8
10副資材
100
AcDbLine
 10
-15.0
 20
4.618802153516299
 30
0.0
 11
-8.0
 21
4.618802153516299
 31
0.0
  0
LINE
  5
F696
330
F690
100
AcDbEntity
  8
10副資材
100
AcDbLine
 10
-15.0
 20
-4.618802153516299
 30
0.0
 11
-8.0
 21
-4.618802153516299
 31
0.0
  0
ARC
  5
F697
330
F690
100
AcDbEntity
  8
10副資材
100
AcDbCircle
 10
-4.833333333332121
 20
0.0
 30
0.0
 40
11.16666666666642
100
AcDbArc
 50
155.5673023205475
 51
204.4326976794525
  0
ARC
  5
F698
330
F690
100
AcDbEntity
  8
10副資材
100
AcDbCircle
 10
-12.83333333333212
 20
6.928203230274448
 30
0.0
 40
3.166666666666948
100
AcDbArc
 50
133.173551107244
 51
226.8264488927094
  0
ARC
  5
F699
330
F690
100
AcDbEntity
  8
10副資材
100
AcDbCircle
 10
-12.83333333333212
 20
-6.928203230274448
 30
0.0
 40
3.166666666666948
100
AcDbArc
 50
133.1735511072906
 51
226.826448892756
  0
LWPOLYLINE
  5
F69A
330
F690
100
AcDbEntity
  8
10副資材
100
AcDbPolyline
 90
        4
 70
     1
 43
0.0
 10
-8.0
 20
-14.0
 10
-8.0
 20
14.0
 10
-6.399999999999636
 20
14.0
 10
-6.399999999999636
 20
-14.0
  0
LINE
  5
F69B
330
F690
100
AcDbEntity
  8
10副資材
100
AcDbLine
 10
7.000000000001819
 20
9.237604307034417
 30
0.0
 11
1.600000000000364
 21
9.237604307034417
 31
0.0
  0
LINE
  5
F69C
330
F690
100
AcDbEntity
  8
10副資材
100
AcDbLine
 10
1.600000000000364
 20
9.237604307034417
 30
0.0
 11
1.600000000000364
 21
-9.237604307034417
 31
0.0
  0
LINE
  5
F69D
330
F690
100
AcDbEntity
  8
10副資材
100
AcDbLine
 10
7.000000000001819
 20
-9.237604307034417
 30
0.0
 11
1.600000000000364
 21
-9.237604307034417
 31
0.0
  0
LINE
  5
F69E
330
F690
100
AcDbEntity
  8
10副資材
100
AcDbLine
 10
8.000000000001819
 20
6.928203230274448
 30
0.0
 11
8.000000000001819
 21
-6.928203230274448
 31
0.0
  0
LINE
  5
F69F
330
F690
100
AcDbEntity
  8
10副資材
100
AcDbLine
 10
7.000000000001819
 20
4.618802153516299
 30
0.0
 11
1.600000000000364
 21
4.618802153516299
 31
0.0
  0
LINE
  5
F6A0
330
F690
100
AcDbEntity
  8
10副資材
100
AcDbLine
 10
7.000000000001819
 20
-4.618802153516299
 30
0.0
 11
1.600000000000364
 21
-4.618802153516299
 31
0.0
  0
ARC
  5
F6A1
330
F690
100
AcDbEntity
  8
10副資材
100
AcDbCircle
 10
-3.16666666666606
 20
0.0
 30
0.0
 40
11.16666666666642
100
AcDbArc
 50
335.5673023205475
 51
24.43269767945252
  0
ARC
  5
F6A2
330
F690
100
AcDbEntity
  8
10副資材
100
AcDbCircle
 10
4.83333333333394
 20
6.928203230274448
 30
0.0
 40
3.166666666666948
100
AcDbArc
 50
313.1735511072793
 51
46.82644889276722
  0
ARC
  5
F6A3
330
F690
100
AcDbEntity
  8
10副資材
100
AcDbCircle
 10
4.83333333333394
 20
-6.928203230274448
 30
0.0
 40
3.166666666666948
100
AcDbArc
 50
313.1735511072328
 51
46.8264488927207
  0
LWPOLYLINE
  5
F6A4
330
F690
100
AcDbEntity
  8
10副資材
100
AcDbPolyline
 90
        4
 70
     1
 43
0.0
 10
0.0
 20
-14.0
 10
0.0
 20
14.0
 10
1.600000000000364
 20
14.0
 10
1.600000000000364
 20
-14.0
  0
LWPOLYLINE
  5
F6A5
330
F690
100
AcDbEntity
  8
10副資材
100
AcDbPolyline
 90
        6
 70
     1
 43
0.0
 10
-25.0
 20
-4.0
 10
-25.0
 20
4.0
 10
-24.0
 20
5.0
 10
0.0
 20
5.0
 10
0.0
 20
-5.0
 10
-24.0
 20
-5.0
  0
LINE
  5
F6A6
330
F690
100
AcDbEntity
  8
10副資材
100
AcDbLine
 10
-24.0
 20
5.0
 30
0.0
 11
-24.0
 21
-5.0
 31
0.0
  0
LINE
  5
F6A7
330
F690
100
AcDbEntity
  8
10副資材
100
AcDbLine
 10
-25.0
 20
4.0
 30
0.0
 11
0.0
 21
4.0
 31
0.0
  0
LINE
  5
F6A8
330
F690
100
AcDbEntity
  8
10副資材
100
AcDbLine
 10
-25.0
 20
-4.0
 30
0.0
 11
0.0
 21
-4.0
 31
0.0
  0
ENDBLK
  5
F6AA
330
F690
100
AcDbEntity
  8
0
100
AcDbBlockEnd
  0
BLOCK
  5
F6C0
330
F6BD
100
AcDbEntity
  8
0
100
AcDbBlockBegin
  2
BH-筋交(柱L60)-300H-平面
 70
     0
 10
0.0
 20
0.0
 30
0.0
  3
BH-筋交(柱L60)-300H-平面
  1

  0
LWPOLYLINE
  5
F6BE
330
F6BD
100
AcDbEntity
  8
08非表示
100
AcDbPolyline
 90
        4
 70
     1
 43
0.0
 10
-268.6399935794652
 20
0.0
 10
-268.6399935794652
 20
15.0
 10
0.0
 20
15.0
 10
0.0
 20
0.0
  0
LINE
  5
F6BF
330
F6BD
100
AcDbEntity
  8
08非表示
100
AcDbLine
 10
0.0
 20
3.199999999999818
 30
0.0
 11
-268.6399935794652
 21
3.199999999999818
 31
0.0
  0
ENDBLK
  5
F6C1
330
F6BD
100
AcDbEntity
  8
0
100
AcDbBlockEnd
  0
BLOCK
  5
11DFE
330
11DFD
100
AcDbEntity
  8
0
100
AcDbBlockBegin
  2
*D1708
 70
     1
 10
0.0
 20
0.0
 30
0.0
  3
*D1708
  1

  0
LINE
  5
11E00
330
11DFD
100
AcDbEntity
  8
01注記寸法
 62
     0
370
    -2
100
AcDbLine
 10
760.0
 20
2234.999999999999
 30
0.0
 11
760.0
 21
2229.999999999999
 31
0.0
  0
LINE
  5
11E01
330
11DFD
100
AcDbEntity
  8
01注記寸法
 62
     0
370
    -2
100
AcDbLine
 10
700.0
 20
2234.999999999999
 30
0.0
 11
700.0
 21
2229.999999999999
 31
0.0
  0
LINE
  5
11E02
330
11DFD
100
AcDbEntity
  8
01注記寸法
 62
     0
370
    -2
100
AcDbLine
 10
760.0
 20
2219.999999999999
 30
0.0
 11
700.0
 21
2219.999999999999
 31
0.0
  0
LINE
  5
11E03
330
11DFD
100
AcDbEntity
  8
01注記寸法
 62
     0
370
    -2
100
AcDbLine
 10
790.0
 20
2219.999999999999
 30
0.0
 11
820.0
 21
2219.999999999999
 31
0.0
  0
LINE
  5
11E04
330
11DFD
100
AcDbEntity
  8
01注記寸法
 62
     0
370
    -2
100
AcDbLine
 10
670.0
 20
2219.999999999999
 30
0.0
 11
640.0
 21
2219.999999999999
 31
0.0
  0
INSERT
  5
11E05
330
11DFD
100
AcDbEntity
  8
01注記寸法
 62
     0
370
    -2
100
AcDbBlockReference
  2
_Open
 10
760.0
 20
2219.999999999999
 30
0.0
 41
30.0
 42
30.0
 43
30.0
 50
180.0
  0
INSERT
  5
11E06
330
11DFD
100
AcDbEntity
  8
01注記寸法
 62
     0
370
    -2
100
AcDbBlockReference
  2
_Open
 10
700.0
 20
2219.999999999999
 30
0.0
 41
30.0
 42
30.0
 43
30.0
  0
MTEXT
  5
11E07
330
11DFD
100
AcDbEntity
  8
01注記寸法
 62
     0
100
AcDbMText
 10
730.0
 20
2244.999999999999
 30
0.0
 40
30.0
 41
0.0
 71
     5
 72
     1
  1
60
 73
     1
 44
1.0
  0
POINT
  5
11E08
330
11DFD
100
AcDbEntity
  8
Defpoints
 62
     0
100
AcDbPoint
 10
760.0
 20
2219.999999999999
 30
0.0
  0
POINT
  5
11E09
330
11DFD
100
AcDbEntity
  8
Defpoints
 62
     0
100
AcDbPoint
 10
700.0
 20
2219.999999999999
 30
0.0
  0
POINT
  5
11E0A
330
11DFD
100
AcDbEntity
  8
Defpoints
 62
     0
100
AcDbPoint
 10
700.0
 20
2219.999999999999
 30
0.0
  0
ENDBLK
  5
11DFF
330
11DFD
100
AcDbEntity
  8
0
100
AcDbBlockEnd
  0
BLOCK
  5
11E0D
330
11E0C
100
AcDbEntity
  8
0
100
AcDbBlockBegin
  2
*D1709
 70
     1
 10
0.0
 20
0.0
 30
0.0
  3
*D1709
  1

  0
LINE
  5
11E0F
330
11E0C
100
AcDbEntity
  8
01注記寸法
 62
     0
370
    -2
100
AcDbLine
 10
1002.107061395662
 20
2379.999999999999
 30
0.0
 11
1003.548123866027
 21
2379.999999999999
 31
0.0
  0
LINE
  5
11E10
330
11E0C
100
AcDbEntity
  8
01注記寸法
 62
     0
370
    -2
100
AcDbLine
 10
1002.107061395662
 20
2469.999999999999
 30
0.0
 11
1003.548123866027
 21
2469.999999999999
 31
0.0
  0
LINE
  5
11E11
330
11E0C
100
AcDbEntity
  8
01注記寸法
 62
     0
370
    -2
100
AcDbLine
 10
1013.548123866027
 20
2409.999999999999
 30
0.0
 11
1013.548123866027
 21
2439.999999999999
 31
0.0
  0
INSERT
  5
11E12
330
11E0C
100
AcDbEntity
  8
01注記寸法
 62
     0
370
    -2
100
AcDbBlockReference
  2
_Open
 10
1013.548123866027
 20
2379.999999999999
 30
0.0
 41
30.0
 42
30.0
 43
30.0
 50
270.0
  0
INSERT
  5
11E13
330
11E0C
100
AcDbEntity
  8
01注記寸法
 62
     0
370
    -2
100
AcDbBlockReference
  2
_Open
 10
1013.548123866027
 20
2469.999999999999
 30
0.0
 41
30.0
 42
30.0
 43
30.0
 50
90.0
  0
MTEXT
  5
11E14
330
11E0C
100
AcDbEntity
  8
01注記寸法
 62
     0
100
AcDbMText
 10
988.5481238660268
 20
2424.999999999999
 30
0.0
 40
30.0
 41
0.0
 71
     5
 72
     1
  1
90
 11
0.0
 21
1.0
 31
0.0
 73
     1
 44
1.0
  0
POINT
  5
11E15
330
11E0C
100
AcDbEntity
  8
Defpoints
 62
     0
100
AcDbPoint
 10
1017.107061395662
 20
2379.999999999999
 30
0.0
  0
POINT
  5
11E16
330
11E0C
100
AcDbEntity
  8
Defpoints
 62
     0
100
AcDbPoint
 10
1017.107061395662
 20
2469.999999999999
 30
0.0
  0
POINT
  5
11E17
330
11E0C
100
AcDbEntity
  8
Defpoints
 62
     0
100
AcDbPoint
 10
1013.548123866027
 20
2469.999999999999
 30
0.0
  0
ENDBLK
  5
11E0E
330
11E0C
100
AcDbEntity
  8
0
100
AcDbBlockEnd
  0
BLOCK
  5
11E66
330
11E63
100
AcDbEntity
  8
0
100
AcDbBlockBegin
  2
シール(検査済)
 70
     0
 10
0.0
 20
0.0
 30
0.0
  3
シール(検査済)
  1

  0
LWPOLYLINE
  5
11E64
330
11E63
100
AcDbEntity
  8
07その他
100
AcDbPolyline
 90
        4
 70
     1
 43
0.0
 10
0.0
 20
0.0
 10
0.0
 20
25.0
 10
75.0
 20
25.0
 10
75.0
 20
0.0
  0
TEXT
  5
11E65
330
11E63
100
AcDbEntity
  8
08非表示
100
AcDbText
 10
8.25
 20
5.0
 30
0.0
 40
15.0
  1
検査済
 72
     1
 11
37.5
 21
12.5
 31
0.0
100
AcDbText
 73
     2
  0
ENDBLK
  5
11E67
330
11E63
100
AcDbEntity
  8
0
100
AcDbBlockEnd
  0
BLOCK
  5
11E6C
330
11E69
100
AcDbEntity
  8
0
100
AcDbBlockBegin
  2
シール(型式)
 70
     0
 10
0.0
 20
0.0
 30
0.0
  3
シール(型式)
  1

  0
LWPOLYLINE
  5
11E6A
330
11E69
100
AcDbEntity
  8
07その他
100
AcDbPolyline
 90
        4
 70
     1
 43
0.0
 10
0.0
 20
0.0
 10
0.0
 20
24.0
 10
94.0
 20
24.0
 10
94.0
 20
0.0
  0
TEXT
  5
11E6B
330
11E69
100
AcDbEntity
  8
08非表示
100
AcDbText
 10
27.5
 20
5.0
 30
0.0
 40
15.0
  1
型式
 72
     1
 11
47.0
 21
12.5
 31
0.0
100
AcDbText
 73
     2
  0
ENDBLK
  5
11E6D
330
11E69
100
AcDbEntity
  8
0
100
AcDbBlockEnd
  0
BLOCK
  5
1209B
330
1209A
100
AcDbEntity
  8
0
100
AcDbBlockBegin
  2
ECOV-EN45~67WB
 70
     0
 10
0.0
 20
0.0
 30
0.0
  3
ECOV-EN45~67WB
  1

  0
LWPOLYLINE
  5
1209C
330
1209A
100
AcDbEntity
  8
11機器
100
AcDbPolyline
 90
        4
 70
     1
 43
0.0
 10
0.0
 20
0.0
 10
0.0
 20
476.0000000000005
 10
1150.0
 20
476.0000000000005
 10
1150.0
 20
0.0
  0
LWPOLYLINE
  5
1209D
330
1209A
100
AcDbEntity
  8
11機器
100
AcDbPolyline
 90
        4
 70
     1
 43
0.0
 10
0.0
 20
0.0
 10
0.0
 20
72.0
 10
1150.0
 20
72.0
 10
1150.0
 20
0.0
  0
LWPOLYLINE
  5
1209E
330
1209A
100
AcDbEntity
  8
11機器
100
AcDbPolyline
 90
        4
 70
     1
 43
0.0
 10
0.0
 20
476.0000000000005
 10
0.0
 20
404.0000000000005
 10
1150.0
 20
404.0000000000005
 10
1150.0
 20
476.0000000000005
  0
LWPOLYLINE
  5
1209F
330
1209A
100
AcDbEntity
  8
11機器
100
AcDbPolyline
 90
        8
 70
     1
 43
0.0
 10
142.5
 20
11.5
 10
142.5
 20
18.5
 42
-0.414213562373095
 10
150.0
 20
26.0
 10
150.0
 20
26.0
 42
-0.414213562373095
 10
157.5
 20
18.5
 10
157.5
 20
11.5
 42
-0.414213562373095
 10
150.0
 20
4.0
 10
150.0
 20
4.0
 42
-0.414213562373095
  0
CIRCLE
  5
120A0
330
1209A
100
AcDbEntity
  8
11機器
100
AcDbCircle
 10
150.0
 20
15.0
 30
0.0
 40
7.5
  0
LWPOLYLINE
  5
120A1
330
1209A
100
AcDbEntity
  8
11機器
100
AcDbPolyline
 90
        8
 70
     1
 43
0.0
 10
202.5
 20
11.5
 10
202.5
 20
18.5
 42
-0.414213562373095
 10
210.0
 20
26.0
 10
210.0
 20
26.0
 42
-0.414213562373095
 10
217.5
 20
18.5
 10
217.5
 20
11.5
 42
-0.414213562373095
 10
210.0
 20
4.0
 10
210.0
 20
4.0
 42
-0.414213562373095
  0
CIRCLE
  5
120A2
330
1209A
100
AcDbEntity
  8
11機器
100
AcDbCircle
 10
210.0
 20
15.0
 30
0.0
 40
7.5
  0
LWPOLYLINE
  5
120A3
330
1209A
100
AcDbEntity
  8
11機器
100
AcDbPolyline
 90
        8
 70
     1
 43
0.0
 10
142.5
 20
49.49999999999955
 10
142.5
 20
56.49999999999955
 42
-0.414213562373095
 10
150.0
 20
63.99999999999955
 10
150.0
 20
63.99999999999955
 42
-0.414213562373095
 10
157.5
 20
56.49999999999955
 10
157.5
 20
49.49999999999955
 42
-0.414213562373095
 10
150.0
 20
41.99999999999955
 10
150.0
 20
41.99999999999955
 42
-0.414213562373095
  0
CIRCLE
  5
120A4
330
1209A
100
AcDbEntity
  8
11機器
100
AcDbCircle
 10
150.0
 20
52.99999999999955
 30
0.0
 40
7.5
  0
LWPOLYLINE
  5
120A5
330
1209A
100
AcDbEntity
  8
11機器
100
AcDbPolyline
 90
        8
 70
     1
 43
0.0
 10
202.5
 20
49.49999999999955
 10
202.5
 20
56.49999999999955
 42
-0.414213562373095
 10
210.0
 20
63.99999999999955
 10
210.0
 20
63.99999999999955
 42
-0.414213562373095
 10
217.5
 20
56.49999999999955
 10
217.5
 20
49.49999999999955
 42
-0.414213562373095
 10
210.0
 20
41.99999999999955
 10
210.0
 20
41.99999999999955
 42
-0.414213562373095
  0
CIRCLE
  5
120A6
330
1209A
100
AcDbEntity
  8
11機器
100
AcDbCircle
 10
210.0
 20
52.99999999999955
 30
0.0
 40
7.5
  0
LWPOLYLINE
  5
120A7
330
1209A
100
AcDbEntity
  8
11機器
100
AcDbPolyline
 90
        8
 70
     1
 43
0.0
 10
142.5
 20
419.4999999999995
 10
142.5
 20
426.4999999999995
 42
-0.414213562373095
 10
150.0
 20
433.9999999999995
 10
150.0
 20
433.9999999999995
 42
-0.414213562373095
 10
157.5
 20
426.4999999999995
 10
157.5
 20
419.4999999999995
 42
-0.414213562373095
 10
150.0
 20
411.9999999999995
 10
150.0
 20
411.9999999999995
 42
-0.414213562373095
  0
CIRCLE
  5
120A8
330
1209A
100
AcDbEntity
  8
11機器
100
AcDbCircle
 10
150.0
 20
422.9999999999995
 30
0.0
 40
7.5
  0
LWPOLYLINE
  5
120A9
330
1209A
100
AcDbEntity
  8
11機器
100
AcDbPolyline
 90
        8
 70
     1
 43
0.0
 10
202.5
 20
419.4999999999995
 10
202.5
 20
426.4999999999995
 42
-0.414213562373095
 10
210.0
 20
433.9999999999995
 10
210.0
 20
433.9999999999995
 42
-0.414213562373095
 10
217.5
 20
426.4999999999995
 10
217.5
 20
419.4999999999995
 42
-0.414213562373095
 10
210.0
 20
411.9999999999995
 10
210.0
 20
411.9999999999995
 42
-0.414213562373095
  0
CIRCLE
  5
120AA
330
1209A
100
AcDbEntity
  8
11機器
100
AcDbCircle
 10
210.0
 20
422.9999999999995
 30
0.0
 40
7.5
  0
LWPOLYLINE
  5
120AB
330
1209A
100
AcDbEntity
  8
11機器
100
AcDbPolyline
 90
        8
 70
     1
 43
0.0
 10
142.5
 20
458.4999999999995
 10
142.5
 20
465.4999999999995
 42
-0.414213562373095
 10
150.0
 20
472.9999999999995
 10
150.0
 20
472.9999999999995
 42
-0.414213562373095
 10
157.5
 20
465.4999999999995
 10
157.5
 20
458.4999999999995
 42
-0.414213562373095
 10
150.0
 20
450.9999999999995
 10
150.0
 20
450.9999999999995
 42
-0.414213562373095
  0
CIRCLE
  5
120AC
330
1209A
100
AcDbEntity
  8
11機器
100
AcDbCircle
 10
150.0
 20
461.9999999999995
 30
0.0
 40
7.5
  0
LWPOLYLINE
  5
120AD
330
1209A
100
AcDbEntity
  8
11機器
100
AcDbPolyline
 90
        8
 70
     1
 43
0.0
 10
202.5
 20
458.4999999999995
 10
202.5
 20
465.4999999999995
 42
-0.414213562373095
 10
210.0
 20
472.9999999999995
 10
210.0
 20
472.9999999999995
 42
-0.414213562373095
 10
217.5
 20
465.4999999999995
 10
217.5
 20
458.4999999999995
 42
-0.414213562373095
 10
210.0
 20
450.9999999999995
 10
210.0
 20
450.9999999999995
 42
-0.414213562373095
  0
CIRCLE
  5
120AE
330
1209A
100
AcDbEntity
  8
11機器
100
AcDbCircle
 10
210.0
 20
461.9999999999995
 30
0.0
 40
7.5
  0
LWPOLYLINE
  5
120AF
330
1209A
100
AcDbEntity
  8
11機器
100
AcDbPolyline
 90
        8
 70
     1
 43
0.0
 10
932.5
 20
11.5
 10
932.5
 20
18.5
 42
-0.414213562373095
 10
940.0
 20
26.0
 10
940.0
 20
26.0
 42
-0.414213562373095
 10
947.5
 20
18.5
 10
947.5
 20
11.5
 42
-0.414213562373095
 10
940.0
 20
4.0
 10
940.0
 20
4.0
 42
-0.414213562373095
  0
CIRCLE
  5
120B0
330
1209A
100
AcDbEntity
  8
11機器
100
AcDbCircle
 10
940.0
 20
15.0
 30
0.0
 40
7.5
  0
LWPOLYLINE
  5
120B1
330
1209A
100
AcDbEntity
  8
11機器
100
AcDbPolyline
 90
        8
 70
     1
 43
0.0
 10
932.5
 20
49.49999999999955
 10
932.5
 20
56.49999999999955
 42
-0.414213562373095
 10
940.0
 20
63.99999999999955
 10
940.0
 20
63.99999999999955
 42
-0.414213562373095
 10
947.5
 20
56.49999999999955
 10
947.5
 20
49.49999999999955
 42
-0.414213562373095
 10
940.0
 20
41.99999999999955
 10
940.0
 20
41.99999999999955
 42
-0.414213562373095
  0
CIRCLE
  5
120B2
330
1209A
100
AcDbEntity
  8
11機器
100
AcDbCircle
 10
940.0
 20
52.99999999999955
 30
0.0
 40
7.5
  0
LWPOLYLINE
  5
120B3
330
1209A
100
AcDbEntity
  8
11機器
100
AcDbPolyline
 90
        8
 70
     1
 43
0.0
 10
932.5
 20
419.4999999999995
 10
932.5
 20
426.4999999999995
 42
-0.414213562373095
 10
940.0
 20
433.9999999999995
 10
940.0
 20
433.9999999999995
 42
-0.414213562373095
 10
947.5
 20
426.4999999999995
 10
947.5
 20
419.4999999999995
 42
-0.414213562373095
 10
940.0
 20
411.9999999999995
 10
940.0
 20
411.9999999999995
 42
-0.414213562373095
  0
CIRCLE
  5
120B4
330
1209A
100
AcDbEntity
  8
11機器
100
AcDbCircle
 10
940.0
 20
422.9999999999995
 30
0.0
 40
7.5
  0
LWPOLYLINE
  5
120B5
330
1209A
100
AcDbEntity
  8
11機器
100
AcDbPolyline
 90
        8
 70
     1
 43
0.0
 10
932.5
 20
458.4999999999995
 10
932.5
 20
465.4999999999995
 42
-0.414213562373095
 10
940.0
 20
472.9999999999995
 10
940.0
 20
472.9999999999995
 42
-0.414213562373095
 10
947.5
 20
465.4999999999995
 10
947.5
 20
458.4999999999995
 42
-0.414213562373095
 10
940.0
 20
450.9999999999995
 10
940.0
 20
450.9999999999995
 42
-0.414213562373095
  0
CIRCLE
  5
120B6
330
1209A
100
AcDbEntity
  8
11機器
100
AcDbCircle
 10
940.0
 20
461.9999999999995
 30
0.0
 40
7.5
  0
LWPOLYLINE
  5
120B7
330
1209A
100
AcDbEntity
  8
11機器
100
AcDbPolyline
 90
        8
 70
     1
 43
0.0
 10
992.5
 20
11.5
 10
992.5
 20
18.5
 42
-0.414213562373095
 10
1000.0
 20
26.0
 10
1000.0
 20
26.0
 42
-0.414213562373095
 10
1007.5
 20
18.5
 10
1007.5
 20
11.5
 42
-0.414213562373095
 10
1000.0
 20
4.0
 10
1000.0
 20
4.0
 42
-0.414213562373095
  0
CIRCLE
  5
120B8
330
1209A
100
AcDbEntity
  8
11機器
100
AcDbCircle
 10
1000.0
 20
15.0
 30
0.0
 40
7.5
  0
LWPOLYLINE
  5
120B9
330
1209A
100
AcDbEntity
  8
11機器
100
AcDbPolyline
 90
        8
 70
     1
 43
0.0
 10
992.5
 20
49.49999999999955
 10
992.5
 20
56.49999999999955
 42
-0.414213562373095
 10
1000.0
 20
63.99999999999955
 10
1000.0
 20
63.99999999999955
 42
-0.414213562373095
 10
1007.5
 20
56.49999999999955
 10
1007.5
 20
49.49999999999955
 42
-0.414213562373095
 10
1000.0
 20
41.99999999999955
 10
1000.0
 20
41.99999999999955
 42
-0.414213562373095
  0
CIRCLE
  5
120BA
330
1209A
100
AcDbEntity
  8
11機器
100
AcDbCircle
 10
1000.0
 20
52.99999999999955
 30
0.0
 40
7.5
  0
LWPOLYLINE
  5
120BB
330
1209A
100
AcDbEntity
  8
11機器
100
AcDbPolyline
 90
        8
 70
     1
 43
0.0
 10
992.5
 20
419.4999999999995
 10
992.5
 20
426.4999999999995
 42
-0.414213562373095
 10
1000.0
 20
433.9999999999995
 10
1000.0
 20
433.9999999999995
 42
-0.414213562373095
 10
1007.5
 20
426.4999999999995
 10
1007.5
 20
419.4999999999995
 42
-0.414213562373095
 10
1000.0
 20
411.9999999999995
 10
1000.0
 20
411.9999999999995
 42
-0.414213562373095
  0
CIRCLE
  5
120BC
330
1209A
100
AcDbEntity
  8
11機器
100
AcDbCircle
 10
1000.0
 20
422.9999999999995
 30
0.0
 40
7.5
  0
LWPOLYLINE
  5
120BD
330
1209A
100
AcDbEntity
  8
11機器
100
AcDbPolyline
 90
        8
 70
     1
 43
0.0
 10
992.5
 20
458.4999999999995
 10
992.5
 20
465.4999999999995
 42
-0.414213562373095
 10
1000.0
 20
472.9999999999995
 10
1000.0
 20
472.9999999999995
 42
-0.414213562373095
 10
1007.5
 20
465.4999999999995
 10
1007.5
 20
458.4999999999995
 42
-0.414213562373095
 10
1000.0
 20
450.9999999999995
 10
1000.0
 20
450.9999999999995
 42
-0.414213562373095
  0
CIRCLE
  5
120BE
330
1209A
100
AcDbEntity
  8
11機器
100
AcDbCircle
 10
1000.0
 20
461.9999999999995
 30
0.0
 40
7.5
  0
CIRCLE
  5
120BF
330
1209A
100
AcDbEntity
  8
11機器
100
AcDbCircle
 10
665.0
 20
226.0
 30
0.0
 40
30.0
  0
CIRCLE
  5
120C0
330
1209A
100
AcDbEntity
  8
11機器
100
AcDbCircle
 10
677.0
 20
224.0
 30
0.0
 40
30.0
  0
CIRCLE
  5
120C1
330
1209A
100
AcDbEntity
  8
11機器
100
AcDbCircle
 10
670.0
 20
224.0
 30
0.0
 40
30.0
  0
DIMENSION
  5
120C2
330
1209A
100
AcDbEntity
  8
11機器
100
AcDbDimension
  2
*D1718
 10
569.1125925067136
 20
52.99999999999952
 30
0.0
 11
556.6125925067136
 21
139.4999999999998
 31
0.0
 70
    32
 71
     5
 42
173.0000000000005
  3
NEMY-5
100
AcDbAlignedDimension
 13
635.0
 23
226.0
 33
0.0
 14
210.0
 24
52.99999999999955
 34
0.0
 50
90.0
100
AcDbRotatedDimension
  0
DIMENSION
  5
120CF
330
1209A
100
AcDbEntity
  8
11機器
100
AcDbDimension
  2
*D1719
 10
804.3990187133531
 20
52.99999999999955
 30
0.0
 11
791.8990187133531
 21
138.4999999999998
 31
0.0
 70
    32
 71
     5
 42
171.0000000000004
  3
NEMY-5
100
AcDbAlignedDimension
 13
707.0
 23
224.0
 33
0.0
 14
940.0
 24
52.99999999999955
 34
0.0
 50
90.0
100
AcDbRotatedDimension
  0
DIMENSION
  5
120DC
330
1209A
100
AcDbEntity
  8
11機器
100
AcDbDimension
  2
*D1720
 10
0.0
 20
293.6514910682577
 30
0.0
 11
332.5
 21
306.1514910682577
 31
0.0
 70
    32
 71
     5
 42
665.0
  3
NEMY-5
100
AcDbAlignedDimension
 13
665.0
 23
256.0
 33
0.0
 14
0.0
 24
256.0
 34
0.0
100
AcDbRotatedDimension
  0
DIMENSION
  5
120E9
330
1209A
100
AcDbEntity
  8
11機器
100
AcDbDimension
  2
*D1721
 10
0.0
 20
348.5399466680374
 30
0.0
 11
338.5
 21
348.5399466680374
 31
0.0
 70
   160
 71
     5
 42
677.0
  3
NEMY-5
100
AcDbAlignedDimension
 13
677.0
 23
254.0
 33
0.0
 14
0.0
 24
256.0
 34
0.0
100
AcDbRotatedDimension
  0
DIMENSION
  5
120F6
330
1209A
100
AcDbEntity
  8
11機器
100
AcDbDimension
  2
*D1722
 10
0.0
 20
321.5730210283077
 30
0.0
 11
335.0
 21
321.5730210283077
 31
0.0
 70
   160
 71
     5
 42
670.0
  3
NEMY-5
100
AcDbAlignedDimension
 13
670.0
 23
254.0
 33
0.0
 14
0.0
 24
256.0
 34
0.0
100
AcDbRotatedDimension
  0
LWPOLYLINE
  5
12103
102
{ACAD_REACTORS
330
12104
102
}
330
1209A
100
AcDbEntity
  8
11機器
100
AcDbPolyline
 90
        4
 70
     1
 43
0.0
 10
1042.0
 20
85.0
 10
1042.0
 20
165.0
 10
1132.0
 20
165.0
 10
1132.0
 20
85.0
  0
HATCH
  5
12104
330
1209A
100
AcDbEntity
  8
11機器
100
AcDbHatch
 10
0.0
 20
0.0
 30
0.0
210
0.0
220
0.0
230
1.0
  2
ANSI31
 70
     0
 71
     1
 91
        1
 92
        1
 93
        4
 72
     1
 10
1042.0
 20
85.0
 11
1042.0
 21
165.0
 72
     1
 10
1042.0
 20
165.0
 11
1132.0
 21
165.0
 72
     1
 10
1132.0
 20
165.0
 11
1132.0
 21
85.0
 72
     1
 10
1132.0
 20
85.0
 11
1042.0
 21
85.0
 97
        1
330
12103
 75
     0
 76
     1
 52
0.0
 41
5.0
 77
     0
 78
     1
 53
45.0
 43
10382.76075826087
 44
-3734.696859644615
 45
-11.22532015133644
 46
11.22532015133644
 79
     0
 98
        1
 10
10382.76075826087
 20
-3734.696859644615
1001
ACAD
1010
0.0
1020
0.0
1030
0.0
  0
ENDBLK
  5
12105
330
1209A
100
AcDbEntity
  8
0
100
AcDbBlockEnd
  0
BLOCK
  5
120C4
330
120C3
100
AcDbEntity
  8
0
100
AcDbBlockBegin
  2
*D1718
 70
     1
 10
0.0
 20
0.0
 30
0.0
  3
*D1718
  1

  0
LINE
  5
120C5
330
120C3
100
AcDbEntity
  8
11機器
 62
     0
370
    -2
100
AcDbLine
 10
627.5
 20
226.0
 30
0.0
 11
564.1125925067136
 21
226.0
 31
0.0
  0
LINE
  5
120C6
330
120C3
100
AcDbEntity
  8
11機器
 62
     0
370
    -2
100
AcDbLine
 10
217.5
 20
52.99999999999955
 30
0.0
 11
574.1125925067136
 21
52.99999999999952
 31
0.0
  0
LINE
  5
120C7
330
120C3
100
AcDbEntity
  8
11機器
 62
     0
370
    -2
100
AcDbLine
 10
569.1125925067136
 20
211.0
 30
0.0
 11
569.1125925067136
 21
67.99999999999952
 31
0.0
  0
INSERT
  5
120C8
330
120C3
100
AcDbEntity
  8
11機器
 62
     0
370
    -2
100
AcDbBlockReference
  2
_Open
 10
569.1125925067136
 20
226.0
 30
0.0
 41
15.0
 42
15.0
 43
15.0
 50
90.0
  0
INSERT
  5
120C9
330
120C3
100
AcDbEntity
  8
11機器
 62
     0
370
    -2
100
AcDbBlockReference
  2
_Open
 10
569.1125925067136
 20
52.99999999999952
 30
0.0
 41
15.0
 42
15.0
 43
15.0
 50
270.0
  0
MTEXT
  5
120CA
330
120C3
100
AcDbEntity
  8
11機器
 62
     0
100
AcDbMText
 10
556.6125925067136
 20
139.4999999999998
 30
0.0
 40
15.0
 41
0.0
 71
     5
 72
     1
  1
173
 11
0.0
 21
1.0
 31
0.0
 73
     1
 44
1.0
  0
POINT
  5
120CB
330
120C3
100
AcDbEntity
  8
Defpoints
 62
     0
100
AcDbPoint
 10
635.0
 20
226.0
 30
0.0
  0
POINT
  5
120CC
330
120C3
100
AcDbEntity
  8
Defpoints
 62
     0
100
AcDbPoint
 10
210.0
 20
52.99999999999955
 30
0.0
  0
POINT
  5
120CD
330
120C3
100
AcDbEntity
  8
Defpoints
 62
     0
100
AcDbPoint
 10
569.1125925067136
 20
52.99999999999952
 30
0.0
  0
ENDBLK
  5
120CE
330
120C3
100
AcDbEntity
  8
0
100
AcDbBlockEnd
  0
BLOCK
  5
120D1
330
120D0
100
AcDbEntity
  8
0
100
AcDbBlockBegin
  2
*D1719
 70
     1
 10
0.0
 20
0.0
 30
0.0
  3
*D1719
  1

  0
LINE
  5
120D2
330
120D0
100
AcDbEntity
  8
11機器
 62
     0
370
    -2
100
AcDbLine
 10
714.5
 20
224.0
 30
0.0
 11
809.3990187133531
 21
224.0
 31
0.0
  0
LINE
  5
120D3
330
120D0
100
AcDbEntity
  8
11機器
 62
     0
370
    -2
100
AcDbLine
 10
932.5
 20
52.99999999999955
 30
0.0
 11
799.3990187133531
 21
52.99999999999955
 31
0.0
  0
LINE
  5
120D4
330
120D0
100
AcDbEntity
  8
11機器
 62
     0
370
    -2
100
AcDbLine
 10
804.3990187133531
 20
209.0
 30
0.0
 11
804.3990187133531
 21
67.99999999999955
 31
0.0
  0
INSERT
  5
120D5
330
120D0
100
AcDbEntity
  8
11機器
 62
     0
370
    -2
100
AcDbBlockReference
  2
_Open
 10
804.3990187133531
 20
224.0
 30
0.0
 41
15.0
 42
15.0
 43
15.0
 50
90.0
  0
INSERT
  5
120D6
330
120D0
100
AcDbEntity
  8
11機器
 62
     0
370
    -2
100
AcDbBlockReference
  2
_Open
 10
804.3990187133531
 20
52.99999999999955
 30
0.0
 41
15.0
 42
15.0
 43
15.0
 50
270.0
  0
MTEXT
  5
120D7
330
120D0
100
AcDbEntity
  8
11機器
 62
     0
100
AcDbMText
 10
791.8990187133531
 20
138.4999999999998
 30
0.0
 40
15.0
 41
0.0
 71
     5
 72
     1
  1
171
 11
0.0
 21
1.0
 31
0.0
 73
     1
 44
1.0
  0
POINT
  5
120D8
330
120D0
100
AcDbEntity
  8
Defpoints
 62
     0
100
AcDbPoint
 10
707.0
 20
224.0
 30
0.0
  0
POINT
  5
120D9
330
120D0
100
AcDbEntity
  8
Defpoints
 62
     0
100
AcDbPoint
 10
940.0
 20
52.99999999999955
 30
0.0
  0
POINT
  5
120DA
330
120D0
100
AcDbEntity
  8
Defpoints
 62
     0
100
AcDbPoint
 10
804.3990187133531
 20
52.99999999999955
 30
0.0
  0
ENDBLK
  5
120DB
330
120D0
100
AcDbEntity
  8
0
100
AcDbBlockEnd
  0
BLOCK
  5
120DE
330
120DD
100
AcDbEntity
  8
0
100
AcDbBlockBegin
  2
*D1720
 70
     1
 10
0.0
 20
0.0
 30
0.0
  3
*D1720
  1

  0
LINE
  5
120DF
330
120DD
100
AcDbEntity
  8
11機器
 62
     0
370
    -2
100
AcDbLine
 10
665.0
 20
263.5
 30
0.0
 11
665.0
 21
298.6514910682577
 31
0.0
  0
LINE
  5
120E0
330
120DD
100
AcDbEntity
  8
11機器
 62
     0
370
    -2
100
AcDbLine
 10
0.0
 20
263.5
 30
0.0
 11
0.0
 21
298.6514910682577
 31
0.0
  0
LINE
  5
120E1
330
120DD
100
AcDbEntity
  8
11機器
 62
     0
370
    -2
100
AcDbLine
 10
650.0
 20
293.6514910682577
 30
0.0
 11
15.0
 21
293.6514910682577
 31
0.0
  0
INSERT
  5
120E2
330
120DD
100
AcDbEntity
  8
11機器
 62
     0
370
    -2
100
AcDbBlockReference
  2
_Open
 10
665.0
 20
293.6514910682577
 30
0.0
 41
15.0
 42
15.0
 43
15.0
  0
INSERT
  5
120E3
330
120DD
100
AcDbEntity
  8
11機器
 62
     0
370
    -2
100
AcDbBlockReference
  2
_Open
 10
0.0
 20
293.6514910682577
 30
0.0
 41
15.0
 42
15.0
 43
15.0
 50
180.0
  0
MTEXT
  5
120E4
330
120DD
100
AcDbEntity
  8
11機器
 62
     0
100
AcDbMText
 10
332.5
 20
306.1514910682577
 30
0.0
 40
15.0
 41
0.0
 71
     5
 72
     1
  1
665
 73
     1
 44
1.0
  0
POINT
  5
120E5
330
120DD
100
AcDbEntity
  8
Defpoints
 62
     0
100
AcDbPoint
 10
665.0
 20
256.0
 30
0.0
  0
POINT
  5
120E6
330
120DD
100
AcDbEntity
  8
Defpoints
 62
     0
100
AcDbPoint
 10
0.0
 20
256.0
 30
0.0
  0
POINT
  5
120E7
330
120DD
100
AcDbEntity
  8
Defpoints
 62
     0
100
AcDbPoint
 10
0.0
 20
293.6514910682577
 30
0.0
  0
ENDBLK
  5
120E8
330
120DD
100
AcDbEntity
  8
0
100
AcDbBlockEnd
  0
BLOCK
  5
120EB
330
120EA
100
AcDbEntity
  8
0
100
AcDbBlockBegin
  2
*D1721
 70
     1
 10
0.0
 20
0.0
 30
0.0
  3
*D1721
  1

  0
LINE
  5
120EC
330
120EA
100
AcDbEntity
  8
11機器
 62
     0
370
    -2
100
AcDbLine
 10
677.0
 20
261.5
 30
0.0
 11
677.0
 21
353.5399466680374
 31
0.0
  0
LINE
  5
120ED
330
120EA
100
AcDbEntity
  8
11機器
 62
     0
370
    -2
100
AcDbLine
 10
0.0
 20
263.5
 30
0.0
 11
0.0
 21
353.5399466680374
 31
0.0
  0
LINE
  5
120EE
330
120EA
100
AcDbEntity
  8
11機器
 62
     0
370
    -2
100
AcDbLine
 10
662.0
 20
348.5399466680374
 30
0.0
 11
15.0
 21
348.5399466680374
 31
0.0
  0
INSERT
  5
120EF
330
120EA
100
AcDbEntity
  8
11機器
 62
     0
370
    -2
100
AcDbBlockReference
  2
_Open
 10
677.0
 20
348.5399466680374
 30
0.0
 41
15.0
 42
15.0
 43
15.0
  0
INSERT
  5
120F0
330
120EA
100
AcDbEntity
  8
11機器
 62
     0
370
    -2
100
AcDbBlockReference
  2
_Open
 10
0.0
 20
348.5399466680374
 30
0.0
 41
15.0
 42
15.0
 43
15.0
 50
180.0
  0
MTEXT
  5
120F1
330
120EA
100
AcDbEntity
  8
11機器
 62
     0
100
AcDbMText
 10
338.5
 20
361.0399466680374
 30
0.0
 40
15.0
 41
0.0
 71
     5
 72
     1
  1
677
 73
     1
 44
1.0
  0
POINT
  5
120F2
330
120EA
100
AcDbEntity
  8
Defpoints
 62
     0
100
AcDbPoint
 10
677.0
 20
254.0
 30
0.0
  0
POINT
  5
120F3
330
120EA
100
AcDbEntity
  8
Defpoints
 62
     0
100
AcDbPoint
 10
0.0
 20
256.0
 30
0.0
  0
POINT
  5
120F4
330
120EA
100
AcDbEntity
  8
Defpoints
 62
     0
100
AcDbPoint
 10
0.0
 20
348.5399466680374
 30
0.0
  0
ENDBLK
  5
120F5
330
120EA
100
AcDbEntity
  8
0
100
AcDbBlockEnd
  0
BLOCK
  5
120F8
330
120F7
100
AcDbEntity
  8
0
100
AcDbBlockBegin
  2
*D1722
 70
     1
 10
0.0
 20
0.0
 30
0.0
  3
*D1722
  1

  0
LINE
  5
120F9
330
120F7
100
AcDbEntity
  8
11機器
 62
     0
370
    -2
100
AcDbLine
 10
670.0
 20
261.5
 30
0.0
 11
670.0
 21
326.5730210283077
 31
0.0
  0
LINE
  5
120FA
330
120F7
100
AcDbEntity
  8
11機器
 62
     0
370
    -2
100
AcDbLine
 10
0.0
 20
263.5
 30
0.0
 11
0.0
 21
326.5730210283077
 31
0.0
  0
LINE
  5
120FB
330
120F7
100
AcDbEntity
  8
11機器
 62
     0
370
    -2
100
AcDbLine
 10
655.0
 20
321.5730210283077
 30
0.0
 11
15.0
 21
321.5730210283077
 31
0.0
  0
INSERT
  5
120FC
330
120F7
100
AcDbEntity
  8
11機器
 62
     0
370
    -2
100
AcDbBlockReference
  2
_Open
 10
670.0
 20
321.5730210283077
 30
0.0
 41
15.0
 42
15.0
 43
15.0
  0
INSERT
  5
120FD
330
120F7
100
AcDbEntity
  8
11機器
 62
     0
370
    -2
100
AcDbBlockReference
  2
_Open
 10
0.0
 20
321.5730210283077
 30
0.0
 41
15.0
 42
15.0
 43
15.0
 50
180.0
  0
MTEXT
  5
120FE
330
120F7
100
AcDbEntity
  8
11機器
 62
     0
100
AcDbMText
 10
335.0
 20
334.0730210283077
 30
0.0
 40
15.0
 41
0.0
 71
     5
 72
     1
  1
670
 73
     1
 44
1.0
  0
POINT
  5
120FF
330
120F7
100
AcDbEntity
  8
Defpoints
 62
     0
100
AcDbPoint
 10
670.0
 20
254.0
 30
0.0
  0
POINT
  5
12100
330
120F7
100
AcDbEntity
  8
Defpoints
 62
     0
100
AcDbPoint
 10
0.0
 20
256.0
 30
0.0
  0
POINT
  5
12101
330
120F7
100
AcDbEntity
  8
Defpoints
 62
     0
100
AcDbPoint
 10
0.0
 20
321.5730210283077
 30
0.0
  0
ENDBLK
  5
12102
330
120F7
100
AcDbEntity
  8
0
100
AcDbBlockEnd
  0
BLOCK
  5
1224F
330
121F6
100
AcDbEntity
  8
0
100
AcDbBlockBegin
  2
1-MDL338
 70
     0
 10
0.0
 20
0.0
 30
0.0
  3
1-MDL338
  1

  0
LINE
  5
121F7
330
121F6
100
AcDbEntity
  8
12防振架台
100
AcDbLine
 10
0.0
 20
-187.5
 30
0.0
 11
0.0
 21
187.5
 31
0.0
  0
LINE
  5
121F8
330
121F6
100
AcDbEntity
  8
12防振架台
100
AcDbLine
 10
0.0
 20
187.5
 30
0.0
 11
60.0
 21
187.5
 31
0.0
  0
LINE
  5
121F9
330
121F6
100
AcDbEntity
  8
12防振架台
100
AcDbLine
 10
60.0
 20
187.5
 30
0.0
 11
60.0
 21
-187.5
 31
0.0
  0
LINE
  5
121FA
330
121F6
100
AcDbEntity
  8
12防振架台
100
AcDbLine
 10
60.0
 20
-187.5
 30
0.0
 11
0.0
 21
-187.5
 31
0.0
  0
LINE
  5
121FB
330
121F6
100
AcDbEntity
  8
12防振架台
100
AcDbLine
 10
60.0
 20
-247.5
 30
0.0
 11
60.0
 21
-187.5
 31
0.0
  0
LINE
  5
121FC
330
121F6
100
AcDbEntity
  8
12防振架台
100
AcDbLine
 10
60.0
 20
-187.5
 30
0.0
 11
1090.0
 21
-187.5
 31
0.0
  0
LINE
  5
121FD
330
121F6
100
AcDbEntity
  8
12防振架台
100
AcDbLine
 10
1090.0
 20
-187.5
 30
0.0
 11
1090.0
 21
-247.5
 31
0.0
  0
LINE
  5
121FE
330
121F6
100
AcDbEntity
  8
12防振架台
100
AcDbLine
 10
1090.0
 20
-247.5
 30
0.0
 11
60.0
 21
-247.5
 31
0.0
  0
LINE
  5
121FF
330
121F6
100
AcDbEntity
  8
12防振架台
100
AcDbLine
 10
60.0
 20
187.5
 30
0.0
 11
60.0
 21
247.5
 31
0.0
  0
LINE
  5
12200
330
121F6
100
AcDbEntity
  8
12防振架台
100
AcDbLine
 10
60.0
 20
247.5
 30
0.0
 11
1090.0
 21
247.5
 31
0.0
  0
LINE
  5
12201
330
121F6
100
AcDbEntity
  8
12防振架台
100
AcDbLine
 10
1090.0
 20
247.5
 30
0.0
 11
1090.0
 21
187.5
 31
0.0
  0
LINE
  5
12202
330
121F6
100
AcDbEntity
  8
12防振架台
100
AcDbLine
 10
1090.0
 20
187.5
 30
0.0
 11
60.0
 21
187.5
 31
0.0
  0
LINE
  5
12203
330
121F6
100
AcDbEntity
  8
12防振架台
100
AcDbLine
 10
1090.0
 20
-187.5
 30
0.0
 11
1090.0
 21
187.5
 31
0.0
  0
LINE
  5
12204
330
121F6
100
AcDbEntity
  8
12防振架台
100
AcDbLine
 10
1090.0
 20
187.5
 30
0.0
 11
1150.0
 21
187.5
 31
0.0
  0
LINE
  5
12205
330
121F6
100
AcDbEntity
  8
12防振架台
100
AcDbLine
 10
1150.0
 20
187.5
 30
0.0
 11
1150.0
 21
-187.5
 31
0.0
  0
LINE
  5
12206
330
121F6
100
AcDbEntity
  8
12防振架台
100
AcDbLine
 10
1150.0
 20
-187.5
 30
0.0
 11
1090.0
 21
-187.5
 31
0.0
  0
CIRCLE
  5
12207
330
121F6
100
AcDbEntity
  8
12防振架台
100
AcDbCircle
 10
100.0
 20
217.5
 30
0.0
 40
8.0
  0
CIRCLE
  5
12208
330
121F6
100
AcDbEntity
  8
12防振架台
100
AcDbCircle
 10
1050.0
 20
217.5
 30
0.0
 40
8.0
  0
CIRCLE
  5
12209
330
121F6
100
AcDbEntity
  8
12防振架台
100
AcDbCircle
 10
1050.0
 20
-217.5
 30
0.0
 40
8.0
  0
CIRCLE
  5
1220A
330
121F6
100
AcDbEntity
  8
12防振架台
100
AcDbCircle
 10
100.0
 20
-217.5
 30
0.0
 40
8.0
  0
LINE
  5
1220B
330
121F6
100
AcDbEntity
  8
12防振架台
100
AcDbLine
 10
0.0
 20
-187.5
 30
0.0
 11
55.5
 21
-187.5
 31
0.0
  0
LINE
  5
1220C
330
121F6
100
AcDbEntity
  8
12防振架台
100
AcDbLine
 10
60.0
 20
-192.0
 30
0.0
 11
60.0
 21
-247.5
 31
0.0
  0
LINE
  5
1220D
330
121F6
100
AcDbEntity
  8
12防振架台
100
AcDbLine
 10
50.5
 20
-247.5
 30
0.0
 11
15.0
 21
-247.5
 31
0.0
  0
LINE
  5
1220E
330
121F6
100
AcDbEntity
  8
12防振架台
100
AcDbLine
 10
0.0
 20
-232.5
 30
0.0
 11
0.0
 21
-187.5
 31
0.0
  0
LINE
  5
1220F
330
121F6
100
AcDbEntity
  8
12防振架台
100
AcDbLine
 10
55.5
 20
-192.0
 30
0.0
 11
55.5
 21
-247.5
 31
0.0
  0
LINE
  5
12210
330
121F6
100
AcDbEntity
  8
12防振架台
100
AcDbLine
 10
48.0
 20
-187.5
 30
0.0
 11
48.0
 21
-192.0
 31
0.0
  0
ARC
  5
12211
330
121F6
100
AcDbEntity
  8
12防振架台
100
AcDbCircle
 10
55.5
 20
-192.0
 30
0.0
 40
4.5
100
AcDbArc
 50
0.0
 51
90.0
  0
LINE
  5
12212
330
121F6
100
AcDbEntity
  8
12防振架台
100
AcDbLine
 10
60.0
 20
-247.5
 30
0.0
 11
55.5
 21
-247.5
 31
0.0
  0
ARC
  5
12213
330
121F6
100
AcDbEntity
  8
12防振架台
100
AcDbCircle
 10
15.0
 20
-232.5
 30
0.0
 40
15.0
100
AcDbArc
 50
180.0
 51
270.0
  0
LINE
  5
12214
330
121F6
100
AcDbEntity
  8
12防振架台
100
AcDbLine
 10
48.0
 20
-192.0
 30
0.0
 11
48.0
 21
-194.5
 31
0.0
  0
ARC
  5
12215
330
121F6
100
AcDbEntity
  8
12防振架台
100
AcDbCircle
 10
50.5
 20
-242.5
 30
0.0
 40
5.0
100
AcDbArc
 50
270.0
 51
0.0
  0
ARC
  5
12216
330
121F6
100
AcDbEntity
  8
12防振架台
100
AcDbCircle
 10
53.0
 20
-194.5
 30
0.0
 40
5.0
100
AcDbArc
 50
180.0
 51
270.0
  0
LINE
  5
12217
330
121F6
100
AcDbEntity
  8
12防振架台
100
AcDbLine
 10
55.5
 20
-192.0
 30
0.0
 11
48.0
 21
-192.0
 31
0.0
  0
LINE
  5
12218
330
121F6
100
AcDbEntity
  8
12防振架台
100
AcDbLine
 10
60.0
 20
-199.5
 30
0.0
 11
53.0
 21
-199.5
 31
0.0
  0
LINE
  5
12219
330
121F6
100
AcDbEntity
  8
12防振架台
100
AcDbLine
 10
55.5
 20
-247.5
 30
0.0
 11
55.55000000000109
 21
-247.5
 31
0.0
  0
CIRCLE
  5
1221A
330
121F6
100
AcDbEntity
  8
12防振架台
100
AcDbCircle
 10
25.0
 20
-222.5
 30
0.0
 40
12.0
  0
LINE
  5
1221B
330
121F6
100
AcDbEntity
  8
12防振架台
100
AcDbLine
 10
1090.0
 20
-247.5
 30
0.0
 11
1090.0
 21
-192.0
 31
0.0
  0
LINE
  5
1221C
330
121F6
100
AcDbEntity
  8
12防振架台
100
AcDbLine
 10
1094.5
 20
-187.5
 30
0.0
 11
1150.0
 21
-187.5
 31
0.0
  0
LINE
  5
1221D
330
121F6
100
AcDbEntity
  8
12防振架台
100
AcDbLine
 10
1150.0
 20
-197.0
 30
0.0
 11
1150.0
 21
-232.5
 31
0.0
  0
LINE
  5
1221E
330
121F6
100
AcDbEntity
  8
12防振架台
100
AcDbLine
 10
1135.0
 20
-247.5
 30
0.0
 11
1090.0
 21
-247.5
 31
0.0
  0
LINE
  5
1221F
330
121F6
100
AcDbEntity
  8
12防振架台
100
AcDbLine
 10
1094.5
 20
-192.0
 30
0.0
 11
1150.0
 21
-192.0
 31
0.0
  0
LINE
  5
12220
330
121F6
100
AcDbEntity
  8
12防振架台
100
AcDbLine
 10
1090.0
 20
-199.5
 30
0.0
 11
1094.5
 21
-199.5
 31
0.0
  0
ARC
  5
12221
330
121F6
100
AcDbEntity
  8
12防振架台
100
AcDbCircle
 10
1094.5
 20
-192.0
 30
0.0
 40
4.5
100
AcDbArc
 50
90.0
 51
180.0
  0
LINE
  5
12222
330
121F6
100
AcDbEntity
  8
12防振架台
100
AcDbLine
 10
1150.0
 20
-187.5
 30
0.0
 11
1150.0
 21
-192.0
 31
0.0
  0
ARC
  5
12223
330
121F6
100
AcDbEntity
  8
12防振架台
100
AcDbCircle
 10
1135.0
 20
-232.5
 30
0.0
 40
15.0
100
AcDbArc
 50
270.0
 51
0.0
  0
LINE
  5
12224
330
121F6
100
AcDbEntity
  8
12防振架台
100
AcDbLine
 10
1094.5
 20
-199.5
 30
0.0
 11
1097.0
 21
-199.5
 31
0.0
  0
ARC
  5
12225
330
121F6
100
AcDbEntity
  8
12防振架台
100
AcDbCircle
 10
1145.0
 20
-197.0
 30
0.0
 40
5.0
100
AcDbArc
 50
0.0
 51
90.0
  0
ARC
  5
12226
330
121F6
100
AcDbEntity
  8
12防振架台
100
AcDbCircle
 10
1097.0
 20
-194.5
 30
0.0
 40
5.0
100
AcDbArc
 50
270.0
 51
0.0
  0
LINE
  5
12227
330
121F6
100
AcDbEntity
  8
12防振架台
100
AcDbLine
 10
1094.5
 20
-192.0
 30
0.0
 11
1094.5
 21
-199.5
 31
0.0
  0
LINE
  5
12228
330
121F6
100
AcDbEntity
  8
12防振架台
100
AcDbLine
 10
1102.0
 20
-187.5
 30
0.0
 11
1102.0
 21
-194.5
 31
0.0
  0
LINE
  5
12229
330
121F6
100
AcDbEntity
  8
12防振架台
100
AcDbLine
 10
1150.0
 20
-192.0
 30
0.0
 11
1150.0
 21
-191.9499999999998
 31
0.0
  0
CIRCLE
  5
1222A
330
121F6
100
AcDbEntity
  8
12防振架台
100
AcDbCircle
 10
1125.0
 20
-222.5
 30
0.0
 40
12.0
  0
LINE
  5
1222B
330
121F6
100
AcDbEntity
  8
12防振架台
100
AcDbLine
 10
1150.0
 20
187.5
 30
0.0
 11
1094.5
 21
187.5
 31
0.0
  0
LINE
  5
1222C
330
121F6
100
AcDbEntity
  8
12防振架台
100
AcDbLine
 10
1090.0
 20
192.0
 30
0.0
 11
1090.0
 21
247.5
 31
0.0
  0
LINE
  5
1222D
330
121F6
100
AcDbEntity
  8
12防振架台
100
AcDbLine
 10
1099.5
 20
247.5
 30
0.0
 11
1135.0
 21
247.5
 31
0.0
  0
LINE
  5
1222E
330
121F6
100
AcDbEntity
  8
12防振架台
100
AcDbLine
 10
1150.0
 20
232.5
 30
0.0
 11
1150.0
 21
187.5
 31
0.0
  0
LINE
  5
1222F
330
121F6
100
AcDbEntity
  8
12防振架台
100
AcDbLine
 10
1094.5
 20
192.0
 30
0.0
 11
1094.5
 21
247.5
 31
0.0
  0
LINE
  5
12230
330
121F6
100
AcDbEntity
  8
12防振架台
100
AcDbLine
 10
1102.0
 20
187.5
 30
0.0
 11
1102.0
 21
192.0
 31
0.0
  0
ARC
  5
12231
330
121F6
100
AcDbEntity
  8
12防振架台
100
AcDbCircle
 10
1094.5
 20
192.0
 30
0.0
 40
4.5
100
AcDbArc
 50
180.0
 51
270.0
  0
LINE
  5
12232
330
121F6
100
AcDbEntity
  8
12防振架台
100
AcDbLine
 10
1090.0
 20
247.5
 30
0.0
 11
1094.5
 21
247.5
 31
0.0
  0
ARC
  5
12233
330
121F6
100
AcDbEntity
  8
12防振架台
100
AcDbCircle
 10
1135.0
 20
232.5
 30
0.0
 40
15.0
100
AcDbArc
 50
0.0
 51
90.0
  0
LINE
  5
12234
330
121F6
100
AcDbEntity
  8
12防振架台
100
AcDbLine
 10
1102.0
 20
192.0
 30
0.0
 11
1102.0
 21
194.5
 31
0.0
  0
ARC
  5
12235
330
121F6
100
AcDbEntity
  8
12防振架台
100
AcDbCircle
 10
1099.5
 20
242.5
 30
0.0
 40
5.0
100
AcDbArc
 50
90.0
 51
180.0
  0
ARC
  5
12236
330
121F6
100
AcDbEntity
  8
12防振架台
100
AcDbCircle
 10
1097.0
 20
194.5
 30
0.0
 40
5.0
100
AcDbArc
 50
0.0
 51
90.0
  0
LINE
  5
12237
330
121F6
100
AcDbEntity
  8
12防振架台
100
AcDbLine
 10
1094.5
 20
192.0
 30
0.0
 11
1102.0
 21
192.0
 31
0.0
  0
LINE
  5
12238
330
121F6
100
AcDbEntity
  8
12防振架台
100
AcDbLine
 10
1090.0
 20
199.5
 30
0.0
 11
1097.0
 21
199.5
 31
0.0
  0
LINE
  5
12239
330
121F6
100
AcDbEntity
  8
12防振架台
100
AcDbLine
 10
1094.5
 20
247.5
 30
0.0
 11
1094.450000000001
 21
247.5
 31
0.0
  0
CIRCLE
  5
1223A
330
121F6
100
AcDbEntity
  8
12防振架台
100
AcDbCircle
 10
1125.0
 20
222.5
 30
0.0
 40
12.0
  0
LINE
  5
1223B
330
121F6
100
AcDbEntity
  8
12防振架台
100
AcDbLine
 10
60.0
 20
247.5
 30
0.0
 11
60.0
 21
192.0
 31
0.0
  0
LINE
  5
1223C
330
121F6
100
AcDbEntity
  8
12防振架台
100
AcDbLine
 10
55.5
 20
187.5
 30
0.0
 11
0.0
 21
187.5
 31
0.0
  0
LINE
  5
1223D
330
121F6
100
AcDbEntity
  8
12防振架台
100
AcDbLine
 10
0.0
 20
197.0
 30
0.0
 11
0.0
 21
232.5
 31
0.0
  0
LINE
  5
1223E
330
121F6
100
AcDbEntity
  8
12防振架台
100
AcDbLine
 10
15.0
 20
247.5
 30
0.0
 11
60.0
 21
247.5
 31
0.0
  0
LINE
  5
1223F
330
121F6
100
AcDbEntity
  8
12防振架台
100
AcDbLine
 10
55.5
 20
192.0
 30
0.0
 11
0.0
 21
192.0
 31
0.0
  0
LINE
  5
12240
330
121F6
100
AcDbEntity
  8
12防振架台
100
AcDbLine
 10
60.0
 20
199.5
 30
0.0
 11
55.5
 21
199.5
 31
0.0
  0
ARC
  5
12241
330
121F6
100
AcDbEntity
  8
12防振架台
100
AcDbCircle
 10
55.5
 20
192.0
 30
0.0
 40
4.5
100
AcDbArc
 50
270.0
 51
0.0
  0
LINE
  5
12242
330
121F6
100
AcDbEntity
  8
12防振架台
100
AcDbLine
 10
0.0
 20
187.5
 30
0.0
 11
0.0
 21
192.0
 31
0.0
  0
ARC
  5
12243
330
121F6
100
AcDbEntity
  8
12防振架台
100
AcDbCircle
 10
15.0
 20
232.5
 30
0.0
 40
15.0
100
AcDbArc
 50
89.99999999999305
 51
180.0
  0
LINE
  5
12244
330
121F6
100
AcDbEntity
  8
12防振架台
100
AcDbLine
 10
55.5
 20
199.5
 30
0.0
 11
53.0
 21
199.5
 31
0.0
  0
ARC
  5
12245
330
121F6
100
AcDbEntity
  8
12防振架台
100
AcDbCircle
 10
5.0
 20
197.0
 30
0.0
 40
5.0
100
AcDbArc
 50
180.0
 51
270.0
  0
ARC
  5
12246
330
121F6
100
AcDbEntity
  8
12防振架台
100
AcDbCircle
 10
53.0
 20
194.5
 30
0.0
 40
5.0
100
AcDbArc
 50
90.0
 51
180.0
  0
LINE
  5
12247
330
121F6
100
AcDbEntity
  8
12防振架台
100
AcDbLine
 10
55.5
 20
192.0
 30
0.0
 11
55.5
 21
199.5
 31
0.0
  0
LINE
  5
12248
330
121F6
100
AcDbEntity
  8
12防振架台
100
AcDbLine
 10
48.0
 20
187.5
 30
0.0
 11
48.0
 21
194.5
 31
0.0
  0
LINE
  5
12249
330
121F6
100
AcDbEntity
  8
12防振架台
100
AcDbLine
 10
0.0
 20
192.0
 30
0.0
 11
0.0
 21
191.9499999999998
 31
0.0
  0
CIRCLE
  5
1224A
330
121F6
100
AcDbEntity
  8
12防振架台
100
AcDbCircle
 10
25.0
 20
222.5
 30
0.0
 40
12.0
  0
CIRCLE
  5
1224B
330
121F6
100
AcDbEntity
  8
12防振架台
100
AcDbCircle
 10
150.0
 20
223.5
 30
0.0
 40
8.0
  0
CIRCLE
  5
1224C
330
121F6
100
AcDbEntity
  8
12防振架台
100
AcDbCircle
 10
1000.0
 20
223.5
 30
0.0
 40
8.0
  0
CIRCLE
  5
1224D
330
121F6
100
AcDbEntity
  8
12防振架台
100
AcDbCircle
 10
150.0
 20
-223.5
 30
0.0
 40
8.0
  0
CIRCLE
  5
1224E
330
121F6
100
AcDbEntity
  8
12防振架台
100
AcDbCircle
 10
1000.0
 20
-223.5
 30
0.0
 40
8.0
  0
ENDBLK
  5
12250
330
121F6
100
AcDbEntity
  8
0
100
AcDbBlockEnd
  0
BLOCK
  5
122CD
330
122CC
100
AcDbEntity
  8
0
100
AcDbBlockBegin
  2
*D1729
 70
     1
 10
0.0
 20
0.0
 30
0.0
  3
*D1729
  1

  0
LINE
  5
122CF
330
122CC
100
AcDbEntity
  8
01注記寸法
 62
     0
370
    -2
100
AcDbLine
 10
700.0
 20
2486.499999999998
 30
0.0
 11
700.0
 21
2679.999999999999
 31
0.0
  0
LINE
  5
122D0
330
122CC
100
AcDbEntity
  8
01注記寸法
 62
     0
370
    -2
100
AcDbLine
 10
850.0
 20
2480.999999999999
 30
0.0
 11
850.0
 21
2679.999999999999
 31
0.0
  0
LINE
  5
122D1
330
122CC
100
AcDbEntity
  8
01注記寸法
 62
     0
370
    -2
100
AcDbLine
 10
730.0
 20
2669.999999999999
 30
0.0
 11
820.0
 21
2669.999999999999
 31
0.0
  0
INSERT
  5
122D2
330
122CC
100
AcDbEntity
  8
01注記寸法
 62
     0
370
    -2
100
AcDbBlockReference
  2
_Open
 10
700.0
 20
2669.999999999999
 30
0.0
 41
30.0
 42
30.0
 43
30.0
 50
180.0
  0
INSERT
  5
122D3
330
122CC
100
AcDbEntity
  8
01注記寸法
 62
     0
370
    -2
100
AcDbBlockReference
  2
_Open
 10
850.0
 20
2669.999999999999
 30
0.0
 41
30.0
 42
30.0
 43
30.0
  0
MTEXT
  5
122D4
330
122CC
100
AcDbEntity
  8
01注記寸法
 62
     0
100
AcDbMText
 10
775.0
 20
2694.999999999999
 30
0.0
 40
30.0
 41
0.0
 71
     5
 72
     1
  1
150
 73
     1
 44
1.0
  0
POINT
  5
122D5
330
122CC
100
AcDbEntity
  8
Defpoints
 62
     0
100
AcDbPoint
 10
700.0
 20
2471.499999999998
 30
0.0
  0
POINT
  5
122D6
330
122CC
100
AcDbEntity
  8
Defpoints
 62
     0
100
AcDbPoint
 10
850.0
 20
2465.999999999999
 30
0.0
  0
POINT
  5
122D7
330
122CC
100
AcDbEntity
  8
Defpoints
 62
     0
100
AcDbPoint
 10
850.0
 20
2669.999999999999
 30
0.0
  0
ENDBLK
  5
122CE
330
122CC
100
AcDbEntity
  8
0
100
AcDbBlockEnd
  0
BLOCK
  5
122DA
330
122D9
100
AcDbEntity
  8
0
100
AcDbBlockBegin
  2
*D1730
 70
     1
 10
0.0
 20
0.0
 30
0.0
  3
*D1730
  1

  0
LINE
  5
122DC
330
122D9
100
AcDbEntity
  8
01注記寸法
 62
     0
370
    -2
100
AcDbLine
 10
850.0
 20
2480.999999999999
 30
0.0
 11
850.0
 21
2679.999999999999
 31
0.0
  0
LINE
  5
122DD
330
122D9
100
AcDbEntity
  8
01注記寸法
 62
     0
370
    -2
100
AcDbLine
 10
1700.0
 20
2480.999999999999
 30
0.0
 11
1700.0
 21
2679.999999999999
 31
0.0
  0
LINE
  5
122DE
330
122D9
100
AcDbEntity
  8
01注記寸法
 62
     0
370
    -2
100
AcDbLine
 10
880.0
 20
2669.999999999999
 30
0.0
 11
1670.0
 21
2669.999999999999
 31
0.0
  0
INSERT
  5
122DF
330
122D9
100
AcDbEntity
  8
01注記寸法
 62
     0
370
    -2
100
AcDbBlockReference
  2
_Open
 10
850.0
 20
2669.999999999999
 30
0.0
 41
30.0
 42
30.0
 43
30.0
 50
180.0
  0
INSERT
  5
122E0
330
122D9
100
AcDbEntity
  8
01注記寸法
 62
     0
370
    -2
100
AcDbBlockReference
  2
_Open
 10
1700.0
 20
2669.999999999999
 30
0.0
 41
30.0
 42
30.0
 43
30.0
  0
MTEXT
  5
122E1
330
122D9
100
AcDbEntity
  8
01注記寸法
 62
     0
100
AcDbMText
 10
1275.0
 20
2694.999999999999
 30
0.0
 40
30.0
 41
0.0
 71
     5
 72
     1
  1
850
 73
     1
 44
1.0
  0
POINT
  5
122E2
330
122D9
100
AcDbEntity
  8
Defpoints
 62
     0
100
AcDbPoint
 10
850.0
 20
2465.999999999999
 30
0.0
  0
POINT
  5
122E3
330
122D9
100
AcDbEntity
  8
Defpoints
 62
     0
100
AcDbPoint
 10
1700.0
 20
2465.999999999999
 30
0.0
  0
POINT
  5
122E4
330
122D9
100
AcDbEntity
  8
Defpoints
 62
     0
100
AcDbPoint
 10
1700.0
 20
2669.999999999999
 30
0.0
  0
ENDBLK
  5
122DB
330
122D9
100
AcDbEntity
  8
0
100
AcDbBlockEnd
  0
BLOCK
  5
122E7
330
122E6
100
AcDbEntity
  8
0
100
AcDbBlockBegin
  2
*D1731
 70
     1
 10
0.0
 20
0.0
 30
0.0
  3
*D1731
  1

  0
LINE
  5
122E9
330
122E6
100
AcDbEntity
  8
01注記寸法
 62
     0
370
    -2
100
AcDbLine
 10
1700.0
 20
2480.999999999999
 30
0.0
 11
1700.0
 21
2679.999999999999
 31
0.0
  0
LINE
  5
122EA
330
122E6
100
AcDbEntity
  8
01注記寸法
 62
     0
370
    -2
100
AcDbLine
 10
1850.0
 20
2486.499999999998
 30
0.0
 11
1850.0
 21
2679.999999999999
 31
0.0
  0
LINE
  5
122EB
330
122E6
100
AcDbEntity
  8
01注記寸法
 62
     0
370
    -2
100
AcDbLine
 10
1730.0
 20
2669.999999999999
 30
0.0
 11
1820.0
 21
2669.999999999999
 31
0.0
  0
INSERT
  5
122EC
330
122E6
100
AcDbEntity
  8
01注記寸法
 62
     0
370
    -2
100
AcDbBlockReference
  2
_Open
 10
1700.0
 20
2669.999999999999
 30
0.0
 41
30.0
 42
30.0
 43
30.0
 50
180.0
  0
INSERT
  5
122ED
330
122E6
100
AcDbEntity
  8
01注記寸法
 62
     0
370
    -2
100
AcDbBlockReference
  2
_Open
 10
1850.0
 20
2669.999999999999
 30
0.0
 41
30.0
 42
30.0
 43
30.0
  0
MTEXT
  5
122EE
330
122E6
100
AcDbEntity
  8
01注記寸法
 62
     0
100
AcDbMText
 10
1775.0
 20
2694.999999999999
 30
0.0
 40
30.0
 41
0.0
 71
     5
 72
     1
  1
150
 73
     1
 44
1.0
  0
POINT
  5
122EF
330
122E6
100
AcDbEntity
  8
Defpoints
 62
     0
100
AcDbPoint
 10
1700.0
 20
2465.999999999999
 30
0.0
  0
POINT
  5
122F0
330
122E6
100
AcDbEntity
  8
Defpoints
 62
     0
100
AcDbPoint
 10
1850.0
 20
2471.499999999998
 30
0.0
  0
POINT
  5
122F1
330
122E6
100
AcDbEntity
  8
Defpoints
 62
     0
100
AcDbPoint
 10
1850.0
 20
2669.999999999999
 30
0.0
  0
ENDBLK
  5
122E8
330
122E6
100
AcDbEntity
  8
0
100
AcDbBlockEnd
  0
BLOCK
  5
122F4
330
122F3
100
AcDbEntity
  8
0
100
AcDbBlockBegin
  2
*D1732
 70
     1
 10
0.0
 20
0.0
 30
0.0
  3
*D1732
  1

  0
LINE
  5
122F6
330
122F3
100
AcDbEntity
  8
01注記寸法
 62
     0
370
    -2
100
AcDbLine
 10
685.0
 20
2469.999999999998
 30
0.0
 11
590.0
 21
2469.999999999998
 31
0.0
  0
LINE
  5
122F7
330
122F3
100
AcDbEntity
  8
01注記寸法
 62
     0
370
    -2
100
AcDbLine
 10
815.0
 20
2445.999999999999
 30
0.0
 11
590.0
 21
2445.999999999999
 31
0.0
  0
LINE
  5
122F8
330
122F3
100
AcDbEntity
  8
01注記寸法
 62
     0
370
    -2
100
AcDbLine
 10
600.0
 20
2469.999999999998
 30
0.0
 11
600.0
 21
2585.789999999998
 31
0.0
  0
LINE
  5
122F9
330
122F3
100
AcDbEntity
  8
01注記寸法
 62
     0
370
    -2
100
AcDbLine
 10
600.0
 20
2469.999999999998
 30
0.0
 11
600.0
 21
2445.999999999999
 31
0.0
  0
LINE
  5
122FA
330
122F3
100
AcDbEntity
  8
01注記寸法
 62
     0
370
    -2
100
AcDbLine
 10
600.0
 20
2499.999999999998
 30
0.0
 11
600.0
 21
2529.999999999998
 31
0.0
  0
LINE
  5
122FB
330
122F3
100
AcDbEntity
  8
01注記寸法
 62
     0
370
    -2
100
AcDbLine
 10
600.0
 20
2415.999999999999
 30
0.0
 11
600.0
 21
2385.999999999999
 31
0.0
  0
INSERT
  5
122FC
330
122F3
100
AcDbEntity
  8
01注記寸法
 62
     0
370
    -2
100
AcDbBlockReference
  2
_Open
 10
600.0
 20
2469.999999999998
 30
0.0
 41
30.0
 42
30.0
 43
30.0
 50
270.0
  0
INSERT
  5
122FD
330
122F3
100
AcDbEntity
  8
01注記寸法
 62
     0
370
    -2
100
AcDbBlockReference
  2
_Open
 10
600.0
 20
2445.999999999999
 30
0.0
 41
30.0
 42
30.0
 43
30.0
 50
90.0
  0
MTEXT
  5
122FE
330
122F3
100
AcDbEntity
  8
01注記寸法
 62
     0
100
AcDbMText
 10
575.0
 20
2557.894999999998
 30
0.0
 40
30.0
 41
0.0
 71
     5
 72
     1
  1
24
 11
0.0
 21
1.0
 31
0.0
 73
     1
 44
1.0
  0
POINT
  5
122FF
330
122F3
100
AcDbEntity
  8
Defpoints
 62
     0
100
AcDbPoint
 10
700.0
 20
2469.999999999998
 30
0.0
  0
POINT
  5
12300
330
122F3
100
AcDbEntity
  8
Defpoints
 62
     0
100
AcDbPoint
 10
830.0
 20
2445.999999999999
 30
0.0
  0
POINT
  5
1231D
330
122F3
100
AcDbEntity
  8
Defpoints
 62
     0
100
AcDbPoint
 10
600.0
 20
2445.999999999999
 30
0.0
  0
ENDBLK
  5
122F5
330
122F3
100
AcDbEntity
  8
0
100
AcDbBlockEnd
  0
BLOCK
  5
12303
330
12302
100
AcDbEntity
  8
0
100
AcDbBlockBegin
  2
*D1733
 70
     1
 10
0.0
 20
0.0
 30
0.0
  3
*D1733
  1

  0
LINE
  5
12305
330
12302
100
AcDbEntity
  8
01注記寸法
 62
     0
370
    -2
100
AcDbLine
 10
815.0
 20
2445.999999999999
 30
0.0
 11
590.0
 21
2445.999999999999
 31
0.0
  0
LINE
  5
12306
330
12302
100
AcDbEntity
  8
01注記寸法
 62
     0
370
    -2
100
AcDbLine
 10
815.0
 20
1998.999999999999
 30
0.0
 11
590.0
 21
1998.999999999999
 31
0.0
  0
LINE
  5
12307
330
12302
100
AcDbEntity
  8
01注記寸法
 62
     0
370
    -2
100
AcDbLine
 10
600.0
 20
2415.999999999999
 30
0.0
 11
600.0
 21
2028.999999999999
 31
0.0
  0
INSERT
  5
12308
330
12302
100
AcDbEntity
  8
01注記寸法
 62
     0
370
    -2
100
AcDbBlockReference
  2
_Open
 10
600.0
 20
2445.999999999999
 30
0.0
 41
30.0
 42
30.0
 43
30.0
 50
90.0
  0
INSERT
  5
12309
330
12302
100
AcDbEntity
  8
01注記寸法
 62
     0
370
    -2
100
AcDbBlockReference
  2
_Open
 10
600.0
 20
1998.999999999999
 30
0.0
 41
30.0
 42
30.0
 43
30.0
 50
270.0
  0
MTEXT
  5
1230A
330
12302
100
AcDbEntity
  8
01注記寸法
 62
     0
100
AcDbMText
 10
575.0
 20
2222.499999999999
 30
0.0
 40
30.0
 41
0.0
 71
     5
 72
     1
  1
447
 11
0.0
 21
1.0
 31
0.0
 73
     1
 44
1.0
  0
POINT
  5
1230B
330
12302
100
AcDbEntity
  8
Defpoints
 62
     0
100
AcDbPoint
 10
830.0
 20
2445.999999999999
 30
0.0
  0
POINT
  5
1230C
330
12302
100
AcDbEntity
  8
Defpoints
 62
     0
100
AcDbPoint
 10
830.0
 20
1998.999999999999
 30
0.0
  0
POINT
  5
1230D
330
12302
100
AcDbEntity
  8
Defpoints
 62
     0
100
AcDbPoint
 10
600.0
 20
1998.999999999999
 30
0.0
  0
ENDBLK
  5
12304
330
12302
100
AcDbEntity
  8
0
100
AcDbBlockEnd
  0
BLOCK
  5
12310
330
1230F
100
AcDbEntity
  8
0
100
AcDbBlockBegin
  2
*D1734
 70
     1
 10
0.0
 20
0.0
 30
0.0
  3
*D1734
  1

  0
LINE
  5
12312
330
1230F
100
AcDbEntity
  8
01注記寸法
 62
     0
370
    -2
100
AcDbLine
 10
815.0
 20
1998.999999999999
 30
0.0
 11
590.0
 21
1998.999999999999
 31
0.0
  0
LINE
  5
12313
330
1230F
100
AcDbEntity
  8
01注記寸法
 62
     0
370
    -2
100
AcDbLine
 10
685.0
 20
1974.999999999998
 30
0.0
 11
590.0
 21
1974.999999999998
 31
0.0
  0
LINE
  5
12314
330
1230F
100
AcDbEntity
  8
01注記寸法
 62
     0
370
    -2
100
AcDbLine
 10
600.0
 20
1944.999999999998
 30
0.0
 11
600.0
 21
1859.209999999998
 31
0.0
  0
LINE
  5
12315
330
1230F
100
AcDbEntity
  8
01注記寸法
 62
     0
370
    -2
100
AcDbLine
 10
600.0
 20
1998.999999999999
 30
0.0
 11
600.0
 21
1974.999999999998
 31
0.0
  0
LINE
  5
12316
330
1230F
100
AcDbEntity
  8
01注記寸法
 62
     0
370
    -2
100
AcDbLine
 10
600.0
 20
2028.999999999999
 30
0.0
 11
600.0
 21
2058.999999999999
 31
0.0
  0
INSERT
  5
12317
330
1230F
100
AcDbEntity
  8
01注記寸法
 62
     0
370
    -2
100
AcDbBlockReference
  2
_Open
 10
600.0
 20
1998.999999999999
 30
0.0
 41
30.0
 42
30.0
 43
30.0
 50
270.0
  0
INSERT
  5
12318
330
1230F
100
AcDbEntity
  8
01注記寸法
 62
     0
370
    -2
100
AcDbBlockReference
  2
_Open
 10
600.0
 20
1974.999999999998
 30
0.0
 41
30.0
 42
30.0
 43
30.0
 50
90.0
  0
MTEXT
  5
12319
330
1230F
100
AcDbEntity
  8
01注記寸法
 62
     0
100
AcDbMText
 10
575.0
 20
1887.104999999998
 30
0.0
 40
30.0
 41
0.0
 71
     5
 72
     1
  1
24
 11
0.0
 21
1.0
 31
0.0
 73
     1
 44
1.0
  0
POINT
  5
1231A
330
1230F
100
AcDbEntity
  8
Defpoints
 62
     0
100
AcDbPoint
 10
830.0
 20
1998.999999999999
 30
0.0
  0
POINT
  5
1231B
330
1230F
100
AcDbEntity
  8
Defpoints
 62
     0
100
AcDbPoint
 10
700.0
 20
1974.999999999998
 30
0.0
  0
POINT
  5
1231C
330
1230F
100
AcDbEntity
  8
Defpoints
 62
     0
100
AcDbPoint
 10
600.0
 20
1974.999999999998
 30
0.0
  0
ENDBLK
  5
12311
330
1230F
100
AcDbEntity
  8
0
100
AcDbBlockEnd
  0
BLOCK
  5
12320
330
1231F
100
AcDbEntity
  8
0
100
AcDbBlockBegin
  2
*D1735
 70
     1
 10
0.0
 20
0.0
 30
0.0
  3
*D1735
  1

  0
LINE
  5
12322
330
1231F
100
AcDbEntity
  8
01注記寸法
 62
     0
370
    -2
100
AcDbLine
 10
700.0
 20
1958.499999999998
 30
0.0
 11
700.0
 21
1764.999999999999
 31
0.0
  0
LINE
  5
12323
330
1231F
100
AcDbEntity
  8
01注記寸法
 62
     0
370
    -2
100
AcDbLine
 10
800.0
 20
1969.999999999999
 30
0.0
 11
800.0
 21
1764.999999999999
 31
0.0
  0
LINE
  5
12324
330
1231F
100
AcDbEntity
  8
01注記寸法
 62
     0
370
    -2
100
AcDbLine
 10
730.0
 20
1774.999999999999
 30
0.0
 11
770.0
 21
1774.999999999999
 31
0.0
  0
INSERT
  5
12325
330
1231F
100
AcDbEntity
  8
01注記寸法
 62
     0
370
    -2
100
AcDbBlockReference
  2
_Open
 10
700.0
 20
1774.999999999999
 30
0.0
 41
30.0
 42
30.0
 43
30.0
 50
180.0
  0
INSERT
  5
12326
330
1231F
100
AcDbEntity
  8
01注記寸法
 62
     0
370
    -2
100
AcDbBlockReference
  2
_Open
 10
800.0
 20
1774.999999999999
 30
0.0
 41
30.0
 42
30.0
 43
30.0
  0
MTEXT
  5
12327
330
1231F
100
AcDbEntity
  8
01注記寸法
 62
     0
100
AcDbMText
 10
750.0
 20
1799.999999999999
 30
0.0
 40
30.0
 41
0.0
 71
     5
 72
     1
  1
100
 73
     1
 44
1.0
  0
POINT
  5
12328
330
1231F
100
AcDbEntity
  8
Defpoints
 62
     0
100
AcDbPoint
 10
700.0
 20
1973.499999999998
 30
0.0
  0
POINT
  5
12329
330
1231F
100
AcDbEntity
  8
Defpoints
 62
     0
100
AcDbPoint
 10
800.0
 20
1984.999999999999
 30
0.0
  0
POINT
  5
1232A
330
1231F
100
AcDbEntity
  8
Defpoints
 62
     0
100
AcDbPoint
 10
800.0
 20
1774.999999999999
 30
0.0
  0
ENDBLK
  5
12321
330
1231F
100
AcDbEntity
  8
0
100
AcDbBlockEnd
  0
BLOCK
  5
1232D
330
1232C
100
AcDbEntity
  8
0
100
AcDbBlockBegin
  2
*D1736
 70
     1
 10
0.0
 20
0.0
 30
0.0
  3
*D1736
  1

  0
LINE
  5
1232F
330
1232C
100
AcDbEntity
  8
01注記寸法
 62
     0
370
    -2
100
AcDbLine
 10
800.0
 20
1969.999999999999
 30
0.0
 11
800.0
 21
1764.999999999999
 31
0.0
  0
LINE
  5
12330
330
1232C
100
AcDbEntity
  8
01注記寸法
 62
     0
370
    -2
100
AcDbLine
 10
1750.0
 20
1969.999999999999
 30
0.0
 11
1750.0
 21
1764.999999999999
 31
0.0
  0
LINE
  5
12331
330
1232C
100
AcDbEntity
  8
01注記寸法
 62
     0
370
    -2
100
AcDbLine
 10
830.0
 20
1774.999999999999
 30
0.0
 11
1720.0
 21
1774.999999999999
 31
0.0
  0
INSERT
  5
12332
330
1232C
100
AcDbEntity
  8
01注記寸法
 62
     0
370
    -2
100
AcDbBlockReference
  2
_Open
 10
800.0
 20
1774.999999999999
 30
0.0
 41
30.0
 42
30.0
 43
30.0
 50
180.0
  0
INSERT
  5
12333
330
1232C
100
AcDbEntity
  8
01注記寸法
 62
     0
370
    -2
100
AcDbBlockReference
  2
_Open
 10
1750.0
 20
1774.999999999999
 30
0.0
 41
30.0
 42
30.0
 43
30.0
  0
MTEXT
  5
12334
330
1232C
100
AcDbEntity
  8
01注記寸法
 62
     0
100
AcDbMText
 10
1275.0
 20
1800.989999999999
 30
0.0
 40
30.0
 41
0.0
 71
     5
 72
     1
  1
※ 950
 73
     1
 44
1.0
  0
POINT
  5
12335
330
1232C
100
AcDbEntity
  8
Defpoints
 62
     0
100
AcDbPoint
 10
800.0
 20
1984.999999999999
 30
0.0
  0
POINT
  5
12336
330
1232C
100
AcDbEntity
  8
Defpoints
 62
     0
100
AcDbPoint
 10
1750.0
 20
1984.999999999999
 30
0.0
  0
POINT
  5
12337
330
1232C
100
AcDbEntity
  8
Defpoints
 62
     0
100
AcDbPoint
 10
1750.0
 20
1774.999999999999
 30
0.0
  0
ENDBLK
  5
1232E
330
1232C
100
AcDbEntity
  8
0
100
AcDbBlockEnd
  0
BLOCK
  5
1233A
330
12339
100
AcDbEntity
  8
0
100
AcDbBlockBegin
  2
*D1737
 70
     1
 10
0.0
 20
0.0
 30
0.0
  3
*D1737
  1

  0
LINE
  5
1233C
330
12339
100
AcDbEntity
  8
01注記寸法
 62
     0
370
    -2
100
AcDbLine
 10
1750.0
 20
1969.999999999999
 30
0.0
 11
1750.0
 21
1764.999999999999
 31
0.0
  0
LINE
  5
1233D
330
12339
100
AcDbEntity
  8
01注記寸法
 62
     0
370
    -2
100
AcDbLine
 10
1850.0
 20
1958.499999999998
 30
0.0
 11
1850.0
 21
1764.999999999999
 31
0.0
  0
LINE
  5
1233E
330
12339
100
AcDbEntity
  8
01注記寸法
 62
     0
370
    -2
100
AcDbLine
 10
1780.0
 20
1774.999999999999
 30
0.0
 11
1820.0
 21
1774.999999999999
 31
0.0
  0
INSERT
  5
1233F
330
12339
100
AcDbEntity
  8
01注記寸法
 62
     0
370
    -2
100
AcDbBlockReference
  2
_Open
 10
1750.0
 20
1774.999999999999
 30
0.0
 41
30.0
 42
30.0
 43
30.0
 50
180.0
  0
INSERT
  5
12340
330
12339
100
AcDbEntity
  8
01注記寸法
 62
     0
370
    -2
100
AcDbBlockReference
  2
_Open
 10
1850.0
 20
1774.999999999999
 30
0.0
 41
30.0
 42
30.0
 43
30.0
  0
MTEXT
  5
12341
330
12339
100
AcDbEntity
  8
01注記寸法
 62
     0
100
AcDbMText
 10
1800.0
 20
1799.999999999999
 30
0.0
 40
30.0
 41
0.0
 71
     5
 72
     1
  1
100
 73
     1
 44
1.0
  0
POINT
  5
12342
330
12339
100
AcDbEntity
  8
Defpoints
 62
     0
100
AcDbPoint
 10
1750.0
 20
1984.999999999999
 30
0.0
  0
POINT
  5
12343
330
12339
100
AcDbEntity
  8
Defpoints
 62
     0
100
AcDbPoint
 10
1850.0
 20
1973.499999999998
 30
0.0
  0
POINT
  5
12344
330
12339
100
AcDbEntity
  8
Defpoints
 62
     0
100
AcDbPoint
 10
1850.0
 20
1774.999999999999
 30
0.0
  0
ENDBLK
  5
1233B
330
12339
100
AcDbEntity
  8
0
100
AcDbBlockEnd
  0
BLOCK
  5
12347
330
12346
100
AcDbEntity
  8
0
100
AcDbBlockBegin
  2
*D1738
 70
     1
 10
0.0
 20
0.0
 30
0.0
  3
*D1738
  1

  0
LINE
  5
12349
330
12346
100
AcDbEntity
  8
01注記寸法
 62
     0
370
    -2
100
AcDbLine
 10
1865.0
 20
1974.999999999998
 30
0.0
 11
2060.0
 21
1974.999999999998
 31
0.0
  0
LINE
  5
1234A
330
12346
100
AcDbEntity
  8
01注記寸法
 62
     0
370
    -2
100
AcDbLine
 10
1785.0
 20
2004.999999999999
 30
0.0
 11
2060.0
 21
2004.999999999999
 31
0.0
  0
LINE
  5
1234B
330
12346
100
AcDbEntity
  8
01注記寸法
 62
     0
370
    -2
100
AcDbLine
 10
2050.0
 20
1974.999999999998
 30
0.0
 11
2050.0
 21
1859.209999999997
 31
0.0
  0
LINE
  5
1234C
330
12346
100
AcDbEntity
  8
01注記寸法
 62
     0
370
    -2
100
AcDbLine
 10
2050.0
 20
1974.999999999998
 30
0.0
 11
2050.0
 21
2004.999999999999
 31
0.0
  0
LINE
  5
1234D
330
12346
100
AcDbEntity
  8
01注記寸法
 62
     0
370
    -2
100
AcDbLine
 10
2050.0
 20
1944.999999999998
 30
0.0
 11
2050.0
 21
1914.999999999998
 31
0.0
  0
LINE
  5
1234E
330
12346
100
AcDbEntity
  8
01注記寸法
 62
     0
370
    -2
100
AcDbLine
 10
2050.0
 20
2034.999999999999
 30
0.0
 11
2050.0
 21
2064.999999999999
 31
0.0
  0
INSERT
  5
1234F
330
12346
100
AcDbEntity
  8
01注記寸法
 62
     0
370
    -2
100
AcDbBlockReference
  2
_Open
 10
2050.0
 20
1974.999999999998
 30
0.0
 41
30.0
 42
30.0
 43
30.0
 50
90.0
  0
INSERT
  5
12350
330
12346
100
AcDbEntity
  8
01注記寸法
 62
     0
370
    -2
100
AcDbBlockReference
  2
_Open
 10
2050.0
 20
2004.999999999999
 30
0.0
 41
30.0
 42
30.0
 43
30.0
 50
270.0
  0
MTEXT
  5
12351
330
12346
100
AcDbEntity
  8
01注記寸法
 62
     0
100
AcDbMText
 10
2025.0
 20
1887.104999999997
 30
0.0
 40
30.0
 41
0.0
 71
     5
 72
     1
  1
30
 11
0.0
 21
1.0
 31
0.0
 73
     1
 44
1.0
  0
POINT
  5
12352
330
12346
100
AcDbEntity
  8
Defpoints
 62
     0
100
AcDbPoint
 10
1850.0
 20
1974.999999999998
 30
0.0
  0
POINT
  5
12353
330
12346
100
AcDbEntity
  8
Defpoints
 62
     0
100
AcDbPoint
 10
1770.0
 20
2004.999999999999
 30
0.0
  0
POINT
  5
12370
330
12346
100
AcDbEntity
  8
Defpoints
 62
     0
100
AcDbPoint
 10
2050.0
 20
2004.999999999999
 30
0.0
  0
ENDBLK
  5
12348
330
12346
100
AcDbEntity
  8
0
100
AcDbBlockEnd
  0
BLOCK
  5
12356
330
12355
100
AcDbEntity
  8
0
100
AcDbBlockBegin
  2
*D1739
 70
     1
 10
0.0
 20
0.0
 30
0.0
  3
*D1739
  1

  0
LINE
  5
12358
330
12355
100
AcDbEntity
  8
01注記寸法
 62
     0
370
    -2
100
AcDbLine
 10
1785.0
 20
2004.999999999999
 30
0.0
 11
2060.0
 21
2004.999999999999
 31
0.0
  0
LINE
  5
12359
330
12355
100
AcDbEntity
  8
01注記寸法
 62
     0
370
    -2
100
AcDbLine
 10
1785.0
 20
2439.999999999999
 30
0.0
 11
2060.0
 21
2439.999999999999
 31
0.0
  0
LINE
  5
1235A
330
12355
100
AcDbEntity
  8
01注記寸法
 62
     0
370
    -2
100
AcDbLine
 10
2050.0
 20
2034.999999999999
 30
0.0
 11
2050.0
 21
2409.999999999999
 31
0.0
  0
INSERT
  5
1235B
330
12355
100
AcDbEntity
  8
01注記寸法
 62
     0
370
    -2
100
AcDbBlockReference
  2
_Open
 10
2050.0
 20
2004.999999999999
 30
0.0
 41
30.0
 42
30.0
 43
30.0
 50
270.0
  0
INSERT
  5
1235C
330
12355
100
AcDbEntity
  8
01注記寸法
 62
     0
370
    -2
100
AcDbBlockReference
  2
_Open
 10
2050.0
 20
2439.999999999999
 30
0.0
 41
30.0
 42
30.0
 43
30.0
 50
90.0
  0
MTEXT
  5
1235D
330
12355
100
AcDbEntity
  8
01注記寸法
 62
     0
100
AcDbMText
 10
2024.01
 20
2222.499999999999
 30
0.0
 40
30.0
 41
0.0
 71
     5
 72
     1
  1
※ 435
 11
0.0
 21
1.0
 31
0.0
 73
     1
 44
1.0
  0
POINT
  5
1235E
330
12355
100
AcDbEntity
  8
Defpoints
 62
     0
100
AcDbPoint
 10
1770.0
 20
2004.999999999999
 30
0.0
  0
POINT
  5
1235F
330
12355
100
AcDbEntity
  8
Defpoints
 62
     0
100
AcDbPoint
 10
1770.0
 20
2439.999999999999
 30
0.0
  0
POINT
  5
12360
330
12355
100
AcDbEntity
  8
Defpoints
 62
     0
100
AcDbPoint
 10
2050.0
 20
2439.999999999999
 30
0.0
  0
ENDBLK
  5
12357
330
12355
100
AcDbEntity
  8
0
100
AcDbBlockEnd
  0
BLOCK
  5
12363
330
12362
100
AcDbEntity
  8
0
100
AcDbBlockBegin
  2
*D1740
 70
     1
 10
0.0
 20
0.0
 30
0.0
  3
*D1740
  1

  0
LINE
  5
12365
330
12362
100
AcDbEntity
  8
01注記寸法
 62
     0
370
    -2
100
AcDbLine
 10
1785.0
 20
2439.999999999999
 30
0.0
 11
2060.0
 21
2439.999999999999
 31
0.0
  0
LINE
  5
12366
330
12362
100
AcDbEntity
  8
01注記寸法
 62
     0
370
    -2
100
AcDbLine
 10
1865.0
 20
2469.999999999999
 30
0.0
 11
2060.0
 21
2469.999999999999
 31
0.0
  0
LINE
  5
12367
330
12362
100
AcDbEntity
  8
01注記寸法
 62
     0
370
    -2
100
AcDbLine
 10
2050.0
 20
2499.999999999999
 30
0.0
 11
2050.0
 21
2585.789999999999
 31
0.0
  0
LINE
  5
12368
330
12362
100
AcDbEntity
  8
01注記寸法
 62
     0
370
    -2
100
AcDbLine
 10
2050.0
 20
2439.999999999999
 30
0.0
 11
2050.0
 21
2469.999999999999
 31
0.0
  0
LINE
  5
12369
330
12362
100
AcDbEntity
  8
01注記寸法
 62
     0
370
    -2
100
AcDbLine
 10
2050.0
 20
2409.999999999999
 30
0.0
 11
2050.0
 21
2379.999999999999
 31
0.0
  0
INSERT
  5
1236A
330
12362
100
AcDbEntity
  8
01注記寸法
 62
     0
370
    -2
100
AcDbBlockReference
  2
_Open
 10
2050.0
 20
2439.999999999999
 30
0.0
 41
30.0
 42
30.0
 43
30.0
 50
90.0
  0
INSERT
  5
1236B
330
12362
100
AcDbEntity
  8
01注記寸法
 62
     0
370
    -2
100
AcDbBlockReference
  2
_Open
 10
2050.0
 20
2469.999999999999
 30
0.0
 41
30.0
 42
30.0
 43
30.0
 50
270.0
  0
MTEXT
  5
1236C
330
12362
100
AcDbEntity
  8
01注記寸法
 62
     0
100
AcDbMText
 10
2025.0
 20
2557.894999999999
 30
0.0
 40
30.0
 41
0.0
 71
     5
 72
     1
  1
30
 11
0.0
 21
1.0
 31
0.0
 73
     1
 44
1.0
  0
POINT
  5
1236D
330
12362
100
AcDbEntity
  8
Defpoints
 62
     0
100
AcDbPoint
 10
1770.0
 20
2439.999999999999
 30
0.0
  0
POINT
  5
1236E
330
12362
100
AcDbEntity
  8
Defpoints
 62
     0
100
AcDbPoint
 10
1850.0
 20
2469.999999999999
 30
0.0
  0
POINT
  5
1236F
330
12362
100
AcDbEntity
  8
Defpoints
 62
     0
100
AcDbPoint
 10
2050.0
 20
2469.999999999999
 30
0.0
  0
ENDBLK
  5
12364
330
12362
100
AcDbEntity
  8
0
100
AcDbBlockEnd
  0
BLOCK
  5
125D3
330
125D2
100
AcDbEntity
  8
0
100
AcDbBlockBegin
  2
*D1757
 70
     1
 10
0.0
 20
0.0
 30
0.0
  3
*D1757
  1

  0
LINE
  5
125D5
330
125D2
100
AcDbEntity
  8
01注記寸法
 62
     0
370
    -2
100
AcDbLine
 10
274.3999999999996
 20
417.75
 30
0.0
 11
165.0
 21
417.75
 31
0.0
  0
LINE
  5
125D6
330
125D2
100
AcDbEntity
  8
01注記寸法
 62
     0
370
    -2
100
AcDbLine
 10
274.3999999999996
 20
629.75
 30
0.0
 11
165.0
 21
629.75
 31
0.0
  0
LINE
  5
125D7
330
125D2
100
AcDbEntity
  8
01注記寸法
 62
     0
370
    -2
100
AcDbLine
 10
175.0
 20
447.75
 30
0.0
 11
175.0
 21
599.75
 31
0.0
  0
INSERT
  5
125D8
330
125D2
100
AcDbEntity
  8
01注記寸法
 62
     0
370
    -2
100
AcDbBlockReference
  2
_Open
 10
175.0
 20
417.75
 30
0.0
 41
30.0
 42
30.0
 43
30.0
 50
270.0
  0
INSERT
  5
125D9
330
125D2
100
AcDbEntity
  8
01注記寸法
 62
     0
370
    -2
100
AcDbBlockReference
  2
_Open
 10
175.0
 20
629.75
 30
0.0
 41
30.0
 42
30.0
 43
30.0
 50
90.0
  0
MTEXT
  5
125DA
330
125D2
100
AcDbEntity
  8
01注記寸法
 62
     0
100
AcDbMText
 10
150.0
 20
523.75
 30
0.0
 40
30.0
 41
0.0
 71
     5
 72
     1
  1
424
 11
0.0
 21
1.0
 31
0.0
 73
     1
 44
1.0
  0
POINT
  5
125DB
330
125D2
100
AcDbEntity
  8
Defpoints
 62
     0
100
AcDbPoint
 10
289.3999999999996
 20
417.75
 30
0.0
  0
POINT
  5
125DC
330
125D2
100
AcDbEntity
  8
Defpoints
 62
     0
100
AcDbPoint
 10
289.3999999999996
 20
629.75
 30
0.0
  0
POINT
  5
125DD
330
125D2
100
AcDbEntity
  8
Defpoints
 62
     0
100
AcDbPoint
 10
175.0
 20
629.75
 30
0.0
  0
ENDBLK
  5
125D4
330
125D2
100
AcDbEntity
  8
0
100
AcDbBlockEnd
  0
BLOCK
  5
125E0
330
125DF
100
AcDbEntity
  8
0
100
AcDbBlockBegin
  2
*D1758
 70
     1
 10
0.0
 20
0.0
 30
0.0
  3
*D1758
  1

  0
LINE
  5
125E2
330
125DF
100
AcDbEntity
  8
01注記寸法
 62
     0
370
    -2
100
AcDbLine
 10
289.3999999999996
 20
644.75
 30
0.0
 11
289.3999999999996
 21
757.5
 31
0.0
  0
LINE
  5
125E3
330
125DF
100
AcDbEntity
  8
01注記寸法
 62
     0
370
    -2
100
AcDbLine
 10
835.6000000000004
 20
644.75
 30
0.0
 11
835.6000000000004
 21
757.5
 31
0.0
  0
LINE
  5
125E4
330
125DF
100
AcDbEntity
  8
01注記寸法
 62
     0
370
    -2
100
AcDbLine
 10
319.3999999999996
 20
747.5
 30
0.0
 11
805.6000000000004
 21
747.5
 31
0.0
  0
INSERT
  5
125E5
330
125DF
100
AcDbEntity
  8
01注記寸法
 62
     0
370
    -2
100
AcDbBlockReference
  2
_Open
 10
289.3999999999996
 20
747.5
 30
0.0
 41
30.0
 42
30.0
 43
30.0
 50
180.0
  0
INSERT
  5
125E6
330
125DF
100
AcDbEntity
  8
01注記寸法
 62
     0
370
    -2
100
AcDbBlockReference
  2
_Open
 10
835.6000000000004
 20
747.5
 30
0.0
 41
30.0
 42
30.0
 43
30.0
  0
MTEXT
  5
125E7
330
125DF
100
AcDbEntity
  8
01注記寸法
 62
     0
100
AcDbMText
 10
562.5
 20
772.5
 30
0.0
 40
30.0
 41
0.0
 71
     5
 72
     1
  1
1092
 73
     1
 44
1.0
  0
POINT
  5
125E8
330
125DF
100
AcDbEntity
  8
Defpoints
 62
     0
100
AcDbPoint
 10
289.3999999999996
 20
629.75
 30
0.0
  0
POINT
  5
125E9
330
125DF
100
AcDbEntity
  8
Defpoints
 62
     0
100
AcDbPoint
 10
835.6000000000004
 20
629.75
 30
0.0
  0
POINT
  5
125EA
330
125DF
100
AcDbEntity
  8
Defpoints
 62
     0
100
AcDbPoint
 10
835.6000000000004
 20
747.5
 30
0.0
  0
ENDBLK
  5
125E1
330
125DF
100
AcDbEntity
  8
0
100
AcDbBlockEnd
  0
BLOCK
  5
125ED
330
125EC
100
AcDbEntity
  8
0
100
AcDbBlockBegin
  2
*D1759
 70
     1
 10
0.0
 20
0.0
 30
0.0
  3
*D1759
  1

  0
LINE
  5
125EF
330
125EC
100
AcDbEntity
  8
08非表示
 62
     0
370
    -2
100
AcDbLine
 10
275.0
 20
463.9050911114298
 30
0.0
 11
275.0
 21
464.4511773368562
 31
0.0
  0
LINE
  5
125F0
330
125EC
100
AcDbEntity
  8
08非表示
 62
     0
370
    -2
100
AcDbLine
 10
850.0
 20
463.9050911114298
 30
0.0
 11
850.0
 21
464.4511773368562
 31
0.0
  0
LINE
  5
125F1
330
125EC
100
AcDbEntity
  8
08非表示
 62
     0
370
    -2
100
AcDbLine
 10
305.0
 20
474.4511773368562
 30
0.0
 11
820.0
 21
474.4511773368562
 31
0.0
  0
INSERT
  5
125F2
330
125EC
100
AcDbEntity
  8
08非表示
 62
     0
370
    -2
100
AcDbBlockReference
  2
_Open
 10
275.0
 20
474.4511773368562
 30
0.0
 41
30.0
 42
30.0
 43
30.0
 50
180.0
  0
INSERT
  5
125F3
330
125EC
100
AcDbEntity
  8
08非表示
 62
     0
370
    -2
100
AcDbBlockReference
  2
_Open
 10
850.0
 20
474.4511773368562
 30
0.0
 41
30.0
 42
30.0
 43
30.0
  0
MTEXT
  5
125F4
330
125EC
100
AcDbEntity
  8
08非表示
 62
     0
100
AcDbMText
 10
562.5
 20
499.4511773368562
 30
0.0
 40
30.0
 41
0.0
 71
     5
 72
     1
  1
1150
 73
     1
 44
1.0
  0
POINT
  5
125F5
330
125EC
100
AcDbEntity
  8
Defpoints
 62
     0
100
AcDbPoint
 10
275.0
 20
478.9050911114298
 30
0.0
  0
POINT
  5
125F6
330
125EC
100
AcDbEntity
  8
Defpoints
 62
     0
100
AcDbPoint
 10
850.0
 20
478.9050911114298
 30
0.0
  0
POINT
  5
125F7
330
125EC
100
AcDbEntity
  8
Defpoints
 62
     0
100
AcDbPoint
 10
850.0
 20
474.4511773368562
 30
0.0
  0
ENDBLK
  5
125EE
330
125EC
100
AcDbEntity
  8
0
100
AcDbBlockEnd
  0
BLOCK
  5
125FA
330
125F9
100
AcDbEntity
  8
0
100
AcDbBlockBegin
  2
*D1760
 70
     1
 10
0.0
 20
0.0
 30
0.0
  3
*D1760
  1

  0
LINE
  5
125FC
330
125F9
100
AcDbEntity
  8
08非表示
 62
     0
370
    -2
100
AcDbLine
 10
407.0336978742235
 20
400.0
 30
0.0
 11
411.8323081782854
 21
400.0
 31
0.0
  0
LINE
  5
125FD
330
125F9
100
AcDbEntity
  8
08非表示
 62
     0
370
    -2
100
AcDbLine
 10
407.0336978742235
 20
647.5
 30
0.0
 11
411.8323081782854
 21
647.5
 31
0.0
  0
LINE
  5
125FE
330
125F9
100
AcDbEntity
  8
08非表示
 62
     0
370
    -2
100
AcDbLine
 10
401.8323081782854
 20
430.0
 30
0.0
 11
401.8323081782854
 21
617.5
 31
0.0
  0
INSERT
  5
125FF
330
125F9
100
AcDbEntity
  8
08非表示
 62
     0
370
    -2
100
AcDbBlockReference
  2
_Open
 10
401.8323081782854
 20
400.0
 30
0.0
 41
30.0
 42
30.0
 43
30.0
 50
270.0
  0
INSERT
  5
12600
330
125F9
100
AcDbEntity
  8
08非表示
 62
     0
370
    -2
100
AcDbBlockReference
  2
_Open
 10
401.8323081782854
 20
647.5
 30
0.0
 41
30.0
 42
30.0
 43
30.0
 50
90.0
  0
MTEXT
  5
12601
330
125F9
100
AcDbEntity
  8
08非表示
 62
     0
100
AcDbMText
 10
376.8323081782854
 20
523.75
 30
0.0
 40
30.0
 41
0.0
 71
     5
 72
     1
  1
495
 11
0.0
 21
1.0
 31
0.0
 73
     1
 44
1.0
  0
POINT
  5
12602
330
125F9
100
AcDbEntity
  8
Defpoints
 62
     0
100
AcDbPoint
 10
392.0336978742235
 20
400.0
 30
0.0
  0
POINT
  5
12603
330
125F9
100
AcDbEntity
  8
Defpoints
 62
     0
100
AcDbPoint
 10
392.0336978742235
 20
647.5
 30
0.0
  0
POINT
  5
12604
330
125F9
100
AcDbEntity
  8
Defpoints
 62
     0
100
AcDbPoint
 10
401.8323081782854
 20
647.5
 30
0.0
  0
ENDBLK
  5
125FB
330
125F9
100
AcDbEntity
  8
0
100
AcDbBlockEnd
  0
BLOCK
  5
12623
330
12622
100
AcDbEntity
  8
0
100
AcDbBlockBegin
  2
*D1761
 70
     1
 10
0.0
 20
0.0
 30
0.0
  3
*D1761
  1

  0
LINE
  5
12625
330
12622
100
AcDbEntity
  8
01注記寸法
 62
     0
370
    -2
100
AcDbLine
 10
1039.9
 20
413.6499999999996
 30
0.0
 11
965.0
 21
413.6499999999996
 31
0.0
  0
LINE
  5
12626
330
12622
100
AcDbEntity
  8
01注記寸法
 62
     0
370
    -2
100
AcDbLine
 10
1039.9
 20
633.8499999999995
 30
0.0
 11
965.0
 21
633.8499999999995
 31
0.0
  0
LINE
  5
12627
330
12622
100
AcDbEntity
  8
01注記寸法
 62
     0
370
    -2
100
AcDbLine
 10
975.0
 20
443.6499999999996
 30
0.0
 11
975.0
 21
603.8499999999995
 31
0.0
  0
INSERT
  5
12628
330
12622
100
AcDbEntity
  8
01注記寸法
 62
     0
370
    -2
100
AcDbBlockReference
  2
_Open
 10
975.0
 20
413.6499999999996
 30
0.0
 41
30.0
 42
30.0
 43
30.0
 50
270.0
  0
INSERT
  5
12629
330
12622
100
AcDbEntity
  8
01注記寸法
 62
     0
370
    -2
100
AcDbBlockReference
  2
_Open
 10
975.0
 20
633.8499999999995
 30
0.0
 41
30.0
 42
30.0
 43
30.0
 50
90.0
  0
MTEXT
  5
1262A
330
12622
100
AcDbEntity
  8
01注記寸法
 62
     0
100
AcDbMText
 10
950.0
 20
523.7499999999995
 30
0.0
 40
30.0
 41
0.0
 71
     5
 72
     1
  1
440
 11
0.0
 21
1.0
 31
0.0
 73
     1
 44
1.0
  0
POINT
  5
1262B
330
12622
100
AcDbEntity
  8
Defpoints
 62
     0
100
AcDbPoint
 10
1054.9
 20
413.6499999999996
 30
0.0
  0
POINT
  5
1262C
330
12622
100
AcDbEntity
  8
Defpoints
 62
     0
100
AcDbPoint
 10
1054.9
 20
633.8499999999995
 30
0.0
  0
POINT
  5
1262D
330
12622
100
AcDbEntity
  8
Defpoints
 62
     0
100
AcDbPoint
 10
975.0
 20
633.8499999999995
 30
0.0
  0
ENDBLK
  5
12624
330
12622
100
AcDbEntity
  8
0
100
AcDbBlockEnd
  0
BLOCK
  5
1262F
330
1262E
100
AcDbEntity
  8
0
100
AcDbBlockBegin
  2
*D1762
 70
     1
 10
0.0
 20
0.0
 30
0.0
  3
*D1762
  1

  0
LINE
  5
12631
330
1262E
100
AcDbEntity
  8
01注記寸法
 62
     0
370
    -2
100
AcDbLine
 10
1054.9
 20
648.8499999999995
 30
0.0
 11
1054.9
 21
757.5
 31
0.0
  0
LINE
  5
12632
330
1262E
100
AcDbEntity
  8
01注記寸法
 62
     0
370
    -2
100
AcDbLine
 10
1670.1
 20
648.8499999999995
 30
0.0
 11
1670.1
 21
757.5
 31
0.0
  0
LINE
  5
12633
330
1262E
100
AcDbEntity
  8
01注記寸法
 62
     0
370
    -2
100
AcDbLine
 10
1084.9
 20
747.5
 30
0.0
 11
1640.1
 21
747.5
 31
0.0
  0
INSERT
  5
12634
330
1262E
100
AcDbEntity
  8
01注記寸法
 62
     0
370
    -2
100
AcDbBlockReference
  2
_Open
 10
1054.9
 20
747.5
 30
0.0
 41
30.0
 42
30.0
 43
30.0
 50
180.0
  0
INSERT
  5
12635
330
1262E
100
AcDbEntity
  8
01注記寸法
 62
     0
370
    -2
100
AcDbBlockReference
  2
_Open
 10
1670.1
 20
747.5
 30
0.0
 41
30.0
 42
30.0
 43
30.0
  0
MTEXT
  5
12636
330
1262E
100
AcDbEntity
  8
01注記寸法
 62
     0
100
AcDbMText
 10
1362.5
 20
772.5
 30
0.0
 40
30.0
 41
0.0
 71
     5
 72
     1
  1
1230
 73
     1
 44
1.0
  0
POINT
  5
12637
330
1262E
100
AcDbEntity
  8
Defpoints
 62
     0
100
AcDbPoint
 10
1054.9
 20
633.8499999999995
 30
0.0
  0
POINT
  5
12638
330
1262E
100
AcDbEntity
  8
Defpoints
 62
     0
100
AcDbPoint
 10
1670.1
 20
633.8499999999995
 30
0.0
  0
POINT
  5
12639
330
1262E
100
AcDbEntity
  8
Defpoints
 62
     0
100
AcDbPoint
 10
1670.1
 20
747.5
 30
0.0
  0
ENDBLK
  5
12630
330
1262E
100
AcDbEntity
  8
0
100
AcDbBlockEnd
  0
BLOCK
  5
1263B
330
1263A
100
AcDbEntity
  8
0
100
AcDbBlockBegin
  2
*D1763
 70
     1
 10
0.0
 20
0.0
 30
0.0
  3
*D1763
  1

  0
LINE
  5
1263D
330
1263A
100
AcDbEntity
  8
08非表示
 62
     0
370
    -2
100
AcDbLine
 10
1075.0
 20
463.9050911114298
 30
0.0
 11
1075.0
 21
464.4511773368562
 31
0.0
  0
LINE
  5
1263E
330
1263A
100
AcDbEntity
  8
08非表示
 62
     0
370
    -2
100
AcDbLine
 10
1650.0
 20
463.9050911114298
 30
0.0
 11
1650.0
 21
464.4511773368562
 31
0.0
  0
LINE
  5
1263F
330
1263A
100
AcDbEntity
  8
08非表示
 62
     0
370
    -2
100
AcDbLine
 10
1105.0
 20
474.4511773368562
 30
0.0
 11
1620.0
 21
474.4511773368562
 31
0.0
  0
INSERT
  5
12640
330
1263A
100
AcDbEntity
  8
08非表示
 62
     0
370
    -2
100
AcDbBlockReference
  2
_Open
 10
1075.0
 20
474.4511773368562
 30
0.0
 41
30.0
 42
30.0
 43
30.0
 50
180.0
  0
INSERT
  5
12641
330
1263A
100
AcDbEntity
  8
08非表示
 62
     0
370
    -2
100
AcDbBlockReference
  2
_Open
 10
1650.0
 20
474.4511773368562
 30
0.0
 41
30.0
 42
30.0
 43
30.0
  0
MTEXT
  5
12642
330
1263A
100
AcDbEntity
  8
08非表示
 62
     0
100
AcDbMText
 10
1362.5
 20
499.4511773368562
 30
0.0
 40
30.0
 41
0.0
 71
     5
 72
     1
  1
1150
 73
     1
 44
1.0
  0
POINT
  5
12643
330
1263A
100
AcDbEntity
  8
Defpoints
 62
     0
100
AcDbPoint
 10
1075.0
 20
478.9050911114298
 30
0.0
  0
POINT
  5
12644
330
1263A
100
AcDbEntity
  8
Defpoints
 62
     0
100
AcDbPoint
 10
1650.0
 20
478.9050911114298
 30
0.0
  0
POINT
  5
12645
330
1263A
100
AcDbEntity
  8
Defpoints
 62
     0
100
AcDbPoint
 10
1650.0
 20
474.4511773368562
 30
0.0
  0
ENDBLK
  5
1263C
330
1263A
100
AcDbEntity
  8
0
100
AcDbBlockEnd
  0
BLOCK
  5
12647
330
12646
100
AcDbEntity
  8
0
100
AcDbBlockBegin
  2
*D1764
 70
     1
 10
0.0
 20
0.0
 30
0.0
  3
*D1764
  1

  0
LINE
  5
12649
330
12646
100
AcDbEntity
  8
08非表示
 62
     0
370
    -2
100
AcDbLine
 10
1207.033697874223
 20
400.0
 30
0.0
 11
1211.832308178285
 21
400.0
 31
0.0
  0
LINE
  5
1264A
330
12646
100
AcDbEntity
  8
08非表示
 62
     0
370
    -2
100
AcDbLine
 10
1207.033697874223
 20
647.5
 30
0.0
 11
1211.832308178285
 21
647.5
 31
0.0
  0
LINE
  5
1264B
330
12646
100
AcDbEntity
  8
08非表示
 62
     0
370
    -2
100
AcDbLine
 10
1201.832308178285
 20
430.0
 30
0.0
 11
1201.832308178285
 21
617.5
 31
0.0
  0
INSERT
  5
1264C
330
12646
100
AcDbEntity
  8
08非表示
 62
     0
370
    -2
100
AcDbBlockReference
  2
_Open
 10
1201.832308178285
 20
400.0
 30
0.0
 41
30.0
 42
30.0
 43
30.0
 50
270.0
  0
INSERT
  5
1264D
330
12646
100
AcDbEntity
  8
08非表示
 62
     0
370
    -2
100
AcDbBlockReference
  2
_Open
 10
1201.832308178285
 20
647.5
 30
0.0
 41
30.0
 42
30.0
 43
30.0
 50
90.0
  0
MTEXT
  5
1264E
330
12646
100
AcDbEntity
  8
08非表示
 62
     0
100
AcDbMText
 10
1176.832308178285
 20
523.75
 30
0.0
 40
30.0
 41
0.0
 71
     5
 72
     1
  1
495
 11
0.0
 21
1.0
 31
0.0
 73
     1
 44
1.0
  0
POINT
  5
1264F
330
12646
100
AcDbEntity
  8
Defpoints
 62
     0
100
AcDbPoint
 10
1192.033697874223
 20
400.0
 30
0.0
  0
POINT
  5
12650
330
12646
100
AcDbEntity
  8
Defpoints
 62
     0
100
AcDbPoint
 10
1192.033697874223
 20
647.5
 30
0.0
  0
POINT
  5
12651
330
12646
100
AcDbEntity
  8
Defpoints
 62
     0
100
AcDbPoint
 10
1201.832308178285
 20
647.5
 30
0.0
  0
ENDBLK
  5
12648
330
12646
100
AcDbEntity
  8
0
100
AcDbBlockEnd
  0
BLOCK
  5
12670
330
1266F
100
AcDbEntity
  8
0
100
AcDbBlockBegin
  2
*D1765
 70
     1
 10
0.0
 20
0.0
 30
0.0
  3
*D1765
  1

  0
LINE
  5
12672
330
1266F
100
AcDbEntity
  8
01注記寸法
 62
     0
370
    -2
100
AcDbLine
 10
1874.4
 20
379.1499999999996
 30
0.0
 11
1765.0
 21
379.1499999999996
 31
0.0
  0
LINE
  5
12673
330
1266F
100
AcDbEntity
  8
01注記寸法
 62
     0
370
    -2
100
AcDbLine
 10
1874.4
 20
668.3499999999995
 30
0.0
 11
1765.0
 21
668.3499999999995
 31
0.0
  0
LINE
  5
12674
330
1266F
100
AcDbEntity
  8
01注記寸法
 62
     0
370
    -2
100
AcDbLine
 10
1775.0
 20
409.1499999999996
 30
0.0
 11
1775.0
 21
638.3499999999995
 31
0.0
  0
INSERT
  5
12675
330
1266F
100
AcDbEntity
  8
01注記寸法
 62
     0
370
    -2
100
AcDbBlockReference
  2
_Open
 10
1775.0
 20
379.1499999999996
 30
0.0
 41
30.0
 42
30.0
 43
30.0
 50
270.0
  0
INSERT
  5
12676
330
1266F
100
AcDbEntity
  8
01注記寸法
 62
     0
370
    -2
100
AcDbBlockReference
  2
_Open
 10
1775.0
 20
668.3499999999995
 30
0.0
 41
30.0
 42
30.0
 43
30.0
 50
90.0
  0
MTEXT
  5
12677
330
1266F
100
AcDbEntity
  8
01注記寸法
 62
     0
100
AcDbMText
 10
1750.0
 20
523.7499999999995
 30
0.0
 40
30.0
 41
0.0
 71
     5
 72
     1
  1
578
 11
0.0
 21
1.0
 31
0.0
 73
     1
 44
1.0
  0
POINT
  5
12678
330
1266F
100
AcDbEntity
  8
Defpoints
 62
     0
100
AcDbPoint
 10
1889.4
 20
379.1499999999996
 30
0.0
  0
POINT
  5
12679
330
1266F
100
AcDbEntity
  8
Defpoints
 62
     0
100
AcDbPoint
 10
1889.4
 20
668.3499999999995
 30
0.0
  0
POINT
  5
1267A
330
1266F
100
AcDbEntity
  8
Defpoints
 62
     0
100
AcDbPoint
 10
1775.0
 20
668.3499999999995
 30
0.0
  0
ENDBLK
  5
12671
330
1266F
100
AcDbEntity
  8
0
100
AcDbBlockEnd
  0
BLOCK
  5
1267C
330
1267B
100
AcDbEntity
  8
0
100
AcDbBlockBegin
  2
*D1766
 70
     1
 10
0.0
 20
0.0
 30
0.0
  3
*D1766
  1

  0
LINE
  5
1267E
330
1267B
100
AcDbEntity
  8
01注記寸法
 62
     0
370
    -2
100
AcDbLine
 10
1889.4
 20
683.3499999999995
 30
0.0
 11
1889.4
 21
757.5
 31
0.0
  0
LINE
  5
1267F
330
1267B
100
AcDbEntity
  8
01注記寸法
 62
     0
370
    -2
100
AcDbLine
 10
2435.6
 20
683.3499999999995
 30
0.0
 11
2435.6
 21
757.5
 31
0.0
  0
LINE
  5
12680
330
1267B
100
AcDbEntity
  8
01注記寸法
 62
     0
370
    -2
100
AcDbLine
 10
1919.4
 20
747.5
 30
0.0
 11
2405.6
 21
747.5
 31
0.0
  0
INSERT
  5
12681
330
1267B
100
AcDbEntity
  8
01注記寸法
 62
     0
370
    -2
100
AcDbBlockReference
  2
_Open
 10
1889.4
 20
747.5
 30
0.0
 41
30.0
 42
30.0
 43
30.0
 50
180.0
  0
INSERT
  5
12682
330
1267B
100
AcDbEntity
  8
01注記寸法
 62
     0
370
    -2
100
AcDbBlockReference
  2
_Open
 10
2435.6
 20
747.5
 30
0.0
 41
30.0
 42
30.0
 43
30.0
  0
MTEXT
  5
12683
330
1267B
100
AcDbEntity
  8
01注記寸法
 62
     0
100
AcDbMText
 10
2162.5
 20
772.5
 30
0.0
 40
30.0
 41
0.0
 71
     5
 72
     1
  1
1092
 73
     1
 44
1.0
  0
POINT
  5
12684
330
1267B
100
AcDbEntity
  8
Defpoints
 62
     0
100
AcDbPoint
 10
1889.4
 20
668.3499999999995
 30
0.0
  0
POINT
  5
12685
330
1267B
100
AcDbEntity
  8
Defpoints
 62
     0
100
AcDbPoint
 10
2435.6
 20
668.3499999999995
 30
0.0
  0
POINT
  5
12686
330
1267B
100
AcDbEntity
  8
Defpoints
 62
     0
100
AcDbPoint
 10
2435.6
 20
747.5
 30
0.0
  0
ENDBLK
  5
1267D
330
1267B
100
AcDbEntity
  8
0
100
AcDbBlockEnd
  0
BLOCK
  5
12688
330
12687
100
AcDbEntity
  8
0
100
AcDbBlockBegin
  2
*D1767
 70
     1
 10
0.0
 20
0.0
 30
0.0
  3
*D1767
  1

  0
LINE
  5
1268A
330
12687
100
AcDbEntity
  8
08非表示
 62
     0
370
    -2
100
AcDbLine
 10
1875.0
 20
463.9050911114298
 30
0.0
 11
1875.0
 21
464.4511773368562
 31
0.0
  0
LINE
  5
1268B
330
12687
100
AcDbEntity
  8
08非表示
 62
     0
370
    -2
100
AcDbLine
 10
2450.0
 20
463.9050911114298
 30
0.0
 11
2450.0
 21
464.4511773368562
 31
0.0
  0
LINE
  5
1268C
330
12687
100
AcDbEntity
  8
08非表示
 62
     0
370
    -2
100
AcDbLine
 10
1905.0
 20
474.4511773368562
 30
0.0
 11
2420.0
 21
474.4511773368562
 31
0.0
  0
INSERT
  5
1268D
330
12687
100
AcDbEntity
  8
08非表示
 62
     0
370
    -2
100
AcDbBlockReference
  2
_Open
 10
1875.0
 20
474.4511773368562
 30
0.0
 41
30.0
 42
30.0
 43
30.0
 50
180.0
  0
INSERT
  5
1268E
330
12687
100
AcDbEntity
  8
08非表示
 62
     0
370
    -2
100
AcDbBlockReference
  2
_Open
 10
2450.0
 20
474.4511773368562
 30
0.0
 41
30.0
 42
30.0
 43
30.0
  0
MTEXT
  5
1268F
330
12687
100
AcDbEntity
  8
08非表示
 62
     0
100
AcDbMText
 10
2162.5
 20
499.4511773368562
 30
0.0
 40
30.0
 41
0.0
 71
     5
 72
     1
  1
1150
 73
     1
 44
1.0
  0
POINT
  5
12690
330
12687
100
AcDbEntity
  8
Defpoints
 62
     0
100
AcDbPoint
 10
1875.0
 20
478.9050911114298
 30
0.0
  0
POINT
  5
12691
330
12687
100
AcDbEntity
  8
Defpoints
 62
     0
100
AcDbPoint
 10
2450.0
 20
478.9050911114298
 30
0.0
  0
POINT
  5
12692
330
12687
100
AcDbEntity
  8
Defpoints
 62
     0
100
AcDbPoint
 10
2450.0
 20
474.4511773368562
 30
0.0
  0
ENDBLK
  5
12689
330
12687
100
AcDbEntity
  8
0
100
AcDbBlockEnd
  0
BLOCK
  5
12694
330
12693
100
AcDbEntity
  8
0
100
AcDbBlockBegin
  2
*D1768
 70
     1
 10
0.0
 20
0.0
 30
0.0
  3
*D1768
  1

  0
LINE
  5
12696
330
12693
100
AcDbEntity
  8
08非表示
 62
     0
370
    -2
100
AcDbLine
 10
2007.033697874223
 20
400.0
 30
0.0
 11
2011.832308178285
 21
400.0
 31
0.0
  0
LINE
  5
12697
330
12693
100
AcDbEntity
  8
08非表示
 62
     0
370
    -2
100
AcDbLine
 10
2007.033697874223
 20
647.5
 30
0.0
 11
2011.832308178285
 21
647.5
 31
0.0
  0
LINE
  5
12698
330
12693
100
AcDbEntity
  8
08非表示
 62
     0
370
    -2
100
AcDbLine
 10
2001.832308178285
 20
430.0
 30
0.0
 11
2001.832308178285
 21
617.5
 31
0.0
  0
INSERT
  5
12699
330
12693
100
AcDbEntity
  8
08非表示
 62
     0
370
    -2
100
AcDbBlockReference
  2
_Open
 10
2001.832308178285
 20
400.0
 30
0.0
 41
30.0
 42
30.0
 43
30.0
 50
270.0
  0
INSERT
  5
1269A
330
12693
100
AcDbEntity
  8
08非表示
 62
     0
370
    -2
100
AcDbBlockReference
  2
_Open
 10
2001.832308178285
 20
647.5
 30
0.0
 41
30.0
 42
30.0
 43
30.0
 50
90.0
  0
MTEXT
  5
1269B
330
12693
100
AcDbEntity
  8
08非表示
 62
     0
100
AcDbMText
 10
1976.832308178285
 20
523.75
 30
0.0
 40
30.0
 41
0.0
 71
     5
 72
     1
  1
495
 11
0.0
 21
1.0
 31
0.0
 73
     1
 44
1.0
  0
POINT
  5
1269C
330
12693
100
AcDbEntity
  8
Defpoints
 62
     0
100
AcDbPoint
 10
1992.033697874223
 20
400.0
 30
0.0
  0
POINT
  5
1269D
330
12693
100
AcDbEntity
  8
Defpoints
 62
     0
100
AcDbPoint
 10
1992.033697874223
 20
647.5
 30
0.0
  0
POINT
  5
1269E
330
12693
100
AcDbEntity
  8
Defpoints
 62
     0
100
AcDbPoint
 10
2001.832308178285
 20
647.5
 30
0.0
  0
ENDBLK
  5
12695
330
12693
100
AcDbEntity
  8
0
100
AcDbBlockEnd
  0
ENDSEC
  0
SECTION
  2
ENTITIES
  0
LWPOLYLINE
  5
A843
330
1F
100
AcDbEntity
  8
02実線
100
AcDbPolyline
 90
        4
 70
     1
 43
0.0
 10
700.0
 20
1974.999999999999
 10
700.0
 20
2469.999999999999
 10
1850.0
 20
2469.999999999999
 10
1850.0
 20
1974.999999999999
  0
LWPOLYLINE
  5
A845
330
1F
100
AcDbEntity
  8
03破線
100
AcDbPolyline
 90
        4
 70
     1
 43
0.0
 10
703.2000000000007
 20
1978.199999999998
 10
703.2000000000007
 20
2466.799999999998
 10
1846.799999999999
 20
2466.799999999998
 10
1846.799999999999
 20
1978.199999999998
  0
INSERT
  5
A846
330
1F
100
AcDbEntity
  8
02実線
100
AcDbBlockReference
  2
BH-端柱(L60)-平面
 10
696.7999999999993
 20
1970.299999999998
 30
0.0
  0
INSERT
  5
A847
330
1F
100
AcDbEntity
  8
02実線
100
AcDbBlockReference
  2
BH-端柱(L60)-平面
 10
696.7999999999993
 20
2474.699999999998
 30
0.0
 41
-1.0
 50
180.0
  0
INSERT
  5
A848
330
1F
100
AcDbEntity
  8
02実線
100
AcDbBlockReference
  2
BH-端柱(L60)-平面
 10
1853.200000000001
 20
2474.699999999998
 30
0.0
 50
180.0
  0
INSERT
  5
A849
330
1F
100
AcDbEntity
  8
02実線
100
AcDbBlockReference
  2
BH-端柱(L60)-平面
 10
1853.200000000001
 20
1970.299999999998
 30
0.0
 41
-1.0
  0
LINE
  5
A8B3
330
1F
100
AcDbEntity
  8
02実線
100
AcDbLine
 10
760.0
 20
2064.999999999999
 30
0.0
 11
760.0
 21
2379.999999999999
 31
0.0
  0
LINE
  5
A8B4
330
1F
100
AcDbEntity
  8
02実線
100
AcDbLine
 10
700.0
 20
2379.999999999999
 30
0.0
 11
1850.0
 21
2379.999999999999
 31
0.0
  0
LINE
  5
A8B5
330
1F
100
AcDbEntity
  8
02実線
100
AcDbLine
 10
1790.0
 20
2379.999999999999
 30
0.0
 11
1790.0
 21
2064.999999999999
 31
0.0
  0
LINE
  5
A8B6
330
1F
100
AcDbEntity
  8
02実線
100
AcDbLine
 10
1850.0
 20
2064.999999999999
 30
0.0
 11
700.0
 21
2064.999999999999
 31
0.0
  0
LINE
  5
A8B7
330
1F
100
AcDbEntity
  8
03破線
100
AcDbLine
 10
1846.799999999999
 20
2061.799999999998
 30
0.0
 11
703.2000000000007
 21
2061.799999999998
 31
0.0
  0
LINE
  5
A8B8
330
1F
100
AcDbEntity
  8
03破線
100
AcDbLine
 10
1846.799999999999
 20
2383.199999999998
 30
0.0
 11
703.2000000000007
 21
2383.199999999998
 31
0.0
  0
INSERT
  5
BDFC
330
1F
100
AcDbEntity
  8
02実線
100
AcDbBlockReference
  2
BH-筋交(柱L60)-500H
 10
726.7999999999993
 20
1315.0
 30
0.0
  0
INSERT
  5
BDFD
330
1F
100
AcDbEntity
  8
02実線
100
AcDbBlockReference
  2
BH-端柱(L60)-500H-正面
 10
696.7999999999993
 20
1099.999999999997
 30
0.0
  0
INSERT
  5
BDFE
330
1F
100
AcDbEntity
  8
02実線
100
AcDbBlockReference
  2
BH-端柱(L60)-500H-側面
 10
2245.299999999999
 20
1100.0
 30
0.0
  0
INSERT
  5
BDFF
330
1F
100
AcDbEntity
  8
02実線
100
AcDbBlockReference
  2
BH-端柱(L60)-500H-正面
 10
1853.200000000001
 20
1099.999999999997
 30
0.0
 41
-1.0
  0
INSERT
  5
BE00
330
1F
100
AcDbEntity
  8
02実線
100
AcDbBlockReference
  2
BH-端柱(L60)-500H-側面
 10
2749.700000000001
 20
1100.0
 30
0.0
 41
-1.0
  0
LWPOLYLINE
  5
BE01
102
{ACAD_REACTORS
330
BE74
102
}
330
1F
100
AcDbEntity
  8
08非表示
100
AcDbPolyline
 90
        4
 70
     1
 43
0.0
 10
2739.000000000002
 20
1309.999999999997
 10
2739.000000000002
 20
1349.999999999997
 10
2749.700000000003
 20
1349.999999999997
 10
2749.700000000003
 20
1309.999999999997
  0
LWPOLYLINE
  5
BE02
102
{ACAD_REACTORS
330
BE74
102
}
330
1F
100
AcDbEntity
  8
08非表示
100
AcDbPolyline
 90
        4
 70
     1
 43
0.0
 10
2256.000000000002
 20
1309.999999999997
 10
2256.000000000002
 20
1349.999999999997
 10
2245.299999999999
 20
1349.999999999997
 10
2245.299999999999
 20
1309.999999999997
  0
LINE
  5
BE03
102
{ACAD_REACTORS
330
BE74
102
}
330
1F
100
AcDbEntity
  8
03破線
100
AcDbLine
 10
2256.000000000002
 20
1309.999999999997
 30
0.0
 11
2305.300000000001
 21
1309.999999999997
 31
0.0
  0
LINE
  5
BE04
102
{ACAD_REACTORS
330
BE74
102
}
330
1F
100
AcDbEntity
  8
03破線
100
AcDbLine
 10
2256.000000000002
 20
1349.999999999997
 30
0.0
 11
2305.300000000001
 21
1349.999999999997
 31
0.0
  0
LINE
  5
BE05
102
{ACAD_REACTORS
330
BE74
102
}
330
1F
100
AcDbEntity
  8
03破線
100
AcDbLine
 10
2256.000000000002
 20
1309.999999999997
 30
0.0
 11
2256.000000000002
 21
1349.999999999997
 31
0.0
  0
LINE
  5
BE06
102
{ACAD_REACTORS
330
BE74
102
}
330
1F
100
AcDbEntity
  8
03破線
100
AcDbLine
 10
2739.000000000002
 20
1309.999999999997
 30
0.0
 11
2689.700000000003
 21
1309.999999999997
 31
0.0
  0
LINE
  5
BE07
102
{ACAD_REACTORS
330
BE74
102
}
330
1F
100
AcDbEntity
  8
03破線
100
AcDbLine
 10
2739.000000000002
 20
1349.999999999997
 30
0.0
 11
2689.700000000003
 21
1349.999999999997
 31
0.0
  0
LINE
  5
BE08
102
{ACAD_REACTORS
330
BE74
102
}
330
1F
100
AcDbEntity
  8
03破線
100
AcDbLine
 10
2739.000000000002
 20
1309.999999999997
 30
0.0
 11
2739.000000000002
 21
1349.999999999997
 31
0.0
  0
LINE
  5
BE09
102
{ACAD_REACTORS
330
BE74
102
}
330
1F
100
AcDbEntity
  8
02実線
100
AcDbLine
 10
2689.700000000003
 20
1349.999999999997
 30
0.0
 11
2305.300000000001
 21
1349.999999999997
 31
0.0
  0
LINE
  5
BE0A
102
{ACAD_REACTORS
330
BE74
102
}
330
1F
100
AcDbEntity
  8
03破線
100
AcDbLine
 10
2739.000000000002
 20
1346.8
 30
0.0
 11
2256.000000000002
 21
1346.8
 31
0.0
  0
LINE
  5
BE0B
102
{ACAD_REACTORS
330
BE74
102
}
330
1F
100
AcDbEntity
  8
02実線
100
AcDbLine
 10
2689.700000000003
 20
1309.999999999997
 30
0.0
 11
2305.300000000001
 21
1309.999999999997
 31
0.0
  0
INSERT
  5
BE0C
330
1F
100
AcDbEntity
  8
03破線
100
AcDbBlockReference
  2
BH-anchor-L60-背面
 10
1821.200000000001
 20
1099.999999999997
 30
0.0
  0
INSERT
  5
BE0D
330
1F
100
AcDbEntity
  8
03破線
100
AcDbBlockReference
  2
BH-anchor-L60-背面
 10
728.7999999999993
 20
1099.999999999997
 30
0.0
  0
INSERT
  5
BE0E
330
1F
100
AcDbEntity
  8
03破線
100
AcDbBlockReference
  2
BH-anchor-L60-立面
 10
2709.5
 20
1100.0
 30
0.0
 41
-1.0
  0
INSERT
  5
BE0F
330
1F
100
AcDbEntity
  8
03破線
100
AcDbBlockReference
  2
BH-anchor-L60-立面
 10
2285.5
 20
1100.0
 30
0.0
  0
LWPOLYLINE
  5
BE11
102
{ACAD_REACTORS
330
BE76
102
}
330
1F
100
AcDbEntity
  8
03破線
100
AcDbPolyline
 90
        4
 70
     0
 43
0.0
 10
703.1999999999971
 20
1549.999999999997
 10
703.1999999999971
 20
1596.8
 10
1846.799999999999
 20
1596.8
 10
1846.799999999999
 20
1549.999999999997
  0
LINE
  5
BE12
102
{ACAD_REACTORS
330
BE76
102
}
330
1F
100
AcDbEntity
  8
03破線
100
AcDbLine
 10
703.1999999999971
 20
1549.999999999997
 30
0.0
 11
720.0
 21
1539.999999999997
 31
0.0
  0
LINE
  5
BE13
102
{ACAD_REACTORS
330
BE76
102
}
330
1F
100
AcDbEntity
  8
03破線
100
AcDbLine
 10
1846.799999999999
 20
1549.999999999997
 30
0.0
 11
1830.0
 21
1539.999999999997
 31
0.0
  0
LINE
  5
BE14
102
{ACAD_REACTORS
330
BE76
102
}
330
1F
100
AcDbEntity
  8
03破線
100
AcDbLine
 10
700.0
 20
1596.999999999997
 30
0.0
 11
700.0
 21
1549.999999999997
 31
0.0
  0
LINE
  5
BE15
102
{ACAD_REACTORS
330
BE76
102
}
330
1F
100
AcDbEntity
  8
03破線
100
AcDbLine
 10
1846.799999999999
 20
1549.999999999997
 30
0.0
 11
1850.0
 21
1549.999999999997
 31
0.0
  0
LINE
  5
BE16
102
{ACAD_REACTORS
330
BE76
102
}
330
1F
100
AcDbEntity
  8
03破線
100
AcDbLine
 10
703.1999999999971
 20
1549.999999999997
 30
0.0
 11
700.0
 21
1549.999999999997
 31
0.0
  0
LINE
  5
BE17
102
{ACAD_REACTORS
330
BE76
102
}
330
1F
100
AcDbEntity
  8
03破線
100
AcDbLine
 10
738.5
 20
1559.499999999997
 30
0.0
 11
721.5
 21
1559.499999999997
 31
0.0
  0
LINE
  5
BE18
102
{ACAD_REACTORS
330
BE76
102
}
330
1F
100
AcDbEntity
  8
03破線
100
AcDbLine
 10
738.5
 20
1572.499999999997
 30
0.0
 11
721.5
 21
1572.499999999997
 31
0.0
  0
ARC
  5
BE19
102
{ACAD_REACTORS
330
BE76
102
}
330
1F
100
AcDbEntity
  8
03破線
100
AcDbCircle
 10
738.5
 20
1565.999999999997
 30
0.0
 40
6.5
100
AcDbArc
 50
270.0
 51
90.0
  0
ARC
  5
BE1A
102
{ACAD_REACTORS
330
BE76
102
}
330
1F
100
AcDbEntity
  8
03破線
100
AcDbCircle
 10
721.5
 20
1565.999999999997
 30
0.0
 40
6.5
100
AcDbArc
 50
90.0
 51
270.0
  0
CIRCLE
  5
BE1B
102
{ACAD_REACTORS
330
BE76
102
}
330
1F
100
AcDbEntity
  8
02実線
100
AcDbCircle
 10
1039.0
 20
1564.999999999997
 30
0.0
 40
6.5
  0
CIRCLE
  5
BE1C
102
{ACAD_REACTORS
330
BE76
102
}
330
1F
100
AcDbEntity
  8
02実線
100
AcDbCircle
 10
1511.0
 20
1564.999999999997
 30
0.0
 40
6.5
  0
ARC
  5
BE1D
102
{ACAD_REACTORS
330
BE76
102
}
330
1F
100
AcDbEntity
  8
03破線
100
AcDbCircle
 10
1828.5
 20
1565.999999999997
 30
0.0
 40
6.5
100
AcDbArc
 50
270.0
 51
90.0
  0
ARC
  5
BE1E
102
{ACAD_REACTORS
330
BE76
102
}
330
1F
100
AcDbEntity
  8
03破線
100
AcDbCircle
 10
1811.5
 20
1565.999999999997
 30
0.0
 40
6.5
100
AcDbArc
 50
90.0
 51
270.0
  0
LINE
  5
BE1F
102
{ACAD_REACTORS
330
BE76
102
}
330
1F
100
AcDbEntity
  8
03破線
100
AcDbLine
 10
1811.5
 20
1572.499999999997
 30
0.0
 11
1828.5
 21
1572.499999999997
 31
0.0
  0
LINE
  5
BE20
102
{ACAD_REACTORS
330
BE76
102
}
330
1F
100
AcDbEntity
  8
03破線
100
AcDbLine
 10
1811.5
 20
1559.499999999997
 30
0.0
 11
1828.5
 21
1559.499999999997
 31
0.0
  0
LWPOLYLINE
  5
BE21
102
{ACAD_REACTORS
330
BE76
102
}
330
1F
100
AcDbEntity
  8
03破線
100
AcDbPolyline
 90
        2
 70
   128
 43
0.0
 10
756.7999999999993
 20
1539.999999999997
 10
720.0
 20
1539.999999999997
  0
LWPOLYLINE
  5
BE22
102
{ACAD_REACTORS
330
BE76
102
}
330
1F
100
AcDbEntity
  8
03破線
100
AcDbPolyline
 90
        2
 70
     0
 43
0.0
 10
1830.0
 20
1539.999999999997
 10
1793.200000000001
 20
1539.999999999997
  0
LWPOLYLINE
  5
BE23
102
{ACAD_REACTORS
330
BE76
102
}
330
1F
100
AcDbEntity
  8
02実線
100
AcDbPolyline
 90
        2
 70
     0
 43
0.0
 10
1793.200000000001
 20
1539.999999999997
 10
756.7999999999993
 20
1539.999999999997
  0
LWPOLYLINE
  5
BE24
102
{ACAD_REACTORS
330
BE76
102
}
330
1F
100
AcDbEntity
  8
03破線
100
AcDbPolyline
 90
        2
 70
     0
 43
0.0
 10
1850.0
 20
1596.999999999997
 10
1850.0
 20
1549.999999999997
  0
LWPOLYLINE
  5
BE25
102
{ACAD_REACTORS
330
BE76
102
}
330
1F
100
AcDbEntity
  8
02実線
100
AcDbPolyline
 90
        4
 70
     0
 43
0.0
 10
700.0
 20
1596.999999999997
 10
700.0
 20
1599.999999999997
 10
1850.0
 20
1599.999999999997
 10
1850.0
 20
1596.999999999997
  0
LINE
  5
BE26
102
{ACAD_REACTORS
330
BE76
102
}
330
1F
100
AcDbEntity
  8
04一点鎖線
 48
0.2
100
AcDbLine
 10
1039.0
 20
1581.499999999997
 30
0.0
 11
1039.0
 21
1548.499999999997
 31
0.0
  0
LINE
  5
BE27
102
{ACAD_REACTORS
330
BE76
102
}
330
1F
100
AcDbEntity
  8
04一点鎖線
 48
0.2
100
AcDbLine
 10
1055.5
 20
1564.999999999997
 30
0.0
 11
1022.5
 21
1564.999999999997
 31
0.0
  0
LINE
  5
BE28
102
{ACAD_REACTORS
330
BE76
102
}
330
1F
100
AcDbEntity
  8
04一点鎖線
 48
0.2
100
AcDbLine
 10
1511.0
 20
1581.499999999997
 30
0.0
 11
1511.0
 21
1548.499999999997
 31
0.0
  0
LINE
  5
BE29
102
{ACAD_REACTORS
330
BE76
102
}
330
1F
100
AcDbEntity
  8
04一点鎖線
 48
0.2
100
AcDbLine
 10
1527.5
 20
1564.999999999997
 30
0.0
 11
1494.5
 21
1564.999999999997
 31
0.0
  0
LWPOLYLINE
  5
BE2A
102
{ACAD_REACTORS
330
BE75
102
}
330
1F
100
AcDbEntity
  8
03破線
  6
HIDDEN
100
AcDbPolyline
 90
        4
 70
     0
 43
0.0
 10
2253.200000000001
 20
1549.999999999997
 10
2253.200000000001
 20
1596.8
 10
2741.799999999999
 20
1596.8
 10
2741.799999999999
 20
1549.999999999997
  0
LWPOLYLINE
  5
BE2B
102
{ACAD_REACTORS
330
BE75
102
}
330
1F
100
AcDbEntity
  8
02実線
100
AcDbPolyline
 90
        2
 70
     0
 43
0.0
 10
2685.0
 20
1539.999999999997
 10
2310.0
 20
1539.999999999997
  0
LINE
  5
BE2C
102
{ACAD_REACTORS
330
BE75
102
}
330
1F
100
AcDbEntity
  8
02実線
100
AcDbLine
 10
2310.0
 20
1539.999999999997
 30
0.0
 11
2310.0
 21
1549.999999999997
 31
0.0
  0
LINE
  5
BE2D
102
{ACAD_REACTORS
330
BE75
102
}
330
1F
100
AcDbEntity
  8
02実線
100
AcDbLine
 10
2685.0
 20
1539.999999999997
 30
0.0
 11
2685.0
 21
1549.999999999997
 31
0.0
  0
CIRCLE
  5
BE2E
102
{ACAD_REACTORS
330
BE75
102
}
330
1F
100
AcDbEntity
  8
02実線
100
AcDbCircle
 10
2350.0
 20
1569.999999999997
 30
0.0
 40
6.5
  0
CIRCLE
  5
BE2F
102
{ACAD_REACTORS
330
BE75
102
}
330
1F
100
AcDbEntity
  8
02実線
100
AcDbCircle
 10
2280.0
 20
1569.999999999997
 30
0.0
 40
6.5
  0
CIRCLE
  5
BE30
102
{ACAD_REACTORS
330
BE75
102
}
330
1F
100
AcDbEntity
  8
02実線
100
AcDbCircle
 10
2715.0
 20
1569.999999999997
 30
0.0
 40
6.5
  0
CIRCLE
  5
BE31
102
{ACAD_REACTORS
330
BE75
102
}
330
1F
100
AcDbEntity
  8
02実線
100
AcDbCircle
 10
2645.0
 20
1569.999999999997
 30
0.0
 40
6.5
  0
LINE
  5
BE32
102
{ACAD_REACTORS
330
BE75
102
}
330
1F
100
AcDbEntity
  8
02実線
100
AcDbLine
 10
2310.0
 20
1549.999999999997
 30
0.0
 11
2305.299999999999
 21
1549.999999999997
 31
0.0
  0
LWPOLYLINE
  5
BE33
102
{ACAD_REACTORS
330
BE75
102
}
330
1F
100
AcDbEntity
  8
03破線
  6
HIDDEN
100
AcDbPolyline
 90
        2
 70
     0
 43
0.0
 10
2250.0
 20
1549.999999999997
 10
2250.0
 20
1597.0
  0
LINE
  5
BE34
102
{ACAD_REACTORS
330
BE75
102
}
330
1F
100
AcDbEntity
  8
03破線
  6
HIDDEN
100
AcDbLine
 10
2305.299999999999
 20
1549.999999999997
 30
0.0
 11
2250.0
 21
1549.999999999997
 31
0.0
  0
LWPOLYLINE
  5
BE35
102
{ACAD_REACTORS
330
BE75
102
}
330
1F
100
AcDbEntity
  8
02実線
100
AcDbPolyline
 90
        4
 70
     0
 43
0.0
 10
2250.0
 20
1597.0
 10
2250.0
 20
1599.999999999997
 10
2745.0
 20
1599.999999999997
 10
2745.0
 20
1597.0
  0
LINE
  5
BE36
102
{ACAD_REACTORS
330
BE75
102
}
330
1F
100
AcDbEntity
  8
02実線
100
AcDbLine
 10
2685.0
 20
1549.999999999997
 30
0.0
 11
2689.700000000001
 21
1549.999999999997
 31
0.0
  0
LWPOLYLINE
  5
BE37
102
{ACAD_REACTORS
330
BE75
102
}
330
1F
100
AcDbEntity
  8
03破線
  6
HIDDEN
100
AcDbPolyline
 90
        2
 70
     0
 43
0.0
 10
2745.0
 20
1597.0
 10
2745.0
 20
1549.999999999997
  0
LINE
  5
BE38
102
{ACAD_REACTORS
330
BE75
102
}
330
1F
100
AcDbEntity
  8
03破線
  6
HIDDEN
100
AcDbLine
 10
2689.700000000001
 20
1549.999999999997
 30
0.0
 11
2745.0
 21
1549.999999999997
 31
0.0
  0
LINE
  5
BE39
102
{ACAD_REACTORS
330
BE75
102
}
330
1F
100
AcDbEntity
  8
04一点鎖線
 48
0.2
100
AcDbLine
 10
2661.5
 20
1569.999999999997
 30
0.0
 11
2628.5
 21
1569.999999999997
 31
0.0
  0
LINE
  5
BE3A
102
{ACAD_REACTORS
330
BE75
102
}
330
1F
100
AcDbEntity
  8
04一点鎖線
 48
0.2
100
AcDbLine
 10
2645.0
 20
1553.499999999997
 30
0.0
 11
2645.0
 21
1586.499999999997
 31
0.0
  0
LINE
  5
BE3B
102
{ACAD_REACTORS
330
BE75
102
}
330
1F
100
AcDbEntity
  8
04一点鎖線
 48
0.2
100
AcDbLine
 10
2366.5
 20
1569.999999999997
 30
0.0
 11
2333.5
 21
1569.999999999997
 31
0.0
  0
LINE
  5
BE3C
102
{ACAD_REACTORS
330
BE75
102
}
330
1F
100
AcDbEntity
  8
04一点鎖線
 48
0.2
100
AcDbLine
 10
2350.0
 20
1553.499999999997
 30
0.0
 11
2350.0
 21
1586.499999999997
 31
0.0
  0
INSERT
  5
F6AB
330
1F
100
AcDbEntity
  8
10副資材
100
AcDbBlockReference
  2
BH-組立ボルトセット
 10
956.0
 20
1974.999999999995
 30
0.0
 50
270.0
  0
INSERT
  5
12266
330
1F
100
AcDbEntity
  8
02実線
100
AcDbBlockReference
  2
hole-φ16
 10
850.0
 20
2445.999999999999
 30
0.0
  0
INSERT
  5
12267
330
1F
100
AcDbEntity
  8
02実線
100
AcDbBlockReference
  2
hole-φ16
 10
1700.0
 20
2445.999999999999
 30
0.0
  0
INSERT
  5
12268
330
1F
100
AcDbEntity
  8
02実線
100
AcDbBlockReference
  2
hole-φ16
 10
1700.0
 20
1998.999999999999
 30
0.0
  0
INSERT
  5
12269
330
1F
100
AcDbEntity
  8
02実線
100
AcDbBlockReference
  2
hole-φ16
 10
850.0
 20
1998.999999999999
 30
0.0
  0
INSERT
  5
1226A
330
1F
100
AcDbEntity
  8
02実線
100
AcDbBlockReference
  2
hole-φ16
 10
800.0
 20
2004.999999999999
 30
0.0
  0
INSERT
  5
1226B
330
1F
100
AcDbEntity
  8
02実線
100
AcDbBlockReference
  2
hole-φ16
 10
1750.0
 20
2004.999999999999
 30
0.0
  0
INSERT
  5
1226C
330
1F
100
AcDbEntity
  8
02実線
100
AcDbBlockReference
  2
hole-φ16
 10
1750.0
 20
2439.999999999999
 30
0.0
  0
INSERT
  5
1226D
330
1F
100
AcDbEntity
  8
02実線
100
AcDbBlockReference
  2
hole-φ16
 10
800.0
 20
2439.999999999999
 30
0.0
  0
VIEWPORT
  5
9F0D
330
1B
100
AcDbEntity
 67
     1
  8
0
100
AcDbViewport
 10
202.5
 20
128.5
 30
0.0
 40
486.0
 41
308.4
 68
     1
 69
     1
 12
202.5
 22
128.5
 13
0.0
 23
0.0
 14
0.5
 24
0.5
 15
0.0
 25
0.0
 16
0.0
 26
0.0
 36
1.0
 17
0.0
 27
0.0
 37
0.0
 42
50.0
 43
0.0
 44
0.0
 45
308.4
 50
0.0
 51
0.0
 72
   100
 90
   557152
  1

281
     0
 71
     1
 74
     0
110
0.0
120
0.0
130
0.0
111
1.0
121
0.0
131
0.0
112
0.0
122
1.0
132
0.0
 79
     0
146
0.0
  0
VIEWPORT
  5
9F0E
330
1B
100
AcDbEntity
 67
     1
  8
0
100
AcDbViewport
 10
202.5
 20
128.5
 30
0.0
 40
324.0
 41
205.6
 68
     2
 69
     2
 12
-3224.9849078482
 22
3553.815758143106
 13
0.0
 23
0.0
 14
0.5
 24
0.5
 15
0.0
 25
0.0
 16
0.0
 26
0.0
 36
1.0
 17
0.0
 27
0.0
 37
0.0
 42
50.0
 43
0.0
 44
0.0
 45
10712.16027781073
 50
0.0
 51
0.0
 72
   100
 90
   557152
  1

281
     0
 71
     1
 74
     0
110
0.0
120
0.0
130
0.0
111
1.0
121
0.0
131
0.0
112
0.0
122
1.0
132
0.0
 79
     0
146
0.0
  0
ENDSEC
  0
SECTION
  2
OBJECTS
  0
DICTIONARY
  5
C
330
0
100
AcDbDictionary
281
     1
  3
ACAD_DETAILVIEWSTYLE
350
1270B
  3
ACAD_GROUP
350
D
  3
ACAD_IMAGE_VARS
350
6A88
  3
ACAD_LAYOUT
350
1A
  3
ACAD_MLINESTYLE
350
17
  3
ACAD_PLOTSETTINGS
350
19
  3
ACAD_PLOTSTYLENAME
350
E
  3
ACAD_SCALELIST
350
6A4E
  3
ACAD_SECTIONVIEWSTYLE
350
1270C
  3
AcadDim
350
FB97
  3
AcDbVariableDictionary
350
79E
  3
APPDATA
350
6A87
  3
DWGPROPS
350
1270D
  0
DICTIONARY
  5
7A6F
330
2
100
AcDbDictionary
280
     1
281
     1
  3
ACAD_LAYERSTATES
360
7A70
  3
ACLYDICTIONARY
360
F959
  0
DICTIONARY
  5
969E
330
1F
100
AcDbDictionary
280
     1
281
     1
  3
ACAD_SORTENTS
360
969F
  0
DICTIONARY
  5
1270B
102
{ACAD_REACTORS
330
C
102
}
330
C
100
AcDbDictionary
281
     1
  0
DICTIONARY
  5
D
102
{ACAD_REACTORS
330
C
102
}
330
C
100
AcDbDictionary
281
     1
  3
*A1
350
BE74
  3
*A2
350
BE75
  3
*A3
350
BE76
  3
*A4
350
D6EC
  3
*A5
350
D6ED
  3
*A6
350
D6EE
  3
*A7
350
D6EF
  3
*A8
350
D6F0
  0
RASTERVARIABLES
  5
6A88
102
{ACAD_REACTORS
330
C
102
}
330
C
100
AcDbRasterVariables
 90
        0
 70
     1
 71
     1
 72
     1
  0
DICTIONARY
  5
1A
102
{ACAD_REACTORS
330
C
102
}
330
C
100
AcDbDictionary
281
     1
  3
Layout1
350
1E
  3
Model
350
22
  0
DICTIONARY
  5
17
102
{ACAD_REACTORS
330
C
102
}
330
C
100
AcDbDictionary
281
     1
  3
Standard
350
18
  0
DICTIONARY
  5
19
102
{ACAD_REACTORS
330
C
102
}
330
C
100
AcDbDictionary
281
     1
  0
ACDBDICTIONARYWDFLT
  5
E
102
{ACAD_REACTORS
330
C
102
}
330
C
100
AcDbDictionary
281
     1
  3
Normal
350
F
100
AcDbDictionaryWithDefault
340
F
  0
DICTIONARY
  5
6A4E
102
{ACAD_REACTORS
330
C
102
}
330
C
100
AcDbDictionary
281
     1
  3
A0
350
6A4F
  3
A1
350
6A50
  3
A2
350
6A51
  3
A3
350
6A52
  3
A4
350
6A53
  3
A5
350
6A54
  3
A6
350
6A55
  3
A7
350
6A56
  3
A8
350
6A57
  3
A9
350
6A58
  3
B0
350
6A59
  3
B1
350
6A5A
  3
B2
350
6A5B
  3
B3
350
6A5C
  3
B4
350
6A5D
  3
B5
350
6A5E
  3
B6
350
6A5F
  3
B7
350
6A60
  3
B8
350
6A61
  3
B9
350
6A62
  3
C0
350
6A63
  3
C1
350
6A64
  3
C2
350
6A65
  3
C3
350
6A66
  3
C4
350
6A67
  3
C5
350
6A68
  3
C6
350
6A69
  3
C7
350
6A6A
  3
C8
350
6A6B
  3
C9
350
6A6C
  3
D0
350
6A6D
  3
D1
350
6A6E
  3
D2
350
6A6F
  0
DICTIONARY
  5
1270C
102
{ACAD_REACTORS
330
C
102
}
330
C
100
AcDbDictionary
281
     1
  0
XRECORD
  5
FB97
102
{ACAD_REACTORS
330
C
102
}
330
C
100
AcDbXrecord
280
     1
340
0
 72
     0
 71
     0
 70
     0
 69
     0
 68
     1
 67
     3
 66
     0
 65
     0
 64
     0
 63
     3
 62
     1
 61
     0
 60
     0
 40
0.0
  0
DICTIONARY
  5
79E
102
{ACAD_REACTORS
330
C
102
}
330
C
100
AcDbDictionary
281
     1
  3
DIMASSOC
350
79F
  3
SORTENTS
350
264F
  0
DICTIONARY
  5
6A87
102
{ACAD_REACTORS
330
C
102
}
330
C
100
AcDbDictionary
281
     1
  0
XRECORD
  5
1270D
102
{ACAD_REACTORS
330
C
102
}
330
C
100
AcDbXrecord
280
     1
  1
DWGPROPS COOKIE
  2

  3

  4

  6

  7

  8
2334
  9

300
=
301
=
302
=
303
=
304
=
305
=
306
=
307
=
308
=
309
=
 40
0.0
 41
2455859.030048461
 42
2458586.183161597
  1

 90
        0
  0
DICTIONARY
  5
7A70
102
{ACAD_REACTORS
330
7A6F
102
}
330
7A6F
100
AcDbDictionary
281
     1
  0
DICTIONARY
  5
F959
102
{ACAD_REACTORS
330
7A6F
102
}
330
7A6F
100
AcDbDictionary
281
     1
1001
ACAD
1000
<All
  0
SORTENTSTABLE
  5
969F
102
{ACAD_REACTORS
330
969E
102
}
330
969E
100
AcDbSortentsTable
330
1F
331
0
  5
91C3
331
0
  5
7E90
331
0
  5
8ABB
331
0
  5
8ABC
331
0
  5
8ABD
331
0
  5
8ABE
331
0
  5
8EBB
331
0
  5
7E94
331
0
  5
8EBC
331
0
  5
8EBD
331
0
  5
8EBE
331
0
  5
8EBF
331
0
  5
8ED5
331
0
  5
8ED6
331
0
  5
8ED7
331
0
  5
8ED8
331
0
  5
8EDF
331
0
  5
8EE0
331
0
  5
886F
331
0
  5
8871
331
0
  5
8874
331
0
  5
8878
331
0
  5
8879
331
0
  5
887A
331
0
  5
887B
331
0
  5
887C
331
0
  5
896C
331
0
  5
8EE1
331
0
  5
8EE2
331
0
  5
8EE3
331
0
  5
8EE4
331
0
  5
8EE5
331
0
  5
8EE7
331
0
  5
8EE8
331
0
  5
8EEB
331
0
  5
8EEC
331
0
  5
8EED
331
0
  5
8EEE
331
0
  5
8EEF
331
0
  5
8EF0
331
0
  5
7E95
331
0
  5
7E97
331
0
  5
7E98
331
0
  5
8EF3
331
0
  5
8EF5
331
0
  5
8EF6
331
0
  5
8EF7
331
0
  5
8EF8
331
0
  5
8EFD
331
0
  5
7EA4
331
0
  5
7EA5
331
0
  5
8EFE
331
0
  5
8EFF
331
0
  5
8F00
331
0
  5
8F01
331
0
  5
8F02
331
0
  5
7EA6
331
0
  5
7EA7
331
0
  5
8F03
331
0
  5
8F04
331
0
  5
8F05
331
0
  5
8F07
331
0
  5
8F08
331
0
  5
7EA8
331
0
  5
7EA9
331
0
  5
8F0D
331
0
  5
8F0E
331
0
  5
8F0F
331
0
  5
8F11
331
0
  5
8F12
331
0
  5
7EAA
331
0
  5
7EB1
331
0
  5
8F13
331
0
  5
8F14
331
0
  5
8F15
331
0
  5
7EB2
331
0
  5
8F16
331
0
  5
8F17
331
0
  5
8F18
331
0
  5
8F19
331
0
  5
8F1A
331
0
  5
8F1B
331
0
  5
8F1C
331
0
  5
8F1D
331
0
  5
8F22
331
0
  5
8F24
331
0
  5
8F31
331
0
  5
8F35
331
0
  5
8F36
331
0
  5
8F38
331
0
  5
8F39
331
0
  5
8F3A
331
0
  5
8F3B
331
0
  5
8F3C
331
0
  5
8F3D
331
0
  5
8F3F
331
0
  5
8F40
331
0
  5
8F41
331
0
  5
8F42
331
0
  5
8F43
331
0
  5
8F44
331
0
  5
8F49
331
0
  5
8F4A
331
0
  5
8F4B
331
0
  5
8F4C
331
0
  5
8F4D
331
0
  5
8F4E
331
0
  5
8F4F
331
0
  5
8F52
331
0
  5
8F53
331
0
  5
8F54
331
0
  5
8F57
331
0
  5
8F58
331
0
  5
8F5A
331
0
  5
8F5B
331
0
  5
8F5C
331
0
  5
8F5D
331
0
  5
8F5E
331
0
  5
8F5F
331
0
  5
8F61
331
0
  5
8F67
331
0
  5
8F68
331
0
  5
8F73
331
0
  5
7EB3
331
0
  5
7EB5
331
0
  5
7EB6
331
0
  5
7EB9
331
0
  5
7ECB
331
0
  5
7ED0
331
0
  5
8F90
331
0
  5
8F94
331
0
  5
8F95
331
0
  5
8FAD
331
0
  5
8FBC
331
0
  5
7ED1
331
0
  5
7ED2
331
0
  5
7ED4
331
0
  5
7ED7
331
0
  5
7EDC
331
0
  5
7EDD
331
0
  5
7EDE
331
0
  5
7EDF
331
0
  5
7EE0
331
0
  5
91C6
331
0
  5
91C7
331
0
  5
91C8
331
0
  5
91C9
331
0
  5
7EE2
331
0
  5
7EE3
331
0
  5
7EE4
331
0
  5
7EE8
331
0
  5
7EE9
331
0
  5
7EEA
331
0
  5
91D6
331
0
  5
91F3
331
0
  5
91F6
331
0
  5
7EEB
331
0
  5
9731
331
0
  5
7E8F
331
0
  5
7EED
331
0
  5
7EEE
331
0
  5
7EEF
331
0
  5
7EF3
331
0
  5
7EF4
331
0
  5
7EF5
331
0
  5
7EF6
331
0
  5
7EF8
331
0
  5
7EF9
331
0
  5
7EFA
331
0
  5
7EFE
331
0
  5
7EFF
331
0
  5
7F00
331
0
  5
7F03
331
0
  5
7F04
331
0
  5
7F05
331
0
  5
7F09
331
0
  5
7F0A
331
0
  5
7F0B
331
0
  5
7F0C
331
0
  5
7F0D
331
0
  5
7F12
331
0
  5
7F13
331
0
  5
7F16
331
0
  5
7F17
331
0
  5
7F4B
331
0
  5
7F4C
331
0
  5
7F4D
331
0
  5
7F4E
331
0
  5
7F50
331
0
  5
7F51
331
0
  5
7F52
331
0
  5
7F58
331
0
  5
7F59
331
0
  5
7F5A
331
0
  5
7F5C
331
0
  5
7F8F
331
0
  5
7F90
331
0
  5
7F91
331
0
  5
7F92
331
0
  5
7F93
331
0
  5
7F94
331
0
  5
7F95
331
0
  5
7F96
331
0
  5
7F97
331
0
  5
7F98
331
0
  5
7FC2
331
0
  5
7FC3
331
0
  5
7FCB
331
0
  5
7FDE
331
0
  5
7FDF
331
0
  5
8081
331
0
  5
8082
331
0
  5
8083
331
0
  5
8084
331
0
  5
8192
331
0
  5
8193
331
0
  5
8194
331
0
  5
8195
331
0
  5
8196
331
0
  5
8197
331
0
  5
A572
331
0
  5
A573
331
0
  5
8198
331
A843
  5
B8C1
331
A845
  5
B8C2
331
A846
  5
B8CC
331
A847
  5
B8CD
331
A848
  5
B8CE
331
A849
  5
B8CF
331
A8B3
  5
B8E2
331
A8B4
  5
B8E3
331
A8B5
  5
B8E4
331
A8B6
  5
B8E5
331
A8B7
  5
B8E6
331
A8B8
  5
B8F5
331
0
  5
B8F8
331
0
  5
B8F9
331
0
  5
B8FA
331
0
  5
B920
331
0
  5
B921
331
BDFC
  5
BE3E
331
BDFD
  5
BE3F
331
BDFE
  5
BE40
331
BDFF
  5
BE41
331
BE00
  5
BE42
331
BE01
  5
819F
331
BE02
  5
81A1
331
BE03
  5
BE43
331
BE04
  5
BE44
331
BE05
  5
BE45
331
BE06
  5
BE46
331
BE07
  5
BE47
331
BE08
  5
BE48
331
BE09
  5
BE49
331
BE0A
  5
BE4A
331
BE0B
  5
BE4B
331
BE0C
  5
BE4C
331
BE0D
  5
BE4D
331
BE0E
  5
BE4E
331
BE0F
  5
BE4F
331
0
  5
BE50
331
BE11
  5
BE51
331
BE12
  5
BE52
331
BE13
  5
BE53
331
BE14
  5
BE54
331
BE15
  5
BE55
331
BE16
  5
BF40
331
BE17
  5
BFA4
331
BE18
  5
BFA7
331
BE19
  5
BFA8
331
BE1A
  5
BFA9
331
BE1B
  5
BFAC
331
BE1C
  5
BFAD
331
BE1D
  5
BFB0
331
BE1E
  5
BFB1
331
BE1F
  5
BFFF
331
BE20
  5
C000
331
BE21
  5
C001
331
BE22
  5
C002
331
BE23
  5
C003
331
BE24
  5
C004
331
BE25
  5
C005
331
BE26
  5
C006
331
BE27
  5
C007
331
BE28
  5
C008
331
BE29
  5
C00A
331
BE2A
  5
C00B
331
BE2B
  5
C015
331
BE2C
  5
C016
331
BE2D
  5
C017
331
BE2E
  5
C018
331
BE2F
  5
C01A
331
BE30
  5
C01B
331
BE31
  5
C022
331
BE32
  5
C023
331
BE33
  5
C024
331
BE34
  5
C025
331
BE35
  5
C02D
331
BE36
  5
C02E
331
BE37
  5
C02F
331
BE38
  5
C030
331
BE39
  5
C039
331
BE3A
  5
C03A
331
BE3B
  5
C03B
331
BE3C
  5
C03C
331
0
  5
81AB
331
0
  5
C03D
331
0
  5
C03E
331
0
  5
C03F
331
0
  5
C040
331
0
  5
C047
331
0
  5
C084
331
0
  5
C085
331
0
  5
C4DA
331
0
  5
D27A
331
0
  5
D6CD
331
0
  5
D6DD
331
0
  5
81AC
331
0
  5
81AD
331
0
  5
81AE
331
0
  5
81AF
331
0
  5
D77B
331
0
  5
D77C
331
0
  5
896D
331
0
  5
896E
331
0
  5
896F
331
0
  5
8970
331
0
  5
89AD
331
0
  5
89AE
331
0
  5
89CE
331
0
  5
89CF
331
0
  5
D77E
331
0
  5
D77F
331
0
  5
D780
331
0
  5
D781
331
0
  5
D782
331
0
  5
D783
331
0
  5
D784
331
0
  5
D785
331
0
  5
D786
331
0
  5
D787
331
0
  5
D788
331
0
  5
D789
331
0
  5
D78A
331
0
  5
D78B
331
0
  5
D78C
331
0
  5
D78D
331
0
  5
D78E
331
0
  5
D78F
331
0
  5
D790
331
0
  5
D791
331
0
  5
D792
331
0
  5
D793
331
0
  5
D794
331
0
  5
D795
331
0
  5
D796
331
0
  5
D797
331
0
  5
D798
331
0
  5
D799
331
0
  5
D79A
331
0
  5
D79B
331
0
  5
D79C
331
0
  5
D79D
331
0
  5
D79E
331
0
  5
D79F
331
0
  5
D7A0
331
0
  5
D7A1
331
0
  5
D7A2
331
0
  5
D7A3
331
0
  5
D7A4
331
0
  5
D7A5
331
0
  5
D7A6
331
0
  5
D7A7
331
0
  5
D7A9
331
0
  5
D7AA
331
0
  5
D7AC
331
0
  5
D7AD
331
0
  5
D7AE
331
0
  5
D7AF
331
0
  5
D7B4
331
0
  5
D7B7
331
0
  5
D7B8
331
0
  5
D7B9
331
0
  5
D7BA
331
0
  5
D7BB
331
0
  5
D7BE
331
0
  5
D7BF
331
0
  5
D7C2
331
0
  5
D7C3
331
0
  5
D7C4
331
0
  5
D7C5
331
0
  5
E6F4
331
0
  5
E6F5
331
0
  5
E6F9
331
0
  5
E6FA
331
0
  5
E6FB
331
0
  5
E6FC
331
0
  5
E717
331
0
  5
E718
331
0
  5
E71B
331
0
  5
E71C
331
0
  5
E7BD
331
0
  5
E7BE
331
0
  5
E7BF
331
0
  5
E7C0
331
0
  5
E7C1
331
0
  5
E7C2
331
0
  5
E7C3
331
0
  5
E7C4
331
0
  5
E7C5
331
0
  5
E7C6
331
0
  5
E7C7
331
0
  5
E7C8
331
0
  5
E7C9
331
0
  5
E7CA
331
0
  5
E7CB
331
0
  5
E7CC
331
0
  5
F9AD
331
F6AB
  5
FBE4
331
0
  5
81C4
331
0
  5
FC85
331
0
  5
FC86
331
0
  5
81C6
331
0
  5
86B2
331
0
  5
86B3
331
0
  5
86B4
331
0
  5
FC87
331
0
  5
86B5
331
0
  5
86B7
331
0
  5
FC88
331
0
  5
86B8
331
0
  5
86B9
331
0
  5
86C4
331
0
  5
FC89
331
0
  5
FC8A
331
0
  5
86C5
331
0
  5
FCCD
331
0
  5
FCCE
331
0
  5
FCCF
331
0
  5
FCD0
331
0
  5
FCD1
331
0
  5
FF23
331
0
  5
11D11
331
0
  5
11D46
331
0
  5
11D47
331
0
  5
11D48
331
0
  5
11D49
331
0
  5
11D4A
331
0
  5
86F4
331
0
  5
11D50
331
0
  5
11D74
331
0
  5
86F5
331
0
  5
86FF
331
0
  5
885D
331
0
  5
11D75
331
0
  5
11DFC
331
0
  5
11E0B
331
0
  5
11E68
331
0
  5
885F
331
0
  5
11E6E
331
0
  5
11E74
331
0
  5
11E75
331
0
  5
11E76
331
0
  5
11F83
331
0
  5
8864
331
0
  5
8865
331
0
  5
8867
331
0
  5
11F84
331
0
  5
886E
331
0
  5
11FA7
331
0
  5
11FAF
331
0
  5
12040
331
0
  5
12042
331
0
  5
12043
331
0
  5
12161
331
0
  5
12265
331
0
  5
12266
331
12266
  5
12267
331
12267
  5
12268
331
12268
  5
12269
331
12269
  5
1226A
331
1226A
  5
1226B
331
1226B
  5
1226C
331
1226C
  5
1226D
331
1226D
  5
1226E
331
0
  5
1226F
331
0
  5
12271
331
0
  5
12272
331
0
  5
12273
331
0
  5
12274
331
0
  5
1227D
331
0
  5
1227E
331
0
  5
1227F
331
0
  5
12280
331
0
  5
12281
331
0
  5
12282
331
0
  5
12283
331
0
  5
12284
331
0
  5
122D8
331
0
  5
122E5
331
0
  5
122F2
331
0
  5
12301
331
0
  5
1230E
331
0
  5
1231E
331
0
  5
1232B
331
0
  5
12338
331
0
  5
12345
331
0
  5
12354
331
0
  5
12361
331
0
  5
12371
331
0
  5
12372
331
0
  5
12373
331
0
  5
12374
331
0
  5
12375
331
0
  5
12376
331
0
  5
12377
331
0
  5
12489
331
0
  5
1248A
331
0
  5
1248B
331
0
  5
1248C
331
0
  5
1248D
331
0
  5
1248E
331
0
  5
7E8D
  0
GROUP
  5
BE74
102
{ACAD_REACTORS
330
D
102
}
330
D
100
AcDbGroup
300

 70
     1
 71
     1
340
BE01
340
BE02
340
BE03
340
BE04
340
BE05
340
BE06
340
BE07
340
BE08
340
BE09
340
BE0A
340
BE0B
  0
GROUP
  5
BE75
102
{ACAD_REACTORS
330
D
102
}
330
D
100
AcDbGroup
300

 70
     1
 71
     1
340
BE2A
340
BE2B
340
BE2C
340
BE2D
340
BE2E
340
BE2F
340
BE30
340
BE31
340
BE32
340
BE33
340
BE34
340
BE35
340
BE36
340
BE37
340
BE38
340
BE39
340
BE3A
340
BE3B
340
BE3C
  0
GROUP
  5
BE76
102
{ACAD_REACTORS
330
D
102
}
330
D
100
AcDbGroup
300

 70
     1
 71
     1
340
BE11
340
BE12
340
BE13
340
BE14
340
BE15
340
BE16
340
BE17
340
BE18
340
BE19
340
BE1A
340
BE1B
340
BE1C
340
BE1D
340
BE1E
340
BE1F
340
BE20
340
BE21
340
BE22
340
BE23
340
BE24
340
BE25
340
BE26
340
BE27
340
BE28
340
BE29
  0
GROUP
  5
D6EC
102
{ACAD_REACTORS
330
D
102
}
330
D
100
AcDbGroup
300

 70
     1
 71
     1
  0
GROUP
  5
D6ED
102
{ACAD_REACTORS
330
D
102
}
330
D
100
AcDbGroup
300

 70
     1
 71
     1
  0
GROUP
  5
D6EE
102
{ACAD_REACTORS
330
D
102
}
330
D
100
AcDbGroup
300

 70
     1
 71
     1
  0
GROUP
  5
D6EF
102
{ACAD_REACTORS
330
D
102
}
330
D
100
AcDbGroup
300

 70
     1
 71
     1
  0
GROUP
  5
D6F0
102
{ACAD_REACTORS
330
D
102
}
330
D
100
AcDbGroup
300

 70
     1
 71
     1
  0
LAYOUT
  5
1E
102
{ACAD_REACTORS
330
1A
102
}
330
1A
100
AcDbPlotSettings
  1

  2
none_device
  4
ISO_A3_(420.00_x_297.00_MM)
  6

 40
7.5
 41
20.0
 42
7.5
 43
20.0
 44
420.0
 45
297.0
 46
0.0
 47
0.0
 48
0.0
 49
0.0
140
0.0
141
0.0
142
1.0
143
1.0
 70
   688
 72
     1
 73
     0
 74
     5
  7

 75
    16
147
1.0
148
0.0
149
0.0
100
AcDbLayout
  1
Layout1
 70
     1
 71
     1
 10
0.0
 20
0.0
 11
412.5
 21
277.0
 12
0.0
 22
0.0
 32
0.0
 14
1.000000000000000E+20
 24
1.000000000000000E+20
 34
1.000000000000000E+20
 15
-1.000000000000000E+20
 25
-1.000000000000000E+20
 35
-1.000000000000000E+20
146
0.0
 13
0.0
 23
0.0
 33
0.0
 16
1.0
 26
0.0
 36
0.0
 17
0.0
 27
1.0
 37
0.0
 76
     0
330
1B
331
9F0D
  0
LAYOUT
  5
22
102
{ACAD_REACTORS
330
1A
102
}
330
1A
100
AcDbPlotSettings
  1

  2
none_device
  4
A3
  6

 40
3.174999952316284
 41
3.174999952316284
 42
3.17498779296875
 43
3.17498779296875
 44
297.0318298339844
 45
420.1583251953125
 46
-3.16
 47
-3.1
 48
-90.0
 49
-90.0
140
329.9999999999998
141
207.0
142
1.0
143
1.0
 70
 11940
 72
     1
 73
     1
 74
     4
  7
monochrome.ctb
 75
     0
147
1.0
148
90.0
149
90.0
100
AcDbLayout
  1
Model
 70
     1
 71
     0
 10
0.0
 20
0.0
 11
4200.0
 21
2970.0
 12
0.0
 22
0.0
 32
0.0
 14
686.7999999999993
 24
1084.999999999997
 34
0.0
 15
2759.700000000001
 25
2474.699999999998
 35
0.0
146
0.0
 13
0.0
 23
0.0
 33
0.0
 16
1.0
 26
0.0
 36
0.0
 17
0.0
 27
1.0
 37
0.0
 76
     0
330
1F
331
7A57
  0
MLINESTYLE
  5
18
102
{ACAD_REACTORS
330
17
102
}
330
17
100
AcDbMlineStyle
  2
STANDARD
 70
     0
  3

 62
   256
 51
90.0
 52
90.0
 71
     2
 49
0.5
 62
   256
  6
BYLAYER
 49
-0.5
 62
   256
  6
BYLAYER
  0
ACDBPLACEHOLDER
  5
F
102
{ACAD_REACTORS
330
E
102
}
330
E
  0
SCALE
  5
6A4F
102
{ACAD_REACTORS
330
6A4E
102
}
330
6A4E
100
AcDbScale
 70
     0
300
1:1
140
1.0
141
1.0
290
     1
  0
SCALE
  5
6A50
102
{ACAD_REACTORS
330
6A4E
102
}
330
6A4E
100
AcDbScale
 70
     0
300
1:2
140
1.0
141
2.0
290
     0
  0
SCALE
  5
6A51
102
{ACAD_REACTORS
330
6A4E
102
}
330
6A4E
100
AcDbScale
 70
     0
300
1:4
140
1.0
141
4.0
290
     0
  0
SCALE
  5
6A52
102
{ACAD_REACTORS
330
6A4E
102
}
330
6A4E
100
AcDbScale
 70
     0
300
1:5
140
1.0
141
5.0
290
     0
  0
SCALE
  5
6A53
102
{ACAD_REACTORS
330
6A4E
102
}
330
6A4E
100
AcDbScale
 70
     0
300
1:8
140
1.0
141
8.0
290
     0
  0
SCALE
  5
6A54
102
{ACAD_REACTORS
330
6A4E
102
}
330
6A4E
100
AcDbScale
 70
     0
300
1:10
140
1.0
141
10.0
290
     0
  0
SCALE
  5
6A55
102
{ACAD_REACTORS
330
6A4E
102
}
330
6A4E
100
AcDbScale
 70
     0
300
1:16
140
1.0
141
16.0
290
     0
  0
SCALE
  5
6A56
102
{ACAD_REACTORS
330
6A4E
102
}
330
6A4E
100
AcDbScale
 70
     0
300
1:20
140
1.0
141
20.0
290
     0
  0
SCALE
  5
6A57
102
{ACAD_REACTORS
330
6A4E
102
}
330
6A4E
100
AcDbScale
 70
     0
300
1:30
140
1.0
141
30.0
290
     0
  0
SCALE
  5
6A58
102
{ACAD_REACTORS
330
6A4E
102
}
330
6A4E
100
AcDbScale
 70
     0
300
1:40
140
1.0
141
40.0
290
     0
  0
SCALE
  5
6A59
102
{ACAD_REACTORS
330
6A4E
102
}
330
6A4E
100
AcDbScale
 70
     0
300
1:50
140
1.0
141
50.0
290
     0
  0
SCALE
  5
6A5A
102
{ACAD_REACTORS
330
6A4E
102
}
330
6A4E
100
AcDbScale
 70
     0
300
1:100
140
1.0
141
100.0
290
     0
  0
SCALE
  5
6A5B
102
{ACAD_REACTORS
330
6A4E
102
}
330
6A4E
100
AcDbScale
 70
     0
300
2:1
140
2.0
141
1.0
290
     0
  0
SCALE
  5
6A5C
102
{ACAD_REACTORS
330
6A4E
102
}
330
6A4E
100
AcDbScale
 70
     0
300
4:1
140
4.0
141
1.0
290
     0
  0
SCALE
  5
6A5D
102
{ACAD_REACTORS
330
6A4E
102
}
330
6A4E
100
AcDbScale
 70
     0
300
8:1
140
8.0
141
1.0
290
     0
  0
SCALE
  5
6A5E
102
{ACAD_REACTORS
330
6A4E
102
}
330
6A4E
100
AcDbScale
 70
     0
300
10:1
140
10.0
141
1.0
290
     0
  0
SCALE
  5
6A5F
102
{ACAD_REACTORS
330
6A4E
102
}
330
6A4E
100
AcDbScale
 70
     0
300
100:1
140
100.0
141
1.0
290
     0
  0
SCALE
  5
6A60
102
{ACAD_REACTORS
330
6A4E
102
}
330
6A4E
100
AcDbScale
 70
     0
300
1/128" = 1'-0"
140
0.0078125
141
12.0
290
     0
  0
SCALE
  5
6A61
102
{ACAD_REACTORS
330
6A4E
102
}
330
6A4E
100
AcDbScale
 70
     0
300
1/64" = 1'-0"
140
0.015625
141
12.0
290
     0
  0
SCALE
  5
6A62
102
{ACAD_REACTORS
330
6A4E
102
}
330
6A4E
100
AcDbScale
 70
     0
300
1/32" = 1'-0"
140
0.03125
141
12.0
290
     0
  0
SCALE
  5
6A63
102
{ACAD_REACTORS
330
6A4E
102
}
330
6A4E
100
AcDbScale
 70
     0
300
1/16" = 1'-0"
140
0.0625
141
12.0
290
     0
  0
SCALE
  5
6A64
102
{ACAD_REACTORS
330
6A4E
102
}
330
6A4E
100
AcDbScale
 70
     0
300
3/32" = 1'-0"
140
0.09375
141
12.0
290
     0
  0
SCALE
  5
6A65
102
{ACAD_REACTORS
330
6A4E
102
}
330
6A4E
100
AcDbScale
 70
     0
300
1/8" = 1'-0"
140
0.125
141
12.0
290
     0
  0
SCALE
  5
6A66
102
{ACAD_REACTORS
330
6A4E
102
}
330
6A4E
100
AcDbScale
 70
     0
300
3/16" = 1'-0"
140
0.1875
141
12.0
290
     0
  0
SCALE
  5
6A67
102
{ACAD_REACTORS
330
6A4E
102
}
330
6A4E
100
AcDbScale
 70
     0
300
1/4" = 1'-0"
140
0.25
141
12.0
290
     0
  0
SCALE
  5
6A68
102
{ACAD_REACTORS
330
6A4E
102
}
330
6A4E
100
AcDbScale
 70
     0
300
3/8" = 1'-0"
140
0.375
141
12.0
290
     0
  0
SCALE
  5
6A69
102
{ACAD_REACTORS
330
6A4E
102
}
330
6A4E
100
AcDbScale
 70
     0
300
1/2" = 1'-0"
140
0.5
141
12.0
290
     0
  0
SCALE
  5
6A6A
102
{ACAD_REACTORS
330
6A4E
102
}
330
6A4E
100
AcDbScale
 70
     0
300
3/4" = 1'-0"
140
0.75
141
12.0
290
     0
  0
SCALE
  5
6A6B
102
{ACAD_REACTORS
330
6A4E
102
}
330
6A4E
100
AcDbScale
 70
     0
300
1" = 1'-0"
140
1.0
141
12.0
290
     0
  0
SCALE
  5
6A6C
102
{ACAD_REACTORS
330
6A4E
102
}
330
6A4E
100
AcDbScale
 70
     0
300
1-1/2" = 1'-0"
140
1.5
141
12.0
290
     0
  0
SCALE
  5
6A6D
102
{ACAD_REACTORS
330
6A4E
102
}
330
6A4E
100
AcDbScale
 70
     0
300
3" = 1'-0"
140
3.0
141
12.0
290
     0
  0
SCALE
  5
6A6E
102
{ACAD_REACTORS
330
6A4E
102
}
330
6A4E
100
AcDbScale
 70
     0
300
6" = 1'-0"
140
6.0
141
12.0
290
     0
  0
SCALE
  5
6A6F
102
{ACAD_REACTORS
330
6A4E
102
}
330
6A4E
100
AcDbScale
 70
     0
300
1'-0" = 1'-0"
140
12.0
141
12.0
290
     0
  0
DICTIONARYVAR
  5
79F
102
{ACAD_REACTORS
330
79E
102
}
330
79E
100
DictionaryVariables
280
     0
  1
1
  0
DICTIONARYVAR
  5
264F
102
{ACAD_REACTORS
330
79E
102
}
330
79E
100
DictionaryVariables
280
     0
  1
96
  0
ENDSEC
  0
EOF
