  0
SECTION
  2
HEADER
  9
$ACADVER
  1
AC1015
  9
$ACADMAINTVER
 70
     6
  9
$DWGCODEPAGE
  3
ANSI_932
  9
$INSBASE
 10
0.0
 20
0.0
 30
0.0
  9
$EXTMIN
 10
942.5
 20
1184.999999999999
 30
0.0
  9
$EXTMAX
 10
2672.500000000001
 20
2470.0
 30
0.0
  9
$LIMMIN
 10
0.0
 20
0.0
  9
$LIMMAX
 10
4200.0
 20
2970.0
  9
$ORTHOMODE
 70
     1
  9
$REGENMODE
 70
     1
  9
$FILLMODE
 70
     1
  9
$QTEXTMODE
 70
     0
  9
$MIRRTEXT
 70
     0
  9
$LTSCALE
 40
3.0
  9
$ATTMODE
 70
     1
  9
$TEXTSIZE
 40
30.0
  9
$TRACEWID
 40
1.0
  9
$TEXTSTYLE
  7
Standard
  9
$CLAYER
  8
01注記寸法
  9
$CELTYPE
  6
ByLayer
  9
$CECOLOR
 62
   256
  9
$CELTSCALE
 40
1.0
  9
$DISPSILH
 70
     0
  9
$DIMSCALE
 40
10.0
  9
$DIMASZ
 40
3.0
  9
$DIMEXO
 40
1.5
  9
$DIMDLI
 40
10.0
  9
$DIMRND
 40
0.0
  9
$DIMDLE
 40
0.0
  9
$DIMEXE
 40
1.0
  9
$DIMTP
 40
0.0
  9
$DIMTM
 40
0.0
  9
$DIMTXT
 40
3.0
  9
$DIMCEN
 40
1.5
  9
$DIMTSZ
 40
0.0
  9
$DIMTOL
 70
     0
  9
$DIMLIM
 70
     0
  9
$DIMTIH
 70
     0
  9
$DIMTOH
 70
     0
  9
$DIMSE1
 70
     0
  9
$DIMSE2
 70
     0
  9
$DIMTAD
 70
     1
  9
$DIMZIN
 70
     8
  9
$DIMBLK
  1
Open
  9
$DIMASO
 70
     1
  9
$DIMSHO
 70
     1
  9
$DIMPOST
  1

  9
$DIMAPOST
  1

  9
$DIMALT
 70
     0
  9
$DIMALTD
 70
     3
  9
$DIMALTF
 40
0.03937007874016
  9
$DIMLFAC
 40
1.0
  9
$DIMTOFL
 70
     1
  9
$DIMTVP
 40
0.0
  9
$DIMTIX
 70
     0
  9
$DIMSOXD
 70
     0
  9
$DIMSAH
 70
     0
  9
$DIMBLK1
  1

  9
$DIMBLK2
  1

  9
$DIMSTYLE
  2
NEMY-10
  9
$DIMCLRD
 70
     0
  9
$DIMCLRE
 70
     0
  9
$DIMCLRT
 70
     0
  9
$DIMTFAC
 40
1.0
  9
$DIMGAP
 40
1.0
  9
$DIMJUST
 70
     0
  9
$DIMSD1
 70
     0
  9
$DIMSD2
 70
     0
  9
$DIMTOLJ
 70
     0
  9
$DIMTZIN
 70
     8
  9
$DIMALTZ
 70
     0
  9
$DIMALTTZ
 70
     0
  9
$DIMUPT
 70
     0
  9
$DIMDEC
 70
     1
  9
$DIMTDEC
 70
     1
  9
$DIMALTU
 70
     2
  9
$DIMALTTD
 70
     3
  9
$DIMTXSTY
  7
Standard
  9
$DIMAUNIT
 70
     0
  9
$DIMADEC
 70
     0
  9
$DIMALTRND
 40
0.0
  9
$DIMAZIN
 70
     0
  9
$DIMDSEP
 70
    46
  9
$DIMATFIT
 70
     3
  9
$DIMFRAC
 70
     0
  9
$DIMLDRBLK
  1
Open
  9
$DIMLUNIT
 70
     2
  9
$DIMLWD
 70
    -2
  9
$DIMLWE
 70
    -2
  9
$DIMTMOVE
 70
     0
  9
$LUNITS
 70
     2
  9
$LUPREC
 70
     4
  9
$SKETCHINC
 40
1.0
  9
$FILLETRAD
 40
6.0
  9
$AUNITS
 70
     0
  9
$AUPREC
 70
     0
  9
$MENU
  1
.
  9
$ELEVATION
 40
0.0
  9
$PELEVATION
 40
0.0
  9
$THICKNESS
 40
0.0
  9
$LIMCHECK
 70
     0
  9
$CHAMFERA
 40
5.0
  9
$CHAMFERB
 40
5.0
  9
$CHAMFERC
 40
20.0
  9
$CHAMFERD
 40
0.0
  9
$SKPOLY
 70
     0
  9
$TDCREATE
 40
2455859.405048461
  9
$TDUCREATE
 40
2455859.030048461
  9
$TDUPDATE
 40
2459173.396705151
  9
$TDUUPDATE
 40
2459173.021705151
  9
$TDINDWG
 40
1.9384869444
  9
$TDUSRTIMER
 40
0.0002881019
  9
$USRTIMER
 70
     1
  9
$ANGBASE
 50
0.0
  9
$ANGDIR
 70
     0
  9
$PDMODE
 70
     0
  9
$PDSIZE
 40
0.0
  9
$PLINEWID
 40
0.0
  9
$SPLFRAME
 70
     0
  9
$SPLINETYPE
 70
     6
  9
$SPLINESEGS
 70
     8
  9
$HANDSEED
  5
17258
  9
$SURFTAB1
 70
     6
  9
$SURFTAB2
 70
     6
  9
$SURFTYPE
 70
     6
  9
$SURFU
 70
     6
  9
$SURFV
 70
     6
  9
$UCSBASE
  2

  9
$UCSNAME
  2

  9
$UCSORG
 10
0.0
 20
0.0
 30
0.0
  9
$UCSXDIR
 10
1.0
 20
0.0
 30
0.0
  9
$UCSYDIR
 10
0.0
 20
1.0
 30
0.0
  9
$UCSORTHOREF
  2

  9
$UCSORTHOVIEW
 70
     0
  9
$UCSORGTOP
 10
0.0
 20
0.0
 30
0.0
  9
$UCSORGBOTTOM
 10
0.0
 20
0.0
 30
0.0
  9
$UCSORGLEFT
 10
0.0
 20
0.0
 30
0.0
  9
$UCSORGRIGHT
 10
0.0
 20
0.0
 30
0.0
  9
$UCSORGFRONT
 10
0.0
 20
0.0
 30
0.0
  9
$UCSORGBACK
 10
0.0
 20
0.0
 30
0.0
  9
$PUCSBASE
  2

  9
$PUCSNAME
  2

  9
$PUCSORG
 10
0.0
 20
0.0
 30
0.0
  9
$PUCSXDIR
 10
1.0
 20
0.0
 30
0.0
  9
$PUCSYDIR
 10
0.0
 20
1.0
 30
0.0
  9
$PUCSORTHOREF
  2

  9
$PUCSORTHOVIEW
 70
     0
  9
$PUCSORGTOP
 10
0.0
 20
0.0
 30
0.0
  9
$PUCSORGBOTTOM
 10
0.0
 20
0.0
 30
0.0
  9
$PUCSORGLEFT
 10
0.0
 20
0.0
 30
0.0
  9
$PUCSORGRIGHT
 10
0.0
 20
0.0
 30
0.0
  9
$PUCSORGFRONT
 10
0.0
 20
0.0
 30
0.0
  9
$PUCSORGBACK
 10
0.0
 20
0.0
 30
0.0
  9
$USERI1
 70
     0
  9
$USERI2
 70
     0
  9
$USERI3
 70
     0
  9
$USERI4
 70
     0
  9
$USERI5
 70
     0
  9
$USERR1
 40
0.0
  9
$USERR2
 40
0.0
  9
$USERR3
 40
0.0
  9
$USERR4
 40
0.0
  9
$USERR5
 40
0.0
  9
$WORLDVIEW
 70
     1
  9
$SHADEDGE
 70
     3
  9
$SHADEDIF
 70
    70
  9
$TILEMODE
 70
     1
  9
$MAXACTVP
 70
    64
  9
$PINSBASE
 10
0.0
 20
0.0
 30
0.0
  9
$PLIMCHECK
 70
     0
  9
$PEXTMIN
 10
1.000000000000000E+20
 20
1.000000000000000E+20
 30
1.000000000000000E+20
  9
$PEXTMAX
 10
-1.000000000000000E+20
 20
-1.000000000000000E+20
 30
-1.000000000000000E+20
  9
$PLIMMIN
 10
-7.5
 20
-20.0
  9
$PLIMMAX
 10
412.5
 20
277.0
  9
$UNITMODE
 70
     0
  9
$VISRETAIN
 70
     1
  9
$PLINEGEN
 70
     0
  9
$PSLTSCALE
 70
     1
  9
$TREEDEPTH
 70
  3020
  9
$CMLSTYLE
  2
Standard
  9
$CMLJUST
 70
     0
  9
$CMLSCALE
 40
20.0
  9
$PROXYGRAPHICS
 70
     1
  9
$MEASUREMENT
 70
     1
  9
$CELWEIGHT
370
    -1
  9
$ENDCAPS
280
     0
  9
$JOINSTYLE
280
     0
  9
$LWDISPLAY
290
     0
  9
$INSUNITS
 70
     4
  9
$HYPERLINKBASE
  1

  9
$STYLESHEET
  1
monochrome.ctb
  9
$XEDIT
290
     1
  9
$CEPSNTYPE
380
     0
  9
$PSTYLEMODE
290
     1
  9
$FINGERPRINTGUID
  2
{FDEAD578-A652-11D2-9A35-0060089B3A3F}
  9
$VERSIONGUID
  2
{11DB8456-EC16-47A0-BA21-BBDA07550E8A}
  9
$EXTNAMES
290
     1
  9
$PSVPSCALE
 40
0.0
  9
$OLESTARTUP
290
     0
  0
ENDSEC
  0
SECTION
  2
CLASSES
  0
CLASS
  1
ACDBDICTIONARYWDFLT
  2
AcDbDictionaryWithDefault
  3
ObjectDBX Classes
 90
        0
280
     0
281
     0
  0
CLASS
  1
ACDBPLACEHOLDER
  2
AcDbPlaceHolder
  3
ObjectDBX Classes
 90
        0
280
     0
281
     0
  0
CLASS
  1
LAYOUT
  2
AcDbLayout
  3
ObjectDBX Classes
 90
        0
280
     0
281
     0
  0
CLASS
  1
DICTIONARYVAR
  2
AcDbDictionaryVar
  3
ObjectDBX Classes
 90
        0
280
     0
281
     0
  0
CLASS
  1
SCALE
  2
AcDbScale
  3
ObjectDBX Classes
 90
     1153
280
     0
281
     0
  0
CLASS
  1
MATERIAL
  2
AcDbMaterial
  3
ObjectDBX Classes
 90
     1153
280
     0
281
     0
  0
CLASS
  1
VISUALSTYLE
  2
AcDbVisualStyle
  3
ObjectDBX Classes
 90
     4095
280
     0
281
     0
  0
CLASS
  1
TABLESTYLE
  2
AcDbTableStyle
  3
ObjectDBX Classes
 90
     4095
280
     0
281
     0
  0
CLASS
  1
RASTERVARIABLES
  2
AcDbRasterVariables
  3
ISM
 90
        0
280
     0
281
     0
  0
CLASS
  1
SORTENTSTABLE
  2
AcDbSortentsTable
  3
ObjectDBX Classes
 90
        0
280
     0
281
     0
  0
CLASS
  1
SUN
  2
AcDbSun
  3
SCENEOE
 90
     1153
280
     0
281
     0
  0
CLASS
  1
MLEADERSTYLE
  2
AcDbMLeaderStyle
  3
ACDB_MLEADERSTYLE_CLASS
 90
     4095
280
     0
281
     0
  0
ENDSEC
  0
SECTION
  2
TABLES
  0
TABLE
  2
VPORT
  5
8
330
0
100
AcDbSymbolTable
 70
     1
  0
VPORT
  5
7A57
330
8
100
AcDbSymbolTableRecord
100
AcDbViewportTableRecord
  2
*Active
 70
     0
 10
0.0
 20
0.0
 11
1.0
 21
1.0
 12
2302.219178002879
 22
1942.88545403033
 13
0.0
 23
0.0
 14
10.0
 24
10.0
 15
10.0
 25
10.0
 16
0.0
 26
0.0
 36
1.0
 17
0.0
 27
0.0
 37
0.0
 40
4567.222816711473
 41
1.386996904024768
 42
50.0
 43
0.0
 44
0.0
 50
0.0
 51
0.0
 71
    16
 72
   100
 73
     1
 74
     2
 75
     0
 76
     0
 77
     0
 78
     0
281
     0
 65
     1
110
0.0
120
0.0
130
0.0
111
1.0
121
0.0
131
0.0
112
0.0
122
1.0
132
0.0
 79
     0
146
0.0
  0
ENDTAB
  0
TABLE
  2
LTYPE
  5
5
330
0
100
AcDbSymbolTable
 70
     5
  0
LTYPE
  5
14
330
5
100
AcDbSymbolTableRecord
100
AcDbLinetypeTableRecord
  2
ByBlock
 70
     0
  3

 72
    65
 73
     0
 40
0.0
  0
LTYPE
  5
15
330
5
100
AcDbSymbolTableRecord
100
AcDbLinetypeTableRecord
  2
ByLayer
 70
     0
  3

 72
    65
 73
     0
 40
0.0
  0
LTYPE
  5
16
330
5
100
AcDbSymbolTableRecord
100
AcDbLinetypeTableRecord
  2
Continuous
 70
     0
  3
Solid line
 72
    65
 73
     0
 40
0.0
  0
LTYPE
  5
BA
330
5
100
AcDbSymbolTableRecord
100
AcDbLinetypeTableRecord
  2
HIDDEN
 70
     0
  3
Hidden __ __ __ __ __ __ __ __ __ __ __ __ __ _
 72
    65
 73
     2
 40
9.524999999999999
 49
6.35
 74
     0
 49
-3.175
 74
     0
  0
LTYPE
  5
BB
330
5
100
AcDbSymbolTableRecord
100
AcDbLinetypeTableRecord
  2
PHANTOM
 70
     0
  3
Phantom ______  __  __  ______  __  __  ______
 72
    65
 73
     6
 40
63.5
 49
31.75
 74
     0
 49
-6.35
 74
     0
 49
6.35
 74
     0
 49
-6.35
 74
     0
 49
6.35
 74
     0
 49
-6.35
 74
     0
  0
LTYPE
  5
BC
330
5
100
AcDbSymbolTableRecord
100
AcDbLinetypeTableRecord
  2
CENTER
 70
     0
  3
Center ____ _ ____ _ ____ _ ____ _ ____ _ ____
 72
    65
 73
     4
 40
50.8
 49
31.75
 74
     0
 49
-6.35
 74
     0
 49
6.35
 74
     0
 49
-6.35
 74
     0
  0
LTYPE
  5
47C
330
5
100
AcDbSymbolTableRecord
100
AcDbLinetypeTableRecord
  2
DOT
 70
     0
  3
Dot . . . . . . . . . . . . . . . . . . . . . .
 72
    65
 73
     2
 40
6.35
 49
0.0
 74
     0
 49
-6.35
 74
     0
  0
ENDTAB
  0
TABLE
  2
LAYER
  5
2
102
{ACAD_XDICTIONARY
360
7A6F
102
}
330
0
100
AcDbSymbolTable
 70
    13
  0
LAYER
  5
10
330
2
100
AcDbSymbolTableRecord
100
AcDbLayerTableRecord
  2
0
 70
     0
 62
   151
  6
Continuous
290
     0
370
    -3
390
F
  0
LAYER
  5
45
330
2
100
AcDbSymbolTableRecord
100
AcDbLayerTableRecord
  2
01注記寸法
 70
     0
 62
     7
  6
Continuous
370
     9
390
F
  0
LAYER
  5
46
330
2
100
AcDbSymbolTableRecord
100
AcDbLayerTableRecord
  2
02実線
 70
     0
 62
     2
  6
Continuous
370
    15
390
F
  0
LAYER
  5
5F
330
2
100
AcDbSymbolTableRecord
100
AcDbLayerTableRecord
  2
Defpoints
 70
     0
 62
     7
  6
Continuous
290
     0
370
    -3
390
F
  0
LAYER
  5
7E52
330
2
100
AcDbSymbolTableRecord
100
AcDbLayerTableRecord
  2
03破線
 70
     0
 62
     3
  6
HIDDEN
370
     9
390
F
  0
LAYER
  5
7E55
330
2
100
AcDbSymbolTableRecord
100
AcDbLayerTableRecord
  2
04一点鎖線
 70
     0
 62
    70
  6
CENTER
370
     9
390
F
  0
LAYER
  5
7E58
330
2
100
AcDbSymbolTableRecord
100
AcDbLayerTableRecord
  2
05二点鎖線
 70
     0
 62
   110
  6
PHANTOM
370
     9
390
F
  0
LAYER
  5
7E5B
330
2
100
AcDbSymbolTableRecord
100
AcDbLayerTableRecord
  2
06点線
 70
     0
 62
    96
  6
DOT
370
     9
390
F
  0
LAYER
  5
7E5E
330
2
100
AcDbSymbolTableRecord
100
AcDbLayerTableRecord
  2
07その他
 70
     0
 62
     6
  6
Continuous
370
     5
390
F
  0
LAYER
  5
7E60
330
2
100
AcDbSymbolTableRecord
100
AcDbLayerTableRecord
  2
08非表示
 70
     0
 62
     4
  6
Continuous
290
     0
370
     0
390
F
  0
LAYER
  5
7E62
330
2
100
AcDbSymbolTableRecord
100
AcDbLayerTableRecord
  2
09図枠
 70
     0
 62
     1
  6
Continuous
370
    30
390
F
  0
LAYER
  5
835A
330
2
100
AcDbSymbolTableRecord
100
AcDbLayerTableRecord
  2
10副資材
 70
     0
 62
    51
  6
Continuous
290
     0
370
    -3
390
F
1001
AcAecLayerStandard
1000

1000

  0
LAYER
  5
8CAC
330
2
100
AcDbSymbolTableRecord
100
AcDbLayerTableRecord
  2
11機器
 70
     0
 62
    11
  6
Continuous
290
     0
370
    -3
390
F
1001
AcAecLayerStandard
1000

1000

  0
ENDTAB
  0
TABLE
  2
STYLE
  5
3
330
0
100
AcDbSymbolTable
 70
     1
  0
STYLE
  5
11
330
3
100
AcDbSymbolTableRecord
100
AcDbTextStyleTableRecord
  2
Standard
 70
     0
 40
0.0
 41
1.0
 50
0.0
 71
     0
 42
30.0
  3
MSGOTHIC.TTC
  4

1001
ACAD
1000
MS Gothic
1071
    32817
  0
ENDTAB
  0
TABLE
  2
VIEW
  5
6
330
0
100
AcDbSymbolTable
 70
     0
  0
ENDTAB
  0
TABLE
  2
UCS
  5
7
330
0
100
AcDbSymbolTable
 70
     0
  0
ENDTAB
  0
TABLE
  2
APPID
  5
9
330
0
100
AcDbSymbolTable
 70
     8
  0
APPID
  5
12
330
9
100
AcDbSymbolTableRecord
100
AcDbRegAppTableRecord
  2
ACAD
 70
     0
  0
APPID
  5
6A9E
330
9
100
AcDbSymbolTableRecord
100
AcDbRegAppTableRecord
  2
ACAD_DSTYLE_DIMRADIAL_EXTENSION
 70
     0
  0
APPID
  5
742C
330
9
100
AcDbSymbolTableRecord
100
AcDbRegAppTableRecord
  2
ACAD_PSEXT
 70
     0
  0
APPID
  5
742D
330
9
100
AcDbSymbolTableRecord
100
AcDbRegAppTableRecord
  2
ACAD_DSTYLE_DIMJAG
 70
     0
  0
APPID
  5
742E
330
9
100
AcDbSymbolTableRecord
100
AcDbRegAppTableRecord
  2
ACAD_DSTYLE_DIMTALN
 70
     0
  0
APPID
  5
835C
330
9
100
AcDbSymbolTableRecord
100
AcDbRegAppTableRecord
  2
AcAecLayerStandard
 70
     0
  0
APPID
  5
15D12
330
9
100
AcDbSymbolTableRecord
100
AcDbRegAppTableRecord
  2
PLOTTRANSPARENCY
 70
     0
  0
APPID
  5
15DB4
330
9
100
AcDbSymbolTableRecord
100
AcDbRegAppTableRecord
  2
PE_URL
 70
     0
  0
ENDTAB
  0
TABLE
  2
DIMSTYLE
  5
A
330
0
100
AcDbSymbolTable
 70
    24
100
AcDbDimStyleTable
  0
DIMSTYLE
105
73
330
A
100
AcDbSymbolTableRecord
100
AcDbDimStyleTableRecord
  2
NEMY-1
 70
     0
 41
3.0
 42
1.5
 43
10.0
 44
1.0
 73
     0
 74
     0
 77
     1
 78
     8
140
3.0
141
1.5
143
0.03937007874016
147
1.0
171
     3
172
     1
178
     0
271
     1
272
     1
274
     3
283
     0
284
     8
340
11
341
8F
342
8F
  0
DIMSTYLE
105
4DCE
330
A
100
AcDbSymbolTableRecord
100
AcDbDimStyleTableRecord
  2
NEMY-2
 70
     0
 40
2.0
 41
3.0
 42
1.5
 43
10.0
 44
1.0
 73
     0
 74
     0
 77
     1
 78
     8
140
3.0
141
1.5
143
0.03937007874016
147
1.0
171
     3
172
     1
178
     0
271
     1
272
     1
274
     3
283
     0
284
     8
340
11
341
8F
342
8F
  0
DIMSTYLE
105
4DCF
330
A
100
AcDbSymbolTableRecord
100
AcDbDimStyleTableRecord
  2
NEMY-3
 70
     0
 40
3.0
 41
3.0
 42
1.5
 43
10.0
 44
1.0
 73
     0
 74
     0
 77
     1
 78
     8
140
3.0
141
1.5
143
0.03937007874016
147
1.0
171
     3
172
     1
178
     0
271
     1
272
     1
274
     3
283
     0
284
     8
340
11
341
8F
342
8F
  0
DIMSTYLE
105
4DD0
330
A
100
AcDbSymbolTableRecord
100
AcDbDimStyleTableRecord
  2
NEMY-5
 70
     0
 40
5.0
 41
3.0
 42
1.5
 43
10.0
 44
1.0
 73
     0
 74
     0
 77
     1
 78
     8
140
3.0
141
1.5
143
0.03937007874016
147
1.0
171
     3
172
     1
178
     0
271
     1
272
     1
274
     3
283
     0
284
     8
340
11
341
8F
342
8F
  0
DIMSTYLE
105
4DD1
330
A
100
AcDbSymbolTableRecord
100
AcDbDimStyleTableRecord
  2
NEMY-8
 70
     0
 40
8.0
 41
3.0
 42
1.5
 43
10.0
 44
1.0
 73
     0
 74
     0
 77
     1
 78
     8
140
3.0
141
1.5
143
0.03937007874016
147
1.0
171
     3
172
     1
178
     0
271
     1
272
     1
274
     3
283
     0
284
     8
340
11
341
8F
342
8F
  0
DIMSTYLE
105
4DD2
330
A
100
AcDbSymbolTableRecord
100
AcDbDimStyleTableRecord
  2
NEMY-15
 70
     0
 40
15.0
 41
3.0
 42
1.5
 43
10.0
 44
1.0
 73
     0
 74
     0
 77
     1
 78
     8
140
3.0
141
1.5
143
0.03937007874016
147
1.0
171
     3
172
     1
178
     0
271
     1
272
     1
274
     3
283
     0
284
     8
340
11
341
8F
342
8F
  0
DIMSTYLE
105
4DD3
102
{ACAD_REACTORS
330
171AB
330
171B8
102
}
330
A
100
AcDbSymbolTableRecord
100
AcDbDimStyleTableRecord
  2
NEMY-10
 70
     0
 40
10.0
 41
3.0
 42
1.5
 43
10.0
 44
1.0
 73
     0
 74
     0
 77
     1
 78
     8
140
3.0
141
1.5
143
0.03937007874016
147
1.0
171
     3
172
     1
178
     0
271
     1
272
     1
274
     3
283
     0
284
     8
340
11
341
8F
342
8F
  0
DIMSTYLE
105
4DD4
330
A
100
AcDbSymbolTableRecord
100
AcDbDimStyleTableRecord
  2
NEMY-25
 70
     0
 40
25.0
 41
3.0
 42
1.5
 43
10.0
 44
1.0
 73
     0
 74
     0
 77
     1
 78
     8
140
3.0
141
1.5
143
0.03937007874016
147
1.0
171
     3
172
     1
178
     0
271
     1
272
     1
274
     3
283
     0
284
     8
340
11
341
8F
342
8F
  0
DIMSTYLE
105
4DD5
330
A
100
AcDbSymbolTableRecord
100
AcDbDimStyleTableRecord
  2
NEMY-30
 70
     0
 40
30.0
 41
3.0
 42
1.5
 43
10.0
 44
1.0
 73
     0
 74
     0
 77
     1
 78
     8
140
3.0
141
1.5
143
0.03937007874016
147
1.0
171
     3
172
     1
178
     0
271
     1
272
     1
274
     3
283
     0
284
     8
340
11
341
8F
342
8F
  0
DIMSTYLE
105
4DD6
330
A
100
AcDbSymbolTableRecord
100
AcDbDimStyleTableRecord
  2
NEMY-50
 70
     0
 40
50.0
 41
3.0
 42
1.5
 43
10.0
 44
1.0
 73
     0
 74
     0
 77
     1
 78
     8
140
3.0
141
1.5
143
0.03937007874016
147
1.0
171
     3
172
     1
178
     0
271
     1
272
     1
274
     3
283
     0
284
     8
340
11
341
8F
342
8F
  0
DIMSTYLE
105
4E6F
330
A
100
AcDbSymbolTableRecord
100
AcDbDimStyleTableRecord
  2
NEMY-20
 70
     0
 40
20.0
 41
3.0
 42
1.5
 43
10.0
 44
1.0
 73
     0
 74
     0
 77
     1
 78
     8
140
3.0
141
1.5
143
0.03937007874016
147
1.0
171
     3
172
     1
178
     0
271
     1
272
     1
274
     3
283
     0
284
     8
340
11
341
8F
342
8F
  0
DIMSTYLE
105
4F44
330
A
100
AcDbSymbolTableRecord
100
AcDbDimStyleTableRecord
  2
NEMY-10$3
 70
     0
 40
10.0
 41
3.0
 42
1.5
 43
10.0
 44
1.0
 77
     1
 78
     8
140
3.0
141
1.5
143
0.03937007874016
147
1.0
171
     3
172
     1
178
     0
271
     1
272
     1
274
     3
283
     0
284
     8
340
11
341
8F
342
8F
  0
DIMSTYLE
105
4F45
330
A
100
AcDbSymbolTableRecord
100
AcDbDimStyleTableRecord
  2
NEMY-1$3
 70
     0
 41
3.0
 42
1.5
 43
10.0
 44
1.0
 77
     1
 78
     8
140
3.0
141
1.5
143
0.03937007874016
147
1.0
171
     3
172
     1
178
     0
271
     1
272
     1
274
     3
283
     0
284
     8
340
11
341
8F
342
8F
  0
DIMSTYLE
105
4F46
330
A
100
AcDbSymbolTableRecord
100
AcDbDimStyleTableRecord
  2
NEMY-12
 70
     0
 40
12.0
 41
3.0
 42
1.5
 43
10.0
 44
1.0
 73
     0
 74
     0
 77
     1
 78
     8
140
3.0
141
1.5
143
0.03937007874016
147
1.0
171
     3
172
     1
178
     0
271
     1
272
     1
274
     3
283
     0
284
     8
340
11
341
8F
342
8F
  0
DIMSTYLE
105
4F47
330
A
100
AcDbSymbolTableRecord
100
AcDbDimStyleTableRecord
  2
NEMY-12$3
 70
     0
 40
12.0
 41
3.0
 42
1.5
 43
10.0
 44
1.0
 77
     1
 78
     8
140
3.0
141
1.5
143
0.03937007874016
147
1.0
171
     3
172
     1
178
     0
271
     1
272
     1
274
     3
283
     0
284
     8
340
11
341
8F
342
8F
  0
DIMSTYLE
105
5E6E
330
A
100
AcDbSymbolTableRecord
100
AcDbDimStyleTableRecord
  2
NEMY-8$3
 70
     0
 40
8.0
 41
3.0
 42
1.5
 43
10.0
 44
1.0
 77
     1
 78
     8
140
3.0
141
1.5
143
0.03937007874016
147
1.0
171
     3
172
     1
178
     0
271
     1
272
     1
274
     3
283
     0
284
     8
340
11
341
8F
342
8F
  0
DIMSTYLE
105
5E6F
330
A
100
AcDbSymbolTableRecord
100
AcDbDimStyleTableRecord
  2
NEMY-50$3
 70
     0
 40
50.0
 41
3.0
 42
1.5
 43
10.0
 44
1.0
 77
     1
 78
     8
140
3.0
141
1.5
143
0.03937007874016
147
1.0
171
     3
172
     1
178
     0
271
     1
272
     1
274
     3
283
     0
284
     8
340
11
341
8F
342
8F
  0
DIMSTYLE
105
5E70
330
A
100
AcDbSymbolTableRecord
100
AcDbDimStyleTableRecord
  2
NEMY-5$3
 70
     0
 40
5.0
 41
3.0
 42
1.5
 43
10.0
 44
1.0
 77
     1
 78
     8
140
3.0
141
1.5
143
0.03937007874016
147
1.0
171
     3
172
     1
178
     0
271
     1
272
     1
274
     3
283
     0
284
     8
340
11
341
8F
342
8F
  0
DIMSTYLE
105
5E71
330
A
100
AcDbSymbolTableRecord
100
AcDbDimStyleTableRecord
  2
NEMY-30$3
 70
     0
 40
30.0
 41
3.0
 42
1.5
 43
10.0
 44
1.0
 77
     1
 78
     8
140
3.0
141
1.5
143
0.03937007874016
147
1.0
171
     3
172
     1
178
     0
271
     1
272
     1
274
     3
283
     0
284
     8
340
11
341
8F
342
8F
  0
DIMSTYLE
105
5E72
330
A
100
AcDbSymbolTableRecord
100
AcDbDimStyleTableRecord
  2
NEMY-3$3
 70
     0
 40
3.0
 41
3.0
 42
1.5
 43
10.0
 44
1.0
 77
     1
 78
     8
140
3.0
141
1.5
143
0.03937007874016
147
1.0
171
     3
172
     1
178
     0
271
     1
272
     1
274
     3
283
     0
284
     8
340
11
341
8F
342
8F
  0
DIMSTYLE
105
5E73
330
A
100
AcDbSymbolTableRecord
100
AcDbDimStyleTableRecord
  2
NEMY-25$3
 70
     0
 40
25.0
 41
3.0
 42
1.5
 43
10.0
 44
1.0
 77
     1
 78
     8
140
3.0
141
1.5
143
0.03937007874016
147
1.0
171
     3
172
     1
178
     0
271
     1
272
     1
274
     3
283
     0
284
     8
340
11
341
8F
342
8F
  0
DIMSTYLE
105
5E74
330
A
100
AcDbSymbolTableRecord
100
AcDbDimStyleTableRecord
  2
NEMY-20$3
 70
     0
 40
20.0
 41
3.0
 42
1.5
 43
10.0
 44
1.0
 77
     1
 78
     8
140
3.0
141
1.5
143
0.03937007874016
147
1.0
171
     3
172
     1
178
     0
271
     1
272
     1
274
     3
283
     0
284
     8
340
11
341
8F
342
8F
  0
DIMSTYLE
105
5E75
330
A
100
AcDbSymbolTableRecord
100
AcDbDimStyleTableRecord
  2
NEMY-2$3
 70
     0
 40
2.0
 41
3.0
 42
1.5
 43
10.0
 44
1.0
 77
     1
 78
     8
140
3.0
141
1.5
143
0.03937007874016
147
1.0
171
     3
172
     1
178
     0
271
     1
272
     1
274
     3
283
     0
284
     8
340
11
341
8F
342
8F
  0
DIMSTYLE
105
5E76
330
A
100
AcDbSymbolTableRecord
100
AcDbDimStyleTableRecord
  2
NEMY-15$3
 70
     0
 40
15.0
 41
3.0
 42
1.5
 43
10.0
 44
1.0
 77
     1
 78
     8
140
3.0
141
1.5
143
0.03937007874016
147
1.0
171
     3
172
     1
178
     0
271
     1
272
     1
274
     3
283
     0
284
     8
340
11
341
8F
342
8F
  0
ENDTAB
  0
TABLE
  2
BLOCK_RECORD
  5
1
330
0
100
AcDbSymbolTable
 70
    42
  0
BLOCK_RECORD
  5
1F
102
{ACAD_XDICTIONARY
360
969E
102
}
330
1
100
AcDbSymbolTableRecord
100
AcDbBlockTableRecord
  2
*Model_Space
340
22
  0
BLOCK_RECORD
  5
1B
330
1
100
AcDbSymbolTableRecord
100
AcDbBlockTableRecord
  2
*Paper_Space
340
1E
  0
BLOCK_RECORD
  5
8F
330
1
100
AcDbSymbolTableRecord
100
AcDbBlockTableRecord
  2
_Open
340
0
102
{BLKREFS
331
10F20
331
124D7
331
124E3
331
124EF
331
12507
331
12513
331
1252E
331
12548
331
13997
331
139A3
331
15D74
331
15D9F
331
15DDF
331
15DEC
331
171B1
331
171BE
331
10F21
331
124D8
331
124E4
331
124F0
331
12508
331
12514
331
1252F
331
12549
331
13998
331
139A4
331
15D75
331
15DA0
331
15DE0
331
15DED
331
171B2
331
171BF
331
DCB7
331
DCC4
331
1253C
331
15D67
331
15D83
331
15DAE
331
DCB8
331
DCC5
331
12522
331
1253D
331
15D68
331
15D84
331
15DAF
331
12523
331
15D94
331
15D95
102
}
  0
BLOCK_RECORD
  5
82F2
330
1
100
AcDbSymbolTableRecord
100
AcDbBlockTableRecord
  2
hole-φ16
340
0
102
{BLKREFS
331
0
331
0
331
0
331
0
331
0
331
0
331
0
331
0
102
}
  0
BLOCK_RECORD
  5
D358
330
1
100
AcDbSymbolTableRecord
100
AcDbBlockTableRecord
  2
BRT60M12M16T_1
340
0
102
{BLKREFS
331
0
331
0
331
0
331
0
102
}
  0
BLOCK_RECORD
  5
D3D0
330
1
100
AcDbSymbolTableRecord
100
AcDbBlockTableRecord
  2
STB-M12_M16揺れ止めゴム
340
0
102
{BLKREFS
331
12172
331
0
102
}
  0
BLOCK_RECORD
  5
D3DF
330
1
100
AcDbSymbolTableRecord
100
AcDbBlockTableRecord
  2
STB-M12_M16揺れ止め座金
340
0
102
{BLKREFS
331
12171
331
0
102
}
  0
BLOCK_RECORD
  5
D4C0
330
1
100
AcDbSymbolTableRecord
100
AcDbBlockTableRecord
  2
STB-M16ナット(1種)
340
0
102
{BLKREFS
331
12173
331
12175
331
12177
331
0
331
0
331
0
102
}
  0
BLOCK_RECORD
  5
D4D5
330
1
100
AcDbSymbolTableRecord
100
AcDbBlockTableRecord
  2
STB-M16平ワッシャ
340
0
102
{BLKREFS
331
12170
331
12178
331
0
331
0
102
}
  0
BLOCK_RECORD
  5
D640
330
1
100
AcDbSymbolTableRecord
100
AcDbBlockTableRecord
  2
STB-M16ゴムブッシュ
340
0
102
{BLKREFS
331
12176
331
0
102
}
  0
BLOCK_RECORD
  5
D698
330
1
100
AcDbSymbolTableRecord
100
AcDbBlockTableRecord
  2
STB-M16ナット(3種)
340
0
102
{BLKREFS
331
12174
331
0
102
}
  0
BLOCK_RECORD
  5
D747
330
1
100
AcDbSymbolTableRecord
100
AcDbBlockTableRecord
  2
NS250
340
0
102
{BLKREFS
331
0
331
0
331
0
102
}
  0
BLOCK_RECORD
  5
D795
330
1
100
AcDbSymbolTableRecord
100
AcDbBlockTableRecord
  2
機器向きシール(□60x30)
340
0
102
{BLKREFS
331
0
102
}
  0
BLOCK_RECORD
  5
D7A2
330
1
100
AcDbSymbolTableRecord
100
AcDbBlockTableRecord
  2
型式シール(□60x30)
340
0
102
{BLKREFS
331
0
102
}
  0
BLOCK_RECORD
  5
D7AF
330
1
100
AcDbSymbolTableRecord
100
AcDbBlockTableRecord
  2
検査済シール(□60x30)
340
0
102
{BLKREFS
331
0
102
}
  0
BLOCK_RECORD
  5
DCAF
330
1
100
AcDbSymbolTableRecord
100
AcDbBlockTableRecord
  2
*D662
340
0
  0
BLOCK_RECORD
  5
DCBC
330
1
100
AcDbSymbolTableRecord
100
AcDbBlockTableRecord
  2
*D663
340
0
  0
BLOCK_RECORD
  5
10F1A
330
1
100
AcDbSymbolTableRecord
100
AcDbBlockTableRecord
  2
*D982
340
0
  0
BLOCK_RECORD
  5
11F78
330
1
100
AcDbSymbolTableRecord
100
AcDbBlockTableRecord
  2
BRT60M12M16T_2
340
0
102
{BLKREFS
331
1216E
102
}
  0
BLOCK_RECORD
  5
11FEE
330
1
100
AcDbSymbolTableRecord
100
AcDbBlockTableRecord
  2
BRT60M12M16B_2
340
0
102
{BLKREFS
331
1216F
102
}
  0
BLOCK_RECORD
  5
12023
330
1
100
AcDbSymbolTableRecord
100
AcDbBlockTableRecord
  2
BRT60M12M16B_1
340
0
102
{BLKREFS
331
0
331
0
331
0
331
0
102
}
  0
BLOCK_RECORD
  5
1216D
330
1
100
AcDbSymbolTableRecord
100
AcDbBlockTableRecord
  2
BRT60M16H143_1
340
0
102
{BLKREFS
331
0
331
0
331
0
331
0
102
}
  0
BLOCK_RECORD
  5
124D1
330
1
100
AcDbSymbolTableRecord
100
AcDbBlockTableRecord
  2
*D1080
340
0
  0
BLOCK_RECORD
  5
124DD
330
1
100
AcDbSymbolTableRecord
100
AcDbBlockTableRecord
  2
*D1081
340
0
  0
BLOCK_RECORD
  5
124E9
330
1
100
AcDbSymbolTableRecord
100
AcDbBlockTableRecord
  2
*D1082
340
0
  0
BLOCK_RECORD
  5
12501
330
1
100
AcDbSymbolTableRecord
100
AcDbBlockTableRecord
  2
*D1084
340
0
  0
BLOCK_RECORD
  5
1250D
330
1
100
AcDbSymbolTableRecord
100
AcDbBlockTableRecord
  2
*D1085
340
0
  0
BLOCK_RECORD
  5
12519
330
1
100
AcDbSymbolTableRecord
100
AcDbBlockTableRecord
  2
*D1086
340
0
  0
BLOCK_RECORD
  5
12528
330
1
100
AcDbSymbolTableRecord
100
AcDbBlockTableRecord
  2
*D1087
340
0
  0
BLOCK_RECORD
  5
12534
330
1
100
AcDbSymbolTableRecord
100
AcDbBlockTableRecord
  2
*D1088
340
0
  0
BLOCK_RECORD
  5
12542
330
1
100
AcDbSymbolTableRecord
100
AcDbBlockTableRecord
  2
*D1089
340
0
  0
BLOCK_RECORD
  5
13991
330
1
100
AcDbSymbolTableRecord
100
AcDbBlockTableRecord
  2
*D1210
340
0
  0
BLOCK_RECORD
  5
1399D
330
1
100
AcDbSymbolTableRecord
100
AcDbBlockTableRecord
  2
*D1211
340
0
  0
BLOCK_RECORD
  5
15D5F
330
1
100
AcDbSymbolTableRecord
100
AcDbBlockTableRecord
  2
*D1362
340
0
  0
BLOCK_RECORD
  5
15D6E
330
1
100
AcDbSymbolTableRecord
100
AcDbBlockTableRecord
  2
*D1363
340
0
  0
BLOCK_RECORD
  5
15D7B
330
1
100
AcDbSymbolTableRecord
100
AcDbBlockTableRecord
  2
*D1364
340
0
  0
BLOCK_RECORD
  5
15D8A
330
1
100
AcDbSymbolTableRecord
100
AcDbBlockTableRecord
  2
*D1365
340
0
  0
BLOCK_RECORD
  5
15D99
330
1
100
AcDbSymbolTableRecord
100
AcDbBlockTableRecord
  2
*D1366
340
0
  0
BLOCK_RECORD
  5
15DA6
330
1
100
AcDbSymbolTableRecord
100
AcDbBlockTableRecord
  2
*D1367
340
0
  0
BLOCK_RECORD
  5
15DD9
330
1
100
AcDbSymbolTableRecord
100
AcDbBlockTableRecord
  2
*D1369
340
0
  0
BLOCK_RECORD
  5
15DE6
330
1
100
AcDbSymbolTableRecord
100
AcDbBlockTableRecord
  2
*D1370
340
0
  0
BLOCK_RECORD
  5
170F2
330
1
100
AcDbSymbolTableRecord
100
AcDbBlockTableRecord
  2
RAS-AP224SG他
340
0
102
{BLKREFS
331
0
102
}
  0
BLOCK_RECORD
  5
171AC
330
1
100
AcDbSymbolTableRecord
100
AcDbBlockTableRecord
  2
*D1380
340
0
  0
BLOCK_RECORD
  5
171B9
330
1
100
AcDbSymbolTableRecord
100
AcDbBlockTableRecord
  2
*D1381
340
0
  0
ENDTAB
  0
ENDSEC
  0
SECTION
  2
BLOCKS
  0
BLOCK
  5
20
330
1F
100
AcDbEntity
  8
0
100
AcDbBlockBegin
  2
*Model_Space
 70
     0
 10
0.0
 20
0.0
 30
0.0
  3
*Model_Space
  1

  0
ENDBLK
  5
21
330
1F
100
AcDbEntity
  8
0
100
AcDbBlockEnd
  0
BLOCK
  5
1C
330
1B
100
AcDbEntity
 67
     1
  8
0
100
AcDbBlockBegin
  2
*Paper_Space
 70
     0
 10
0.0
 20
0.0
 30
0.0
  3
*Paper_Space
  1

  0
ENDBLK
  5
1D
330
1B
100
AcDbEntity
 67
     1
  8
0
100
AcDbBlockEnd
  0
BLOCK
  5
93
330
8F
100
AcDbEntity
  8
0
100
AcDbBlockBegin
  2
_Open
 70
     0
 10
0.0
 20
0.0
 30
0.0
  3
_Open
  1

  0
LINE
  5
90
330
8F
100
AcDbEntity
  8
01注記寸法
 62
     0
370
    -2
100
AcDbLine
 10
-1.0
 20
0.1666666666666667
 30
0.0
 11
0.0
 21
0.0
 31
0.0
  0
LINE
  5
91
330
8F
100
AcDbEntity
  8
01注記寸法
 62
     0
370
    -2
100
AcDbLine
 10
-1.0
 20
-0.1666666666666667
 30
0.0
 11
0.0
 21
0.0
 31
0.0
  0
LINE
  5
92
330
8F
100
AcDbEntity
  8
01注記寸法
 62
     0
370
    -2
100
AcDbLine
 10
0.0
 20
0.0
 30
0.0
 11
-1.0
 21
0.0
 31
0.0
  0
ENDBLK
  5
94
330
8F
100
AcDbEntity
  8
0
100
AcDbBlockEnd
  0
BLOCK
  5
82F3
330
82F2
100
AcDbEntity
  8
0
100
AcDbBlockBegin
  2
hole-φ16
 70
     0
 10
0.0
 20
0.0
 30
0.0
  3
hole-φ16
  1

  0
CIRCLE
  5
82F4
330
82F2
100
AcDbEntity
  8
02実線
100
AcDbCircle
 10
0.0
 20
0.0
 30
0.0
 40
8.0
  0
LINE
  5
82F5
330
82F2
100
AcDbEntity
  8
04一点鎖線
  6
CENTER
 48
0.2
100
AcDbLine
 10
0.0
 20
-20.0
 30
0.0
 11
0.0
 21
20.0
 31
0.0
  0
LINE
  5
82F6
330
82F2
100
AcDbEntity
  8
04一点鎖線
  6
CENTER
 48
0.2
100
AcDbLine
 10
-20.0
 20
0.0
 30
0.0
 11
20.0
 21
0.0
 31
0.0
  0
ENDBLK
  5
82F7
330
82F2
100
AcDbEntity
  8
0
100
AcDbBlockEnd
  0
BLOCK
  5
D359
330
D358
100
AcDbEntity
  8
0
100
AcDbBlockBegin
  2
BRT60M12M16T_1
 70
     0
 10
0.0
 20
0.0
 30
0.0
  3
BRT60M12M16T_1
  1

  0
LWPOLYLINE
  5
11E19
330
D358
100
AcDbEntity
  8
08非表示
100
AcDbPolyline
 90
        4
 70
     1
 43
0.0
 10
-60.0
 20
-60.0
 10
-60.0
 20
0.0
 10
0.0
 20
0.0
 10
0.0
 20
-60.0
  0
LINE
  5
11E1A
330
D358
100
AcDbEntity
  8
02実線
100
AcDbLine
 10
-60.0
 20
0.0
 30
0.0
 11
-4.5
 21
0.0
 31
0.0
  0
LINE
  5
11E1B
330
D358
100
AcDbEntity
  8
02実線
100
AcDbLine
 10
0.0
 20
-4.5
 30
0.0
 11
0.0
 21
-60.0
 31
0.0
  0
LINE
  5
11E1C
330
D358
100
AcDbEntity
  8
02実線
100
AcDbLine
 10
-9.5
 20
-60.0
 30
0.0
 11
-45.0
 21
-60.0
 31
0.0
  0
LINE
  5
11E1D
330
D358
100
AcDbEntity
  8
02実線
100
AcDbLine
 10
-60.0
 20
-45.0
 30
0.0
 11
-60.0
 21
0.0
 31
0.0
  0
LINE
  5
11E1E
330
D358
100
AcDbEntity
  8
02実線
100
AcDbLine
 10
-4.5
 20
-4.5
 30
0.0
 11
-4.5
 21
-60.0
 31
0.0
  0
LINE
  5
11E1F
330
D358
100
AcDbEntity
  8
02実線
100
AcDbLine
 10
-12.0
 20
0.0
 30
0.0
 11
-12.0
 21
-4.5
 31
0.0
  0
ARC
  5
11E20
330
D358
100
AcDbEntity
  8
02実線
100
AcDbCircle
 10
-4.5
 20
-4.5
 30
0.0
 40
4.5
100
AcDbArc
 50
0.0
 51
90.0
  0
LINE
  5
11E21
330
D358
100
AcDbEntity
  8
02実線
100
AcDbLine
 10
0.0
 20
-60.0
 30
0.0
 11
-4.5
 21
-60.0
 31
0.0
  0
ARC
  5
11E22
330
D358
100
AcDbEntity
  8
02実線
100
AcDbCircle
 10
-45.0
 20
-45.0
 30
0.0
 40
15.0
100
AcDbArc
 50
180.0
 51
270.0
  0
LINE
  5
11E23
330
D358
100
AcDbEntity
  8
02実線
100
AcDbLine
 10
-12.0
 20
-4.5
 30
0.0
 11
-12.0
 21
-7.0
 31
0.0
  0
ARC
  5
11E24
330
D358
100
AcDbEntity
  8
02実線
100
AcDbCircle
 10
-9.5
 20
-55.0
 30
0.0
 40
5.0
100
AcDbArc
 50
270.0
 51
0.0
  0
ARC
  5
11E25
330
D358
100
AcDbEntity
  8
02実線
100
AcDbCircle
 10
-7.0
 20
-7.0
 30
0.0
 40
5.0
100
AcDbArc
 50
180.0
 51
270.0
  0
LINE
  5
11E26
330
D358
100
AcDbEntity
  8
02実線
100
AcDbLine
 10
-4.5
 20
-4.5
 30
0.0
 11
-12.0
 21
-4.5
 31
0.0
  0
LINE
  5
11E27
330
D358
100
AcDbEntity
  8
02実線
100
AcDbLine
 10
0.0
 20
-12.0
 30
0.0
 11
-7.0
 21
-12.0
 31
0.0
  0
LINE
  5
11E28
330
D358
100
AcDbEntity
  8
02実線
100
AcDbLine
 10
-4.5
 20
-60.0
 30
0.0
 11
-4.449999999999818
 21
-60.0
 31
0.0
  0
CIRCLE
  5
11E52
330
D358
100
AcDbEntity
  8
08非表示
100
AcDbCircle
 10
-35.0
 20
-35.0
 30
0.0
 40
12.0
  0
ENDBLK
  5
D35A
330
D358
100
AcDbEntity
  8
0
100
AcDbBlockEnd
  0
BLOCK
  5
D3D1
330
D3D0
100
AcDbEntity
  8
0
100
AcDbBlockBegin
  2
STB-M12_M16揺れ止めゴム
 70
     0
 10
0.0
 20
0.0
 30
0.0
  3
STB-M12_M16揺れ止めゴム
  1

  0
LINE
  5
D3D3
330
D3D0
100
AcDbEntity
  8
02実線
 62
    83
100
AcDbLine
 10
24.5
 20
0.0
 30
0.0
 11
-24.5
 21
0.0
 31
0.0
  0
LINE
  5
D3D4
330
D3D0
100
AcDbEntity
  8
02実線
 62
    83
100
AcDbLine
 10
-24.5
 20
5.5
 30
0.0
 11
-1.5
 21
5.5
 31
0.0
  0
LINE
  5
D3D5
330
D3D0
100
AcDbEntity
  8
02実線
 62
    83
100
AcDbLine
 10
-24.5
 20
0.0
 30
0.0
 11
-24.5
 21
5.5
 31
0.0
  0
LINE
  5
D3D6
330
D3D0
100
AcDbEntity
  8
02実線
 62
    83
100
AcDbLine
 10
1.5
 20
5.5
 30
0.0
 11
24.5
 21
5.5
 31
0.0
  0
LINE
  5
D3D7
330
D3D0
100
AcDbEntity
  8
02実線
 62
    83
100
AcDbLine
 10
-1.5
 20
5.5
 30
0.0
 11
-1.5
 21
3.5
 31
0.0
  0
LINE
  5
D3D8
330
D3D0
100
AcDbEntity
  8
02実線
 62
    83
100
AcDbLine
 10
1.5
 20
5.5
 30
0.0
 11
1.5
 21
3.5
 31
0.0
  0
LINE
  5
D3D9
330
D3D0
100
AcDbEntity
  8
02実線
 62
    83
100
AcDbLine
 10
-1.5
 20
3.5
 30
0.0
 11
1.5
 21
3.5
 31
0.0
  0
LINE
  5
D3DA
330
D3D0
100
AcDbEntity
  8
02実線
 62
    83
100
AcDbLine
 10
24.5
 20
5.5
 30
0.0
 11
24.5
 21
0.0
 31
0.0
  0
ENDBLK
  5
D3D2
330
D3D0
100
AcDbEntity
  8
0
100
AcDbBlockEnd
  0
BLOCK
  5
D3E0
330
D3DF
100
AcDbEntity
  8
0
100
AcDbBlockBegin
  2
STB-M12_M16揺れ止め座金
 70
     0
 10
0.0
 20
0.0
 30
0.0
  3
STB-M12_M16揺れ止め座金
  1

  0
LINE
  5
D3E2
330
D3DF
100
AcDbEntity
  8
02実線
 62
     3
100
AcDbLine
 10
25.0
 20
0.0
 30
0.0
 11
-25.0
 21
0.0
 31
0.0
  0
LINE
  5
D3E3
330
D3DF
100
AcDbEntity
  8
02実線
 62
     3
100
AcDbLine
 10
-25.0
 20
4.5
 30
0.0
 11
25.0
 21
4.5
 31
0.0
  0
LINE
  5
D3E4
330
D3DF
100
AcDbEntity
  8
02実線
 62
     3
100
AcDbLine
 10
-25.0
 20
4.5
 30
0.0
 11
-25.0
 21
0.0
 31
0.0
  0
LINE
  5
D3E5
330
D3DF
100
AcDbEntity
  8
02実線
 62
     3
100
AcDbLine
 10
25.0
 20
4.5
 30
0.0
 11
25.0
 21
0.0
 31
0.0
  0
ENDBLK
  5
D3E1
330
D3DF
100
AcDbEntity
  8
0
100
AcDbBlockEnd
  0
BLOCK
  5
D4C1
330
D4C0
100
AcDbEntity
  8
0
100
AcDbBlockBegin
  2
STB-M16ナット(1種)
 70
     0
 10
0.0
 20
0.0
 30
0.0
  3
STB-M16ナット(1種)
  1

  0
LINE
  5
D4C3
330
D4C0
100
AcDbEntity
  8
02実線
 62
     9
100
AcDbLine
 10
13.85000000000036
 20
0.0
 30
0.0
 11
-13.85000000000036
 21
0.0
 31
0.0
  0
LINE
  5
D4C4
330
D4C0
100
AcDbEntity
  8
02実線
 62
     9
100
AcDbLine
 10
-13.85000000000036
 20
0.0
 30
0.0
 11
-13.85000000000036
 21
11.9319020019957
 31
0.0
  0
LINE
  5
D4C5
330
D4C0
100
AcDbEntity
  8
02実線
 62
     9
100
AcDbLine
 10
-12.00000000000182
 20
12.99999999999545
 30
0.0
 11
11.99999999999818
 21
13.00000000000455
 31
0.0
  0
LINE
  5
D4C6
330
D4C0
100
AcDbEntity
  8
02実線
 62
     9
100
AcDbLine
 10
13.85000000000218
 20
11.93190200199706
 30
0.0
 11
13.85000000000036
 21
0.0
 31
0.0
  0
LINE
  5
D4C7
330
D4C0
100
AcDbEntity
  8
02実線
 62
     9
100
AcDbLine
 10
-12.00000000000182
 20
12.99999999999545
 30
0.0
 11
-13.85000000000036
 21
11.9319020019957
 31
0.0
  0
LINE
  5
D4C8
330
D4C0
100
AcDbEntity
  8
02実線
 62
     9
100
AcDbLine
 10
12.00000000000182
 20
12.99999999999545
 30
0.0
 11
13.85000000000036
 21
11.9319020019957
 31
0.0
  0
SPLINE
  5
D4C9
330
D4C0
100
AcDbEntity
  8
02実線
 62
     9
100
AcDbSpline
210
0.0
220
0.0
230
1.0
 70
  1064
 71
     3
 72
    23
 73
    19
 74
    17
 42
0.000000001
 43
0.0000000001
 44
0.0
 40
0.0
 40
0.0
 40
0.0
 40
0.0
 40
0.1165670826682187
 40
0.4175367898848867
 40
0.7354900191280567
 40
1.0765621147769
 40
1.451266493020503
 40
1.880474903646973
 40
2.419068484231626
 40
3.65860804928474
 40
4.898147614336952
 40
5.43674119492248
 40
5.86594960554895
 40
6.240653983792554
 40
6.581726079441397
 40
6.899679308684568
 40
7.200649015901235
 40
7.322822764582094
 40
7.322822764582094
 40
7.322822764582094
 40
7.322822764582094
 10
13.85000000000036
 20
11.9319020019957
 30
0.0
 10
13.81628123583515
 20
11.95121060414879
 30
0.0
 10
13.69550250288442
 20
12.02037294033864
 30
0.0
 10
13.48029965666558
 20
12.13789049473544
 30
0.0
 10
13.19524235745315
 20
12.28339379419997
 30
0.0
 10
12.88305647533256
 20
12.42944181924277
 30
0.0
 10
12.53087069601089
 20
12.57683329736896
 30
0.0
 10
12.10932198436939
 20
12.7278990001677
 30
0.0
 10
11.40039399046465
 20
12.92681572762604
 30
0.0
 10
10.39230368923428
 20
13.05101881089645
 30
0.0
 10
9.384219017462684
 20
12.92681018113665
 30
0.0
 10
8.675283327320084
 20
12.727906856438
 30
0.0
 10
8.25375125718379
 20
12.57681114217447
 30
0.0
 10
7.901515025292502
 20
12.42951085614466
 30
0.0
 10
7.589492663493038
 20
12.28316722466407
 30
0.0
 10
7.303885724833892
 20
12.13865755563563
 30
0.0
 10
7.088587351090178
 20
12.01745118136964
 30
0.0
 10
6.964135948157594
 20
11.95106857853671
 30
0.0
 10
6.928203230274448
 20
11.9319020019957
 30
0.0
 11
13.85000000000036
 21
11.9319020019957
 31
0.0
 11
13.74873524093618
 21
11.98963702891569
 31
0.0
 11
13.48463406462542
 21
12.13397459621319
 31
0.0
 11
13.20133047719173
 21
12.27831216351069
 31
0.0
 11
12.89230484541167
 21
12.42264973080773
 31
0.0
 11
12.5465158378629
 21
12.56698729810523
 31
0.0
 11
12.14230484541076
 21
12.71132486540273
 31
0.0
 11
11.62341207063582
 21
12.85566243270023
 31
0.0
 11
10.39230484541258
 21
13.00000000000409
 31
0.0
 11
9.16119762019025
 21
12.85566243270023
 31
0.0
 11
8.642304845414401
 21
12.71132486540273
 31
0.0
 11
8.238093852962265
 21
12.56698729810523
 31
0.0
 11
7.892304845413491
 21
12.42264973080773
 31
0.0
 11
7.583279213633432
 21
12.27831216351069
 31
0.0
 11
7.299975626199739
 21
12.13397459621319
 31
0.0
 11
7.035874449888979
 21
11.98963702891569
 31
0.0
 11
6.928203230274448
 21
11.9319020019957
 31
0.0
  0
SPLINE
  5
D4CA
330
D4C0
100
AcDbEntity
  8
02実線
 62
     9
100
AcDbSpline
210
0.0
220
0.0
230
1.0
 70
  1064
 71
     3
 72
    23
 73
    19
 74
    17
 42
0.000000001
 43
0.0000000001
 44
0.0
 40
0.0
 40
0.0
 40
0.0
 40
0.0
 40
0.2229477505286649
 40
0.770516064668727
 40
1.355218573593136
 40
1.989900145502616
 40
2.696379787318022
 40
3.51758587534249
 40
4.565360746291247
 40
7.03180217744606
 40
9.49824360860269
 40
10.54601847955145
 40
11.36722456757592
 40
12.07370420939132
 40
12.7083857813008
 40
13.29308829022521
 40
13.84065660436527
 40
14.06360435489394
 40
14.06360435489394
 40
14.06360435489394
 40
14.06360435489394
 10
6.928203230274448
 20
11.9319020019957
 30
0.0
 10
6.856396942403652
 20
11.95105255803338
 30
0.0
 10
6.6082316291521
 20
12.0172376217507
 30
0.0
 10
6.173352753607489
 20
12.13959971505936
 30
0.0
 10
5.602278889052349
 20
12.28397488168427
 30
0.0
 10
4.977230213041895
 20
12.43048824960818
 30
0.0
 10
4.271588449678369
 20
12.5778855844928
 30
0.0
 10
3.426373773140339
 20
12.72917772240995
 30
0.0
 10
1.994814309764331
 20
12.92926701836879
 30
0.0
 10
-0.000000000000603
 20
13.04964371610814
 30
0.0
 10
-1.994814309765551
 20
12.92926701836888
 30
0.0
 10
-3.426373773142157
 20
12.72917772240994
 30
0.0
 10
-4.271588449680187
 20
12.5778855844928
 30
0.0
 10
-4.977230213043715
 20
12.43048824960818
 30
0.0
 10
-5.602278889054166
 20
12.28397488168427
 30
0.0
 10
-6.173352753609309
 20
12.13959971505936
 30
0.0
 10
-6.608231629153918
 20
12.0172376217507
 30
0.0
 10
-6.856396942405472
 20
11.95105255803338
 30
0.0
 10
-6.928203230276267
 20
11.9319020019957
 30
0.0
 11
6.928203230274448
 21
11.9319020019957
 31
0.0
 11
6.712860791047206
 21
11.98963702891569
 31
0.0
 11
6.184658438423867
 21
12.13397459621319
 31
0.0
 11
5.6180512635583
 21
12.27831216351069
 31
0.0
 11
4.999999999998181
 21
12.42264973080773
 31
0.0
 11
4.308421984900633
 21
12.56698729810523
 31
0.0
 11
3.499999999997272
 21
12.71132486540273
 31
0.0
 11
2.462214450445572
 21
12.85566243270023
 31
0.0
 11
0.0
 21
13.0
 31
0.0
 11
-2.462214450447391
 21
12.85566243270023
 31
0.0
 11
-3.499999999999091
 21
12.71132486540273
 31
0.0
 11
-4.308421984902452
 21
12.56698729810523
 31
0.0
 11
-5.0
 21
12.42264973080773
 31
0.0
 11
-5.618051263560119
 21
12.27831216351069
 31
0.0
 11
-6.184658438425686
 21
12.13397459621319
 31
0.0
 11
-6.712860791049025
 21
11.98963702891569
 31
0.0
 11
-6.928203230276267
 21
11.9319020019957
 31
0.0
  0
SPLINE
  5
D4CB
330
D4C0
100
AcDbEntity
  8
02実線
 62
     9
100
AcDbSpline
210
0.0
220
0.0
230
1.0
 70
  1064
 71
     3
 72
    23
 73
    19
 74
    17
 42
0.000000001
 43
0.0000000001
 44
0.0
 40
0.0
 40
0.0
 40
0.0
 40
0.0
 40
0.1165670826682187
 40
0.4175367898848867
 40
0.7354900191280567
 40
1.0765621147769
 40
1.451266493020503
 40
1.880474903646973
 40
2.419068484231626
 40
3.65860804928474
 40
4.898147614336952
 40
5.43674119492248
 40
5.86594960554895
 40
6.240653983792554
 40
6.581726079441397
 40
6.899679308684568
 40
7.200649015901235
 40
7.322822764582094
 40
7.322822764582094
 40
7.322822764582094
 40
7.322822764582094
 10
-13.85000000000036
 20
11.9319020019957
 30
0.0
 10
-13.81628123583515
 20
11.95121060414879
 30
0.0
 10
-13.69550250288442
 20
12.02037294033864
 30
0.0
 10
-13.48029965666558
 20
12.13789049473544
 30
0.0
 10
-13.19524235745315
 20
12.28339379419997
 30
0.0
 10
-12.88305647533256
 20
12.42944181924277
 30
0.0
 10
-12.53087069601089
 20
12.57683329736896
 30
0.0
 10
-12.10932198436939
 20
12.7278990001677
 30
0.0
 10
-11.40039399046465
 20
12.92681572762604
 30
0.0
 10
-10.39230368923428
 20
13.05101881089645
 30
0.0
 10
-9.384219017462684
 20
12.92681018113665
 30
0.0
 10
-8.675283327320084
 20
12.727906856438
 30
0.0
 10
-8.25375125718379
 20
12.57681114217447
 30
0.0
 10
-7.901515025292502
 20
12.42951085614466
 30
0.0
 10
-7.589492663493038
 20
12.28316722466407
 30
0.0
 10
-7.303885724833892
 20
12.13865755563563
 30
0.0
 10
-7.088587351090178
 20
12.01745118136964
 30
0.0
 10
-6.964135948157594
 20
11.95106857853671
 30
0.0
 10
-6.928203230274448
 20
11.9319020019957
 30
0.0
 11
-13.85000000000036
 21
11.9319020019957
 31
0.0
 11
-13.74873524093618
 21
11.98963702891569
 31
0.0
 11
-13.48463406462542
 21
12.13397459621319
 31
0.0
 11
-13.20133047719173
 21
12.27831216351069
 31
0.0
 11
-12.89230484541167
 21
12.42264973080773
 31
0.0
 11
-12.5465158378629
 21
12.56698729810523
 31
0.0
 11
-12.14230484541076
 21
12.71132486540273
 31
0.0
 11
-11.62341207063582
 21
12.85566243270023
 31
0.0
 11
-10.39230484541258
 21
13.00000000000409
 31
0.0
 11
-9.16119762019025
 21
12.85566243270023
 31
0.0
 11
-8.642304845414401
 21
12.71132486540273
 31
0.0
 11
-8.238093852962265
 21
12.56698729810523
 31
0.0
 11
-7.892304845413491
 21
12.42264973080773
 31
0.0
 11
-7.583279213633432
 21
12.27831216351069
 31
0.0
 11
-7.299975626199739
 21
12.13397459621319
 31
0.0
 11
-7.035874449888979
 21
11.98963702891569
 31
0.0
 11
-6.928203230274448
 21
11.9319020019957
 31
0.0
  0
LINE
  5
D4CC
330
D4C0
100
AcDbEntity
  8
02実線
 62
     9
100
AcDbLine
 10
-6.928203230276267
 20
11.9319020019957
 30
0.0
 11
-6.928203230276267
 21
0.0
 31
0.0
  0
LINE
  5
D4CD
330
D4C0
100
AcDbEntity
  8
02実線
 62
     9
100
AcDbLine
 10
6.928203230274448
 20
11.9319020019957
 30
0.0
 11
6.928203230274448
 21
0.0
 31
0.0
  0
ENDBLK
  5
D4C2
330
D4C0
100
AcDbEntity
  8
0
100
AcDbBlockEnd
  0
BLOCK
  5
D4D6
330
D4D5
100
AcDbEntity
  8
0
100
AcDbBlockBegin
  2
STB-M16平ワッシャ
 70
     0
 10
0.0
 20
0.0
 30
0.0
  3
STB-M16平ワッシャ
  1

  0
LINE
  5
D4D8
330
D4D5
100
AcDbEntity
  8
02実線
 62
     8
100
AcDbLine
 10
-15.0
 20
3.0
 30
0.0
 11
15.0
 21
3.0
 31
0.0
  0
LINE
  5
D4D9
330
D4D5
100
AcDbEntity
  8
02実線
 62
     8
100
AcDbLine
 10
16.0
 20
2.0
 30
0.0
 11
16.0
 21
0.0
 31
0.0
  0
LINE
  5
D4DA
330
D4D5
100
AcDbEntity
  8
02実線
 62
     8
100
AcDbLine
 10
16.0
 20
0.0
 30
0.0
 11
-16.0
 21
0.0
 31
0.0
  0
LINE
  5
D4DB
330
D4D5
100
AcDbEntity
  8
02実線
 62
     8
100
AcDbLine
 10
-16.0
 20
2.0
 30
0.0
 11
-16.0
 21
0.0
 31
0.0
  0
LINE
  5
D4DC
330
D4D5
100
AcDbEntity
  8
02実線
 62
     8
100
AcDbLine
 10
-16.0
 20
2.0
 30
0.0
 11
-15.0
 21
3.0
 31
0.0
  0
LINE
  5
D4DD
330
D4D5
100
AcDbEntity
  8
02実線
 62
     8
100
AcDbLine
 10
15.0
 20
3.0
 30
0.0
 11
16.0
 21
2.0
 31
0.0
  0
LINE
  5
D4DE
330
D4D5
100
AcDbEntity
  8
02実線
 62
     8
100
AcDbLine
 10
16.0
 20
2.0
 30
0.0
 11
-16.0
 21
2.0
 31
0.0
  0
ENDBLK
  5
D4D7
330
D4D5
100
AcDbEntity
  8
0
100
AcDbBlockEnd
  0
BLOCK
  5
D641
330
D640
100
AcDbEntity
  8
0
100
AcDbBlockBegin
  2
STB-M16ゴムブッシュ
 70
     0
 10
0.0
 20
0.0
 30
0.0
  3
STB-M16ゴムブッシュ
  1

  0
LINE
  5
D643
330
D640
100
AcDbEntity
  8
02実線
 62
    20
100
AcDbLine
 10
-20.0
 20
7.999999999998181
 30
0.0
 11
20.0
 21
7.999999999998181
 31
0.0
  0
LINE
  5
D644
330
D640
100
AcDbEntity
  8
02実線
 62
    20
100
AcDbLine
 10
-20.0
 20
-0.000000000001819
 30
0.0
 11
-20.0
 21
7.999999999998181
 31
0.0
  0
LINE
  5
D645
330
D640
100
AcDbEntity
  8
02実線
 62
    20
100
AcDbLine
 10
20.0
 20
7.999999999998181
 30
0.0
 11
20.0
 21
-0.000000000001819
 31
0.0
  0
LINE
  5
D646
330
D640
100
AcDbEntity
  8
02実線
 62
    20
100
AcDbLine
 10
-20.0
 20
-0.000000000001819
 30
0.0
 11
20.0
 21
0.000000000001819
 31
0.0
  0
ENDBLK
  5
D642
330
D640
100
AcDbEntity
  8
0
100
AcDbBlockEnd
  0
BLOCK
  5
D699
330
D698
100
AcDbEntity
  8
0
100
AcDbBlockBegin
  2
STB-M16ナット(3種)
 70
     0
 10
0.0
 20
0.0
 30
0.0
  3
STB-M16ナット(3種)
  1

  0
SPLINE
  5
D69B
330
D698
100
AcDbEntity
  8
02実線
 62
     9
100
AcDbSpline
210
0.0
220
0.0
230
1.0
 70
  1064
 71
     3
 72
    23
 73
    19
 74
    17
 42
0.000000001
 43
0.0000000001
 44
0.0
 40
0.0
 40
0.0
 40
0.0
 40
0.0
 40
0.1165670826682187
 40
0.4175367898856848
 40
0.735490019127234
 40
1.076562114776901
 40
1.451266493019665
 40
1.880474903646135
 40
2.41906848423254
 40
3.658608049284751
 40
4.898147614336963
 40
5.436741194923369
 40
5.865949605548982
 40
6.240653983792586
 40
6.581726079442253
 40
6.899679308683803
 40
7.200649015901269
 40
7.322822764581327
 40
7.322822764581327
 40
7.322822764581327
 40
7.322822764581327
 10
-13.85000000000036
 20
8.931902001991148
 30
0.0
 10
-13.81628123583515
 20
8.95121060414426
 30
0.0
 10
-13.69550250288422
 20
9.020372940334292
 30
0.0
 10
-13.48029965666514
 20
9.137890494730058
 30
0.0
 10
-13.19524235745358
 20
9.283393794196268
 30
0.0
 10
-12.8830564753329
 20
9.429441819237645
 30
0.0
 10
-12.53087069601163
 20
9.576833297364711
 30
0.0
 10
-12.10932198436975
 20
9.727899000163383
 30
0.0
 10
-11.40039399046451
 20
9.926815727620907
 30
0.0
 10
-10.39230368923399
 20
10.05101881089218
 30
0.0
 10
-9.384219017462481
 20
9.926810181131732
 30
0.0
 10
-8.67528332731967
 20
9.727906856433792
 30
0.0
 10
-8.253751257183524
 20
9.576811142169797
 30
0.0
 10
-7.901515025292367
 20
9.429510856139764
 30
0.0
 10
-7.589492663492617
 20
9.283167224660364
 30
0.0
 10
-7.303885724834379
 20
9.138657555630154
 30
0.0
 10
-7.088587351090458
 20
9.017451181365685
 30
0.0
 10
-6.964135948158182
 20
8.951068578532205
 30
0.0
 10
-6.928203230275358
 20
8.931902001991148
 30
0.0
 11
-13.85000000000036
 21
8.931902001991148
 31
0.0
 11
-13.74873524093618
 21
8.989637028911147
 31
0.0
 11
-13.48463406462452
 21
9.133974596208645
 31
0.0
 11
-13.20133047719264
 21
9.278312163506143
 31
0.0
 11
-12.89230484541167
 21
9.422649730803187
 31
0.0
 11
-12.54651583786381
 21
9.566987298100685
 31
0.0
 11
-12.14230484541167
 21
9.711324865398183
 31
0.0
 11
-11.62341207063491
 21
9.85566243269568
 31
0.0
 11
-10.39230484541258
 21
9.999999999999545
 31
0.0
 11
-9.16119762019025
 21
9.85566243269568
 31
0.0
 11
-8.642304845413491
 21
9.711324865398183
 31
0.0
 11
-8.238093852962265
 21
9.566987298100685
 31
0.0
 11
-7.892304845413491
 21
9.422649730803187
 31
0.0
 11
-7.583279213632522
 21
9.278312163506143
 31
0.0
 11
-7.299975626200649
 21
9.133974596208645
 31
0.0
 11
-7.035874449888979
 21
8.989637028911147
 31
0.0
 11
-6.928203230275358
 21
8.931902001991148
 31
0.0
  0
SPLINE
  5
D69C
330
D698
100
AcDbEntity
  8
02実線
 62
     9
100
AcDbSpline
210
0.0
220
0.0
230
1.0
 70
  1064
 71
     3
 72
    23
 73
    19
 74
    17
 42
0.000000001
 43
0.0000000001
 44
0.0
 40
0.0
 40
0.0
 40
0.0
 40
0.0
 40
0.2229477505295434
 40
0.7705160646678508
 40
1.35521857359226
 40
1.989900145503511
 40
2.696379787317136
 40
3.5175858753425
 40
4.565360746291256
 40
7.031802177446978
 40
9.4982436086027
 40
10.54601847955146
 40
11.36722456757682
 40
12.07370420939044
 40
12.7083857813017
 40
13.2930882902261
 40
13.84065660436441
 40
14.06360435489308
 40
14.06360435489308
 40
14.06360435489308
 40
14.06360435489308
 10
6.928203230274448
 20
8.931902001991148
 30
0.0
 10
6.856396942403342
 20
8.951052558028806
 30
0.0
 10
6.60823162915198
 20
9.01723762174571
 30
0.0
 10
6.173352753607896
 20
9.139599715055187
 30
0.0
 10
5.6022788890527
 20
9.283974881679939
 30
0.0
 10
4.97723021304208
 20
9.43048824960311
 30
0.0
 10
4.271588449678455
 20
9.577885584488675
 30
0.0
 10
3.426373773140604
 20
9.729177722405199
 30
0.0
 10
1.994814309764054
 20
9.92926701836441
 30
0.0
 10
-0.0000000000009094
 20
10.04964371610351
 30
0.0
 10
-1.994814309765873
 20
9.929267018364413
 30
0.0
 10
-3.426373773142423
 20
9.729177722405195
 30
0.0
 10
-4.271588449680273
 20
9.577885584488676
 30
0.0
 10
-4.9772302130439
 20
9.430488249603103
 30
0.0
 10
-5.602278889054522
 20
9.28397488167996
 30
0.0
 10
-6.1733527536097
 20
9.139599715055125
 30
0.0
 10
-6.608231629153559
 20
9.017237621745952
 30
0.0
 10
-6.85639694240456
 20
8.95105255802882
 30
0.0
 10
-6.928203230275358
 20
8.931902001991148
 30
0.0
 11
6.928203230274448
 21
8.931902001991148
 31
0.0
 11
6.712860791046296
 21
8.989637028911147
 31
0.0
 11
6.184658438424776
 21
9.133974596208645
 31
0.0
 11
5.618051263559209
 21
9.278312163506143
 31
0.0
 11
4.999999999997272
 21
9.422649730803187
 31
0.0
 11
4.308421984901543
 21
9.566987298100685
 31
0.0
 11
3.499999999997272
 21
9.711324865398183
 31
0.0
 11
2.462214450445572
 21
9.85566243269568
 31
0.0
 11
-0.0000000000009095
 21
9.999999999995453
 31
0.0
 11
-2.462214450447391
 21
9.85566243269568
 31
0.0
 11
-3.499999999999091
 21
9.711324865398183
 31
0.0
 11
-4.308421984903362
 21
9.566987298100685
 31
0.0
 11
-4.999999999999091
 21
9.422649730803187
 31
0.0
 11
-5.618051263561028
 21
9.278312163506143
 31
0.0
 11
-6.184658438426595
 21
9.133974596208645
 31
0.0
 11
-6.712860791048115
 21
8.989637028911147
 31
0.0
 11
-6.928203230275358
 21
8.931902001991148
 31
0.0
  0
SPLINE
  5
D69D
330
D698
100
AcDbEntity
  8
02実線
 62
     9
100
AcDbSpline
210
0.0
220
0.0
230
1.0
 70
  1064
 71
     3
 72
    23
 73
    19
 74
    17
 42
0.000000001
 43
0.0000000001
 44
0.0
 40
0.0
 40
0.0
 40
0.0
 40
0.0
 40
0.1165670826682187
 40
0.4175367898856848
 40
0.735490019127234
 40
1.076562114776901
 40
1.451266493019665
 40
1.880474903646135
 40
2.41906848423254
 40
3.658608049284751
 40
4.898147614336963
 40
5.436741194923369
 40
5.865949605548982
 40
6.240653983792586
 40
6.581726079442253
 40
6.899679308683803
 40
7.200649015901269
 40
7.322822764581327
 40
7.322822764581327
 40
7.322822764581327
 40
7.322822764581327
 10
13.85000000000036
 20
8.931902001991148
 30
0.0
 10
13.81628123583515
 20
8.95121060414426
 30
0.0
 10
13.69550250288422
 20
9.020372940334292
 30
0.0
 10
13.48029965666514
 20
9.137890494730058
 30
0.0
 10
13.19524235745358
 20
9.283393794196268
 30
0.0
 10
12.8830564753329
 20
9.429441819237645
 30
0.0
 10
12.53087069601163
 20
9.576833297364711
 30
0.0
 10
12.10932198436975
 20
9.727899000163383
 30
0.0
 10
11.40039399046451
 20
9.926815727620907
 30
0.0
 10
10.39230368923399
 20
10.05101881089218
 30
0.0
 10
9.384219017462481
 20
9.926810181131732
 30
0.0
 10
8.67528332731967
 20
9.727906856433792
 30
0.0
 10
8.253751257183524
 20
9.576811142169797
 30
0.0
 10
7.901515025292367
 20
9.429510856139764
 30
0.0
 10
7.589492663492617
 20
9.283167224660364
 30
0.0
 10
7.303885724834379
 20
9.138657555630154
 30
0.0
 10
7.088587351090458
 20
9.017451181365685
 30
0.0
 10
6.964135948158182
 20
8.951068578532205
 30
0.0
 10
6.928203230275358
 20
8.931902001991148
 30
0.0
 11
13.85000000000036
 21
8.931902001991148
 31
0.0
 11
13.74873524093618
 21
8.989637028911147
 31
0.0
 11
13.48463406462452
 21
9.133974596208645
 31
0.0
 11
13.20133047719264
 21
9.278312163506143
 31
0.0
 11
12.89230484541167
 21
9.422649730803187
 31
0.0
 11
12.54651583786381
 21
9.566987298100685
 31
0.0
 11
12.14230484541167
 21
9.711324865398183
 31
0.0
 11
11.62341207063491
 21
9.85566243269568
 31
0.0
 11
10.39230484541258
 21
9.999999999999545
 31
0.0
 11
9.16119762019025
 21
9.85566243269568
 31
0.0
 11
8.642304845413491
 21
9.711324865398183
 31
0.0
 11
8.238093852962265
 21
9.566987298100685
 31
0.0
 11
7.892304845413491
 21
9.422649730803187
 31
0.0
 11
7.583279213632522
 21
9.278312163506143
 31
0.0
 11
7.299975626200649
 21
9.133974596208645
 31
0.0
 11
7.035874449888979
 21
8.989637028911147
 31
0.0
 11
6.928203230275358
 21
8.931902001991148
 31
0.0
  0
LINE
  5
D69E
330
D698
100
AcDbEntity
  8
02実線
 62
     9
100
AcDbLine
 10
12.00000000000273
 20
9.999999999990905
 30
0.0
 11
13.85000000000036
 21
8.931902001991148
 31
0.0
  0
LINE
  5
D69F
330
D698
100
AcDbEntity
  8
02実線
 62
     9
100
AcDbLine
 10
-12.00000000000273
 20
9.999999999990905
 30
0.0
 11
-13.85000000000036
 21
8.931902001991148
 31
0.0
  0
LINE
  5
D6A0
330
D698
100
AcDbEntity
  8
02実線
 62
     9
100
AcDbLine
 10
13.85000000000218
 20
8.931902001992512
 30
0.0
 11
13.85000000000036
 21
1.068097998004305
 31
0.0
  0
LINE
  5
D6A1
330
D698
100
AcDbEntity
  8
02実線
 62
     9
100
AcDbLine
 10
-12.00000000000273
 20
9.999999999990905
 30
0.0
 11
11.99999999999909
 21
10.0
 31
0.0
  0
LINE
  5
D6A2
330
D698
100
AcDbEntity
  8
02実線
 62
     9
100
AcDbLine
 10
-13.85000000000036
 20
1.068097998004305
 30
0.0
 11
-13.85000000000036
 21
8.931902001991148
 31
0.0
  0
LINE
  5
D6A3
330
D698
100
AcDbEntity
  8
02実線
 62
     9
100
AcDbLine
 10
-12.00000000000273
 20
0.0000000000045475
 30
0.0
 11
11.99999999999909
 21
-0.0000000000045475
 31
0.0
  0
LINE
  5
D6A4
330
D698
100
AcDbEntity
  8
02実線
 62
     9
100
AcDbLine
 10
-12.00000000000273
 20
0.0000000000045475
 30
0.0
 11
-13.85000000000036
 21
1.068097998004305
 31
0.0
  0
LINE
  5
D6A5
330
D698
100
AcDbEntity
  8
02実線
 62
     9
100
AcDbLine
 10
12.00000000000273
 20
0.0000000000045475
 30
0.0
 11
13.85000000000036
 21
1.068097998004305
 31
0.0
  0
SPLINE
  5
D6A6
330
D698
100
AcDbEntity
  8
02実線
 62
     9
100
AcDbSpline
210
0.0
220
0.0
230
1.0
 70
  1064
 71
     3
 72
    23
 73
    19
 74
    17
 42
0.000000001
 43
0.0000000001
 44
0.0
 40
0.0
 40
0.0
 40
0.0
 40
0.0
 40
0.1165670826682187
 40
0.4175367898856848
 40
0.735490019127234
 40
1.076562114776901
 40
1.451266493019665
 40
1.880474903646135
 40
2.41906848423254
 40
3.658608049284751
 40
4.898147614336963
 40
5.436741194923369
 40
5.865949605548982
 40
6.240653983792586
 40
6.581726079442253
 40
6.899679308683803
 40
7.200649015901269
 40
7.322822764581327
 40
7.322822764581327
 40
7.322822764581327
 40
7.322822764581327
 10
13.85000000000036
 20
1.068097998004305
 30
0.0
 10
13.81628123583515
 20
1.048789395851193
 30
0.0
 10
13.69550250288422
 20
0.9796270596611641
 30
0.0
 10
13.48029965666514
 20
0.8621095052653919
 30
0.0
 10
13.19524235745358
 20
0.7166062057991867
 30
0.0
 10
12.8830564753329
 20
0.570558180757806
 30
0.0
 10
12.53087069601163
 20
0.4231667026307425
 30
0.0
 10
12.10932198436975
 20
0.2721009998320673
 30
0.0
 10
11.40039399046451
 20
0.0731842723745451
 30
0.0
 10
10.39230368923399
 20
-0.0510188108967326
 30
0.0
 10
9.384219017462481
 20
0.0731898188637241
 30
0.0
 10
8.67528332731967
 20
0.2720931435616569
 30
0.0
 10
8.253751257183524
 20
0.4231888578256562
 30
0.0
 10
7.901515025292367
 20
0.5704891438556875
 30
0.0
 10
7.589492663492617
 20
0.716832775335088
 30
0.0
 10
7.303885724834379
 20
0.8613424443652984
 30
0.0
 10
7.088587351090458
 20
0.9825488186297655
 30
0.0
 10
6.964135948158182
 20
1.04893142146325
 30
0.0
 10
6.928203230275358
 20
1.068097998004305
 30
0.0
 11
13.85000000000036
 21
1.068097998004305
 31
0.0
 11
13.74873524093618
 21
1.010362971084305
 31
0.0
 11
13.48463406462452
 21
0.8660254037868071
 31
0.0
 11
13.20133047719264
 21
0.7216878364893091
 31
0.0
 11
12.89230484541167
 21
0.5773502691922658
 31
0.0
 11
12.54651583786381
 21
0.4330127018947678
 31
0.0
 11
12.14230484541167
 21
0.2886751345972698
 31
0.0
 11
11.62341207063491
 21
0.1443375672997718
 31
0.0
 11
10.39230484541258
 21
-0.0000000000040927
 31
0.0
 11
9.16119762019025
 21
0.1443375672997718
 31
0.0
 11
8.642304845413491
 21
0.2886751345972698
 31
0.0
 11
8.238093852962265
 21
0.4330127018947678
 31
0.0
 11
7.892304845413491
 21
0.5773502691922658
 31
0.0
 11
7.583279213632522
 21
0.7216878364893091
 31
0.0
 11
7.299975626200649
 21
0.8660254037868071
 31
0.0
 11
7.035874449888979
 21
1.010362971084305
 31
0.0
 11
6.928203230275358
 21
1.068097998004305
 31
0.0
  0
SPLINE
  5
D6A7
330
D698
100
AcDbEntity
  8
02実線
 62
     9
100
AcDbSpline
210
0.0
220
0.0
230
1.0
 70
  1064
 71
     3
 72
    23
 73
    19
 74
    17
 42
0.000000001
 43
0.0000000001
 44
0.0
 40
0.0
 40
0.0
 40
0.0
 40
0.0
 40
0.2229477505295434
 40
0.7705160646678508
 40
1.35521857359226
 40
1.989900145503511
 40
2.696379787317136
 40
3.5175858753425
 40
4.565360746291256
 40
7.031802177446978
 40
9.4982436086027
 40
10.54601847955146
 40
11.36722456757682
 40
12.07370420939044
 40
12.7083857813017
 40
13.2930882902261
 40
13.84065660436441
 40
14.06360435489308
 40
14.06360435489308
 40
14.06360435489308
 40
14.06360435489308
 10
6.928203230274448
 20
1.068097998004305
 30
0.0
 10
6.856396942403342
 20
1.048947441966646
 30
0.0
 10
6.60823162915198
 20
0.9827623782497436
 30
0.0
 10
6.173352753607896
 20
0.8604002849402664
 30
0.0
 10
5.6022788890527
 20
0.7160251183155121
 30
0.0
 10
4.97723021304208
 20
0.5695117503923419
 30
0.0
 10
4.271588449678455
 20
0.422114415506778
 30
0.0
 10
3.426373773140604
 20
0.2708222775902553
 30
0.0
 10
1.994814309764054
 20
0.0707329816310436
 30
0.0
 10
-0.0000000000009094
 20
-0.0496437161080575
 30
0.0
 10
-1.994814309765873
 20
0.0707329816310433
 30
0.0
 10
-3.426373773142423
 20
0.2708222775902559
 30
0.0
 10
-4.271588449680273
 20
0.422114415506776
 30
0.0
 10
-4.9772302130439
 20
0.569511750392348
 30
0.0
 10
-5.602278889054522
 20
0.7160251183154931
 30
0.0
 10
-6.1733527536097
 20
0.8604002849403287
 30
0.0
 10
-6.608231629153559
 20
0.9827623782495016
 30
0.0
 10
-6.85639694240456
 20
1.048947441966633
 30
0.0
 10
-6.928203230275358
 20
1.068097998004305
 30
0.0
 11
6.928203230274448
 21
1.068097998004305
 31
0.0
 11
6.712860791046296
 21
1.010362971084305
 31
0.0
 11
6.184658438424776
 21
0.8660254037868071
 31
0.0
 11
5.618051263559209
 21
0.7216878364893091
 31
0.0
 11
4.999999999997272
 21
0.5773502691922658
 31
0.0
 11
4.308421984901543
 21
0.4330127018947678
 31
0.0
 11
3.499999999997272
 21
0.2886751345972698
 31
0.0
 11
2.462214450445572
 21
0.1443375672997718
 31
0.0
 11
-0.0000000000009095
 21
0.0
 31
0.0
 11
-2.462214450447391
 21
0.1443375672997718
 31
0.0
 11
-3.499999999999091
 21
0.2886751345972698
 31
0.0
 11
-4.308421984903362
 21
0.4330127018947678
 31
0.0
 11
-4.999999999999091
 21
0.5773502691922658
 31
0.0
 11
-5.618051263561028
 21
0.7216878364893091
 31
0.0
 11
-6.184658438426595
 21
0.8660254037868071
 31
0.0
 11
-6.712860791048115
 21
1.010362971084305
 31
0.0
 11
-6.928203230275358
 21
1.068097998004305
 31
0.0
  0
SPLINE
  5
D6A8
330
D698
100
AcDbEntity
  8
02実線
 62
     9
100
AcDbSpline
210
0.0
220
0.0
230
1.0
 70
  1064
 71
     3
 72
    23
 73
    19
 74
    17
 42
0.000000001
 43
0.0000000001
 44
0.0
 40
0.0
 40
0.0
 40
0.0
 40
0.0
 40
0.1165670826682187
 40
0.4175367898856848
 40
0.735490019127234
 40
1.076562114776901
 40
1.451266493019665
 40
1.880474903646135
 40
2.41906848423254
 40
3.658608049284751
 40
4.898147614336963
 40
5.436741194923369
 40
5.865949605548982
 40
6.240653983792586
 40
6.581726079442253
 40
6.899679308683803
 40
7.200649015901269
 40
7.322822764581327
 40
7.322822764581327
 40
7.322822764581327
 40
7.322822764581327
 10
-13.85000000000036
 20
1.068097998004305
 30
0.0
 10
-13.81628123583515
 20
1.048789395851193
 30
0.0
 10
-13.69550250288422
 20
0.9796270596611641
 30
0.0
 10
-13.48029965666514
 20
0.8621095052653919
 30
0.0
 10
-13.19524235745358
 20
0.7166062057991867
 30
0.0
 10
-12.8830564753329
 20
0.570558180757806
 30
0.0
 10
-12.53087069601163
 20
0.4231667026307425
 30
0.0
 10
-12.10932198436975
 20
0.2721009998320673
 30
0.0
 10
-11.40039399046451
 20
0.0731842723745451
 30
0.0
 10
-10.39230368923399
 20
-0.0510188108967326
 30
0.0
 10
-9.384219017462481
 20
0.0731898188637241
 30
0.0
 10
-8.67528332731967
 20
0.2720931435616569
 30
0.0
 10
-8.253751257183524
 20
0.4231888578256562
 30
0.0
 10
-7.901515025292367
 20
0.5704891438556875
 30
0.0
 10
-7.589492663492617
 20
0.716832775335088
 30
0.0
 10
-7.303885724834379
 20
0.8613424443652984
 30
0.0
 10
-7.088587351090458
 20
0.9825488186297655
 30
0.0
 10
-6.964135948158182
 20
1.04893142146325
 30
0.0
 10
-6.928203230275358
 20
1.068097998004305
 30
0.0
 11
-13.85000000000036
 21
1.068097998004305
 31
0.0
 11
-13.74873524093618
 21
1.010362971084305
 31
0.0
 11
-13.48463406462452
 21
0.8660254037868071
 31
0.0
 11
-13.20133047719264
 21
0.7216878364893091
 31
0.0
 11
-12.89230484541167
 21
0.5773502691922658
 31
0.0
 11
-12.54651583786381
 21
0.4330127018947678
 31
0.0
 11
-12.14230484541167
 21
0.2886751345972698
 31
0.0
 11
-11.62341207063491
 21
0.1443375672997718
 31
0.0
 11
-10.39230484541258
 21
-0.0000000000040927
 31
0.0
 11
-9.16119762019025
 21
0.1443375672997718
 31
0.0
 11
-8.642304845413491
 21
0.2886751345972698
 31
0.0
 11
-8.238093852962265
 21
0.4330127018947678
 31
0.0
 11
-7.892304845413491
 21
0.5773502691922658
 31
0.0
 11
-7.583279213632522
 21
0.7216878364893091
 31
0.0
 11
-7.299975626200649
 21
0.8660254037868071
 31
0.0
 11
-7.035874449888979
 21
1.010362971084305
 31
0.0
 11
-6.928203230275358
 21
1.068097998004305
 31
0.0
  0
LINE
  5
D6A9
330
D698
100
AcDbEntity
  8
02実線
 62
     9
100
AcDbLine
 10
6.928203230275358
 20
8.931902001991148
 30
0.0
 11
6.928203230275358
 21
1.068097998004305
 31
0.0
  0
LINE
  5
D6AA
330
D698
100
AcDbEntity
  8
02実線
 62
     9
100
AcDbLine
 10
-6.928203230275358
 20
8.931902001991148
 30
0.0
 11
-6.928203230275358
 21
1.068097998004305
 31
0.0
  0
ENDBLK
  5
D69A
330
D698
100
AcDbEntity
  8
0
100
AcDbBlockEnd
  0
BLOCK
  5
D748
330
D747
100
AcDbEntity
  8
0
100
AcDbBlockBegin
  2
NS250
 70
     0
 10
0.0
 20
0.0
 30
0.0
  3
NS250
  1

  0
LWPOLYLINE
  5
10FDD
330
D747
100
AcDbEntity
  8
02実線
100
AcDbPolyline
 90
        4
 70
     1
 43
0.0
 10
-36.0
 20
75.0
 10
-36.0
 20
89.0
 10
36.0
 20
89.0
 10
36.0
 20
75.0
  0
LINE
  5
10FDE
330
D747
100
AcDbEntity
  8
08非表示
100
AcDbLine
 10
-36.0
 20
83.0
 30
0.0
 11
36.0
 21
83.0
 31
0.0
  0
LWPOLYLINE
  5
10FDF
330
D747
100
AcDbEntity
  8
02実線
100
AcDbPolyline
 90
        4
 70
     1
 43
0.0
 10
-36.0
 20
8.0
 10
-36.0
 20
-6.0
 10
36.0
 20
-6.0
 10
36.0
 20
8.0
  0
LINE
  5
10FE0
330
D747
100
AcDbEntity
  8
08非表示
100
AcDbLine
 10
-36.0
 20
0.0
 30
0.0
 11
36.0
 21
0.0
 31
0.0
  0
LINE
  5
10FE1
330
D747
100
AcDbEntity
  8
08非表示
100
AcDbLine
 10
0.0
 20
83.0
 30
0.0
 11
0.0
 21
0.0
 31
0.0
  0
LWPOLYLINE
  5
10FE2
330
D747
100
AcDbEntity
  8
02実線
100
AcDbPolyline
 90
        6
 70
     1
 43
0.0
 10
-26.0
 20
12.0
 10
-26.0
 20
40.0
 10
26.0
 20
40.0
 10
26.0
 20
12.0
 42
-0.414213562373095
 10
22.0
 20
8.0
 10
-22.0
 20
8.0
 42
-0.414213562373095
  0
LWPOLYLINE
  5
10FE3
330
D747
100
AcDbEntity
  8
02実線
100
AcDbPolyline
 90
        6
 70
     1
 43
0.0
 10
-35.5
 20
40.0
 10
-35.5
 20
71.0
 42
-0.414213562373095
 10
-31.5
 20
75.0
 10
31.5
 20
75.0
 42
-0.414213562373095
 10
35.5
 20
71.0
 10
35.5
 20
40.0
  0
ENDBLK
  5
D749
330
D747
100
AcDbEntity
  8
0
100
AcDbBlockEnd
  0
BLOCK
  5
D796
330
D795
100
AcDbEntity
  8
0
100
AcDbBlockBegin
  2
機器向きシール(□60x30)
 70
     0
 10
0.0
 20
0.0
 30
0.0
  3
機器向きシール(□60x30)
  1

  0
LWPOLYLINE
  5
D798
330
D795
100
AcDbEntity
  8
07その他
100
AcDbPolyline
 90
        4
 70
     1
 43
0.0
 10
-40.0
 20
-12.5
 10
-40.0
 20
12.5
 10
40.0
 20
12.5
 10
40.0
 20
-12.5
  0
LINE
  5
D799
330
D795
100
AcDbEntity
  8
08非表示
100
AcDbLine
 10
-40.0
 20
-15.0
 30
0.0
 11
40.0
 21
-15.0
 31
0.0
  0
LINE
  5
D79A
330
D795
100
AcDbEntity
  8
08非表示
100
AcDbLine
 10
-40.0
 20
15.0
 30
0.0
 11
40.0
 21
15.0
 31
0.0
  0
LINE
  5
D79B
330
D795
100
AcDbEntity
  8
08非表示
100
AcDbLine
 10
0.0
 20
15.0
 30
0.0
 11
0.0
 21
-15.0
 31
0.0
  0
ENDBLK
  5
D797
330
D795
100
AcDbEntity
  8
0
100
AcDbBlockEnd
  0
BLOCK
  5
D7A3
330
D7A2
100
AcDbEntity
  8
0
100
AcDbBlockBegin
  2
型式シール(□60x30)
 70
     0
 10
0.0
 20
0.0
 30
0.0
  3
型式シール(□60x30)
  1

  0
LWPOLYLINE
  5
D7A5
330
D7A2
100
AcDbEntity
  8
07その他
100
AcDbPolyline
 90
        4
 70
     1
 43
0.0
 10
-47.5
 20
-12.0
 10
-47.5
 20
12.0
 10
47.5
 20
12.0
 10
47.5
 20
-12.0
  0
LINE
  5
D7A6
330
D7A2
100
AcDbEntity
  8
08非表示
100
AcDbLine
 10
-47.5
 20
0.0
 30
0.0
 11
47.5
 21
0.0
 31
0.0
  0
LINE
  5
D7A7
330
D7A2
100
AcDbEntity
  8
08非表示
100
AcDbLine
 10
-47.5
 20
-15.0
 30
0.0
 11
47.5
 21
-15.0
 31
0.0
  0
LINE
  5
D7A8
330
D7A2
100
AcDbEntity
  8
08非表示
100
AcDbLine
 10
-47.5
 20
15.0
 30
0.0
 11
47.5
 21
15.0
 31
0.0
  0
LINE
  5
D7A9
330
D7A2
100
AcDbEntity
  8
08非表示
100
AcDbLine
 10
0.0
 20
-15.0
 30
0.0
 11
0.0
 21
15.0
 31
0.0
  0
LINE
  5
D7AA
330
D7A2
100
AcDbEntity
  8
08非表示
100
AcDbLine
 10
-52.5
 20
-15.0
 30
0.0
 11
-52.5
 21
15.0
 31
0.0
  0
ENDBLK
  5
D7A4
330
D7A2
100
AcDbEntity
  8
0
100
AcDbBlockEnd
  0
BLOCK
  5
D7B0
330
D7AF
100
AcDbEntity
  8
0
100
AcDbBlockBegin
  2
検査済シール(□60x30)
 70
     0
 10
0.0
 20
0.0
 30
0.0
  3
検査済シール(□60x30)
  1

  0
LWPOLYLINE
  5
D7B2
330
D7AF
100
AcDbEntity
  8
07その他
100
AcDbPolyline
 90
        4
 70
     1
 43
0.0
 10
-80.0
 20
-12.5
 10
-80.0
 20
12.5
 10
-5.0
 20
12.5
 10
-5.0
 20
-12.5
  0
LINE
  5
D7B3
330
D7AF
100
AcDbEntity
  8
08非表示
100
AcDbLine
 10
0.0
 20
15.0
 30
0.0
 11
-80.0
 21
15.0
 31
0.0
  0
LINE
  5
D7B4
330
D7AF
100
AcDbEntity
  8
08非表示
100
AcDbLine
 10
0.0
 20
-15.0
 30
0.0
 11
-80.0
 21
-15.0
 31
0.0
  0
LINE
  5
D7B5
330
D7AF
100
AcDbEntity
  8
08非表示
100
AcDbLine
 10
0.0
 20
-15.0
 30
0.0
 11
0.0
 21
15.0
 31
0.0
  0
ENDBLK
  5
D7B1
330
D7AF
100
AcDbEntity
  8
0
100
AcDbBlockEnd
  0
BLOCK
  5
DCB0
330
DCAF
100
AcDbEntity
  8
0
100
AcDbBlockBegin
  2
*D662
 70
     1
 10
0.0
 20
0.0
 30
0.0
  3
*D662
  1

  0
LINE
  5
DCB2
330
DCAF
100
AcDbEntity
  8
01注記寸法
 62
     0
370
    -2
100
AcDbLine
 10
2038.388190043253
 20
314.5018595642359
 30
0.0
 11
1966.361277967379
 21
314.5018595642359
 31
0.0
  0
LINE
  5
DCB3
330
DCAF
100
AcDbEntity
  8
01注記寸法
 62
     0
370
    -2
100
AcDbLine
 10
2059.388190043251
 20
308.5018595642359
 30
0.0
 11
1966.361277967379
 21
308.5018595642359
 31
0.0
  0
LINE
  5
DCB4
330
DCAF
100
AcDbEntity
  8
01注記寸法
 62
     0
370
    -2
100
AcDbLine
 10
1976.361277967379
 20
314.5018595642359
 30
0.0
 11
1976.361277967379
 21
308.5018595642359
 31
0.0
  0
LINE
  5
DCB5
330
DCAF
100
AcDbEntity
  8
01注記寸法
 62
     0
370
    -2
100
AcDbLine
 10
1976.361277967379
 20
344.5018595642359
 30
0.0
 11
1976.361277967379
 21
374.5018595642359
 31
0.0
  0
LINE
  5
DCB6
330
DCAF
100
AcDbEntity
  8
01注記寸法
 62
     0
370
    -2
100
AcDbLine
 10
1976.361277967379
 20
278.5018595642359
 30
0.0
 11
1976.361277967379
 21
248.5018595642359
 31
0.0
  0
INSERT
  5
DCB7
330
DCAF
100
AcDbEntity
  8
01注記寸法
 62
     0
370
    -2
100
AcDbBlockReference
  2
_Open
 10
1976.361277967379
 20
314.5018595642359
 30
0.0
 41
30.0
 42
30.0
 43
30.0
 50
270.0
  0
INSERT
  5
DCB8
330
DCAF
100
AcDbEntity
  8
01注記寸法
 62
     0
370
    -2
100
AcDbBlockReference
  2
_Open
 10
1976.361277967379
 20
308.5018595642359
 30
0.0
 41
30.0
 42
30.0
 43
30.0
 50
90.0
  0
POINT
  5
DCB9
330
DCAF
100
AcDbEntity
  8
Defpoints
 62
     0
100
AcDbPoint
 10
2053.388190043253
 20
314.5018595642359
 30
0.0
  0
POINT
  5
DCBA
330
DCAF
100
AcDbEntity
  8
Defpoints
 62
     0
100
AcDbPoint
 10
2074.388190043251
 20
308.5018595642359
 30
0.0
  0
POINT
  5
DCBB
330
DCAF
100
AcDbEntity
  8
Defpoints
 62
     0
100
AcDbPoint
 10
1976.361277967379
 20
308.5018595642359
 30
0.0
  0
ENDBLK
  5
DCB1
330
DCAF
100
AcDbEntity
  8
0
100
AcDbBlockEnd
  0
BLOCK
  5
DCBD
330
DCBC
100
AcDbEntity
  8
0
100
AcDbBlockBegin
  2
*D663
 70
     1
 10
0.0
 20
0.0
 30
0.0
  3
*D663
  1

  0
LINE
  5
DCBF
330
DCBC
100
AcDbEntity
  8
01注記寸法
 62
     0
370
    -2
100
AcDbLine
 10
2162.388190043256
 20
345.501859564245
 30
0.0
 11
2237.307575494352
 21
345.501859564245
 31
0.0
  0
LINE
  5
DCC0
330
DCBC
100
AcDbEntity
  8
01注記寸法
 62
     0
370
    -2
100
AcDbLine
 10
2178.388190043253
 20
339.5018595642323
 30
0.0
 11
2237.307575494352
 21
339.5018595642323
 31
0.0
  0
LINE
  5
DCC1
330
DCBC
100
AcDbEntity
  8
01注記寸法
 62
     0
370
    -2
100
AcDbLine
 10
2227.307575494352
 20
345.501859564245
 30
0.0
 11
2227.307575494352
 21
339.5018595642323
 31
0.0
  0
LINE
  5
DCC2
330
DCBC
100
AcDbEntity
  8
01注記寸法
 62
     0
370
    -2
100
AcDbLine
 10
2227.307575494352
 20
375.501859564245
 30
0.0
 11
2227.307575494352
 21
405.501859564245
 31
0.0
  0
LINE
  5
DCC3
330
DCBC
100
AcDbEntity
  8
01注記寸法
 62
     0
370
    -2
100
AcDbLine
 10
2227.307575494352
 20
309.5018595642323
 30
0.0
 11
2227.307575494352
 21
279.5018595642323
 31
0.0
  0
INSERT
  5
DCC4
330
DCBC
100
AcDbEntity
  8
01注記寸法
 62
     0
370
    -2
100
AcDbBlockReference
  2
_Open
 10
2227.307575494352
 20
345.501859564245
 30
0.0
 41
30.0
 42
30.0
 43
30.0
 50
270.0
  0
INSERT
  5
DCC5
330
DCBC
100
AcDbEntity
  8
01注記寸法
 62
     0
370
    -2
100
AcDbBlockReference
  2
_Open
 10
2227.307575494352
 20
339.5018595642323
 30
0.0
 41
30.0
 42
30.0
 43
30.0
 50
90.0
  0
POINT
  5
DCC6
330
DCBC
100
AcDbEntity
  8
Defpoints
 62
     0
100
AcDbPoint
 10
2147.388190043256
 20
345.501859564245
 30
0.0
  0
POINT
  5
DCC7
330
DCBC
100
AcDbEntity
  8
Defpoints
 62
     0
100
AcDbPoint
 10
2163.388190043253
 20
339.5018595642323
 30
0.0
  0
POINT
  5
DCC8
330
DCBC
100
AcDbEntity
  8
Defpoints
 62
     0
100
AcDbPoint
 10
2227.307575494352
 20
339.5018595642323
 30
0.0
  0
ENDBLK
  5
DCBE
330
DCBC
100
AcDbEntity
  8
0
100
AcDbBlockEnd
  0
BLOCK
  5
10F1B
330
10F1A
100
AcDbEntity
  8
0
100
AcDbBlockBegin
  2
*D982
 70
     1
 10
0.0
 20
0.0
 30
0.0
  3
*D982
  1

  0
LINE
  5
10F1D
330
10F1A
100
AcDbEntity
  8
01注記寸法
 62
     0
370
    -2
100
AcDbLine
 10
1950.0
 20
605.0
 30
0.0
 11
1915.121543314097
 21
605.0
 31
0.0
  0
LINE
  5
10F1E
330
10F1A
100
AcDbEntity
  8
01注記寸法
 62
     0
370
    -2
100
AcDbLine
 10
2070.0
 20
784.9999999999991
 30
0.0
 11
1915.121543314097
 21
784.9999999999991
 31
0.0
  0
LINE
  5
10F1F
330
10F1A
100
AcDbEntity
  8
01注記寸法
 62
     0
370
    -2
100
AcDbLine
 10
1925.121543314097
 20
635.0
 30
0.0
 11
1925.121543314097
 21
754.9999999999991
 31
0.0
  0
INSERT
  5
10F20
330
10F1A
100
AcDbEntity
  8
01注記寸法
 62
     0
370
    -2
100
AcDbBlockReference
  2
_Open
 10
1925.121543314097
 20
605.0
 30
0.0
 41
30.0
 42
30.0
 43
30.0
 50
270.0
  0
INSERT
  5
10F21
330
10F1A
100
AcDbEntity
  8
01注記寸法
 62
     0
370
    -2
100
AcDbBlockReference
  2
_Open
 10
1925.121543314097
 20
784.9999999999991
 30
0.0
 41
30.0
 42
30.0
 43
30.0
 50
90.0
  0
MTEXT
  5
10F22
330
10F1A
100
AcDbEntity
  8
01注記寸法
 62
     0
100
AcDbMText
 10
1900.121543314097
 20
694.9999999999995
 30
0.0
 40
30.0
 41
0.0
 71
     5
 72
     1
  1
60～70
 11
0.0
 21
1.0
 31
0.0
 73
     1
 44
1.0
  0
POINT
  5
10F23
330
10F1A
100
AcDbEntity
  8
Defpoints
 62
     0
100
AcDbPoint
 10
1965.0
 20
605.0
 30
0.0
  0
POINT
  5
10F24
330
10F1A
100
AcDbEntity
  8
Defpoints
 62
     0
100
AcDbPoint
 10
2085.0
 20
784.9999999999991
 30
0.0
  0
POINT
  5
10F25
330
10F1A
100
AcDbEntity
  8
Defpoints
 62
     0
100
AcDbPoint
 10
1925.121543314097
 20
784.9999999999991
 30
0.0
  0
ENDBLK
  5
10F1C
330
10F1A
100
AcDbEntity
  8
0
100
AcDbBlockEnd
  0
BLOCK
  5
11F81
330
11F78
100
AcDbEntity
  8
0
100
AcDbBlockBegin
  2
BRT60M12M16T_2
 70
     0
 10
0.0
 20
0.0
 30
0.0
  3
BRT60M12M16T_2
  1

  0
LINE
  5
11F79
330
11F78
100
AcDbEntity
  8
02実線
100
AcDbLine
 10
-60.0
 20
-55.5
 30
0.0
 11
-4.5
 21
-55.5
 31
0.0
  0
LINE
  5
11F7A
330
11F78
100
AcDbEntity
  8
02実線
100
AcDbLine
 10
-4.5
 20
-60.0
 30
0.0
 11
-4.5
 21
0.0
 31
0.0
  0
LINE
  5
11F7B
330
11F78
100
AcDbEntity
  8
02実線
100
AcDbLine
 10
-4.5
 20
-4.5
 30
0.0
 11
-60.0
 21
-4.5
 31
0.0
  0
LINE
  5
11F7C
330
11F78
100
AcDbEntity
  8
02実線
100
AcDbLine
 10
-60.0
 20
-60.0
 30
0.0
 11
0.0
 21
-60.0
 31
0.0
  0
LINE
  5
11F7D
330
11F78
100
AcDbEntity
  8
02実線
100
AcDbLine
 10
0.0
 20
-60.0
 30
0.0
 11
0.0
 21
0.0
 31
0.0
  0
LINE
  5
11F7E
330
11F78
100
AcDbEntity
  8
02実線
100
AcDbLine
 10
0.0
 20
0.0
 30
0.0
 11
-60.0
 21
0.0
 31
0.0
  0
LINE
  5
11F7F
330
11F78
100
AcDbEntity
  8
02実線
100
AcDbLine
 10
-60.0
 20
0.0
 30
0.0
 11
-60.0
 21
-60.0
 31
0.0
  0
LINE
  5
11F80
330
11F78
100
AcDbEntity
  8
04一点鎖線
 48
0.2
100
AcDbLine
 10
-34.99999999999955
 20
-75.0
 30
0.0
 11
-34.99999999999864
 21
-40.5
 31
0.0
  0
ENDBLK
  5
11F82
330
11F78
100
AcDbEntity
  8
0
100
AcDbBlockEnd
  0
BLOCK
  5
1200C
330
11FEE
100
AcDbEntity
  8
0
100
AcDbBlockBegin
  2
BRT60M12M16B_2
 70
     0
 10
0.0
 20
0.0
 30
0.0
  3
BRT60M12M16B_2
  1

  0
LWPOLYLINE
  5
11FEF
330
11FEE
100
AcDbEntity
  8
08非表示
100
AcDbPolyline
 90
        4
 70
     1
 43
0.0
 10
-60.0
 20
0.0
 10
-60.0
 20
35.0
 10
0.0
 20
35.0
 10
0.0
 20
0.0
  0
LINE
  5
11FF0
330
11FEE
100
AcDbEntity
  8
02実線
100
AcDbLine
 10
-19.5
 20
0.0
 30
0.0
 11
-45.0
 21
0.0
 31
0.0
  0
LINE
  5
11FF1
330
11FEE
100
AcDbEntity
  8
02実線
100
AcDbLine
 10
-6.75
 20
30.5
 30
0.0
 11
-60.0
 21
30.5
 31
0.0
  0
LINE
  5
11FF2
330
11FEE
100
AcDbEntity
  8
02実線
100
AcDbLine
 10
-6.75
 20
35.0
 30
0.0
 11
-60.0
 21
35.0
 31
0.0
  0
LINE
  5
11FF3
330
11FEE
100
AcDbEntity
  8
02実線
100
AcDbLine
 10
-60.0
 20
13.0
 30
0.0
 11
-60.0
 21
35.0
 31
0.0
  0
LINE
  5
11FF4
330
11FEE
100
AcDbEntity
  8
02実線
100
AcDbLine
 10
-59.0
 20
12.0
 30
0.0
 11
-47.0
 21
12.0
 31
0.0
  0
LINE
  5
11FF5
330
11FEE
100
AcDbEntity
  8
02実線
100
AcDbLine
 10
-46.0
 20
11.0
 30
0.0
 11
-46.0
 21
1.0
 31
0.0
  0
ARC
  5
11FF6
330
11FEE
100
AcDbEntity
  8
02実線
100
AcDbCircle
 10
-45.0
 20
1.0
 30
0.0
 40
1.0
100
AcDbArc
 50
180.0
 51
270.0
  0
ARC
  5
11FF7
330
11FEE
100
AcDbEntity
  8
02実線
100
AcDbCircle
 10
-47.0
 20
11.0
 30
0.0
 40
1.0
100
AcDbArc
 50
0.0
 51
90.0
  0
LINE
  5
11FF8
330
11FEE
100
AcDbEntity
  8
02実線
100
AcDbLine
 10
0.0
 20
28.25
 30
0.0
 11
0.0
 21
0.0
 31
0.0
  0
LINE
  5
11FF9
330
11FEE
100
AcDbEntity
  8
02実線
100
AcDbLine
 10
-4.5
 20
28.25
 30
0.0
 11
-4.5
 21
0.0
 31
0.0
  0
LINE
  5
11FFA
330
11FEE
100
AcDbEntity
  8
02実線
100
AcDbLine
 10
-17.5
 20
12.0
 30
0.0
 11
-5.5
 21
12.0
 31
0.0
  0
LINE
  5
11FFB
330
11FEE
100
AcDbEntity
  8
02実線
100
AcDbLine
 10
-18.5
 20
11.0
 30
0.0
 11
-18.5
 21
1.0
 31
0.0
  0
ARC
  5
11FFC
330
11FEE
100
AcDbEntity
  8
02実線
100
AcDbCircle
 10
-19.5
 20
1.0
 30
0.0
 40
1.0
100
AcDbArc
 50
270.0
 51
0.0
  0
ARC
  5
11FFD
330
11FEE
100
AcDbEntity
  8
02実線
100
AcDbCircle
 10
-17.5
 20
11.0
 30
0.0
 40
1.0
100
AcDbArc
 50
90.0
 51
180.0
  0
LINE
  5
11FFE
330
11FEE
100
AcDbEntity
  8
02実線
100
AcDbLine
 10
0.0
 20
0.0
 30
0.0
 11
-4.5
 21
0.0
 31
0.0
  0
ARC
  5
11FFF
330
11FEE
100
AcDbEntity
  8
02実線
100
AcDbCircle
 10
-6.75
 20
28.25
 30
0.0
 40
2.25
100
AcDbArc
 50
0.0
 51
90.0
  0
ARC
  5
12000
330
11FEE
100
AcDbEntity
  8
02実線
100
AcDbCircle
 10
-59.0
 20
13.0
 30
0.0
 40
1.0
100
AcDbArc
 50
180.0
 51
270.0
  0
ARC
  5
12001
330
11FEE
100
AcDbEntity
  8
02実線
100
AcDbCircle
 10
-5.5
 20
13.0
 30
0.0
 40
1.0
100
AcDbArc
 50
270.0
 51
0.0
  0
LINE
  5
12002
330
11FEE
100
AcDbEntity
  8
02実線
100
AcDbLine
 10
-4.5
 20
2.299999999999727
 30
0.0
 11
-18.5
 21
2.299999999999727
 31
0.0
  0
LINE
  5
12003
330
11FEE
100
AcDbEntity
  8
02実線
100
AcDbLine
 10
-4.5
 20
0.0
 30
0.0
 11
-19.5
 21
0.0
 31
0.0
  0
LINE
  5
12004
330
11FEE
100
AcDbEntity
  8
02実線
100
AcDbLine
 10
-45.0
 20
0.0
 30
0.0
 11
-55.40000000000055
 21
0.0
 31
0.0
  0
ARC
  5
12005
330
11FEE
100
AcDbEntity
  8
02実線
100
AcDbCircle
 10
-55.40000000000055
 20
4.599999999999909
 30
0.0
 40
4.600000000000002
100
AcDbArc
 50
180.0
 51
270.0
  0
LINE
  5
12006
330
11FEE
100
AcDbEntity
  8
02実線
100
AcDbLine
 10
-60.0
 20
13.0
 30
0.0
 11
-60.0
 21
4.599999999999909
 31
0.0
  0
LINE
  5
12007
330
11FEE
100
AcDbEntity
  8
02実線
100
AcDbLine
 10
-46.0
 20
2.299999999999727
 30
0.0
 11
-55.40000000000055
 21
2.299999999999727
 31
0.0
  0
LINE
  5
12008
330
11FEE
100
AcDbEntity
  8
02実線
100
AcDbLine
 10
-57.69999999999982
 20
12.0
 30
0.0
 11
-57.69999999999982
 21
4.599999999999909
 31
0.0
  0
ARC
  5
12009
330
11FEE
100
AcDbEntity
  8
02実線
100
AcDbCircle
 10
-55.40000000000055
 20
4.599999999999909
 30
0.0
 40
2.300000000000001
100
AcDbArc
 50
180.0
 51
270.0
  0
LINE
  5
1200A
330
11FEE
100
AcDbEntity
  8
04一点鎖線
 48
0.2
100
AcDbLine
 10
-35.0
 20
50.0
 30
0.0
 11
-35.0
 21
15.5
 31
0.0
  0
ARC
  5
1200B
330
11FEE
100
AcDbEntity
  8
02実線
100
AcDbCircle
 10
-6.75
 20
28.25
 30
0.0
 40
6.750000000000002
100
AcDbArc
 50
0.0
 51
90.0
  0
ENDBLK
  5
1200D
330
11FEE
100
AcDbEntity
  8
0
100
AcDbBlockEnd
  0
BLOCK
  5
12024
330
12023
100
AcDbEntity
  8
0
100
AcDbBlockBegin
  2
BRT60M12M16B_1
 70
     0
 10
0.0
 20
0.0
 30
0.0
  3
BRT60M12M16B_1
  1

  0
LWPOLYLINE
  5
12026
330
12023
100
AcDbEntity
  8
08非表示
100
AcDbPolyline
 90
        4
 70
     1
 43
0.0
 10
-60.0
 20
-60.0
 10
-60.0
 20
0.0
 10
0.0
 20
0.0
 10
0.0
 20
-60.0
  0
LINE
  5
12027
330
12023
100
AcDbEntity
  8
02実線
100
AcDbLine
 10
-60.0
 20
0.0
 30
0.0
 11
-4.5
 21
0.0
 31
0.0
  0
LINE
  5
12028
330
12023
100
AcDbEntity
  8
02実線
100
AcDbLine
 10
0.0
 20
-4.5
 30
0.0
 11
0.0
 21
-60.0
 31
0.0
  0
LINE
  5
12029
330
12023
100
AcDbEntity
  8
02実線
100
AcDbLine
 10
-9.5
 20
-60.0
 30
0.0
 11
-45.0
 21
-60.0
 31
0.0
  0
LINE
  5
1202A
330
12023
100
AcDbEntity
  8
02実線
100
AcDbLine
 10
-60.0
 20
-45.0
 30
0.0
 11
-60.0
 21
0.0
 31
0.0
  0
LINE
  5
1202B
330
12023
100
AcDbEntity
  8
02実線
100
AcDbLine
 10
-4.5
 20
-4.5
 30
0.0
 11
-4.5
 21
-60.0
 31
0.0
  0
LINE
  5
1202C
330
12023
100
AcDbEntity
  8
02実線
100
AcDbLine
 10
-12.0
 20
0.0
 30
0.0
 11
-12.0
 21
-4.5
 31
0.0
  0
ARC
  5
1202D
330
12023
100
AcDbEntity
  8
02実線
100
AcDbCircle
 10
-4.5
 20
-4.5
 30
0.0
 40
4.5
100
AcDbArc
 50
0.0
 51
90.0
  0
LINE
  5
1202E
330
12023
100
AcDbEntity
  8
02実線
100
AcDbLine
 10
0.0
 20
-60.0
 30
0.0
 11
-4.5
 21
-60.0
 31
0.0
  0
ARC
  5
1202F
330
12023
100
AcDbEntity
  8
02実線
100
AcDbCircle
 10
-45.0
 20
-45.0
 30
0.0
 40
15.0
100
AcDbArc
 50
180.0
 51
270.0
  0
LINE
  5
12030
330
12023
100
AcDbEntity
  8
02実線
100
AcDbLine
 10
-12.0
 20
-4.5
 30
0.0
 11
-12.0
 21
-7.0
 31
0.0
  0
ARC
  5
12031
330
12023
100
AcDbEntity
  8
02実線
100
AcDbCircle
 10
-9.5
 20
-55.0
 30
0.0
 40
5.0
100
AcDbArc
 50
270.0
 51
0.0
  0
ARC
  5
12032
330
12023
100
AcDbEntity
  8
02実線
100
AcDbCircle
 10
-7.0
 20
-7.0
 30
0.0
 40
5.0
100
AcDbArc
 50
180.0
 51
270.0
  0
LINE
  5
12033
330
12023
100
AcDbEntity
  8
02実線
100
AcDbLine
 10
-4.5
 20
-4.5
 30
0.0
 11
-12.0
 21
-4.5
 31
0.0
  0
LINE
  5
12034
330
12023
100
AcDbEntity
  8
02実線
100
AcDbLine
 10
0.0
 20
-12.0
 30
0.0
 11
-7.0
 21
-12.0
 31
0.0
  0
LINE
  5
12035
330
12023
100
AcDbEntity
  8
02実線
100
AcDbLine
 10
-4.5
 20
-60.0
 30
0.0
 11
-4.449999999999818
 21
-60.0
 31
0.0
  0
CIRCLE
  5
12036
330
12023
100
AcDbEntity
  8
02実線
100
AcDbCircle
 10
-35.0
 20
-35.0
 30
0.0
 40
12.0
  0
ENDBLK
  5
12025
330
12023
100
AcDbEntity
  8
0
100
AcDbBlockEnd
  0
BLOCK
  5
12189
330
1216D
100
AcDbEntity
  8
0
100
AcDbBlockBegin
  2
BRT60M16H143_1
 70
     0
 10
0.0
 20
0.0
 30
0.0
  3
BRT60M16H143_1
  1

  0
INSERT
  5
1216E
330
1216D
100
AcDbEntity
  8
02実線
100
AcDbBlockReference
  2
BRT60M12M16T_2
 10
0.0
 20
0.0
 30
0.0
  0
INSERT
  5
1216F
330
1216D
100
AcDbEntity
  8
02実線
100
AcDbBlockReference
  2
BRT60M12M16B_2
 10
0.0
 20
-143.0
 30
0.0
  0
INSERT
  5
12170
330
1216D
100
AcDbEntity
  8
02実線
100
AcDbBlockReference
  2
STB-M16平ワッシャ
 10
-35.0
 20
-108.0
 30
0.0
  0
INSERT
  5
12171
330
1216D
100
AcDbEntity
  8
02実線
100
AcDbBlockReference
  2
STB-M12_M16揺れ止め座金
 10
-34.99999999999909
 20
-92.0
 30
0.0
  0
INSERT
  5
12172
330
1216D
100
AcDbEntity
  8
02実線
100
AcDbBlockReference
  2
STB-M12_M16揺れ止めゴム
 10
-34.99999999999909
 20
-87.5
 30
0.0
  0
INSERT
  5
12173
330
1216D
100
AcDbEntity
  8
02実線
100
AcDbBlockReference
  2
STB-M16ナット(1種)
 10
-35.0
 20
-105.0
 30
0.0
  0
INSERT
  5
12174
330
1216D
100
AcDbEntity
  8
02実線
100
AcDbBlockReference
  2
STB-M16ナット(3種)
 10
-34.99999999999909
 20
-47.5
 30
0.0
  0
INSERT
  5
12175
330
1216D
100
AcDbEntity
  8
02実線
100
AcDbBlockReference
  2
STB-M16ナット(1種)
 10
-35.00000000000091
 20
-37.50000000000455
 30
0.0
  0
INSERT
  5
12176
330
1216D
100
AcDbEntity
  8
02実線
100
AcDbBlockReference
  2
STB-M16ゴムブッシュ
 10
-35.0
 20
-55.5
 30
0.0
  0
INSERT
  5
12177
330
1216D
100
AcDbEntity
  8
02実線
100
AcDbBlockReference
  2
STB-M16ナット(1種)
 10
-35.0
 20
-115.5
 30
0.0
 41
-1.0
 50
180.0
  0
INSERT
  5
12178
330
1216D
100
AcDbEntity
  8
02実線
100
AcDbBlockReference
  2
STB-M16平ワッシャ
 10
-35.0
 20
-112.5
 30
0.0
 41
-1.0
 50
180.0
  0
LWPOLYLINE
  5
12179
330
1216D
100
AcDbEntity
  8
02実線
 62
   122
100
AcDbPolyline
 90
        2
 70
   128
 43
0.0
 10
-27.00000000000045
 20
-60.0
 10
-27.00000000000045
 20
-82.0
  0
LINE
  5
1217A
330
1216D
100
AcDbEntity
  8
02実線
 62
   122
100
AcDbLine
 10
-43.00000000000045
 20
-129.0
 30
0.0
 11
-27.00000000000045
 21
-129.0
 31
0.0
  0
LINE
  5
1217B
330
1216D
100
AcDbEntity
  8
02実線
 62
   122
100
AcDbLine
 10
-43.00000000000045
 20
-20.0
 30
0.0
 11
-27.00000000000045
 21
-20.0
 31
0.0
  0
LINE
  5
1217C
330
1216D
100
AcDbEntity
  8
02実線
 62
   122
100
AcDbLine
 10
-29.00000000000045
 20
-18.0
 30
0.0
 11
-29.00000000000045
 21
-24.50000000000227
 31
0.0
  0
LINE
  5
1217D
330
1216D
100
AcDbEntity
  8
02実線
 62
   122
100
AcDbLine
 10
-41.00000000000045
 20
-131.0
 30
0.0
 11
-41.00000000000045
 21
-128.4999999999977
 31
0.0
  0
LINE
  5
1217E
330
1216D
100
AcDbEntity
  8
08非表示
100
AcDbLine
 10
-43.00000000000045
 20
-24.50000000000773
 30
0.0
 11
-27.00000000000045
 21
-24.50000000000136
 31
0.0
  0
LINE
  5
1217F
330
1216D
100
AcDbEntity
  8
08非表示
100
AcDbLine
 10
-43.00000000000045
 20
-60.0
 30
0.0
 11
-27.00000000000045
 21
-60.0
 31
0.0
  0
LINE
  5
12180
330
1216D
100
AcDbEntity
  8
08非表示
100
AcDbLine
 10
-43.00000000000045
 20
-82.0
 30
0.0
 11
-27.00000000000045
 21
-82.0
 31
0.0
  0
LINE
  5
12181
330
1216D
100
AcDbEntity
  8
08非表示
100
AcDbLine
 10
-43.00000000000045
 20
-128.4999999999968
 30
0.0
 11
-27.00000000000045
 21
-128.5000000000032
 31
0.0
  0
LINE
  5
12182
330
1216D
100
AcDbEntity
  8
02実線
 62
   122
100
AcDbLine
 10
-29.00000000000045
 20
-60.0
 30
0.0
 11
-29.00000000000045
 21
-82.0
 31
0.0
  0
LINE
  5
12183
330
1216D
100
AcDbEntity
  8
02実線
 62
   122
100
AcDbLine
 10
-41.00000000000045
 20
-24.50000000000682
 30
0.0
 11
-41.00000000000045
 21
-18.0
 31
0.0
  0
LWPOLYLINE
  5
12184
330
1216D
100
AcDbEntity
  8
02実線
 62
   122
100
AcDbPolyline
 90
        6
 70
   128
 43
0.0
 10
-43.00000000000045
 20
-24.50000000000773
 10
-43.00000000000045
 20
-20.0
 10
-41.00000000000045
 20
-18.0
 10
-29.00000000000045
 20
-18.0
 10
-27.00000000000045
 20
-20.0
 10
-27.00000000000045
 20
-24.50000000000136
  0
LWPOLYLINE
  5
12185
330
1216D
100
AcDbEntity
  8
02実線
 62
   122
100
AcDbPolyline
 90
        6
 70
   128
 43
0.0
 10
-27.00000000000045
 20
-128.5000000000032
 10
-27.00000000000045
 20
-129.0
 10
-29.00000000000045
 20
-131.0
 10
-41.00000000000045
 20
-131.0
 10
-43.00000000000045
 20
-129.0
 10
-43.00000000000045
 20
-128.4999999999968
  0
LINE
  5
12186
330
1216D
100
AcDbEntity
  8
02実線
 62
   122
100
AcDbLine
 10
-29.00000000000045
 20
-128.5000000000023
 30
0.0
 11
-29.00000000000045
 21
-131.0
 31
0.0
  0
LINE
  5
12187
330
1216D
100
AcDbEntity
  8
02実線
 62
   122
100
AcDbLine
 10
-41.00000000000045
 20
-82.0
 30
0.0
 11
-41.00000000000045
 21
-60.0
 31
0.0
  0
LWPOLYLINE
  5
12188
330
1216D
100
AcDbEntity
  8
02実線
 62
   122
100
AcDbPolyline
 90
        2
 70
   128
 43
0.0
 10
-43.00000000000045
 20
-82.0
 10
-43.00000000000045
 20
-60.0
  0
ENDBLK
  5
1218A
330
1216D
100
AcDbEntity
  8
0
100
AcDbBlockEnd
  0
BLOCK
  5
124D2
330
124D1
100
AcDbEntity
  8
0
100
AcDbBlockBegin
  2
*D1080
 70
     1
 10
0.0
 20
0.0
 30
0.0
  3
*D1080
  1

  0
LINE
  5
124D4
330
124D1
100
AcDbEntity
  8
01注記寸法
 62
     0
370
    -2
100
AcDbLine
 10
927.5
 20
1342.999999999999
 30
0.0
 11
832.5
 21
1342.999999999999
 31
0.0
  0
LINE
  5
124D5
330
124D1
100
AcDbEntity
  8
01注記寸法
 62
     0
370
    -2
100
AcDbLine
 10
932.1000000000004
 20
1199.999999999999
 30
0.0
 11
832.5
 21
1199.999999999999
 31
0.0
  0
LINE
  5
124D6
330
124D1
100
AcDbEntity
  8
01注記寸法
 62
     0
370
    -2
100
AcDbLine
 10
842.5
 20
1312.999999999999
 30
0.0
 11
842.5
 21
1229.999999999999
 31
0.0
  0
INSERT
  5
124D7
330
124D1
100
AcDbEntity
  8
01注記寸法
 62
     0
370
    -2
100
AcDbBlockReference
  2
_Open
 10
842.5
 20
1342.999999999999
 30
0.0
 41
30.0
 42
30.0
 43
30.0
 50
90.0
  0
INSERT
  5
124D8
330
124D1
100
AcDbEntity
  8
01注記寸法
 62
     0
370
    -2
100
AcDbBlockReference
  2
_Open
 10
842.5
 20
1199.999999999999
 30
0.0
 41
30.0
 42
30.0
 43
30.0
 50
270.0
  0
MTEXT
  5
124D9
330
124D1
100
AcDbEntity
  8
01注記寸法
 62
     0
100
AcDbMText
 10
789.1497592847318
 20
1271.499999999999
 30
0.0
 40
30.0
 41
0.0
 71
     5
 72
     1
  1
出荷時＝143\P荷重時≒140
 11
0.0
 21
1.0
 31
0.0
 73
     1
 44
1.0
  0
POINT
  5
124DA
330
124D1
100
AcDbEntity
  8
Defpoints
 62
     0
100
AcDbPoint
 10
942.5
 20
1342.999999999999
 30
0.0
  0
POINT
  5
124DB
330
124D1
100
AcDbEntity
  8
Defpoints
 62
     0
100
AcDbPoint
 10
947.1000000000004
 20
1199.999999999999
 30
0.0
  0
POINT
  5
124DC
330
124D1
100
AcDbEntity
  8
Defpoints
 62
     0
100
AcDbPoint
 10
842.5
 20
1199.999999999999
 30
0.0
  0
ENDBLK
  5
124D3
330
124D1
100
AcDbEntity
  8
0
100
AcDbBlockEnd
  0
BLOCK
  5
124DE
330
124DD
100
AcDbEntity
  8
0
100
AcDbBlockBegin
  2
*D1081
 70
     1
 10
0.0
 20
0.0
 30
0.0
  3
*D1081
  1

  0
LINE
  5
124E0
330
124DD
100
AcDbEntity
  8
01注記寸法
 62
     0
370
    -2
100
AcDbLine
 10
942.5
 20
2469.999999999998
 30
0.0
 11
942.5
 21
2579.999999999998
 31
0.0
  0
LINE
  5
124E1
330
124DD
100
AcDbEntity
  8
01注記寸法
 62
     0
370
    -2
100
AcDbLine
 10
1073.500000000001
 20
2486.999999999998
 30
0.0
 11
1073.500000000001
 21
2579.999999999998
 31
0.0
  0
LINE
  5
124E2
330
124DD
100
AcDbEntity
  8
01注記寸法
 62
     0
370
    -2
100
AcDbLine
 10
972.5
 20
2569.999999999998
 30
0.0
 11
1043.500000000001
 21
2569.999999999998
 31
0.0
  0
INSERT
  5
124E3
330
124DD
100
AcDbEntity
  8
01注記寸法
 62
     0
370
    -2
100
AcDbBlockReference
  2
_Open
 10
942.5
 20
2569.999999999998
 30
0.0
 41
30.0
 42
30.0
 43
30.0
 50
180.0
  0
INSERT
  5
124E4
330
124DD
100
AcDbEntity
  8
01注記寸法
 62
     0
370
    -2
100
AcDbBlockReference
  2
_Open
 10
1073.500000000001
 20
2569.999999999998
 30
0.0
 41
30.0
 42
30.0
 43
30.0
  0
MTEXT
  5
124E5
330
124DD
100
AcDbEntity
  8
01注記寸法
 62
     0
100
AcDbMText
 10
1008.0
 20
2595.005627110164
 30
0.0
 40
30.0
 41
0.0
 71
     5
 72
     1
  1
131
 73
     1
 44
1.0
  0
POINT
  5
124E6
330
124DD
100
AcDbEntity
  8
Defpoints
 62
     0
100
AcDbPoint
 10
942.5
 20
2454.999999999998
 30
0.0
  0
POINT
  5
124E7
330
124DD
100
AcDbEntity
  8
Defpoints
 62
     0
100
AcDbPoint
 10
1073.500000000001
 20
2471.999999999998
 30
0.0
  0
POINT
  5
124E8
330
124DD
100
AcDbEntity
  8
Defpoints
 62
     0
100
AcDbPoint
 10
1073.500000000001
 20
2569.999999999998
 30
0.0
  0
ENDBLK
  5
124DF
330
124DD
100
AcDbEntity
  8
0
100
AcDbBlockEnd
  0
BLOCK
  5
124EA
330
124E9
100
AcDbEntity
  8
0
100
AcDbBlockBegin
  2
*D1082
 70
     1
 10
0.0
 20
0.0
 30
0.0
  3
*D1082
  1

  0
LINE
  5
124EC
330
124E9
100
AcDbEntity
  8
01注記寸法
 62
     0
370
    -2
100
AcDbLine
 10
1073.500000000001
 20
2486.999999999998
 30
0.0
 11
1073.500000000001
 21
2579.999999999998
 31
0.0
  0
LINE
  5
124ED
330
124E9
100
AcDbEntity
  8
01注記寸法
 62
     0
370
    -2
100
AcDbLine
 10
2021.500000000001
 20
2487.0
 30
0.0
 11
2021.500000000001
 21
2579.999999999998
 31
0.0
  0
LINE
  5
124EE
330
124E9
100
AcDbEntity
  8
01注記寸法
 62
     0
370
    -2
100
AcDbLine
 10
1103.500000000001
 20
2569.999999999998
 30
0.0
 11
1991.500000000001
 21
2569.999999999998
 31
0.0
  0
INSERT
  5
124EF
330
124E9
100
AcDbEntity
  8
01注記寸法
 62
     0
370
    -2
100
AcDbBlockReference
  2
_Open
 10
1073.500000000001
 20
2569.999999999998
 30
0.0
 41
30.0
 42
30.0
 43
30.0
 50
180.0
  0
INSERT
  5
124F0
330
124E9
100
AcDbEntity
  8
01注記寸法
 62
     0
370
    -2
100
AcDbBlockReference
  2
_Open
 10
2021.500000000001
 20
2569.999999999998
 30
0.0
 41
30.0
 42
30.0
 43
30.0
  0
MTEXT
  5
124F1
330
124E9
100
AcDbEntity
  8
01注記寸法
 62
     0
100
AcDbMText
 10
1547.500000000001
 20
2594.999999999998
 30
0.0
 40
30.0
 41
0.0
 71
     5
 72
     1
  1
948
 73
     1
 44
1.0
  0
POINT
  5
124F2
330
124E9
100
AcDbEntity
  8
Defpoints
 62
     0
100
AcDbPoint
 10
1073.500000000001
 20
2471.999999999998
 30
0.0
  0
POINT
  5
124F3
330
124E9
100
AcDbEntity
  8
Defpoints
 62
     0
100
AcDbPoint
 10
2021.500000000001
 20
2472.0
 30
0.0
  0
POINT
  5
124F4
330
124E9
100
AcDbEntity
  8
Defpoints
 62
     0
100
AcDbPoint
 10
2021.500000000001
 20
2569.999999999998
 30
0.0
  0
ENDBLK
  5
124EB
330
124E9
100
AcDbEntity
  8
0
100
AcDbBlockEnd
  0
BLOCK
  5
12502
330
12501
100
AcDbEntity
  8
0
100
AcDbBlockBegin
  2
*D1084
 70
     1
 10
0.0
 20
0.0
 30
0.0
  3
*D1084
  1

  0
LINE
  5
12504
330
12501
100
AcDbEntity
  8
01注記寸法
 62
     0
370
    -2
100
AcDbLine
 10
2021.500000000001
 20
2487.0
 30
0.0
 11
2021.500000000001
 21
2580.0
 31
0.0
  0
LINE
  5
12505
330
12501
100
AcDbEntity
  8
01注記寸法
 62
     0
370
    -2
100
AcDbLine
 10
2152.500000000001
 20
2470.0
 30
0.0
 11
2152.500000000001
 21
2580.0
 31
0.0
  0
LINE
  5
12506
330
12501
100
AcDbEntity
  8
01注記寸法
 62
     0
370
    -2
100
AcDbLine
 10
2051.500000000001
 20
2570.0
 30
0.0
 11
2122.500000000001
 21
2570.0
 31
0.0
  0
INSERT
  5
12507
330
12501
100
AcDbEntity
  8
01注記寸法
 62
     0
370
    -2
100
AcDbBlockReference
  2
_Open
 10
2021.500000000001
 20
2570.0
 30
0.0
 41
30.0
 42
30.0
 43
30.0
 50
180.0
  0
INSERT
  5
12508
330
12501
100
AcDbEntity
  8
01注記寸法
 62
     0
370
    -2
100
AcDbBlockReference
  2
_Open
 10
2152.500000000001
 20
2570.0
 30
0.0
 41
30.0
 42
30.0
 43
30.0
  0
MTEXT
  5
12509
330
12501
100
AcDbEntity
  8
01注記寸法
 62
     0
100
AcDbMText
 10
2087.000000000001
 20
2595.005627110167
 30
0.0
 40
30.0
 41
0.0
 71
     5
 72
     1
  1
131
 73
     1
 44
1.0
  0
POINT
  5
1250A
330
12501
100
AcDbEntity
  8
Defpoints
 62
     0
100
AcDbPoint
 10
2021.500000000001
 20
2472.0
 30
0.0
  0
POINT
  5
1250B
330
12501
100
AcDbEntity
  8
Defpoints
 62
     0
100
AcDbPoint
 10
2152.500000000001
 20
2455.0
 30
0.0
  0
POINT
  5
1250C
330
12501
100
AcDbEntity
  8
Defpoints
 62
     0
100
AcDbPoint
 10
2152.500000000001
 20
2570.0
 30
0.0
  0
ENDBLK
  5
12503
330
12501
100
AcDbEntity
  8
0
100
AcDbBlockEnd
  0
BLOCK
  5
1250E
330
1250D
100
AcDbEntity
  8
0
100
AcDbBlockBegin
  2
*D1085
 70
     1
 10
0.0
 20
0.0
 30
0.0
  3
*D1085
  1

  0
LINE
  5
12510
330
1250D
100
AcDbEntity
  8
01注記寸法
 62
     0
370
    -2
100
AcDbLine
 10
2152.500000000001
 20
2470.0
 30
0.0
 11
2152.500000000001
 21
2679.999999999998
 31
0.0
  0
LINE
  5
12511
330
1250D
100
AcDbEntity
  8
01注記寸法
 62
     0
370
    -2
100
AcDbLine
 10
942.5
 20
2469.999999999998
 30
0.0
 11
942.5
 21
2679.999999999998
 31
0.0
  0
LINE
  5
12512
330
1250D
100
AcDbEntity
  8
01注記寸法
 62
     0
370
    -2
100
AcDbLine
 10
2122.500000000001
 20
2669.999999999998
 30
0.0
 11
972.5
 21
2669.999999999998
 31
0.0
  0
INSERT
  5
12513
330
1250D
100
AcDbEntity
  8
01注記寸法
 62
     0
370
    -2
100
AcDbBlockReference
  2
_Open
 10
2152.500000000001
 20
2669.999999999998
 30
0.0
 41
30.0
 42
30.0
 43
30.0
  0
INSERT
  5
12514
330
1250D
100
AcDbEntity
  8
01注記寸法
 62
     0
370
    -2
100
AcDbBlockReference
  2
_Open
 10
942.5
 20
2669.999999999998
 30
0.0
 41
30.0
 42
30.0
 43
30.0
 50
180.0
  0
MTEXT
  5
12515
330
1250D
100
AcDbEntity
  8
01注記寸法
 62
     0
100
AcDbMText
 10
1547.5
 20
2695.005627110164
 30
0.0
 40
30.0
 41
0.0
 71
     5
 72
     1
  1
1210
 73
     1
 44
1.0
  0
POINT
  5
12516
330
1250D
100
AcDbEntity
  8
Defpoints
 62
     0
100
AcDbPoint
 10
2152.500000000001
 20
2455.0
 30
0.0
  0
POINT
  5
12517
330
1250D
100
AcDbEntity
  8
Defpoints
 62
     0
100
AcDbPoint
 10
942.5
 20
2454.999999999998
 30
0.0
  0
POINT
  5
12518
330
1250D
100
AcDbEntity
  8
Defpoints
 62
     0
100
AcDbPoint
 10
942.5
 20
2669.999999999998
 30
0.0
  0
ENDBLK
  5
1250F
330
1250D
100
AcDbEntity
  8
0
100
AcDbBlockEnd
  0
BLOCK
  5
1251A
330
12519
100
AcDbEntity
  8
0
100
AcDbBlockBegin
  2
*D1086
 70
     1
 10
0.0
 20
0.0
 30
0.0
  3
*D1086
  1

  0
LINE
  5
1251C
330
12519
100
AcDbEntity
  8
01注記寸法
 62
     0
370
    -2
100
AcDbLine
 10
942.5
 20
2469.999999999998
 30
0.0
 11
832.5
 21
2469.999999999998
 31
0.0
  0
LINE
  5
1251D
330
12519
100
AcDbEntity
  8
01注記寸法
 62
     0
370
    -2
100
AcDbLine
 10
1038.500000000001
 20
2451.999999999998
 30
0.0
 11
832.5
 21
2451.999999999998
 31
0.0
  0
LINE
  5
1251E
330
12519
100
AcDbEntity
  8
01注記寸法
 62
     0
370
    -2
100
AcDbLine
 10
842.5
 20
2469.999999999998
 30
0.0
 11
842.5
 21
2584.424195323244
 31
0.0
  0
LINE
  5
1251F
330
12519
100
AcDbEntity
  8
01注記寸法
 62
     0
370
    -2
100
AcDbLine
 10
842.5
 20
2469.999999999998
 30
0.0
 11
842.5
 21
2451.999999999998
 31
0.0
  0
LINE
  5
12520
330
12519
100
AcDbEntity
  8
01注記寸法
 62
     0
370
    -2
100
AcDbLine
 10
842.5
 20
2499.999999999998
 30
0.0
 11
842.5
 21
2529.999999999998
 31
0.0
  0
LINE
  5
12521
330
12519
100
AcDbEntity
  8
01注記寸法
 62
     0
370
    -2
100
AcDbLine
 10
842.5
 20
2421.999999999998
 30
0.0
 11
842.5
 21
2391.999999999998
 31
0.0
  0
INSERT
  5
12522
330
12519
100
AcDbEntity
  8
01注記寸法
 62
     0
370
    -2
100
AcDbBlockReference
  2
_Open
 10
842.5
 20
2469.999999999998
 30
0.0
 41
30.0
 42
30.0
 43
30.0
 50
270.0
  0
INSERT
  5
12523
330
12519
100
AcDbEntity
  8
01注記寸法
 62
     0
370
    -2
100
AcDbBlockReference
  2
_Open
 10
842.5
 20
2451.999999999998
 30
0.0
 41
30.0
 42
30.0
 43
30.0
 50
90.0
  0
MTEXT
  5
12524
330
12519
100
AcDbEntity
  8
01注記寸法
 62
     0
100
AcDbMText
 10
817.4943728898338
 20
2557.819999999998
 30
0.0
 40
30.0
 41
0.0
 71
     5
 72
     1
  1
18
 11
0.0
 21
1.0
 31
0.0
 73
     1
 44
1.0
  0
POINT
  5
12525
330
12519
100
AcDbEntity
  8
Defpoints
 62
     0
100
AcDbPoint
 10
957.5
 20
2469.999999999998
 30
0.0
  0
POINT
  5
12526
330
12519
100
AcDbEntity
  8
Defpoints
 62
     0
100
AcDbPoint
 10
1053.500000000001
 20
2451.999999999998
 30
0.0
  0
POINT
  5
12527
330
12519
100
AcDbEntity
  8
Defpoints
 62
     0
100
AcDbPoint
 10
842.5
 20
2451.999999999998
 30
0.0
  0
ENDBLK
  5
1251B
330
12519
100
AcDbEntity
  8
0
100
AcDbBlockEnd
  0
BLOCK
  5
12529
330
12528
100
AcDbEntity
  8
0
100
AcDbBlockBegin
  2
*D1087
 70
     1
 10
0.0
 20
0.0
 30
0.0
  3
*D1087
  1

  0
LINE
  5
1252B
330
12528
100
AcDbEntity
  8
01注記寸法
 62
     0
370
    -2
100
AcDbLine
 10
1038.500000000001
 20
2451.999999999998
 30
0.0
 11
832.5
 21
2451.999999999998
 31
0.0
  0
LINE
  5
1252C
330
12528
100
AcDbEntity
  8
01注記寸法
 62
     0
370
    -2
100
AcDbLine
 10
1038.500000000001
 20
1722.999999999997
 30
0.0
 11
832.5
 21
1722.999999999997
 31
0.0
  0
LINE
  5
1252D
330
12528
100
AcDbEntity
  8
01注記寸法
 62
     0
370
    -2
100
AcDbLine
 10
842.5
 20
2421.999999999998
 30
0.0
 11
842.5
 21
1752.999999999997
 31
0.0
  0
INSERT
  5
1252E
330
12528
100
AcDbEntity
  8
01注記寸法
 62
     0
370
    -2
100
AcDbBlockReference
  2
_Open
 10
842.5
 20
2451.999999999998
 30
0.0
 41
30.0
 42
30.0
 43
30.0
 50
90.0
  0
INSERT
  5
1252F
330
12528
100
AcDbEntity
  8
01注記寸法
 62
     0
370
    -2
100
AcDbBlockReference
  2
_Open
 10
842.5
 20
1722.999999999997
 30
0.0
 41
30.0
 42
30.0
 43
30.0
 50
270.0
  0
MTEXT
  5
12530
330
12528
100
AcDbEntity
  8
01注記寸法
 62
     0
100
AcDbMText
 10
817.4943728898338
 20
2087.499999999998
 30
0.0
 40
30.0
 41
0.0
 71
     5
 72
     1
  1
729
 11
0.0
 21
1.0
 31
0.0
 73
     1
 44
1.0
  0
POINT
  5
12531
330
12528
100
AcDbEntity
  8
Defpoints
 62
     0
100
AcDbPoint
 10
1053.500000000001
 20
2451.999999999998
 30
0.0
  0
POINT
  5
12532
330
12528
100
AcDbEntity
  8
Defpoints
 62
     0
100
AcDbPoint
 10
1053.500000000001
 20
1722.999999999997
 30
0.0
  0
POINT
  5
12533
330
12528
100
AcDbEntity
  8
Defpoints
 62
     0
100
AcDbPoint
 10
842.5
 20
1722.999999999997
 30
0.0
  0
ENDBLK
  5
1252A
330
12528
100
AcDbEntity
  8
0
100
AcDbBlockEnd
  0
BLOCK
  5
12535
330
12534
100
AcDbEntity
  8
0
100
AcDbBlockBegin
  2
*D1088
 70
     1
 10
0.0
 20
0.0
 30
0.0
  3
*D1088
  1

  0
LINE
  5
12537
330
12534
100
AcDbEntity
  8
01注記寸法
 62
     0
370
    -2
100
AcDbLine
 10
1038.500000000001
 20
1722.999999999997
 30
0.0
 11
832.5
 21
1722.999999999997
 31
0.0
  0
LINE
  5
12538
330
12534
100
AcDbEntity
  8
01注記寸法
 62
     0
370
    -2
100
AcDbLine
 10
942.5
 20
1704.999999999998
 30
0.0
 11
832.5
 21
1704.999999999998
 31
0.0
  0
LINE
  5
12539
330
12534
100
AcDbEntity
  8
01注記寸法
 62
     0
370
    -2
100
AcDbLine
 10
842.5
 20
1674.999999999998
 30
0.0
 11
842.5
 21
1591.791609353505
 31
0.0
  0
LINE
  5
1253A
330
12534
100
AcDbEntity
  8
01注記寸法
 62
     0
370
    -2
100
AcDbLine
 10
842.5
 20
1722.999999999997
 30
0.0
 11
842.5
 21
1704.999999999998
 31
0.0
  0
LINE
  5
1253B
330
12534
100
AcDbEntity
  8
01注記寸法
 62
     0
370
    -2
100
AcDbLine
 10
842.5
 20
1752.999999999997
 30
0.0
 11
842.5
 21
1782.999999999997
 31
0.0
  0
INSERT
  5
1253C
330
12534
100
AcDbEntity
  8
01注記寸法
 62
     0
370
    -2
100
AcDbBlockReference
  2
_Open
 10
842.5
 20
1722.999999999997
 30
0.0
 41
30.0
 42
30.0
 43
30.0
 50
270.0
  0
INSERT
  5
1253D
330
12534
100
AcDbEntity
  8
01注記寸法
 62
     0
370
    -2
100
AcDbBlockReference
  2
_Open
 10
842.5
 20
1704.999999999998
 30
0.0
 41
30.0
 42
30.0
 43
30.0
 50
90.0
  0
MTEXT
  5
1253E
330
12534
100
AcDbEntity
  8
01注記寸法
 62
     0
100
AcDbMText
 10
817.4943728898336
 20
1618.395804676752
 30
0.0
 40
30.0
 41
0.0
 71
     5
 72
     1
  1
18
 11
0.0
 21
1.0
 31
0.0
 73
     1
 44
1.0
  0
POINT
  5
1253F
330
12534
100
AcDbEntity
  8
Defpoints
 62
     0
100
AcDbPoint
 10
1053.500000000001
 20
1722.999999999997
 30
0.0
  0
POINT
  5
12540
330
12534
100
AcDbEntity
  8
Defpoints
 62
     0
100
AcDbPoint
 10
957.5
 20
1704.999999999998
 30
0.0
  0
POINT
  5
12541
330
12534
100
AcDbEntity
  8
Defpoints
 62
     0
100
AcDbPoint
 10
842.5
 20
1704.999999999998
 30
0.0
  0
ENDBLK
  5
12536
330
12534
100
AcDbEntity
  8
0
100
AcDbBlockEnd
  0
BLOCK
  5
12543
330
12542
100
AcDbEntity
  8
0
100
AcDbBlockBegin
  2
*D1089
 70
     1
 10
0.0
 20
0.0
 30
0.0
  3
*D1089
  1

  0
LINE
  5
12545
330
12542
100
AcDbEntity
  8
01注記寸法
 62
     0
370
    -2
100
AcDbLine
 10
942.5
 20
1704.999999999998
 30
0.0
 11
732.5
 21
1704.999999999998
 31
0.0
  0
LINE
  5
12546
330
12542
100
AcDbEntity
  8
01注記寸法
 62
     0
370
    -2
100
AcDbLine
 10
942.5
 20
2469.999999999998
 30
0.0
 11
732.5
 21
2469.999999999998
 31
0.0
  0
LINE
  5
12547
330
12542
100
AcDbEntity
  8
01注記寸法
 62
     0
370
    -2
100
AcDbLine
 10
742.5
 20
1734.999999999998
 30
0.0
 11
742.5
 21
2439.999999999998
 31
0.0
  0
INSERT
  5
12548
330
12542
100
AcDbEntity
  8
01注記寸法
 62
     0
370
    -2
100
AcDbBlockReference
  2
_Open
 10
742.5
 20
1704.999999999998
 30
0.0
 41
30.0
 42
30.0
 43
30.0
 50
270.0
  0
INSERT
  5
12549
330
12542
100
AcDbEntity
  8
01注記寸法
 62
     0
370
    -2
100
AcDbBlockReference
  2
_Open
 10
742.5
 20
2469.999999999998
 30
0.0
 41
30.0
 42
30.0
 43
30.0
 50
90.0
  0
MTEXT
  5
1254A
330
12542
100
AcDbEntity
  8
01注記寸法
 62
     0
100
AcDbMText
 10
717.4943728898338
 20
2087.499999999998
 30
0.0
 40
30.0
 41
0.0
 71
     5
 72
     1
  1
765
 11
0.0
 21
1.0
 31
0.0
 73
     1
 44
1.0
  0
POINT
  5
1254B
330
12542
100
AcDbEntity
  8
Defpoints
 62
     0
100
AcDbPoint
 10
957.5
 20
1704.999999999998
 30
0.0
  0
POINT
  5
1254C
330
12542
100
AcDbEntity
  8
Defpoints
 62
     0
100
AcDbPoint
 10
957.5
 20
2469.999999999998
 30
0.0
  0
POINT
  5
1254D
330
12542
100
AcDbEntity
  8
Defpoints
 62
     0
100
AcDbPoint
 10
742.5
 20
2469.999999999998
 30
0.0
  0
ENDBLK
  5
12544
330
12542
100
AcDbEntity
  8
0
100
AcDbBlockEnd
  0
BLOCK
  5
13992
330
13991
100
AcDbEntity
  8
0
100
AcDbBlockBegin
  2
*D1210
 70
     1
 10
0.0
 20
0.0
 30
0.0
  3
*D1210
  1

  0
LINE
  5
13994
330
13991
100
AcDbEntity
  8
08非表示
 62
     0
370
    -2
100
AcDbLine
 10
571.6666666666661
 20
331.2686041968647
 30
0.0
 11
571.6666666666661
 21
334.0899465539181
 31
0.0
  0
LINE
  5
13995
330
13991
100
AcDbEntity
  8
08非表示
 62
     0
370
    -2
100
AcDbLine
 10
1378.333333333333
 20
331.2686041968603
 30
0.0
 11
1378.333333333333
 21
334.0899465539181
 31
0.0
  0
LINE
  5
13996
330
13991
100
AcDbEntity
  8
08非表示
 62
     0
370
    -2
100
AcDbLine
 10
601.6666666666661
 20
324.0899465539181
 30
0.0
 11
1348.333333333333
 21
324.0899465539181
 31
0.0
  0
INSERT
  5
13997
330
13991
100
AcDbEntity
  8
08非表示
 62
     0
370
    -2
100
AcDbBlockReference
  2
_Open
 10
571.6666666666661
 20
324.0899465539181
 30
0.0
 41
30.0
 42
30.0
 43
30.0
 50
180.0
  0
INSERT
  5
13998
330
13991
100
AcDbEntity
  8
08非表示
 62
     0
370
    -2
100
AcDbBlockReference
  2
_Open
 10
1378.333333333333
 20
324.0899465539181
 30
0.0
 41
30.0
 42
30.0
 43
30.0
  0
MTEXT
  5
13999
330
13991
100
AcDbEntity
  8
08非表示
 62
     0
100
AcDbMText
 10
974.9999999999995
 20
349.0955736640844
 30
0.0
 40
30.0
 41
0.0
 71
     5
 72
     1
  1
1210
 73
     1
 44
1.0
  0
POINT
  5
1399A
330
13991
100
AcDbEntity
  8
Defpoints
 62
     0
100
AcDbPoint
 10
571.6666666666661
 20
316.2686041968647
 30
0.0
  0
POINT
  5
1399B
330
13991
100
AcDbEntity
  8
Defpoints
 62
     0
100
AcDbPoint
 10
1378.333333333333
 20
316.2686041968603
 30
0.0
  0
POINT
  5
1399C
330
13991
100
AcDbEntity
  8
Defpoints
 62
     0
100
AcDbPoint
 10
1378.333333333333
 20
324.0899465539181
 30
0.0
  0
ENDBLK
  5
13993
330
13991
100
AcDbEntity
  8
0
100
AcDbBlockEnd
  0
BLOCK
  5
1399E
330
1399D
100
AcDbEntity
  8
0
100
AcDbBlockBegin
  2
*D1211
 70
     1
 10
0.0
 20
0.0
 30
0.0
  3
*D1211
  1

  0
LINE
  5
139A0
330
1399D
100
AcDbEntity
  8
08非表示
 62
     0
370
    -2
100
AcDbLine
 10
1277.732222293613
 20
759.9999999999953
 30
0.0
 11
1288.374907007728
 21
759.9999999999953
 31
0.0
  0
LINE
  5
139A1
330
1399D
100
AcDbEntity
  8
08非表示
 62
     0
370
    -2
100
AcDbLine
 10
1277.732222293612
 20
249.9999999999951
 30
0.0
 11
1288.374907007728
 21
249.9999999999951
 31
0.0
  0
LINE
  5
139A2
330
1399D
100
AcDbEntity
  8
08非表示
 62
     0
370
    -2
100
AcDbLine
 10
1278.374907007728
 20
729.9999999999953
 30
0.0
 11
1278.374907007728
 21
279.9999999999951
 31
0.0
  0
INSERT
  5
139A3
330
1399D
100
AcDbEntity
  8
08非表示
 62
     0
370
    -2
100
AcDbBlockReference
  2
_Open
 10
1278.374907007728
 20
759.9999999999953
 30
0.0
 41
30.0
 42
30.0
 43
30.0
 50
90.0
  0
INSERT
  5
139A4
330
1399D
100
AcDbEntity
  8
08非表示
 62
     0
370
    -2
100
AcDbBlockReference
  2
_Open
 10
1278.374907007728
 20
249.9999999999951
 30
0.0
 41
30.0
 42
30.0
 43
30.0
 50
270.0
  0
MTEXT
  5
139A5
330
1399D
100
AcDbEntity
  8
08非表示
 62
     0
100
AcDbMText
 10
1253.369279897562
 20
504.9999999999952
 30
0.0
 40
30.0
 41
0.0
 71
     5
 72
     1
  1
765
 11
0.0
 21
1.0
 31
0.0
 73
     1
 44
1.0
  0
POINT
  5
139A6
330
1399D
100
AcDbEntity
  8
Defpoints
 62
     0
100
AcDbPoint
 10
1262.732222293613
 20
759.9999999999953
 30
0.0
  0
POINT
  5
139A7
330
1399D
100
AcDbEntity
  8
Defpoints
 62
     0
100
AcDbPoint
 10
1262.732222293612
 20
249.9999999999951
 30
0.0
  0
POINT
  5
139A8
330
1399D
100
AcDbEntity
  8
Defpoints
 62
     0
100
AcDbPoint
 10
1278.374907007728
 20
249.9999999999951
 30
0.0
  0
ENDBLK
  5
1399F
330
1399D
100
AcDbEntity
  8
0
100
AcDbBlockEnd
  0
BLOCK
  5
15D60
330
15D5F
100
AcDbEntity
  8
0
100
AcDbBlockBegin
  2
*D1362
 70
     1
 10
0.0
 20
0.0
 30
0.0
  3
*D1362
  1

  0
LINE
  5
15D62
330
15D5F
100
AcDbEntity
  8
01注記寸法
 62
     0
370
    -2
100
AcDbLine
 10
610.0000000000001
 20
269.9999999999994
 30
0.0
 11
461.6666666666659
 21
269.9999999999994
 31
0.0
  0
LINE
  5
15D63
330
15D5F
100
AcDbEntity
  8
01注記寸法
 62
     0
370
    -2
100
AcDbLine
 10
566.666666666667
 20
249.9999999999994
 30
0.0
 11
461.6666666666659
 21
249.9999999999994
 31
0.0
  0
LINE
  5
15D64
330
15D5F
100
AcDbEntity
  8
01注記寸法
 62
     0
370
    -2
100
AcDbLine
 10
471.6666666666659
 20
219.9999999999994
 30
0.0
 11
471.6666666666659
 21
134.2036076028505
 31
0.0
  0
LINE
  5
15D65
330
15D5F
100
AcDbEntity
  8
01注記寸法
 62
     0
370
    -2
100
AcDbLine
 10
471.6666666666659
 20
269.9999999999994
 30
0.0
 11
471.6666666666659
 21
249.9999999999994
 31
0.0
  0
LINE
  5
15D66
330
15D5F
100
AcDbEntity
  8
01注記寸法
 62
     0
370
    -2
100
AcDbLine
 10
471.6666666666659
 20
299.9999999999994
 30
0.0
 11
471.6666666666659
 21
329.9999999999994
 31
0.0
  0
INSERT
  5
15D67
330
15D5F
100
AcDbEntity
  8
01注記寸法
 62
     0
370
    -2
100
AcDbBlockReference
  2
_Open
 10
471.6666666666659
 20
269.9999999999994
 30
0.0
 41
30.0
 42
30.0
 43
30.0
 50
270.0
  0
INSERT
  5
15D68
330
15D5F
100
AcDbEntity
  8
01注記寸法
 62
     0
370
    -2
100
AcDbBlockReference
  2
_Open
 10
471.6666666666659
 20
249.9999999999994
 30
0.0
 41
30.0
 42
30.0
 43
30.0
 50
90.0
  0
MTEXT
  5
15D69
330
15D5F
100
AcDbEntity
  8
01注記寸法
 62
     0
100
AcDbMText
 10
446.6610395564996
 20
162.101803801425
 30
0.0
 40
30.0
 41
0.0
 71
     5
 72
     1
  1
30
 11
0.0
 21
1.0
 31
0.0
 73
     1
 44
1.0
  0
POINT
  5
15D6A
330
15D5F
100
AcDbEntity
  8
Defpoints
 62
     0
100
AcDbPoint
 10
625.0000000000001
 20
269.9999999999994
 30
0.0
  0
POINT
  5
15D6B
330
15D5F
100
AcDbEntity
  8
Defpoints
 62
     0
100
AcDbPoint
 10
581.666666666667
 20
249.9999999999994
 30
0.0
  0
POINT
  5
15D6C
330
15D5F
100
AcDbEntity
  8
Defpoints
 62
     0
100
AcDbPoint
 10
471.6666666666659
 20
249.9999999999994
 30
0.0
  0
ENDBLK
  5
15D61
330
15D5F
100
AcDbEntity
  8
0
100
AcDbBlockEnd
  0
BLOCK
  5
15D6F
330
15D6E
100
AcDbEntity
  8
0
100
AcDbBlockBegin
  2
*D1363
 70
     1
 10
0.0
 20
0.0
 30
0.0
  3
*D1363
  1

  0
LINE
  5
15D71
330
15D6E
100
AcDbEntity
  8
01注記寸法
 62
     0
370
    -2
100
AcDbLine
 10
610.0000000000001
 20
269.9999999999994
 30
0.0
 11
461.6666666666668
 21
269.9999999999994
 31
0.0
  0
LINE
  5
15D72
330
15D6E
100
AcDbEntity
  8
01注記寸法
 62
     0
370
    -2
100
AcDbLine
 10
610.0000000000006
 20
739.9999999999994
 30
0.0
 11
461.6666666666669
 21
739.9999999999994
 31
0.0
  0
LINE
  5
15D73
330
15D6E
100
AcDbEntity
  8
01注記寸法
 62
     0
370
    -2
100
AcDbLine
 10
471.6666666666668
 20
299.9999999999994
 30
0.0
 11
471.6666666666669
 21
709.9999999999994
 31
0.0
  0
INSERT
  5
15D74
330
15D6E
100
AcDbEntity
  8
01注記寸法
 62
     0
370
    -2
100
AcDbBlockReference
  2
_Open
 10
471.6666666666668
 20
269.9999999999994
 30
0.0
 41
30.0
 42
30.0
 43
30.0
 50
270.0
  0
INSERT
  5
15D75
330
15D6E
100
AcDbEntity
  8
01注記寸法
 62
     0
370
    -2
100
AcDbBlockReference
  2
_Open
 10
471.6666666666669
 20
739.9999999999994
 30
0.0
 41
30.0
 42
30.0
 43
30.0
 50
90.0
  0
MTEXT
  5
15D76
330
15D6E
100
AcDbEntity
  8
01注記寸法
 62
     0
100
AcDbMText
 10
446.6610395565006
 20
504.9999999999994
 30
0.0
 40
30.0
 41
0.0
 71
     5
 72
     1
  1
705
 11
1.209434443846979E-16
 21
1.0
 31
0.0
 73
     1
 44
1.0
  0
POINT
  5
15D77
330
15D6E
100
AcDbEntity
  8
Defpoints
 62
     0
100
AcDbPoint
 10
625.0000000000001
 20
269.9999999999994
 30
0.0
  0
POINT
  5
15D78
330
15D6E
100
AcDbEntity
  8
Defpoints
 62
     0
100
AcDbPoint
 10
625.0000000000006
 20
739.9999999999994
 30
0.0
  0
POINT
  5
15D79
330
15D6E
100
AcDbEntity
  8
Defpoints
 62
     0
100
AcDbPoint
 10
471.6666666666669
 20
739.9999999999994
 30
0.0
  0
ENDBLK
  5
15D70
330
15D6E
100
AcDbEntity
  8
0
100
AcDbBlockEnd
  0
BLOCK
  5
15D7C
330
15D7B
100
AcDbEntity
  8
0
100
AcDbBlockBegin
  2
*D1364
 70
     1
 10
0.0
 20
0.0
 30
0.0
  3
*D1364
  1

  0
LINE
  5
15D7E
330
15D7B
100
AcDbEntity
  8
01注記寸法
 62
     0
370
    -2
100
AcDbLine
 10
610.0000000000006
 20
739.9999999999994
 30
0.0
 11
461.6666666666669
 21
739.9999999999994
 31
0.0
  0
LINE
  5
15D7F
330
15D7B
100
AcDbEntity
  8
01注記寸法
 62
     0
370
    -2
100
AcDbLine
 10
566.6666666666674
 20
759.9999999999994
 30
0.0
 11
461.6666666666669
 21
759.9999999999994
 31
0.0
  0
LINE
  5
15D80
330
15D7B
100
AcDbEntity
  8
01注記寸法
 62
     0
370
    -2
100
AcDbLine
 10
471.6666666666669
 20
789.9999999999994
 30
0.0
 11
471.6666666666669
 21
875.7963923971483
 31
0.0
  0
LINE
  5
15D81
330
15D7B
100
AcDbEntity
  8
01注記寸法
 62
     0
370
    -2
100
AcDbLine
 10
471.6666666666669
 20
739.9999999999994
 30
0.0
 11
471.6666666666669
 21
759.9999999999994
 31
0.0
  0
LINE
  5
15D82
330
15D7B
100
AcDbEntity
  8
01注記寸法
 62
     0
370
    -2
100
AcDbLine
 10
471.6666666666669
 20
709.9999999999994
 30
0.0
 11
471.6666666666669
 21
679.9999999999994
 31
0.0
  0
INSERT
  5
15D83
330
15D7B
100
AcDbEntity
  8
01注記寸法
 62
     0
370
    -2
100
AcDbBlockReference
  2
_Open
 10
471.6666666666669
 20
739.9999999999994
 30
0.0
 41
30.0
 42
30.0
 43
30.0
 50
90.0
  0
INSERT
  5
15D84
330
15D7B
100
AcDbEntity
  8
01注記寸法
 62
     0
370
    -2
100
AcDbBlockReference
  2
_Open
 10
471.6666666666669
 20
759.9999999999994
 30
0.0
 41
30.0
 42
30.0
 43
30.0
 50
270.0
  0
MTEXT
  5
15D85
330
15D7B
100
AcDbEntity
  8
01注記寸法
 62
     0
100
AcDbMText
 10
446.6610395565006
 20
847.8981961985739
 30
0.0
 40
30.0
 41
0.0
 71
     5
 72
     1
  1
30
 11
0.0
 21
1.0
 31
0.0
 73
     1
 44
1.0
  0
POINT
  5
15D86
330
15D7B
100
AcDbEntity
  8
Defpoints
 62
     0
100
AcDbPoint
 10
625.0000000000006
 20
739.9999999999994
 30
0.0
  0
POINT
  5
15D87
330
15D7B
100
AcDbEntity
  8
Defpoints
 62
     0
100
AcDbPoint
 10
581.6666666666674
 20
759.9999999999994
 30
0.0
  0
POINT
  5
15D88
330
15D7B
100
AcDbEntity
  8
Defpoints
 62
     0
100
AcDbPoint
 10
471.6666666666669
 20
759.9999999999994
 30
0.0
  0
ENDBLK
  5
15D7D
330
15D7B
100
AcDbEntity
  8
0
100
AcDbBlockEnd
  0
BLOCK
  5
15D8B
330
15D8A
100
AcDbEntity
  8
0
100
AcDbBlockBegin
  2
*D1365
 70
     1
 10
0.0
 20
0.0
 30
0.0
  3
*D1365
  1

  0
LINE
  5
15D8D
330
15D8A
100
AcDbEntity
  8
01注記寸法
 62
     0
370
    -2
100
AcDbLine
 10
690.1746056857983
 20
900.0056271101657
 30
0.0
 11
617.0016970950767
 21
900.0056271101657
 31
0.0
  0
LINE
  5
15D8E
330
15D8A
100
AcDbEntity
  8
01注記寸法
 62
     0
370
    -2
100
AcDbLine
 10
617.0016970950767
 20
900.0056271101657
 30
0.0
 11
605.0000000000007
 21
859.9999999999994
 31
0.0
  0
LINE
  5
15D8F
330
15D8A
100
AcDbEntity
  8
01注記寸法
 62
     0
370
    -2
100
AcDbLine
 10
571.6666666666674
 20
764.9999999999994
 30
0.0
 11
571.6666666666674
 21
869.9999999999994
 31
0.0
  0
LINE
  5
15D90
330
15D8A
100
AcDbEntity
  8
01注記寸法
 62
     0
370
    -2
100
AcDbLine
 10
638.3333333333339
 20
768.3333333333328
 30
0.0
 11
638.3333333333339
 21
869.9999999999994
 31
0.0
  0
LINE
  5
15D91
330
15D8A
100
AcDbEntity
  8
01注記寸法
 62
     0
370
    -2
100
AcDbLine
 10
571.6666666666674
 20
859.9999999999994
 30
0.0
 11
638.3333333333339
 21
859.9999999999994
 31
0.0
  0
LINE
  5
15D92
330
15D8A
100
AcDbEntity
  8
01注記寸法
 62
     0
370
    -2
100
AcDbLine
 10
541.6666666666674
 20
859.9999999999994
 30
0.0
 11
511.6666666666674
 21
859.9999999999994
 31
0.0
  0
LINE
  5
15D93
330
15D8A
100
AcDbEntity
  8
01注記寸法
 62
     0
370
    -2
100
AcDbLine
 10
668.3333333333339
 20
859.9999999999994
 30
0.0
 11
698.3333333333339
 21
859.9999999999994
 31
0.0
  0
INSERT
  5
15D94
330
15D8A
100
AcDbEntity
  8
01注記寸法
 62
     0
370
    -2
100
AcDbBlockReference
  2
_Open
 10
571.6666666666674
 20
859.9999999999994
 30
0.0
 41
30.0
 42
30.0
 43
30.0
  0
INSERT
  5
15D95
330
15D8A
100
AcDbEntity
  8
01注記寸法
 62
     0
370
    -2
100
AcDbBlockReference
  2
_Open
 10
638.3333333333339
 20
859.9999999999994
 30
0.0
 41
30.0
 42
30.0
 43
30.0
 50
180.0
  0
MTEXT
  5
15D96
330
15D8A
100
AcDbEntity
  8
01注記寸法
 62
     0
100
AcDbMText
 10
653.5881513904375
 20
925.011254220332
 30
0.0
 40
30.0
 41
0.0
 71
     5
 72
     1
  1
100
 73
     1
 44
1.0
  0
POINT
  5
15D97
330
15D8A
100
AcDbEntity
  8
Defpoints
 62
     0
100
AcDbPoint
 10
571.6666666666674
 20
749.9999999999994
 30
0.0
  0
POINT
  5
15DB5
330
15D8A
100
AcDbEntity
  8
Defpoints
 62
     0
100
AcDbPoint
 10
638.3333333333339
 20
753.3333333333328
 30
0.0
  0
POINT
  5
15DB6
330
15D8A
100
AcDbEntity
  8
Defpoints
 62
     0
100
AcDbPoint
 10
638.3333333333339
 20
859.9999999999994
 30
0.0
  0
ENDBLK
  5
15D8C
330
15D8A
100
AcDbEntity
  8
0
100
AcDbBlockEnd
  0
BLOCK
  5
15D9A
330
15D99
100
AcDbEntity
  8
0
100
AcDbBlockBegin
  2
*D1366
 70
     1
 10
0.0
 20
0.0
 30
0.0
  3
*D1366
  1

  0
LINE
  5
15D9C
330
15D99
100
AcDbEntity
  8
01注記寸法
 62
     0
370
    -2
100
AcDbLine
 10
638.3333333333339
 20
768.3333333333328
 30
0.0
 11
638.3333333333339
 21
869.9999999999951
 31
0.0
  0
LINE
  5
15D9D
330
15D99
100
AcDbEntity
  8
01注記寸法
 62
     0
370
    -2
100
AcDbLine
 10
1311.666666666667
 20
768.3333333333285
 30
0.0
 11
1311.666666666667
 21
869.9999999999951
 31
0.0
  0
LINE
  5
15D9E
330
15D99
100
AcDbEntity
  8
01注記寸法
 62
     0
370
    -2
100
AcDbLine
 10
668.3333333333339
 20
859.9999999999951
 30
0.0
 11
1281.666666666667
 21
859.9999999999951
 31
0.0
  0
INSERT
  5
15D9F
330
15D99
100
AcDbEntity
  8
01注記寸法
 62
     0
370
    -2
100
AcDbBlockReference
  2
_Open
 10
638.3333333333339
 20
859.9999999999951
 30
0.0
 41
30.0
 42
30.0
 43
30.0
 50
180.0
  0
INSERT
  5
15DA0
330
15D99
100
AcDbEntity
  8
01注記寸法
 62
     0
370
    -2
100
AcDbBlockReference
  2
_Open
 10
1311.666666666667
 20
859.9999999999951
 30
0.0
 41
30.0
 42
30.0
 43
30.0
  0
MTEXT
  5
15DA1
330
15D99
100
AcDbEntity
  8
01注記寸法
 62
     0
100
AcDbMText
 10
975.0000000000007
 20
885.0056271101614
 30
0.0
 40
30.0
 41
0.0
 71
     5
 72
     1
  1
1010
 73
     1
 44
1.0
  0
POINT
  5
15DA2
330
15D99
100
AcDbEntity
  8
Defpoints
 62
     0
100
AcDbPoint
 10
638.3333333333339
 20
753.3333333333328
 30
0.0
  0
POINT
  5
15DA3
330
15D99
100
AcDbEntity
  8
Defpoints
 62
     0
100
AcDbPoint
 10
1311.666666666667
 20
753.3333333333285
 30
0.0
  0
POINT
  5
15DA4
330
15D99
100
AcDbEntity
  8
Defpoints
 62
     0
100
AcDbPoint
 10
1311.666666666667
 20
859.9999999999951
 30
0.0
  0
ENDBLK
  5
15D9B
330
15D99
100
AcDbEntity
  8
0
100
AcDbBlockEnd
  0
BLOCK
  5
15DA7
330
15DA6
100
AcDbEntity
  8
0
100
AcDbBlockBegin
  2
*D1367
 70
     1
 10
0.0
 20
0.0
 30
0.0
  3
*D1367
  1

  0
LINE
  5
15DA9
330
15DA6
100
AcDbEntity
  8
01注記寸法
 62
     0
370
    -2
100
AcDbLine
 10
1311.666666666667
 20
768.3333333333285
 30
0.0
 11
1311.666666666667
 21
869.9999999999951
 31
0.0
  0
LINE
  5
15DAA
330
15DA6
100
AcDbEntity
  8
01注記寸法
 62
     0
370
    -2
100
AcDbLine
 10
1378.333333333334
 20
764.9999999999951
 30
0.0
 11
1378.333333333334
 21
869.9999999999951
 31
0.0
  0
LINE
  5
15DAB
330
15DA6
100
AcDbEntity
  8
01注記寸法
 62
     0
370
    -2
100
AcDbLine
 10
1408.333333333334
 20
859.9999999999951
 30
0.0
 11
1511.506241924055
 21
859.9999999999951
 31
0.0
  0
LINE
  5
15DAC
330
15DA6
100
AcDbEntity
  8
01注記寸法
 62
     0
370
    -2
100
AcDbLine
 10
1311.666666666667
 20
859.9999999999951
 30
0.0
 11
1378.333333333334
 21
859.9999999999951
 31
0.0
  0
LINE
  5
15DAD
330
15DA6
100
AcDbEntity
  8
01注記寸法
 62
     0
370
    -2
100
AcDbLine
 10
1281.666666666667
 20
859.9999999999951
 30
0.0
 11
1251.666666666667
 21
859.9999999999951
 31
0.0
  0
INSERT
  5
15DAE
330
15DA6
100
AcDbEntity
  8
01注記寸法
 62
     0
370
    -2
100
AcDbBlockReference
  2
_Open
 10
1311.666666666667
 20
859.9999999999951
 30
0.0
 41
30.0
 42
30.0
 43
30.0
  0
INSERT
  5
15DAF
330
15DA6
100
AcDbEntity
  8
01注記寸法
 62
     0
370
    -2
100
AcDbBlockReference
  2
_Open
 10
1378.333333333334
 20
859.9999999999951
 30
0.0
 41
30.0
 42
30.0
 43
30.0
 50
180.0
  0
MTEXT
  5
15DB0
330
15DA6
100
AcDbEntity
  8
01注記寸法
 62
     0
100
AcDbMText
 10
1474.919787628695
 20
885.0056271101614
 30
0.0
 40
30.0
 41
0.0
 71
     5
 72
     1
  1
100
 73
     1
 44
1.0
  0
POINT
  5
15DB1
330
15DA6
100
AcDbEntity
  8
Defpoints
 62
     0
100
AcDbPoint
 10
1311.666666666667
 20
753.3333333333285
 30
0.0
  0
POINT
  5
15DB2
330
15DA6
100
AcDbEntity
  8
Defpoints
 62
     0
100
AcDbPoint
 10
1378.333333333334
 20
749.9999999999951
 30
0.0
  0
POINT
  5
15DB3
330
15DA6
100
AcDbEntity
  8
Defpoints
 62
     0
100
AcDbPoint
 10
1378.333333333334
 20
859.9999999999951
 30
0.0
  0
ENDBLK
  5
15DA8
330
15DA6
100
AcDbEntity
  8
0
100
AcDbBlockEnd
  0
BLOCK
  5
15DDA
330
15DD9
100
AcDbEntity
  8
0
100
AcDbBlockBegin
  2
*D1369
 70
     1
 10
0.0
 20
0.0
 30
0.0
  3
*D1369
  1

  0
LINE
  5
15DDC
330
15DD9
100
AcDbEntity
  8
01注記寸法
 62
     0
370
    -2
100
AcDbLine
 10
2152.500000000001
 20
2470.0
 30
0.0
 11
2262.500000000001
 21
2470.0
 31
0.0
  0
LINE
  5
15DDD
330
15DD9
100
AcDbEntity
  8
01注記寸法
 62
     0
370
    -2
100
AcDbLine
 10
2107.500000000001
 20
2377.999999999996
 30
0.0
 11
2262.500000000001
 21
2377.999999999996
 31
0.0
  0
LINE
  5
15DDE
330
15DD9
100
AcDbEntity
  8
01注記寸法
 62
     0
370
    -2
100
AcDbLine
 10
2252.500000000001
 20
2440.0
 30
0.0
 11
2252.500000000001
 21
2407.999999999996
 31
0.0
  0
INSERT
  5
15DDF
330
15DD9
100
AcDbEntity
  8
01注記寸法
 62
     0
370
    -2
100
AcDbBlockReference
  2
_Open
 10
2252.500000000001
 20
2470.0
 30
0.0
 41
30.0
 42
30.0
 43
30.0
 50
90.0
  0
INSERT
  5
15DE0
330
15DD9
100
AcDbEntity
  8
01注記寸法
 62
     0
370
    -2
100
AcDbBlockReference
  2
_Open
 10
2252.500000000001
 20
2377.999999999996
 30
0.0
 41
30.0
 42
30.0
 43
30.0
 50
270.0
  0
MTEXT
  5
15DE1
330
15DD9
100
AcDbEntity
  8
01注記寸法
 62
     0
100
AcDbMText
 10
2227.494372889835
 20
2423.999999999998
 30
0.0
 40
30.0
 41
0.0
 71
     5
 72
     1
  1
92
 11
0.0
 21
1.0
 31
0.0
 73
     1
 44
1.0
  0
POINT
  5
15DE2
330
15DD9
100
AcDbEntity
  8
Defpoints
 62
     0
100
AcDbPoint
 10
2137.500000000001
 20
2470.0
 30
0.0
  0
POINT
  5
15DE3
330
15DD9
100
AcDbEntity
  8
Defpoints
 62
     0
100
AcDbPoint
 10
2092.500000000001
 20
2377.999999999996
 30
0.0
  0
POINT
  5
15DE4
330
15DD9
100
AcDbEntity
  8
Defpoints
 62
     0
100
AcDbPoint
 10
2252.500000000001
 20
2377.999999999996
 30
0.0
  0
ENDBLK
  5
15DDB
330
15DD9
100
AcDbEntity
  8
0
100
AcDbBlockEnd
  0
BLOCK
  5
15DE7
330
15DE6
100
AcDbEntity
  8
0
100
AcDbBlockBegin
  2
*D1370
 70
     1
 10
0.0
 20
0.0
 30
0.0
  3
*D1370
  1

  0
LINE
  5
15DE9
330
15DE6
100
AcDbEntity
  8
01注記寸法
 62
     0
370
    -2
100
AcDbLine
 10
2107.500000000001
 20
1797.000000000003
 30
0.0
 11
2262.500000000001
 21
1797.000000000003
 31
0.0
  0
LINE
  5
15DEA
330
15DE6
100
AcDbEntity
  8
01注記寸法
 62
     0
370
    -2
100
AcDbLine
 10
2152.500000000001
 20
1705.0
 30
0.0
 11
2262.500000000001
 21
1705.0
 31
0.0
  0
LINE
  5
15DEB
330
15DE6
100
AcDbEntity
  8
01注記寸法
 62
     0
370
    -2
100
AcDbLine
 10
2252.500000000001
 20
1767.000000000003
 30
0.0
 11
2252.500000000001
 21
1735.0
 31
0.0
  0
INSERT
  5
15DEC
330
15DE6
100
AcDbEntity
  8
01注記寸法
 62
     0
370
    -2
100
AcDbBlockReference
  2
_Open
 10
2252.500000000001
 20
1797.000000000003
 30
0.0
 41
30.0
 42
30.0
 43
30.0
 50
90.0
  0
INSERT
  5
15DED
330
15DE6
100
AcDbEntity
  8
01注記寸法
 62
     0
370
    -2
100
AcDbBlockReference
  2
_Open
 10
2252.500000000001
 20
1705.0
 30
0.0
 41
30.0
 42
30.0
 43
30.0
 50
270.0
  0
MTEXT
  5
15DEE
330
15DE6
100
AcDbEntity
  8
01注記寸法
 62
     0
100
AcDbMText
 10
2227.494372889834
 20
1751.000000000001
 30
0.0
 40
30.0
 41
0.0
 71
     5
 72
     1
  1
92
 11
0.0
 21
1.0
 31
0.0
 73
     1
 44
1.0
  0
POINT
  5
15DEF
330
15DE6
100
AcDbEntity
  8
Defpoints
 62
     0
100
AcDbPoint
 10
2092.500000000001
 20
1797.000000000003
 30
0.0
  0
POINT
  5
15DF0
330
15DE6
100
AcDbEntity
  8
Defpoints
 62
     0
100
AcDbPoint
 10
2137.500000000001
 20
1705.0
 30
0.0
  0
POINT
  5
15DF1
330
15DE6
100
AcDbEntity
  8
Defpoints
 62
     0
100
AcDbPoint
 10
2252.500000000001
 20
1705.0
 30
0.0
  0
ENDBLK
  5
15DE8
330
15DE6
100
AcDbEntity
  8
0
100
AcDbBlockEnd
  0
BLOCK
  5
170F3
330
170F2
100
AcDbEntity
  8
0
100
AcDbBlockBegin
  2
RAS-AP224SG他
 70
     0
 10
0.0
 20
0.0
 30
0.0
  3
RAS-AP224SG他
  1

  0
LINE
  5
170F4
330
170F2
100
AcDbEntity
  8
11機器
100
AcDbLine
 10
-130.0
 20
-2.299999999999727
 30
0.0
 11
-130.0
 21
731.9999999999995
 31
0.0
  0
LINE
  5
170F5
330
170F2
100
AcDbEntity
  8
11機器
100
AcDbLine
 10
1078.000013
 20
-2.299999999999727
 30
0.0
 11
1078.000013
 21
731.9999999999995
 31
0.0
  0
LINE
  5
170F6
330
170F2
100
AcDbEntity
  8
11機器
100
AcDbLine
 10
-127.3000000000002
 20
-2.0
 30
0.0
 11
-127.3000000000002
 21
-5.400000000000091
 31
0.0
  0
LINE
  5
170F7
330
170F2
100
AcDbEntity
  8
11機器
100
AcDbLine
 10
1041.947488
 20
746.7006779999997
 30
0.0
 11
1038.600031
 21
746.7006779999997
 31
0.0
  0
LINE
  5
170F8
330
170F2
100
AcDbEntity
  8
11機器
100
AcDbLine
 10
-90.59998900000028
 20
747.0000130000003
 30
0.0
 11
1038.600031
 21
747.0000130000003
 31
0.0
  0
LINE
  5
170F9
330
170F2
100
AcDbEntity
  8
11機器
100
AcDbLine
 10
-90.59998900000028
 20
747.0000130000003
 30
0.0
 11
-90.59998900000028
 21
744.3999989999998
 31
0.0
  0
LINE
  5
170FA
330
170F2
100
AcDbEntity
  8
11機器
100
AcDbLine
 10
-93.80087800000001
 20
746.6006620000003
 30
0.0
 11
-90.59998900000028
 21
746.6006620000003
 31
0.0
  0
ARC
  5
170FB
330
170F2
100
AcDbEntity
  8
11機器
100
AcDbCircle
 10
-95.0
 20
744.9999999999995
 30
0.0
 40
2.0
100
AcDbArc
 50
0.0
 51
90.0
  0
ARC
  5
170FC
330
170F2
100
AcDbEntity
  8
11機器
100
AcDbCircle
 10
-95.0
 20
744.9999999999995
 30
0.0
 40
1.0
100
AcDbArc
 50
0.0
 51
90.0
  0
ARC
  5
170FD
330
170F2
100
AcDbEntity
  8
11機器
100
AcDbCircle
 10
-88.80000000000018
 20
743.7999999999997
 30
0.0
 40
3.2
100
AcDbArc
 50
124.2285849999954
 51
169.1930769999993
  0
ARC
  5
170FE
330
170F2
100
AcDbEntity
  8
11機器
100
AcDbCircle
 10
-116.0
 20
731.9999999999995
 30
0.0
 40
14.0
100
AcDbArc
 50
90.0
 51
180.0
  0
LINE
  5
170FF
330
170F2
100
AcDbEntity
  8
11機器
100
AcDbLine
 10
-127.2999869999999
 20
734.4000080000001
 30
0.0
 11
-117.2999879999998
 21
744.3999989999998
 31
0.0
  0
LINE
  5
17100
330
170F2
100
AcDbEntity
  8
11機器
100
AcDbLine
 10
-117.2999879999998
 20
744.3999989999998
 30
0.0
 11
-90.59998900000028
 21
744.3999989999998
 31
0.0
  0
LINE
  5
17101
330
170F2
100
AcDbEntity
  8
11機器
100
AcDbLine
 10
-116.0
 20
746.0000260000002
 30
0.0
 11
-95.0
 21
746.0000260000002
 31
0.0
  0
LINE
  5
17102
330
170F2
100
AcDbEntity
  8
11機器
100
AcDbLine
 10
-94.00000199999977
 20
744.9999789999997
 30
0.0
 11
-94.00000199999977
 21
744.3999989999998
 31
0.0
  0
LINE
  5
17103
330
170F2
100
AcDbEntity
  8
11機器
100
AcDbLine
 10
-93.0
 20
744.9999789999997
 30
0.0
 11
-93.0
 21
744.3999989999998
 31
0.0
  0
LINE
  5
17104
330
170F2
100
AcDbEntity
  8
11機器
100
AcDbLine
 10
-129.8999869999998
 20
730.99998
 30
0.0
 11
-127.2999869999999
 21
730.99998
 31
0.0
  0
LINE
  5
17105
330
170F2
100
AcDbEntity
  8
11機器
100
AcDbLine
 10
-127.2999869999999
 20
730.99998
 30
0.0
 11
-127.2999869999999
 21
734.4000080000001
 31
0.0
  0
LINE
  5
17106
330
170F2
100
AcDbEntity
  8
11機器
100
AcDbLine
 10
-90.70787699999983
 20
744.3999989999998
 30
0.0
 11
-90.64775800000007
 21
744.5653420000003
 31
0.0
  0
LINE
  5
17107
330
170F2
100
AcDbEntity
  8
11機器
100
AcDbLine
 10
-90.64775800000007
 20
744.5653420000003
 30
0.0
 11
-90.59998900000028
 21
744.6717960000001
 31
0.0
  0
LINE
  5
17108
330
170F2
100
AcDbEntity
  8
11機器
100
AcDbLine
 10
-116.0
 20
746.9999999999995
 30
0.0
 11
-95.0
 21
747.0000130000003
 31
0.0
  0
LINE
  5
17109
330
170F2
100
AcDbEntity
  8
11機器
100
AcDbLine
 10
-96.19998699999996
 20
-15.40000000000009
 30
0.0
 11
-96.19998699999996
 21
-17.29999999999973
 31
0.0
  0
ARC
  5
1710A
330
170F2
100
AcDbEntity
  8
11機器
100
AcDbCircle
 10
-96.19998699999996
 20
-15.29999999999973
 30
0.0
 40
1.0
100
AcDbArc
 50
185.7391700000157
 51
270.0
  0
LINE
  5
1710B
330
170F2
100
AcDbEntity
  8
11機器
100
AcDbLine
 10
1044.40004
 20
-15.40000000000009
 30
0.0
 11
1044.40004
 21
-17.29999999999973
 31
0.0
  0
LINE
  5
1710C
330
170F2
100
AcDbEntity
  8
11機器
100
AcDbLine
 10
1046.200041
 20
-15.5
 30
0.0
 11
1046.200041
 21
-15.40000000000009
 31
0.0
  0
LINE
  5
1710D
330
170F2
100
AcDbEntity
  8
11機器
100
AcDbLine
 10
1045.400027
 20
-15.5
 30
0.0
 11
1045.400027
 21
-15.40000000000009
 31
0.0
  0
ARC
  5
1710E
330
170F2
100
AcDbEntity
  8
11機器
100
AcDbCircle
 10
1044.400013
 20
-15.5
 30
0.0
 40
1.8
100
AcDbArc
 50
270.0
 51
0.0
  0
ARC
  5
1710F
330
170F2
100
AcDbEntity
  8
11機器
100
AcDbCircle
 10
1044.400013
 20
-15.5
 30
0.0
 40
1.0
100
AcDbArc
 50
270.0
 51
0.0
  0
ARC
  5
17110
330
170F2
100
AcDbEntity
  8
11機器
100
AcDbCircle
 10
-96.39998699999978
 20
-15.5
 30
0.0
 40
1.8
100
AcDbArc
 50
180.0
 51
270.0
  0
ARC
  5
17111
330
170F2
100
AcDbEntity
  8
11機器
100
AcDbCircle
 10
1037.0
 20
743.7999999999997
 30
0.0
 40
3.2
100
AcDbArc
 50
10.8069230000007
 51
59.99973100000695
  0
ARC
  5
17112
330
170F2
100
AcDbEntity
  8
11機器
100
AcDbCircle
 10
1037.0
 20
743.7999999999997
 30
0.0
 40
2.0
100
AcDbArc
 50
17.45760300000483
 51
36.86927700001889
  0
ARC
  5
17113
330
170F2
100
AcDbEntity
  8
11機器
100
AcDbCircle
 10
-116.0
 20
731.9999999999995
 30
0.0
 40
15.0
100
AcDbArc
 50
90.0
 51
180.0
  0
ARC
  5
17114
330
170F2
100
AcDbEntity
  8
11機器
100
AcDbCircle
 10
1043.000013
 20
744.9999999999995
 30
0.0
 40
1.0
100
AcDbArc
 50
90.0
 51
180.0
  0
ARC
  5
17115
330
170F2
100
AcDbEntity
  8
11機器
100
AcDbCircle
 10
1043.000013
 20
744.9999999999995
 30
0.0
 40
2.0
100
AcDbArc
 50
90.00074699999963
 51
180.0
  0
ARC
  5
17116
330
170F2
100
AcDbEntity
  8
11機器
100
AcDbCircle
 10
1064.000013
 20
731.9999999999995
 30
0.0
 40
14.0
100
AcDbArc
 50
0.0
 51
90.0
  0
ARC
  5
17117
330
170F2
100
AcDbEntity
  8
11機器
100
AcDbCircle
 10
1064.000013
 20
731.9999999999995
 30
0.0
 40
15.0
100
AcDbArc
 50
0.0
 51
90.0
  0
LINE
  5
17118
330
170F2
100
AcDbEntity
  8
11機器
100
AcDbLine
 10
1064.000014
 20
746.0000260000002
 30
0.0
 11
1042.999987
 21
746.0000260000002
 31
0.0
  0
LINE
  5
17119
330
170F2
100
AcDbEntity
  8
11機器
100
AcDbLine
 10
1041.999999
 20
744.9999789999997
 30
0.0
 11
1041.999999
 21
744.3999989999998
 31
0.0
  0
LINE
  5
1711A
330
170F2
100
AcDbEntity
  8
11機器
100
AcDbLine
 10
1041.000012
 20
744.9999789999997
 30
0.0
 11
1041.000012
 21
744.3999989999998
 31
0.0
  0
ARC
  5
1711B
330
170F2
100
AcDbEntity
  8
11機器
100
AcDbCircle
 10
1051.000013
 20
-15.29999999999973
 30
0.0
 40
2.0
100
AcDbArc
 50
182.8659840000097
 51
270.0
  0
LINE
  5
1711C
330
170F2
100
AcDbEntity
  8
11機器
100
AcDbLine
 10
1038.599972
 20
-17.29999999999973
 30
0.0
 11
1044.40004
 21
-17.29999999999973
 31
0.0
  0
ARC
  5
1711D
330
170F2
100
AcDbEntity
  8
11機器
100
AcDbCircle
 10
1064.000013
 20
-2.299999999999727
 30
0.0
 40
15.0
100
AcDbArc
 50
270.0
 51
0.0
  0
ARC
  5
1711E
330
170F2
100
AcDbEntity
  8
11機器
100
AcDbCircle
 10
1064.000013
 20
-2.299999999999727
 30
0.0
 40
14.0
100
AcDbArc
 50
270.0
 51
0.0
  0
LINE
  5
1711F
330
170F2
100
AcDbEntity
  8
11機器
100
AcDbLine
 10
1051.000003
 20
-16.29999999999973
 30
0.0
 11
1064.000014
 21
-16.29999999999973
 31
0.0
  0
ARC
  5
17120
330
170F2
100
AcDbEntity
  8
11機器
100
AcDbCircle
 10
1051.000013
 20
-15.29999999999973
 30
0.0
 40
1.0
100
AcDbArc
 50
185.7391700000157
 51
270.0
  0
ARC
  5
17121
330
170F2
100
AcDbEntity
  8
11機器
100
AcDbCircle
 10
-103.0
 20
-15.29999999999973
 30
0.0
 40
1.0
100
AcDbArc
 50
270.0
 51
354.2608299999843
  0
LINE
  5
17122
330
170F2
100
AcDbEntity
  8
11機器
100
AcDbLine
 10
-103.0
 20
-16.29999999999973
 30
0.0
 11
-116.0
 21
-16.29999999999973
 31
0.0
  0
ARC
  5
17123
330
170F2
100
AcDbEntity
  8
11機器
100
AcDbCircle
 10
-116.0
 20
-2.299999999999727
 30
0.0
 40
14.0
100
AcDbArc
 50
180.0
 51
270.0
  0
ARC
  5
17124
330
170F2
100
AcDbEntity
  8
11機器
100
AcDbCircle
 10
-116.0
 20
-2.299999999999727
 30
0.0
 40
15.0
100
AcDbArc
 50
180.0
 51
270.0
  0
LINE
  5
17125
330
170F2
100
AcDbEntity
  8
11機器
100
AcDbLine
 10
-90.59999999999991
 20
-17.29999999999973
 30
0.0
 11
-96.39998699999978
 21
-17.29999999999973
 31
0.0
  0
ARC
  5
17126
330
170F2
100
AcDbEntity
  8
11機器
100
AcDbCircle
 10
-103.0
 20
-15.29999999999973
 30
0.0
 40
2.0
100
AcDbArc
 50
270.0
 51
357.1340159999904
  0
LINE
  5
17127
330
170F2
100
AcDbEntity
  8
11機器
100
AcDbLine
 10
-131.0
 20
731.4999999999995
 30
0.0
 11
-131.0
 21
-2.299999999999727
 31
0.0
  0
LINE
  5
17128
330
170F2
100
AcDbEntity
  8
11機器
100
AcDbLine
 10
1079.0
 20
731.51953
 30
0.0
 11
1079.0
 21
-2.467717999999877
 31
0.0
  0
LINE
  5
17129
330
170F2
100
AcDbEntity
  8
11機器
100
AcDbLine
 10
-101.9474970000001
 20
-17.00065799999993
 30
0.0
 11
-97.39398400000027
 21
-17.00065799999993
 31
0.0
  0
LINE
  5
1712A
330
170F2
100
AcDbEntity
  8
11機器
100
AcDbLine
 10
1049.800877
 20
-16.90065800000002
 30
0.0
 11
1045.530561
 21
-16.90065800000002
 31
0.0
  0
LINE
  5
1712B
330
170F2
100
AcDbEntity
  8
11機器
100
AcDbLine
 10
-117.3000010000001
 20
-15.40000000000009
 30
0.0
 11
-127.3000000000002
 21
-5.400000000000091
 31
0.0
  0
LINE
  5
1712C
330
170F2
100
AcDbEntity
  8
11機器
100
AcDbLine
 10
-117.3000010000001
 20
-15.40000000000009
 30
0.0
 11
-90.59999999999991
 21
-15.40000000000009
 31
0.0
  0
LINE
  5
1712D
330
170F2
100
AcDbEntity
  8
11機器
100
AcDbLine
 10
1065.299991
 20
-15.40000000000009
 30
0.0
 11
1038.599972
 21
-15.40000000000009
 31
0.0
  0
LINE
  5
1712E
330
170F2
100
AcDbEntity
  8
11機器
100
AcDbLine
 10
1075.299982
 20
-5.400000000000091
 30
0.0
 11
1065.299991
 21
-15.40000000000009
 31
0.0
  0
LINE
  5
1712F
330
170F2
100
AcDbEntity
  8
11機器
100
AcDbLine
 10
1075.299982
 20
-2.0
 30
0.0
 11
1075.299982
 21
-5.400000000000091
 31
0.0
  0
LINE
  5
17130
330
170F2
100
AcDbEntity
  8
11機器
100
AcDbLine
 10
-129.9000000000001
 20
-2.0
 30
0.0
 11
-127.3000000000002
 21
-2.0
 31
0.0
  0
LINE
  5
17131
330
170F2
100
AcDbEntity
  8
11機器
100
AcDbLine
 10
1075.299982
 20
-2.0
 30
0.0
 11
1078.000013
 21
-2.0
 31
0.0
  0
LINE
  5
17132
330
170F2
100
AcDbEntity
  8
11機器
100
AcDbLine
 10
1038.599972
 20
-18.0
 30
0.0
 11
-90.59999999999991
 21
-18.0
 31
0.0
  0
LINE
  5
17133
330
170F2
100
AcDbEntity
  8
11機器
100
AcDbLine
 10
1038.600031
 20
747.0000130000003
 30
0.0
 11
1038.600031
 21
744.3999989999998
 31
0.0
  0
LINE
  5
17134
330
170F2
100
AcDbEntity
  8
11機器
100
AcDbLine
 10
1042.916931
 20
747.0000130000003
 30
0.0
 11
1064.008585
 21
747.0000130000003
 31
0.0
  0
LINE
  5
17135
330
170F2
100
AcDbEntity
  8
11機器
100
AcDbLine
 10
1075.300042
 20
734.4000080000001
 30
0.0
 11
1075.300042
 21
730.99998
 31
0.0
  0
LINE
  5
17136
330
170F2
100
AcDbEntity
  8
11機器
100
AcDbLine
 10
1065.299991
 20
744.3999989999998
 30
0.0
 11
1075.300042
 21
734.4000080000001
 31
0.0
  0
LINE
  5
17137
330
170F2
100
AcDbEntity
  8
11機器
100
AcDbLine
 10
1065.299991
 20
744.3999989999998
 30
0.0
 11
1038.600031
 21
744.3999989999998
 31
0.0
  0
LINE
  5
17138
330
170F2
100
AcDbEntity
  8
11機器
100
AcDbLine
 10
1075.300042
 20
730.99998
 30
0.0
 11
1077.899996
 21
730.99998
 31
0.0
  0
LINE
  5
17139
330
170F2
100
AcDbEntity
  8
11機器
100
AcDbLine
 10
1038.599972
 20
-15.40000000000009
 30
0.0
 11
1038.599972
 21
-18.0
 31
0.0
  0
LINE
  5
1713A
330
170F2
100
AcDbEntity
  8
11機器
100
AcDbLine
 10
-90.59999999999991
 20
-15.40000000000009
 30
0.0
 11
-90.59999999999991
 21
-18.0
 31
0.0
  0
LINE
  5
1713B
330
170F2
100
AcDbEntity
  8
11機器
100
AcDbLine
 10
-103.0
 20
-17.29999999999973
 30
0.0
 11
-116.0
 21
-17.29999999999973
 31
0.0
  0
LINE
  5
1713C
330
170F2
100
AcDbEntity
  8
11機器
100
AcDbLine
 10
1051.000013
 20
-17.29999999999973
 30
0.0
 11
1064.000014
 21
-17.29999999999973
 31
0.0
  0
ARC
  5
1713D
330
170F2
100
AcDbEntity
  8
11機器
100
AcDbCircle
 10
-116.0
 20
731.9999999999995
 30
0.0
 40
11.0
100
AcDbArc
 50
106.7231119999967
 51
163.2768879999987
  0
ARC
  5
1713E
330
170F2
100
AcDbEntity
  8
11機器
100
AcDbCircle
 10
-110.0999999999999
 20
744.9999999999995
 30
0.0
 40
1.0
100
AcDbArc
 50
0.0
 51
90.0
  0
LINE
  5
1713F
330
170F2
100
AcDbEntity
  8
11機器
100
AcDbLine
 10
-109.1000009999998
 20
744.5000150000001
 30
0.0
 11
-102.9000000000001
 21
744.5000150000001
 31
0.0
  0
ARC
  5
17140
330
170F2
100
AcDbEntity
  8
11機器
100
AcDbCircle
 10
-101.9000000000001
 20
744.9999999999995
 30
0.0
 40
1.0
100
AcDbArc
 50
90.0
 51
180.0
  0
LINE
  5
17141
330
170F2
100
AcDbEntity
  8
11機器
100
AcDbLine
 10
-102.9000000000001
 20
744.9999789999997
 30
0.0
 11
-102.9000000000001
 21
744.5000150000001
 31
0.0
  0
LINE
  5
17142
330
170F2
100
AcDbEntity
  8
11機器
100
AcDbLine
 10
-109.1000009999998
 20
744.5000150000001
 30
0.0
 11
-109.1000009999998
 21
744.9999789999997
 31
0.0
  0
LINE
  5
17143
330
170F2
100
AcDbEntity
  8
11機器
100
AcDbLine
 10
-95.0
 20
746.0000260000002
 30
0.0
 11
-95.0
 21
744.3999989999998
 31
0.0
  0
LINE
  5
17144
330
170F2
100
AcDbEntity
  8
11機器
100
AcDbLine
 10
717.8000000000002
 20
609.5000050000003
 30
0.0
 11
723.1985119999999
 21
609.5000050000003
 31
0.0
  0
LINE
  5
17145
330
170F2
100
AcDbEntity
  8
11機器
100
AcDbLine
 10
750.2000120000002
 20
624.4999910000001
 30
0.0
 11
744.8015
 21
624.4999910000001
 31
0.0
  0
LINE
  5
17146
330
170F2
100
AcDbEntity
  8
11機器
100
AcDbLine
 10
723.1985119999999
 20
624.4999910000001
 30
0.0
 11
717.8000000000002
 21
624.4999910000001
 31
0.0
  0
LINE
  5
17147
330
170F2
100
AcDbEntity
  8
11機器
100
AcDbLine
 10
717.8000000000002
 20
624.4999910000001
 30
0.0
 11
717.8000000000002
 21
609.5000050000003
 31
0.0
  0
ARC
  5
17148
330
170F2
100
AcDbEntity
  8
11機器
100
AcDbCircle
 10
734.0000140000002
 20
616.9999890000004
 30
0.0
 40
13.15
100
AcDbArc
 50
34.77409200000098
 51
145.225907999999
  0
ARC
  5
17149
330
170F2
100
AcDbEntity
  8
11機器
100
AcDbCircle
 10
734.0000140000002
 20
616.9999890000004
 30
0.0
 40
13.15
100
AcDbArc
 50
214.774092000001
 51
325.225907999999
  0
LINE
  5
1714A
330
170F2
100
AcDbEntity
  8
11機器
100
AcDbLine
 10
750.2000120000002
 20
609.5000050000003
 30
0.0
 11
750.2000120000002
 21
624.4999910000001
 31
0.0
  0
LINE
  5
1714B
330
170F2
100
AcDbEntity
  8
11機器
100
AcDbLine
 10
744.8015
 20
609.5000050000003
 30
0.0
 11
750.2000120000002
 21
609.5000050000003
 31
0.0
  0
LINE
  5
1714C
330
170F2
100
AcDbEntity
  8
11機器
100
AcDbLine
 10
224.8015190000001
 20
609.5000050000003
 30
0.0
 11
230.2000010000002
 21
609.5000050000003
 31
0.0
  0
LINE
  5
1714D
330
170F2
100
AcDbEntity
  8
11機器
100
AcDbLine
 10
230.2000010000002
 20
609.5000050000003
 30
0.0
 11
230.2000010000002
 21
624.4999910000001
 31
0.0
  0
LINE
  5
1714E
330
170F2
100
AcDbEntity
  8
11機器
100
AcDbLine
 10
197.8000189999998
 20
624.4999910000001
 30
0.0
 11
197.8000189999998
 21
609.5000050000003
 31
0.0
  0
LINE
  5
1714F
330
170F2
100
AcDbEntity
  8
11機器
100
AcDbLine
 10
197.8000189999998
 20
609.5000050000003
 30
0.0
 11
203.1985009999999
 21
609.5000050000003
 31
0.0
  0
ARC
  5
17150
330
170F2
100
AcDbEntity
  8
11機器
100
AcDbCircle
 10
214.0000140000002
 20
616.9999890000004
 30
0.0
 40
13.15
100
AcDbArc
 50
214.774092000001
 51
325.225907999999
  0
ARC
  5
17151
330
170F2
100
AcDbEntity
  8
11機器
100
AcDbCircle
 10
214.0000140000002
 20
616.9999890000004
 30
0.0
 40
13.15
100
AcDbArc
 50
34.77409200000098
 51
145.225907999999
  0
LINE
  5
17152
330
170F2
100
AcDbEntity
  8
11機器
100
AcDbLine
 10
230.2000010000002
 20
624.4999910000001
 30
0.0
 11
224.8015190000001
 21
624.4999910000001
 31
0.0
  0
LINE
  5
17153
330
170F2
100
AcDbEntity
  8
11機器
100
AcDbLine
 10
203.1985009999999
 20
624.4999910000001
 30
0.0
 11
197.8000189999998
 21
624.4999910000001
 31
0.0
  0
ARC
  5
17154
330
170F2
100
AcDbEntity
  8
11機器
100
AcDbCircle
 10
1049.900013
 20
744.9999999999995
 30
0.0
 40
1.0
100
AcDbArc
 50
0.0
 51
90.0
  0
ARC
  5
17155
330
170F2
100
AcDbEntity
  8
11機器
100
AcDbCircle
 10
1058.100013
 20
744.9999999999995
 30
0.0
 40
1.0
100
AcDbArc
 50
90.0
 51
180.0
  0
LINE
  5
17156
330
170F2
100
AcDbEntity
  8
11機器
100
AcDbLine
 10
1057.100002
 20
744.9999789999997
 30
0.0
 11
1057.100002
 21
744.5000150000001
 31
0.0
  0
LINE
  5
17157
330
170F2
100
AcDbEntity
  8
11機器
100
AcDbLine
 10
1050.899986
 20
744.5000150000001
 30
0.0
 11
1050.899986
 21
744.9999789999997
 31
0.0
  0
LINE
  5
17158
330
170F2
100
AcDbEntity
  8
11機器
100
AcDbLine
 10
-98.19998699999996
 20
-15.40000000000009
 30
0.0
 11
-98.19998699999996
 21
-15.5
 31
0.0
  0
LINE
  5
17159
330
170F2
100
AcDbEntity
  8
11機器
100
AcDbLine
 10
1050.899986
 20
744.5000150000001
 30
0.0
 11
1057.100002
 21
744.5000150000001
 31
0.0
  0
ARC
  5
1715A
330
170F2
100
AcDbEntity
  8
11機器
100
AcDbCircle
 10
1064.000013
 20
731.9999999999995
 30
0.0
 40
11.0
100
AcDbArc
 50
16.72321300000264
 51
73.27678700000033
  0
LINE
  5
1715B
330
170F2
100
AcDbEntity
  8
11機器
100
AcDbLine
 10
1042.999987
 20
746.0000260000002
 30
0.0
 11
1042.999987
 21
744.3999989999998
 31
0.0
  0
LINE
  5
1715C
330
170F2
100
AcDbEntity
  8
11機器
100
AcDbLine
 10
1051.000003
 20
-15.40000000000009
 30
0.0
 11
1051.000003
 21
-16.29999999999973
 31
0.0
  0
ARC
  5
1715D
330
170F2
100
AcDbEntity
  8
11機器
100
AcDbCircle
 10
1064.000013
 20
-2.299999999999727
 30
0.0
 40
11.0
100
AcDbArc
 50
292.7690309999998
 51
337.230968999998
  0
LINE
  5
1715E
330
170F2
100
AcDbEntity
  8
11機器
100
AcDbLine
 10
-103.0
 20
-15.40000000000009
 30
0.0
 11
-103.0
 21
-16.29999999999973
 31
0.0
  0
ARC
  5
1715F
330
170F2
100
AcDbEntity
  8
11機器
100
AcDbCircle
 10
-116.0
 20
-2.299999999999727
 30
0.0
 40
11.0
100
AcDbArc
 50
202.7691580000015
 51
247.2308420000016
  0
LINE
  5
17160
330
170F2
100
AcDbEntity
  8
11機器
100
AcDbLine
 10
1078.000013
 20
52.5
 30
0.0
 11
-130.0
 21
52.5
 31
0.0
  0
LINE
  5
17161
330
170F2
100
AcDbEntity
  8
11機器
100
AcDbLine
 10
936.4999870000001
 20
-7.5
 30
0.0
 11
959.4999889999999
 21
-7.5
 31
0.0
  0
ARC
  5
17162
330
170F2
100
AcDbEntity
  8
11機器
100
AcDbCircle
 10
936.5
 20
0.0
 30
0.0
 40
7.5
100
AcDbArc
 50
90.0
 51
270.0
  0
LINE
  5
17163
330
170F2
100
AcDbEntity
  8
11機器
100
AcDbLine
 10
959.4999889999999
 20
7.5
 30
0.0
 11
936.4999870000001
 21
7.5
 31
0.0
  0
ARC
  5
17164
330
170F2
100
AcDbEntity
  8
11機器
100
AcDbCircle
 10
959.5
 20
0.0
 30
0.0
 40
7.5
100
AcDbArc
 50
270.0
 51
90.0
  0
LINE
  5
17165
330
170F2
100
AcDbEntity
  8
11機器
100
AcDbLine
 10
-11.49999900000012
 20
-7.5
 30
0.0
 11
11.49999500000013
 21
-7.5
 31
0.0
  0
ARC
  5
17166
330
170F2
100
AcDbEntity
  8
11機器
100
AcDbCircle
 10
-11.5
 20
0.0
 30
0.0
 40
7.5
100
AcDbArc
 50
90.0
 51
270.0
  0
LINE
  5
17167
330
170F2
100
AcDbEntity
  8
11機器
100
AcDbLine
 10
11.49999500000013
 20
7.5
 30
0.0
 11
-11.49999900000012
 21
7.5
 31
0.0
  0
ARC
  5
17168
330
170F2
100
AcDbEntity
  8
11機器
100
AcDbCircle
 10
11.5
 20
0.0
 30
0.0
 40
7.5
100
AcDbArc
 50
270.0
 51
90.0
  0
LINE
  5
17169
330
170F2
100
AcDbEntity
  8
11機器
100
AcDbLine
 10
11.50000999999975
 20
736.5000219999997
 30
0.0
 11
-11.49998400000004
 21
736.5000219999997
 31
0.0
  0
ARC
  5
1716A
330
170F2
100
AcDbEntity
  8
11機器
100
AcDbCircle
 10
11.50001299999985
 20
728.9999999999995
 30
0.0
 40
7.5
100
AcDbArc
 50
270.0
 51
90.0
  0
LINE
  5
1716B
330
170F2
100
AcDbEntity
  8
11機器
100
AcDbLine
 10
-11.49998400000004
 20
721.499977
 30
0.0
 11
11.50000999999975
 21
721.499977
 31
0.0
  0
ARC
  5
1716C
330
170F2
100
AcDbEntity
  8
11機器
100
AcDbCircle
 10
-11.49998700000015
 20
728.9999999999995
 30
0.0
 40
7.5
100
AcDbArc
 50
90.0
 51
270.0
  0
LINE
  5
1716D
330
170F2
100
AcDbEntity
  8
11機器
100
AcDbLine
 10
959.4999889999999
 20
736.5000219999997
 30
0.0
 11
936.4999870000001
 21
736.5000219999997
 31
0.0
  0
ARC
  5
1716E
330
170F2
100
AcDbEntity
  8
11機器
100
AcDbCircle
 10
959.5000129999999
 20
728.9999999999995
 30
0.0
 40
7.5
100
AcDbArc
 50
270.0
 51
90.0
  0
LINE
  5
1716F
330
170F2
100
AcDbEntity
  8
11機器
100
AcDbLine
 10
936.4999870000001
 20
721.499977
 30
0.0
 11
959.4999889999999
 21
721.499977
 31
0.0
  0
ARC
  5
17170
330
170F2
100
AcDbEntity
  8
11機器
100
AcDbCircle
 10
936.5000129999999
 20
728.9999999999995
 30
0.0
 40
7.5
100
AcDbArc
 50
90.0
 51
270.0
  0
LINE
  5
17171
330
170F2
100
AcDbEntity
  8
11機器
100
AcDbLine
 10
-130.0
 20
676.50002
 30
0.0
 11
1078.000013
 21
676.50002
 31
0.0
  0
LINE
  5
17172
330
170F2
100
AcDbEntity
  8
11機器
100
AcDbLine
 10
-23.50000099999988
 20
448.8000070000003
 30
0.0
 11
-8.5
 21
448.8000070000003
 31
0.0
  0
LINE
  5
17173
330
170F2
100
AcDbEntity
  8
11機器
100
AcDbLine
 10
-23.50000099999988
 20
454.1984900000002
 30
0.0
 11
-23.50000099999988
 21
448.8000070000003
 31
0.0
  0
ARC
  5
17174
330
170F2
100
AcDbEntity
  8
11機器
100
AcDbCircle
 10
-16.0
 20
464.9999999999995
 30
0.0
 40
13.15
100
AcDbArc
 50
124.7740919999999
 51
235.2259079999963
  0
LINE
  5
17175
330
170F2
100
AcDbEntity
  8
11機器
100
AcDbLine
 10
-23.50000099999988
 20
481.1999899999996
 30
0.0
 11
-23.50000099999988
 21
475.801508
 31
0.0
  0
LINE
  5
17176
330
170F2
100
AcDbEntity
  8
11機器
100
AcDbLine
 10
-8.5
 20
481.1999899999996
 30
0.0
 11
-23.50000099999988
 21
481.1999899999996
 31
0.0
  0
LINE
  5
17177
330
170F2
100
AcDbEntity
  8
11機器
100
AcDbLine
 10
-8.5
 20
475.801508
 30
0.0
 11
-8.5
 21
481.1999899999996
 31
0.0
  0
ARC
  5
17178
330
170F2
100
AcDbEntity
  8
11機器
100
AcDbCircle
 10
-16.0
 20
464.9999999999995
 30
0.0
 40
13.15
100
AcDbArc
 50
304.7740919999998
 51
55.22590800000016
  0
LINE
  5
17179
330
170F2
100
AcDbEntity
  8
11機器
100
AcDbLine
 10
-8.5
 20
448.8000070000003
 30
0.0
 11
-8.5
 21
454.1984900000002
 31
0.0
  0
LINE
  5
1717A
330
170F2
100
AcDbEntity
  8
11機器
100
AcDbLine
 10
956.5000279999999
 20
448.8000070000003
 30
0.0
 11
971.5000129999999
 21
448.8000070000003
 31
0.0
  0
LINE
  5
1717B
330
170F2
100
AcDbEntity
  8
11機器
100
AcDbLine
 10
956.5000279999999
 20
454.1984900000002
 30
0.0
 11
956.5000279999999
 21
448.8000070000003
 31
0.0
  0
ARC
  5
1717C
330
170F2
100
AcDbEntity
  8
11機器
100
AcDbCircle
 10
964.0
 20
464.9999999999995
 30
0.0
 40
13.15
100
AcDbArc
 50
124.7740919999999
 51
235.2259079999963
  0
LINE
  5
1717D
330
170F2
100
AcDbEntity
  8
11機器
100
AcDbLine
 10
956.5000279999999
 20
481.1999899999996
 30
0.0
 11
956.5000279999999
 21
475.801508
 31
0.0
  0
LINE
  5
1717E
330
170F2
100
AcDbEntity
  8
11機器
100
AcDbLine
 10
971.5000129999999
 20
481.1999899999996
 30
0.0
 11
956.5000279999999
 21
481.1999899999996
 31
0.0
  0
LINE
  5
1717F
330
170F2
100
AcDbEntity
  8
11機器
100
AcDbLine
 10
971.5000129999999
 20
475.801508
 30
0.0
 11
971.5000129999999
 21
481.1999899999996
 31
0.0
  0
ARC
  5
17180
330
170F2
100
AcDbEntity
  8
11機器
100
AcDbCircle
 10
964.0
 20
464.9999999999995
 30
0.0
 40
13.15
100
AcDbArc
 50
304.7740920000037
 51
55.22590800000016
  0
LINE
  5
17181
330
170F2
100
AcDbEntity
  8
11機器
100
AcDbLine
 10
971.5000129999999
 20
448.8000070000003
 30
0.0
 11
971.5000129999999
 21
454.1984900000002
 31
0.0
  0
LINE
  5
17182
330
170F2
100
AcDbEntity
  8
11機器
100
AcDbLine
 10
190.0000099999997
 20
149.0029800000002
 30
0.0
 11
204.999996
 21
149.0029800000002
 31
0.0
  0
ARC
  5
17183
330
170F2
100
AcDbEntity
  8
11機器
100
AcDbCircle
 10
205.0
 20
129.002978
 30
0.0
 40
20.0
100
AcDbArc
 50
0.0
 51
90.0
  0
LINE
  5
17184
330
170F2
100
AcDbEntity
  8
11機器
100
AcDbLine
 10
225.0000070000001
 20
129.0029840000002
 30
0.0
 11
225.0000070000001
 21
110.5029770000001
 31
0.0
  0
LINE
  5
17185
330
170F2
100
AcDbEntity
  8
11機器
100
AcDbLine
 10
16.0
 20
110.5029770000001
 30
0.0
 11
16.0
 21
129.0029840000002
 31
0.0
  0
ARC
  5
17186
330
170F2
100
AcDbEntity
  8
11機器
100
AcDbCircle
 10
36.0
 20
129.002978
 30
0.0
 40
20.0
100
AcDbArc
 50
90.0
 51
180.0
  0
LINE
  5
17187
330
170F2
100
AcDbEntity
  8
11機器
100
AcDbLine
 10
35.99999600000001
 20
149.0029800000002
 30
0.0
 11
77.99999200000002
 21
149.0029800000002
 31
0.0
  0
LINE
  5
17188
330
170F2
100
AcDbEntity
  8
11機器
100
AcDbLine
 10
151.9999929999999
 20
107.502978
 30
0.0
 11
151.9999929999999
 21
89.00297799999998
 31
0.0
  0
LINE
  5
17189
330
170F2
100
AcDbEntity
  8
11機器
100
AcDbLine
 10
172.000004
 20
69.00297499999988
 30
0.0
 11
186.9999889999999
 21
69.00297499999988
 31
0.0
  0
ARC
  5
1718A
330
170F2
100
AcDbEntity
  8
11機器
100
AcDbCircle
 10
172.0
 20
89.00297799999998
 30
0.0
 40
20.0
100
AcDbArc
 50
180.0
 51
270.0
  0
LINE
  5
1718B
330
170F2
100
AcDbEntity
  8
11機器
100
AcDbLine
 10
81.00001299999985
 20
69.00297499999988
 30
0.0
 11
123.0000089999999
 21
69.00297499999988
 31
0.0
  0
LINE
  5
1718C
330
170F2
100
AcDbEntity
  8
11機器
100
AcDbLine
 10
142.9999889999999
 20
89.00297799999998
 30
0.0
 11
142.9999889999999
 21
107.502978
 31
0.0
  0
ARC
  5
1718D
330
170F2
100
AcDbEntity
  8
11機器
100
AcDbCircle
 10
123.0
 20
89.00297799999998
 30
0.0
 40
20.0
100
AcDbArc
 50
270.0
 51
0.0
  0
ARC
  5
1718E
330
170F2
100
AcDbEntity
  8
11機器
100
AcDbCircle
 10
-21.0
 20
82.0
 30
0.0
 40
16.5
100
AcDbArc
 50
212.6052510000007
 51
327.3947489999992
  0
ARC
  5
1718F
330
170F2
100
AcDbEntity
  8
11機器
100
AcDbCircle
 10
-21.0
 20
82.0
 30
0.0
 40
16.5
100
AcDbArc
 50
332.605251
 51
84.78409100000079
  0
ARC
  5
17190
330
170F2
100
AcDbEntity
  8
11機器
100
AcDbCircle
 10
-26.0
 20
147.0
 30
0.0
 40
27.5
100
AcDbArc
 50
93.12677599999994
 51
208.4371939999999
  0
ARC
  5
17191
330
170F2
100
AcDbEntity
  8
11機器
100
AcDbCircle
 10
-21.0
 20
227.0
 30
0.0
 40
32.5
100
AcDbArc
 50
211.3223279999993
 51
328.6776719999996
  0
ARC
  5
17192
330
170F2
100
AcDbEntity
  8
11機器
100
AcDbCircle
 10
-21.0
 20
227.0
 30
0.0
 40
32.5
100
AcDbArc
 50
92.64536000000004
 51
208.6776719999997
  0
ARC
  5
17193
330
170F2
100
AcDbEntity
  8
11機器
100
AcDbCircle
 10
-21.0
 20
227.0
 30
0.0
 40
32.5
100
AcDbArc
 50
331.3223280000003
 51
87.35463999999997
  0
ARC
  5
17194
330
170F2
100
AcDbEntity
  8
11機器
100
AcDbCircle
 10
-26.0
 20
147.0
 30
0.0
 40
27.5
100
AcDbArc
 50
211.5628060000004
 51
328.4371939999996
  0
ARC
  5
17195
330
170F2
100
AcDbEntity
  8
11機器
100
AcDbCircle
 10
-26.0
 20
147.0
 30
0.0
 40
27.5
100
AcDbArc
 50
331.562806
 51
86.87322400000008
  0
ARC
  5
17196
330
170F2
100
AcDbEntity
  8
11機器
100
AcDbCircle
 10
-21.0
 20
82.0
 30
0.0
 40
16.5
100
AcDbArc
 50
95.21590900000078
 51
207.394749
  0
LINE
  5
17197
330
170F2
100
AcDbEntity
  8
11機器
100
AcDbLine
 10
16.0
 20
107.502978
 30
0.0
 11
16.0
 21
89.00297799999998
 31
0.0
  0
LINE
  5
17198
330
170F2
100
AcDbEntity
  8
11機器
100
AcDbLine
 10
35.99999600000001
 20
69.00297499999988
 30
0.0
 11
77.99999200000002
 21
69.00297499999988
 31
0.0
  0
ARC
  5
17199
330
170F2
100
AcDbEntity
  8
11機器
100
AcDbCircle
 10
36.0
 20
89.00297799999998
 30
0.0
 40
20.0
100
AcDbArc
 50
180.0
 51
270.0
  0
LINE
  5
1719A
330
170F2
100
AcDbEntity
  8
11機器
100
AcDbLine
 10
186.9999889999999
 20
149.0029800000002
 30
0.0
 11
172.000004
 21
149.0029800000002
 31
0.0
  0
LINE
  5
1719B
330
170F2
100
AcDbEntity
  8
11機器
100
AcDbLine
 10
151.9999929999999
 20
129.0029840000002
 30
0.0
 11
151.9999929999999
 21
110.5029770000001
 31
0.0
  0
ARC
  5
1719C
330
170F2
100
AcDbEntity
  8
11機器
100
AcDbCircle
 10
172.0
 20
129.002978
 30
0.0
 40
20.0
100
AcDbArc
 50
90.0
 51
180.0
  0
LINE
  5
1719D
330
170F2
100
AcDbEntity
  8
11機器
100
AcDbLine
 10
211.8578680000001
 20
74.86084500000015
 30
0.0
 11
219.1421220000002
 21
82.14511300000004
 31
0.0
  0
ARC
  5
1719E
330
170F2
100
AcDbEntity
  8
11機器
100
AcDbCircle
 10
197.7157280000001
 20
89.00297799999998
 30
0.0
 40
20.0
100
AcDbArc
 50
270.0
 51
314.9999999999991
  0
LINE
  5
1719F
330
170F2
100
AcDbEntity
  8
11機器
100
AcDbLine
 10
190.0000099999997
 20
69.00297499999988
 30
0.0
 11
197.7157419999999
 21
69.00297499999988
 31
0.0
  0
LINE
  5
171A0
330
170F2
100
AcDbEntity
  8
11機器
100
AcDbLine
 10
225.0000070000001
 20
96.2872470000002
 30
0.0
 11
225.0000070000001
 21
107.502978
 31
0.0
  0
ARC
  5
171A1
330
170F2
100
AcDbEntity
  8
11機器
100
AcDbCircle
 10
205.0
 20
96.28724899999997
 30
0.0
 40
20.0
100
AcDbArc
 50
315.0
 51
0.0
  0
LINE
  5
171A2
330
170F2
100
AcDbEntity
  8
11機器
100
AcDbLine
 10
81.00001299999985
 20
149.0029800000002
 30
0.0
 11
123.0000089999999
 21
149.0029800000002
 31
0.0
  0
ARC
  5
171A3
330
170F2
100
AcDbEntity
  8
11機器
100
AcDbCircle
 10
123.0
 20
129.002978
 30
0.0
 40
20.0
100
AcDbArc
 50
0.0
 51
90.0
  0
LINE
  5
171A4
330
170F2
100
AcDbEntity
  8
11機器
100
AcDbLine
 10
142.9999889999999
 20
129.0029840000002
 30
0.0
 11
142.9999889999999
 21
110.5029770000001
 31
0.0
  0
CIRCLE
  5
171A5
330
170F2
100
AcDbEntity
  8
11機器
100
AcDbCircle
 10
0.0000129999998535
 20
728.9999999999995
 30
0.0
 40
7.5
  0
CIRCLE
  5
171A6
330
170F2
100
AcDbEntity
  8
11機器
100
AcDbCircle
 10
0.0
 20
0.0
 30
0.0
 40
7.5
  0
CIRCLE
  5
171A7
330
170F2
100
AcDbEntity
  8
11機器
100
AcDbCircle
 10
948.0
 20
0.0
 30
0.0
 40
7.5
  0
CIRCLE
  5
171A8
330
170F2
100
AcDbEntity
  8
11機器
100
AcDbCircle
 10
948.0000129999999
 20
728.9999999999995
 30
0.0
 40
7.5
  0
CIRCLE
  5
171A9
330
170F2
100
AcDbEntity
  8
11機器
100
AcDbCircle
 10
524.0
 20
321.9999999999995
 30
0.0
 40
30.0
  0
TEXT
  5
171AA
330
170F2
100
AcDbEntity
  8
11機器
100
AcDbText
 10
514.2463423783919
 20
306.9999999999995
 30
0.0
 40
30.0
  1
G
 72
     1
 11
524.0
 21
321.9999999999995
 31
0.0
100
AcDbText
 73
     2
  0
DIMENSION
  5
171AB
330
170F2
100
AcDbEntity
  8
11機器
100
AcDbDimension
  2
*D1380
 10
657.1016547909567
 20
-18.00000000000001
 30
0.0
 11
632.1016547909567
 21
151.9999999999998
 31
0.0
 70
    32
 71
     5
 42
339.9999999999995
  3
NEMY-10
100
AcDbAlignedDimension
 13
554.0
 23
321.9999999999995
 33
0.0
 14
554.0
 24
-18.0
 34
0.0
 50
90.0
100
AcDbRotatedDimension
  0
DIMENSION
  5
171B8
330
170F2
100
AcDbEntity
  8
11機器
100
AcDbDimension
  2
*D1381
 10
-131.0
 20
416.7478595360121
 30
0.0
 11
196.5
 21
441.7478595360121
 31
0.0
 70
    32
 71
     5
 42
655.0
  3
NEMY-10
100
AcDbAlignedDimension
 13
524.0
 23
351.9999999999995
 33
0.0
 14
-131.0
 24
351.9999999999995
 34
0.0
100
AcDbRotatedDimension
  0
ENDBLK
  5
171C5
330
170F2
100
AcDbEntity
  8
0
100
AcDbBlockEnd
  0
BLOCK
  5
171AD
330
171AC
100
AcDbEntity
  8
0
100
AcDbBlockBegin
  2
*D1380
 70
     1
 10
0.0
 20
0.0
 30
0.0
  3
*D1380
  1

  0
LINE
  5
171AE
330
171AC
100
AcDbEntity
  8
11機器
 62
     0
370
    -2
100
AcDbLine
 10
569.0
 20
321.9999999999995
 30
0.0
 11
667.1016547909567
 21
321.9999999999995
 31
0.0
  0
LINE
  5
171AF
330
171AC
100
AcDbEntity
  8
11機器
 62
     0
370
    -2
100
AcDbLine
 10
569.0
 20
-18.0
 30
0.0
 11
667.1016547909567
 21
-18.00000000000001
 31
0.0
  0
LINE
  5
171B0
330
171AC
100
AcDbEntity
  8
11機器
 62
     0
370
    -2
100
AcDbLine
 10
657.1016547909567
 20
291.9999999999995
 30
0.0
 11
657.1016547909567
 21
11.99999999999999
 31
0.0
  0
INSERT
  5
171B1
330
171AC
100
AcDbEntity
  8
11機器
 62
     0
370
    -2
100
AcDbBlockReference
  2
_Open
 10
657.1016547909567
 20
321.9999999999995
 30
0.0
 41
30.0
 42
30.0
 43
30.0
 50
90.0
  0
INSERT
  5
171B2
330
171AC
100
AcDbEntity
  8
11機器
 62
     0
370
    -2
100
AcDbBlockReference
  2
_Open
 10
657.1016547909567
 20
-18.00000000000001
 30
0.0
 41
30.0
 42
30.0
 43
30.0
 50
270.0
  0
MTEXT
  5
171B3
330
171AC
100
AcDbEntity
  8
11機器
 62
     0
100
AcDbMText
 10
632.1016547909567
 20
151.9999999999998
 30
0.0
 40
30.0
 41
0.0
 71
     5
 72
     1
  1
340
 11
0.0
 21
1.0
 31
0.0
 73
     1
 44
1.0
  0
POINT
  5
171B4
330
171AC
100
AcDbEntity
  8
Defpoints
 62
     0
100
AcDbPoint
 10
554.0
 20
321.9999999999995
 30
0.0
  0
POINT
  5
171B5
330
171AC
100
AcDbEntity
  8
Defpoints
 62
     0
100
AcDbPoint
 10
554.0
 20
-18.0
 30
0.0
  0
POINT
  5
171B6
330
171AC
100
AcDbEntity
  8
Defpoints
 62
     0
100
AcDbPoint
 10
657.1016547909567
 20
-18.00000000000001
 30
0.0
  0
ENDBLK
  5
171B7
330
171AC
100
AcDbEntity
  8
0
100
AcDbBlockEnd
  0
BLOCK
  5
171BA
330
171B9
100
AcDbEntity
  8
0
100
AcDbBlockBegin
  2
*D1381
 70
     1
 10
0.0
 20
0.0
 30
0.0
  3
*D1381
  1

  0
LINE
  5
171BB
330
171B9
100
AcDbEntity
  8
11機器
 62
     0
370
    -2
100
AcDbLine
 10
524.0
 20
366.9999999999995
 30
0.0
 11
524.0
 21
426.7478595360121
 31
0.0
  0
LINE
  5
171BC
330
171B9
100
AcDbEntity
  8
11機器
 62
     0
370
    -2
100
AcDbLine
 10
-131.0
 20
366.9999999999995
 30
0.0
 11
-131.0
 21
426.7478595360121
 31
0.0
  0
LINE
  5
171BD
330
171B9
100
AcDbEntity
  8
11機器
 62
     0
370
    -2
100
AcDbLine
 10
494.0
 20
416.7478595360121
 30
0.0
 11
-101.0
 21
416.7478595360121
 31
0.0
  0
INSERT
  5
171BE
330
171B9
100
AcDbEntity
  8
11機器
 62
     0
370
    -2
100
AcDbBlockReference
  2
_Open
 10
524.0
 20
416.7478595360121
 30
0.0
 41
30.0
 42
30.0
 43
30.0
  0
INSERT
  5
171BF
330
171B9
100
AcDbEntity
  8
11機器
 62
     0
370
    -2
100
AcDbBlockReference
  2
_Open
 10
-131.0
 20
416.7478595360121
 30
0.0
 41
30.0
 42
30.0
 43
30.0
 50
180.0
  0
MTEXT
  5
171C0
330
171B9
100
AcDbEntity
  8
11機器
 62
     0
100
AcDbMText
 10
196.5
 20
441.7478595360121
 30
0.0
 40
30.0
 41
0.0
 71
     5
 72
     1
  1
655
 73
     1
 44
1.0
  0
POINT
  5
171C1
330
171B9
100
AcDbEntity
  8
Defpoints
 62
     0
100
AcDbPoint
 10
524.0
 20
351.9999999999995
 30
0.0
  0
POINT
  5
171C2
330
171B9
100
AcDbEntity
  8
Defpoints
 62
     0
100
AcDbPoint
 10
-131.0
 20
351.9999999999995
 30
0.0
  0
POINT
  5
171C3
330
171B9
100
AcDbEntity
  8
Defpoints
 62
     0
100
AcDbPoint
 10
-131.0
 20
416.7478595360121
 30
0.0
  0
ENDBLK
  5
171C4
330
171B9
100
AcDbEntity
  8
0
100
AcDbBlockEnd
  0
ENDSEC
  0
SECTION
  2
ENTITIES
  0
LWPOLYLINE
  5
1258E
330
1F
100
AcDbEntity
  8
0
100
AcDbPolyline
 90
        5
 70
     1
 43
0.0
 10
942.5
 20
2409.999999999998
 10
942.5
 20
2454.999999999998
 42
-0.414213562373095
 10
957.5
 20
2469.999999999998
 10
1002.500000000001
 20
2469.999999999998
 10
1002.500000000001
 20
2409.999999999998
  0
LWPOLYLINE
  5
12599
330
1F
100
AcDbEntity
  8
0
100
AcDbPolyline
 90
        5
 70
     1
 43
0.0
 10
942.5
 20
1764.999999999998
 10
942.5
 20
1719.999999999998
 42
0.414213562373095
 10
957.5
 20
1704.999999999998
 10
1002.500000000001
 20
1704.999999999998
 10
1002.500000000001
 20
1764.999999999998
  0
LWPOLYLINE
  5
1259B
330
1F
100
AcDbEntity
  8
0
100
AcDbPolyline
 90
        5
 70
     1
 43
0.0
 10
2152.500000000001
 20
1765.0
 10
2152.500000000001
 20
1720.0
 42
-0.414213562373095
 10
2137.500000000001
 20
1705.0
 10
2092.500000000001
 20
1705.0
 10
2092.500000000001
 20
1765.0
  0
LWPOLYLINE
  5
1259C
330
1F
100
AcDbEntity
  8
0
100
AcDbPolyline
 90
        5
 70
     1
 43
0.0
 10
2152.500000000001
 20
2410.0
 10
2152.500000000001
 20
2455.0
 42
0.414213562373095
 10
2137.500000000001
 20
2470.0
 10
2092.500000000001
 20
2470.0
 10
2092.500000000001
 20
2410.0
  0
LWPOLYLINE
  5
1259D
330
1F
100
AcDbEntity
  8
0
100
AcDbPolyline
 90
        4
 70
     1
 43
0.0
 10
1002.500000000001
 20
2409.999999999998
 10
1002.500000000001
 20
2469.999999999998
 10
2092.5
 20
2470.0
 10
2092.5
 20
2410.0
  0
LWPOLYLINE
  5
1259E
330
1F
100
AcDbEntity
  8
0
100
AcDbPolyline
 90
        4
 70
     1
 43
0.0
 10
2092.500000000001
 20
1765.0
 10
2092.500000000001
 20
2410.0
 10
2152.500000000001
 20
2410.0
 10
2152.500000000001
 20
1765.0
  0
LWPOLYLINE
  5
1259F
330
1F
100
AcDbEntity
  8
0
100
AcDbPolyline
 90
        4
 70
     1
 43
0.0
 10
942.5
 20
1764.999999999998
 10
942.5
 20
2409.999999999998
 10
1002.500000000001
 20
2409.999999999998
 10
1002.500000000001
 20
1764.999999999998
  0
LWPOLYLINE
  5
125A0
330
1F
100
AcDbEntity
  8
0
100
AcDbPolyline
 90
        4
 70
     1
 43
0.0
 10
1002.500000000001
 20
1704.999999999998
 10
1002.500000000001
 20
1764.999999999998
 10
2092.5
 20
1765.0
 10
2092.5
 20
1705.0
  0
LWPOLYLINE
  5
125A9
102
{ACAD_REACTORS
330
125AC
102
}
330
1F
100
AcDbEntity
  8
0
100
AcDbPolyline
 90
        4
 70
     1
 43
0.0
 10
942.5
 20
1282.999999999999
 10
942.5
 20
1342.999999999999
 10
1002.500000000001
 20
1342.999999999999
 10
1002.500000000001
 20
1282.999999999999
  0
LWPOLYLINE
  5
125AA
102
{ACAD_REACTORS
330
125AC
102
}
330
1F
100
AcDbEntity
  8
0
100
AcDbPolyline
 90
        4
 70
     1
 43
0.0
 10
942.5
 20
1199.999999999999
 10
942.5
 20
1234.999999999999
 10
1002.500000000001
 20
1234.999999999999
 10
1002.500000000001
 20
1199.999999999999
  0
LINE
  5
125AB
102
{ACAD_REACTORS
330
125AC
102
}
330
1F
100
AcDbEntity
  8
0
100
AcDbLine
 10
967.5000000000018
 20
1302.499999999999
 30
0.0
 11
967.5
 21
1215.499999999999
 31
0.0
  0
LWPOLYLINE
  5
125AD
102
{ACAD_REACTORS
330
125B0
102
}
330
1F
100
AcDbEntity
  8
0
100
AcDbPolyline
 90
        4
 70
     1
 43
0.0
 10
2152.500000000001
 20
1283.0
 10
2152.500000000001
 20
1343.0
 10
2092.500000000001
 20
1343.0
 10
2092.500000000001
 20
1283.0
  0
LWPOLYLINE
  5
125AE
102
{ACAD_REACTORS
330
125B0
102
}
330
1F
100
AcDbEntity
  8
0
100
AcDbPolyline
 90
        4
 70
     1
 43
0.0
 10
2152.500000000001
 20
1200.0
 10
2152.500000000001
 20
1235.0
 10
2092.500000000001
 20
1235.0
 10
2092.500000000001
 20
1200.0
  0
LINE
  5
125AF
102
{ACAD_REACTORS
330
125B0
102
}
330
1F
100
AcDbEntity
  8
0
100
AcDbLine
 10
2127.499999999999
 20
1302.5
 30
0.0
 11
2127.500000000001
 21
1215.5
 31
0.0
  0
LWPOLYLINE
  5
125C6
102
{ACAD_REACTORS
330
125CA
102
}
330
1F
100
AcDbEntity
  8
0
100
AcDbPolyline
 90
        4
 70
     1
 43
0.0
 10
2152.500000000001
 20
1283.0
 10
2152.500000000001
 20
1343.0
 10
2092.500000000001
 20
1343.0
 10
2092.500000000001
 20
1283.0
  0
LWPOLYLINE
  5
125C7
102
{ACAD_REACTORS
330
125CA
102
}
330
1F
100
AcDbEntity
  8
0
100
AcDbPolyline
 90
        4
 70
     1
 43
0.0
 10
2152.500000000001
 20
1200.0
 10
2152.500000000001
 20
1235.0
 10
2092.500000000001
 20
1235.0
 10
2092.500000000001
 20
1200.0
  0
LINE
  5
125C8
102
{ACAD_REACTORS
330
125CA
102
}
330
1F
100
AcDbEntity
  8
0
100
AcDbLine
 10
2127.499999999999
 20
1302.5
 30
0.0
 11
2127.500000000001
 21
1215.5
 31
0.0
  0
LWPOLYLINE
  5
125D4
330
1F
100
AcDbEntity
  8
0
100
AcDbPolyline
 90
        4
 70
     1
 43
0.0
 10
1002.500000000001
 20
1312.999999999999
 10
1002.500000000001
 20
1342.999999999999
 10
2092.500000000001
 20
1343.0
 10
2092.500000000001
 20
1313.0
  0
LWPOLYLINE
  5
125D5
330
1F
100
AcDbEntity
  8
0
100
AcDbPolyline
 90
        4
 70
     1
 43
0.0
 10
2092.500000000001
 20
1200.0
 10
2092.500000000001
 20
1230.0
 10
1002.500000000001
 20
1229.999999999999
 10
1002.500000000001
 20
1199.999999999999
  0
LWPOLYLINE
  5
125D6
102
{ACAD_REACTORS
330
125D9
102
}
330
1F
100
AcDbEntity
  8
0
100
AcDbPolyline
 90
        4
 70
     1
 43
0.0
 10
2574.500000000001
 20
1705.0
 10
2514.500000000001
 20
1705.0
 10
2514.500000000001
 20
1765.0
 10
2574.500000000001
 20
1765.0
  0
LWPOLYLINE
  5
125D7
102
{ACAD_REACTORS
330
125D9
102
}
330
1F
100
AcDbEntity
  8
0
100
AcDbPolyline
 90
        4
 70
     1
 43
0.0
 10
2657.500000000001
 20
1705.0
 10
2622.500000000001
 20
1705.0
 10
2622.500000000001
 20
1765.0
 10
2657.500000000001
 20
1765.0
  0
LINE
  5
125D8
102
{ACAD_REACTORS
330
125D9
102
}
330
1F
100
AcDbEntity
  8
0
100
AcDbLine
 10
2555.000000000001
 20
1730.000000000002
 30
0.0
 11
2642.000000000001
 21
1730.0
 31
0.0
  0
LWPOLYLINE
  5
125DA
102
{ACAD_REACTORS
330
125DD
102
}
330
1F
100
AcDbEntity
  8
0
100
AcDbPolyline
 90
        4
 70
     1
 43
0.0
 10
2574.500000000001
 20
2470.0
 10
2514.500000000001
 20
2470.0
 10
2514.500000000001
 20
2410.0
 10
2574.500000000001
 20
2410.0
  0
LWPOLYLINE
  5
125DB
102
{ACAD_REACTORS
330
125DD
102
}
330
1F
100
AcDbEntity
  8
0
100
AcDbPolyline
 90
        4
 70
     1
 43
0.0
 10
2657.500000000001
 20
2470.0
 10
2622.500000000001
 20
2470.0
 10
2622.500000000001
 20
2410.0
 10
2657.500000000001
 20
2410.0
  0
LINE
  5
125DC
102
{ACAD_REACTORS
330
125DD
102
}
330
1F
100
AcDbEntity
  8
0
100
AcDbLine
 10
2555.000000000001
 20
2444.999999999999
 30
0.0
 11
2642.000000000001
 21
2445.0
 31
0.0
  0
LWPOLYLINE
  5
125DE
330
1F
100
AcDbEntity
  8
0
100
AcDbPolyline
 90
        4
 70
     1
 43
0.0
 10
2514.500000000001
 20
1765.0
 10
2514.500000000001
 20
2410.0
 10
2544.500000000001
 20
2410.0
 10
2544.500000000001
 20
1765.0
  0
LWPOLYLINE
  5
125DF
330
1F
100
AcDbEntity
  8
0
100
AcDbPolyline
 90
        4
 70
     1
 43
0.0
 10
2627.500000000001
 20
2410.0
 10
2627.500000000001
 20
1765.0
 10
2657.5
 20
1765.0
 10
2657.5
 20
2410.0
  0
LINE
  5
125E0
330
1F
100
AcDbEntity
  8
0
100
AcDbLine
 10
2499.500000000001
 20
2452.0
 30
0.0
 11
2559.500000000001
 21
2452.0
 31
0.0
  0
LINE
  5
125E1
330
1F
100
AcDbEntity
  8
0
100
AcDbLine
 10
2612.500000000001
 20
2440.0
 30
0.0
 11
2672.500000000001
 21
2440.0
 31
0.0
  0
LINE
  5
125E2
330
1F
100
AcDbEntity
  8
0
100
AcDbLine
 10
2499.500000000001
 20
1723.0
 30
0.0
 11
2559.500000000001
 21
1723.0
 31
0.0
  0
LINE
  5
125E3
330
1F
100
AcDbEntity
  8
0
100
AcDbLine
 10
2612.500000000001
 20
1735.0
 30
0.0
 11
2672.500000000001
 21
1735.0
 31
0.0
  0
LINE
  5
125E4
330
1F
100
AcDbEntity
  8
0
100
AcDbLine
 10
1042.500000000001
 20
1244.999999999999
 30
0.0
 11
1042.500000000001
 21
1184.999999999999
 31
0.0
  0
LINE
  5
125E5
330
1F
100
AcDbEntity
  8
0
100
AcDbLine
 10
1073.500000000001
 20
1357.999999999999
 30
0.0
 11
1073.500000000001
 21
1297.999999999999
 31
0.0
  0
LINE
  5
125E6
330
1F
100
AcDbEntity
  8
0
100
AcDbLine
 10
2021.500000000001
 20
1358.0
 30
0.0
 11
2021.500000000001
 21
1298.0
 31
0.0
  0
LINE
  5
125E7
330
1F
100
AcDbEntity
  8
0
100
AcDbLine
 10
2052.500000000001
 20
1245.0
 30
0.0
 11
2052.500000000001
 21
1185.0
 31
0.0
  0
CIRCLE
  5
125EE
330
1F
100
AcDbEntity
  8
0
100
AcDbCircle
 10
1073.500000000001
 20
2451.999999999998
 30
0.0
 40
8.0
  0
CIRCLE
  5
125F8
330
1F
100
AcDbEntity
  8
0
100
AcDbCircle
 10
2021.500000000001
 20
2452.0
 30
0.0
 40
8.0
  0
CIRCLE
  5
12602
330
1F
100
AcDbEntity
  8
0
100
AcDbCircle
 10
2021.500000000001
 20
1723.0
 30
0.0
 40
8.0
  0
CIRCLE
  5
1260C
330
1F
100
AcDbEntity
  8
0
100
AcDbCircle
 10
1073.500000000001
 20
1722.999999999997
 30
0.0
 40
8.0
  0
LWPOLYLINE
  5
15DD6
330
1F
100
AcDbEntity
  8
0
100
AcDbPolyline
 90
        4
 70
     1
 43
0.0
 10
1002.500000000001
 20
1767.000000000003
 10
1002.500000000001
 20
1797.000000000003
 10
2092.500000000001
 20
1797.000000000003
 10
2092.500000000001
 20
1767.000000000003
  0
LWPOLYLINE
  5
15DD7
330
1F
100
AcDbEntity
  8
0
100
AcDbPolyline
 90
        4
 70
     1
 43
0.0
 10
1002.500000000001
 20
2407.999999999996
 10
1002.500000000001
 20
2377.999999999996
 10
2092.500000000001
 20
2377.999999999996
 10
2092.500000000001
 20
2407.999999999996
  0
VIEWPORT
  5
9F0D
330
1B
100
AcDbEntity
 67
     1
  8
0
100
AcDbViewport
 10
202.5
 20
128.5
 30
0.0
 40
486.0
 41
308.4
 68
     1
 69
     1
 12
202.5
 22
128.5
 13
0.0
 23
0.0
 14
0.5
 24
0.5
 15
0.0
 25
0.0
 16
0.0
 26
0.0
 36
1.0
 17
0.0
 27
0.0
 37
0.0
 42
50.0
 43
0.0
 44
0.0
 45
308.4
 50
0.0
 51
0.0
 72
   100
 90
   557152
  1

281
     0
 71
     1
 74
     0
110
0.0
120
0.0
130
0.0
111
1.0
121
0.0
131
0.0
112
0.0
122
1.0
132
0.0
 79
     0
146
0.0
  0
VIEWPORT
  5
9F0E
330
1B
100
AcDbEntity
 67
     1
  8
0
100
AcDbViewport
 10
202.5
 20
128.5
 30
0.0
 40
324.0
 41
205.6
 68
     2
 69
     2
 12
-3224.9849078482
 22
3553.815758143106
 13
0.0
 23
0.0
 14
0.5
 24
0.5
 15
0.0
 25
0.0
 16
0.0
 26
0.0
 36
1.0
 17
0.0
 27
0.0
 37
0.0
 42
50.0
 43
0.0
 44
0.0
 45
10712.16027781073
 50
0.0
 51
0.0
 72
   100
 90
   557152
  1

281
     0
 71
     1
 74
     0
110
0.0
120
0.0
130
0.0
111
1.0
121
0.0
131
0.0
112
0.0
122
1.0
132
0.0
 79
     0
146
0.0
  0
ENDSEC
  0
SECTION
  2
OBJECTS
  0
DICTIONARY
  5
C
330
0
100
AcDbDictionary
281
     1
  3
ACAD_DETAILVIEWSTYLE
350
15D1D
  3
ACAD_GROUP
350
D
  3
ACAD_IMAGE_VARS
350
6A88
  3
ACAD_LAYOUT
350
1A
  3
ACAD_MLINESTYLE
350
17
  3
ACAD_PLOTSETTINGS
350
19
  3
ACAD_PLOTSTYLENAME
350
E
  3
ACAD_SCALELIST
350
6A4E
  3
ACAD_SECTIONVIEWSTYLE
350
15D1E
  3
AcadDim
350
15DF3
  3
AcDbVariableDictionary
350
79E
  3
APPDATA
350
6A87
  3
DWGPROPS
350
17257
  0
DICTIONARY
  5
7A6F
330
2
100
AcDbDictionary
280
     1
281
     1
  3
ACAD_LAYERSTATES
360
7A70
  3
ACLYDICTIONARY
360
1258D
  0
DICTIONARY
  5
969E
330
1F
100
AcDbDictionary
280
     1
281
     1
  3
ACAD_SORTENTS
360
969F
  0
DICTIONARY
  5
15D1D
102
{ACAD_REACTORS
330
C
102
}
330
C
100
AcDbDictionary
281
     1
  0
DICTIONARY
  5
D
102
{ACAD_REACTORS
330
C
102
}
330
C
100
AcDbDictionary
281
     1
  3
*A1
350
D317
  3
*A10
350
125DD
  3
*A2
350
D31A
  3
*A3
350
D31D
  3
*A4
350
D320
  3
*A5
350
D323
  3
*A6
350
125AC
  3
*A7
350
125B0
  3
*A8
350
125CA
  3
*A9
350
125D9
  0
RASTERVARIABLES
  5
6A88
102
{ACAD_REACTORS
330
C
102
}
330
C
100
AcDbRasterVariables
 90
        0
 70
     1
 71
     1
 72
     1
  0
DICTIONARY
  5
1A
102
{ACAD_REACTORS
330
C
102
}
330
C
100
AcDbDictionary
281
     1
  3
Layout1
350
1E
  3
Model
350
22
  0
DICTIONARY
  5
17
102
{ACAD_REACTORS
330
C
102
}
330
C
100
AcDbDictionary
281
     1
  3
Standard
350
18
  0
DICTIONARY
  5
19
102
{ACAD_REACTORS
330
C
102
}
330
C
100
AcDbDictionary
281
     1
  0
ACDBDICTIONARYWDFLT
  5
E
102
{ACAD_REACTORS
330
C
102
}
330
C
100
AcDbDictionary
281
     1
  3
Normal
350
F
100
AcDbDictionaryWithDefault
340
F
  0
DICTIONARY
  5
6A4E
102
{ACAD_REACTORS
330
C
102
}
330
C
100
AcDbDictionary
281
     1
  3
A0
350
6A4F
  3
A1
350
6A50
  3
A2
350
6A51
  3
A3
350
6A52
  3
A4
350
6A53
  3
A5
350
6A54
  3
A6
350
6A55
  3
A7
350
6A56
  3
A8
350
6A57
  3
A9
350
6A58
  3
B0
350
6A59
  3
B1
350
6A5A
  3
B2
350
6A5B
  3
B3
350
6A5C
  3
B4
350
6A5D
  3
B5
350
6A5E
  3
B6
350
6A5F
  3
B7
350
6A60
  3
B8
350
6A61
  3
B9
350
6A62
  3
C0
350
6A63
  3
C1
350
6A64
  3
C2
350
6A65
  3
C3
350
6A66
  3
C4
350
6A67
  3
C5
350
6A68
  3
C6
350
6A69
  3
C7
350
6A6A
  3
C8
350
6A6B
  3
C9
350
6A6C
  3
D0
350
6A6D
  3
D1
350
6A6E
  3
D2
350
6A6F
  0
DICTIONARY
  5
15D1E
102
{ACAD_REACTORS
330
C
102
}
330
C
100
AcDbDictionary
281
     1
  0
XRECORD
  5
15DF3
102
{ACAD_REACTORS
330
C
102
}
330
C
100
AcDbXrecord
280
     1
340
0
 72
     0
 71
     0
 70
     0
 69
     0
 68
     1
 67
     3
 66
     0
 65
     0
 64
     0
 63
     3
 62
     1
 61
     0
 60
     0
 40
0.0
  0
DICTIONARY
  5
79E
102
{ACAD_REACTORS
330
C
102
}
330
C
100
AcDbDictionary
281
     1
  3
DIMASSOC
350
79F
  3
SORTENTS
350
264F
  0
DICTIONARY
  5
6A87
102
{ACAD_REACTORS
330
C
102
}
330
C
100
AcDbDictionary
281
     1
  0
XRECORD
  5
17257
102
{ACAD_REACTORS
330
C
102
}
330
C
100
AcDbXrecord
280
     1
  1
DWGPROPS COOKIE
  2

  3

  4

  6

  7

  8
Sales
  9

300
=
301
=
302
=
303
=
304
=
305
=
306
=
307
=
308
=
309
=
 40
0.0
 41
2455859.030048461
 42
2459173.021705151
  1

 90
        0
  0
DICTIONARY
  5
7A70
102
{ACAD_REACTORS
330
7A6F
102
}
330
7A6F
100
AcDbDictionary
281
     1
  0
DICTIONARY
  5
1258D
102
{ACAD_REACTORS
330
7A6F
102
}
330
7A6F
100
AcDbDictionary
281
     1
1001
ACAD
1000
<All
  0
SORTENTSTABLE
  5
969F
102
{ACAD_REACTORS
330
969E
102
}
330
969E
100
AcDbSortentsTable
330
1F
331
0
  5
16B53
331
0
  5
C1F6
331
0
  5
15D27
331
0
  5
14F19
331
0
  5
15D26
331
0
  5
15CCB
331
0
  5
15CCA
331
0
  5
14C9E
331
0
  5
F339
331
0
  5
15CC9
331
0
  5
14C9D
331
0
  5
15CC8
331
0
  5
14C9C
331
0
  5
146D8
331
0
  5
146D6
331
0
  5
15C36
331
0
  5
15C35
331
0
  5
146B4
331
0
  5
146B3
331
0
  5
15C34
331
0
  5
15C33
331
0
  5
146B2
331
0
  5
146B1
331
0
  5
146B0
331
0
  5
146AF
331
0
  5
146AE
331
0
  5
146AD
331
0
  5
146AC
331
0
  5
146AB
331
0
  5
14680
331
0
  5
1467F
331
0
  5
1467E
331
0
  5
1467B
331
0
  5
14679
331
0
  5
14675
331
0
  5
14672
331
0
  5
14671
331
0
  5
14670
331
0
  5
C1F7
331
0
  5
C1F8
331
0
  5
C1F9
331
0
  5
15D2E
331
0
  5
1466C
331
0
  5
1466B
331
0
  5
14669
331
0
  5
C1FA
331
0
  5
C1FB
331
0
  5
14667
331
0
  5
14666
331
0
  5
14664
331
0
  5
C1FC
331
0
  5
C1FD
331
0
  5
1465D
331
0
  5
1465C
331
0
  5
1464A
331
0
  5
C1FE
331
0
  5
C1FF
331
0
  5
14648
331
0
  5
14647
331
0
  5
14635
331
0
  5
C202
331
0
  5
C203
331
0
  5
14633
331
0
  5
14632
331
0
  5
14630
331
0
  5
C204
331
0
  5
C205
331
0
  5
1462F
331
0
  5
1462E
331
0
  5
1462D
331
0
  5
1462C
331
0
  5
1462B
331
0
  5
1462A
331
0
  5
14629
331
0
  5
14628
331
0
  5
14627
331
0
  5
14626
331
0
  5
14625
331
0
  5
14624
331
0
  5
14623
331
0
  5
145A4
331
0
  5
145A3
331
0
  5
145A2
331
0
  5
145A1
331
0
  5
145A0
331
0
  5
1459F
331
0
  5
1459E
331
0
  5
1459D
331
0
  5
C206
331
0
  5
1459C
331
0
  5
1459B
331
0
  5
14598
331
0
  5
14597
331
0
  5
14596
331
0
  5
14595
331
0
  5
C207
331
0
  5
C208
331
0
  5
C209
331
0
  5
C20D
331
0
  5
C20F
331
0
  5
C210
331
0
  5
C211
331
0
  5
C212
331
0
  5
C213
331
0
  5
C214
331
0
  5
C215
331
0
  5
C21A
331
0
  5
C21B
331
0
  5
C21C
331
0
  5
C21D
331
0
  5
C21E
331
0
  5
14594
331
0
  5
14593
331
0
  5
1457C
331
0
  5
1457B
331
0
  5
1457A
331
0
  5
14579
331
0
  5
14578
331
0
  5
14577
331
0
  5
C21F
331
0
  5
C220
331
0
  5
C225
331
0
  5
C226
331
0
  5
C227
331
0
  5
C228
331
0
  5
C229
331
0
  5
C22A
331
0
  5
C22B
331
0
  5
C230
331
0
  5
F756
331
0
  5
F757
331
0
  5
14576
331
0
  5
14575
331
0
  5
F759
331
0
  5
F75A
331
0
  5
F75C
331
0
  5
F75D
331
0
  5
F75F
331
0
  5
F760
331
0
  5
F761
331
0
  5
F762
331
0
  5
F763
331
0
  5
F764
331
0
  5
F768
331
0
  5
F769
331
0
  5
F7AA
331
0
  5
F7AB
331
0
  5
F7EC
331
0
  5
F7ED
331
0
  5
F7EE
331
0
  5
F7EF
331
0
  5
F7F0
331
0
  5
F7F8
331
0
  5
F7F9
331
0
  5
F7FF
331
0
  5
F801
331
0
  5
F803
331
0
  5
F805
331
0
  5
F808
331
0
  5
F809
331
0
  5
F80A
331
0
  5
F80B
331
0
  5
F80D
331
0
  5
F810
331
0
  5
F839
331
0
  5
F83A
331
0
  5
C231
331
0
  5
C232
331
0
  5
F83E
331
0
  5
F83F
331
0
  5
F840
331
0
  5
F841
331
0
  5
F842
331
0
  5
F843
331
0
  5
F844
331
0
  5
F845
331
0
  5
F846
331
0
  5
F847
331
0
  5
F849
331
0
  5
F84A
331
0
  5
F84B
331
0
  5
10F19
331
0
  5
10F47
331
0
  5
10F48
331
0
  5
10F49
331
0
  5
14573
331
0
  5
14571
331
0
  5
14560
331
0
  5
1455F
331
0
  5
1455E
331
0
  5
1455C
331
0
  5
15C32
331
0
  5
1455B
331
0
  5
1455A
331
0
  5
C233
331
0
  5
C234
331
0
  5
15D2D
331
0
  5
14559
331
0
  5
14557
331
0
  5
14556
331
0
  5
14555
331
0
  5
14530
331
0
  5
1452F
331
0
  5
1452E
331
0
  5
14526
331
0
  5
14525
331
0
  5
14524
331
0
  5
14522
331
0
  5
14521
331
0
  5
14520
331
0
  5
13318
331
0
  5
13319
331
0
  5
1331A
331
0
  5
1331B
331
0
  5
1331C
331
0
  5
1331D
331
0
  5
1331E
331
0
  5
1332A
331
0
  5
13338
331
0
  5
13339
331
0
  5
1333A
331
0
  5
1451E
331
0
  5
1451D
331
0
  5
1451B
331
0
  5
C235
331
0
  5
C236
331
0
  5
C23B
331
0
  5
C23C
331
0
  5
C23D
331
0
  5
C23E
331
0
  5
C23F
331
0
  5
C240
331
0
  5
C241
331
0
  5
C242
331
0
  5
C247
331
0
  5
C248
331
0
  5
C24C
331
0
  5
C24D
331
0
  5
C24E
331
0
  5
C250
331
0
  5
C253
331
0
  5
C255
331
0
  5
C258
331
0
  5
C259
331
0
  5
C25A
331
0
  5
C25B
331
0
  5
C25C
331
0
  5
C25D
331
0
  5
C25E
331
0
  5
C25F
331
0
  5
C260
331
0
  5
C279
331
0
  5
C27A
331
0
  5
C27B
331
0
  5
C27C
331
0
  5
C27D
331
0
  5
C27E
331
0
  5
C27F
331
0
  5
C280
331
0
  5
C281
331
0
  5
C282
331
0
  5
C2A7
331
0
  5
144EC
331
0
  5
C2A9
331
0
  5
C2AA
331
0
  5
144E9
331
0
  5
144E7
331
0
  5
144E6
331
0
  5
C2AB
331
0
  5
143B3
331
0
  5
C2B5
331
0
  5
143B2
331
0
  5
143B1
331
0
  5
C2B6
331
0
  5
C2B7
331
0
  5
143B0
331
0
  5
C2B8
331
0
  5
143AF
331
0
  5
C2C1
331
0
  5
143AE
331
0
  5
C2C2
331
0
  5
15C31
331
0
  5
10F4A
331
0
  5
10F4B
331
0
  5
10F4C
331
0
  5
10F4D
331
0
  5
10F4F
331
0
  5
10F50
331
0
  5
10F51
331
0
  5
10F52
331
0
  5
10FA5
331
0
  5
10FA6
331
0
  5
10FA7
331
0
  5
10FA8
331
0
  5
10FAB
331
0
  5
10FAC
331
0
  5
10FAD
331
0
  5
10FAE
331
0
  5
10FB6
331
0
  5
10FB7
331
0
  5
110C2
331
0
  5
110D0
331
0
  5
110DD
331
0
  5
F74E
331
0
  5
F74F
331
0
  5
110DE
331
0
  5
110EB
331
0
  5
110EC
331
0
  5
110ED
331
0
  5
11660
331
0
  5
11661
331
0
  5
11662
331
0
  5
1166C
331
0
  5
143AD
331
0
  5
143AC
331
0
  5
1166D
331
0
  5
11670
331
0
  5
12386
331
0
  5
1238B
331
0
  5
1238C
331
0
  5
12394
331
0
  5
15C30
331
0
  5
143AA
331
0
  5
143A9
331
0
  5
C2C3
331
0
  5
142C4
331
0
  5
142A9
331
0
  5
12395
331
0
  5
12397
331
0
  5
1239B
331
0
  5
123AC
331
0
  5
123D6
331
0
  5
123E3
331
0
  5
123FD
331
0
  5
12417
331
0
  5
12427
331
0
  5
12450
331
0
  5
12451
331
0
  5
12453
331
0
  5
12454
331
0
  5
C2C9
331
0
  5
C2C4
331
0
  5
1429B
331
0
  5
C2CB
331
0
  5
C2C5
331
0
  5
C2C6
331
0
  5
12455
331
0
  5
12456
331
0
  5
F754
331
0
  5
1245C
331
0
  5
1245D
331
0
  5
12480
331
0
  5
F750
331
0
  5
12481
331
0
  5
12482
331
0
  5
12483
331
0
  5
12484
331
0
  5
12485
331
0
  5
12486
331
0
  5
12487
331
0
  5
1249E
331
0
  5
124A8
331
0
  5
124AD
331
0
  5
C2CA
331
0
  5
C2C7
331
0
  5
14290
331
0
  5
1428F
331
0
  5
1428E
331
0
  5
14255
331
0
  5
14254
331
0
  5
14253
331
0
  5
14252
331
0
  5
14251
331
0
  5
14250
331
0
  5
1424F
331
0
  5
1424E
331
0
  5
C2C8
331
0
  5
1424D
331
0
  5
1424C
331
0
  5
1424B
331
0
  5
1424A
331
0
  5
14249
331
0
  5
14248
331
0
  5
14247
331
0
  5
14246
331
0
  5
14245
331
1258E
  5
1333B
331
12599
  5
1333D
331
1259B
  5
1333E
331
1259C
  5
13344
331
1259D
  5
1334B
331
1259E
  5
1334C
331
1259F
  5
13317
331
125A0
  5
1334D
331
125A9
  5
1334E
331
125AA
  5
13350
331
125AB
  5
13366
331
125AD
  5
13368
331
125AE
  5
13369
331
125AF
  5
13393
331
125C6
  5
13394
331
125C7
  5
13395
331
125C8
  5
13396
331
125D4
  5
13398
331
125D5
  5
13399
331
125D6
  5
1339A
331
125D7
  5
1339B
331
125D8
  5
1339C
331
125DA
  5
1339D
331
125DB
  5
1343A
331
125DC
  5
1343B
331
125DE
  5
1343C
331
125DF
  5
1343D
331
125E0
  5
1343E
331
125E1
  5
1343F
331
125E2
  5
13455
331
125E3
  5
13456
331
125E4
  5
1345B
331
125E5
  5
13519
331
125E6
  5
1351E
331
125E7
  5
13523
331
0
  5
124CC
331
125EE
  5
13FCF
331
0
  5
124CD
331
125F8
  5
13FD0
331
0
  5
124CE
331
12602
  5
13FD1
331
0
  5
124CF
331
1260C
  5
13FD2
331
0
  5
12571
331
0
  5
12575
331
0
  5
1257A
331
0
  5
12580
331
0
  5
C2CC
331
0
  5
12586
331
0
  5
12587
331
0
  5
12588
331
0
  5
1258E
331
0
  5
13298
331
0
  5
1329B
331
0
  5
13313
331
0
  5
13316
331
0
  5
C2CD
331
0
  5
14244
331
0
  5
14243
331
0
  5
14242
331
0
  5
14241
331
0
  5
C2CE
331
0
  5
1402C
331
0
  5
C2CF
331
0
  5
1402B
331
0
  5
1402A
331
0
  5
C2D0
331
0
  5
C2D1
331
0
  5
14029
331
0
  5
14028
331
0
  5
C2D7
331
0
  5
C2D9
331
0
  5
15C2C
331
0
  5
15A84
331
0
  5
14025
331
0
  5
14024
331
0
  5
C2DA
331
0
  5
CB2C
331
0
  5
CB2B
331
0
  5
14023
331
0
  5
14022
331
0
  5
14021
331
0
  5
C2DF
331
0
  5
14020
331
0
  5
15A72
331
0
  5
C2E0
331
0
  5
13FE6
331
0
  5
15A71
331
0
  5
13FE5
331
0
  5
15A35
331
0
  5
13FE4
331
0
  5
15A34
331
0
  5
13FD3
331
0
  5
15A33
331
0
  5
C2E1
331
0
  5
C2E2
331
0
  5
C2E3
331
0
  5
C2E4
331
0
  5
C2E5
331
0
  5
C2E6
331
0
  5
C2E7
331
0
  5
C2EE
331
0
  5
C2EF
331
0
  5
C2F1
331
0
  5
C2F2
331
0
  5
C2F3
331
0
  5
C2F5
331
0
  5
C2F6
331
0
  5
C2F7
331
0
  5
14F1A
331
0
  5
15A1B
331
0
  5
C2F9
331
0
  5
15A1C
331
0
  5
C2FB
331
0
  5
C302
331
0
  5
C326
331
0
  5
C329
331
0
  5
C32D
331
0
  5
C32E
331
0
  5
C378
331
0
  5
15A31
331
0
  5
15A32
331
0
  5
C37B
331
0
  5
C37C
331
0
  5
C37E
331
0
  5
C382
331
0
  5
C383
331
0
  5
C394
331
0
  5
C395
331
0
  5
C3AD
331
0
  5
C3AE
331
0
  5
C3B1
331
0
  5
C723
331
0
  5
C724
331
0
  5
C72F
331
0
  5
C730
331
0
  5
C7DB
331
0
  5
C80A
331
0
  5
C80B
331
0
  5
CA7C
331
0
  5
CA7D
331
0
  5
CA8A
331
0
  5
CA8D
331
0
  5
CA92
331
0
  5
CA93
331
0
  5
CA98
331
0
  5
CA9A
331
0
  5
CB19
331
0
  5
CB21
331
0
  5
15D2F
331
0
  5
15D30
331
0
  5
15D31
331
0
  5
15D5D
331
0
  5
D2DD
331
0
  5
D2DE
331
0
  5
D2E4
331
0
  5
D2EC
331
0
  5
15D5E
331
0
  5
15D7A
331
0
  5
15D89
331
0
  5
15D98
331
0
  5
D2F1
331
0
  5
15DA5
331
0
  5
D316
331
0
  5
D318
331
0
  5
D319
331
0
  5
D859
331
0
  5
D85A
331
0
  5
F07D
331
0
  5
C1F5
331
0
  5
15DD1
331
0
  5
15DD2
331
0
  5
15DD4
331
0
  5
15DD5
331
0
  5
15DD6
331
0
  5
15DD7
331
0
  5
15DD8
331
0
  5
15DE5
331
0
  5
15DF2
331
0
  5
15DF4
331
15DD6
  5
15DF5
331
15DD7
  5
15E02
331
0
  5
15E04
331
0
  5
15E05
331
0
  5
15F48
331
0
  5
15F49
331
0
  5
F07E
331
0
  5
16014
331
0
  5
1601F
331
0
  5
F338
331
0
  5
16021
331
0
  5
16022
331
0
  5
16023
331
0
  5
16024
331
0
  5
16025
331
0
  5
16026
331
0
  5
16027
331
0
  5
16028
331
0
  5
1602A
331
0
  5
1602D
331
0
  5
16032
331
0
  5
16039
331
0
  5
16045
331
0
  5
16048
331
0
  5
1604B
331
0
  5
1604C
331
0
  5
1604D
331
0
  5
1604E
331
0
  5
16050
331
0
  5
16052
331
0
  5
16053
331
0
  5
16054
331
0
  5
16055
331
0
  5
16056
331
0
  5
1605C
331
0
  5
1605D
331
0
  5
1605E
331
0
  5
16068
331
0
  5
16069
331
0
  5
1606A
331
0
  5
160D9
331
0
  5
160DA
331
0
  5
160E1
331
0
  5
160E2
331
0
  5
1634E
331
0
  5
1634F
331
0
  5
165A1
331
0
  5
165A2
331
0
  5
C1F3
331
0
  5
C1F4
331
0
  5
C1D4
331
0
  5
C1D5
  0
GROUP
  5
D317
102
{ACAD_REACTORS
330
D
102
}
330
D
100
AcDbGroup
300

 70
     1
 71
     1
  0
GROUP
  5
125DD
102
{ACAD_REACTORS
330
D
102
}
330
D
100
AcDbGroup
300

 70
     1
 71
     1
340
125DA
340
125DB
340
125DC
  0
GROUP
  5
D31A
102
{ACAD_REACTORS
330
D
102
}
330
D
100
AcDbGroup
300

 70
     1
 71
     1
  0
GROUP
  5
D31D
102
{ACAD_REACTORS
330
D
102
}
330
D
100
AcDbGroup
300

 70
     1
 71
     1
  0
GROUP
  5
D320
102
{ACAD_REACTORS
330
D
102
}
330
D
100
AcDbGroup
300

 70
     1
 71
     1
  0
GROUP
  5
D323
102
{ACAD_REACTORS
330
D
102
}
330
D
100
AcDbGroup
300

 70
     1
 71
     1
  0
GROUP
  5
125AC
102
{ACAD_REACTORS
330
D
102
}
330
D
100
AcDbGroup
300

 70
     1
 71
     1
340
125A9
340
125AA
340
125AB
  0
GROUP
  5
125B0
102
{ACAD_REACTORS
330
D
102
}
330
D
100
AcDbGroup
300

 70
     1
 71
     1
340
125AD
340
125AE
340
125AF
  0
GROUP
  5
125CA
102
{ACAD_REACTORS
330
D
102
}
330
D
100
AcDbGroup
300

 70
     1
 71
     1
340
125C6
340
125C7
340
125C8
  0
GROUP
  5
125D9
102
{ACAD_REACTORS
330
D
102
}
330
D
100
AcDbGroup
300

 70
     1
 71
     1
340
125D6
340
125D7
340
125D8
  0
LAYOUT
  5
1E
102
{ACAD_REACTORS
330
1A
102
}
330
1A
100
AcDbPlotSettings
  1

  2
none_device
  4
ISO_A3_(420.00_x_297.00_MM)
  6

 40
7.5
 41
20.0
 42
7.5
 43
20.0
 44
420.0
 45
297.0
 46
0.0
 47
0.0
 48
0.0
 49
0.0
140
0.0
141
0.0
142
1.0
143
1.0
 70
   688
 72
     1
 73
     0
 74
     5
  7

 75
    16
147
1.0
148
0.0
149
0.0
100
AcDbLayout
  1
Layout1
 70
     1
 71
     1
 10
0.0
 20
0.0
 11
412.5
 21
277.0
 12
0.0
 22
0.0
 32
0.0
 14
1.000000000000000E+20
 24
1.000000000000000E+20
 34
1.000000000000000E+20
 15
-1.000000000000000E+20
 25
-1.000000000000000E+20
 35
-1.000000000000000E+20
146
0.0
 13
0.0
 23
0.0
 33
0.0
 16
1.0
 26
0.0
 36
0.0
 17
0.0
 27
1.0
 37
0.0
 76
     0
330
1B
331
9F0D
  0
LAYOUT
  5
22
102
{ACAD_REACTORS
330
1A
102
}
330
1A
100
AcDbPlotSettings
  1

  2
none_device
  4
A3
  6

 40
3.174999952316284
 41
3.174999952316284
 42
3.17498779296875
 43
3.17498779296875
 44
297.0318298339844
 45
420.1583251953125
 46
-3.16
 47
-3.1
 48
-90.0
 49
-90.0
140
329.9999999999998
141
207.0
142
1.0
143
1.0
 70
 11940
 72
     1
 73
     1
 74
     4
  7
monochrome.ctb
 75
     0
147
1.0
148
90.0
149
90.0
100
AcDbLayout
  1
Model
 70
     1
 71
     0
 10
0.0
 20
0.0
 11
4200.0
 21
2970.0
 12
0.0
 22
0.0
 32
0.0
 14
942.5
 24
1184.999999999999
 34
0.0
 15
2672.500000000001
 25
2470.0
 35
0.0
146
0.0
 13
0.0
 23
0.0
 33
0.0
 16
1.0
 26
0.0
 36
0.0
 17
0.0
 27
1.0
 37
0.0
 76
     0
330
1F
331
7A57
  0
MLINESTYLE
  5
18
102
{ACAD_REACTORS
330
17
102
}
330
17
100
AcDbMlineStyle
  2
STANDARD
 70
     0
  3

 62
   256
 51
90.0
 52
90.0
 71
     2
 49
0.5
 62
   256
  6
BYLAYER
 49
-0.5
 62
   256
  6
BYLAYER
  0
ACDBPLACEHOLDER
  5
F
102
{ACAD_REACTORS
330
E
102
}
330
E
  0
SCALE
  5
6A4F
102
{ACAD_REACTORS
330
6A4E
102
}
330
6A4E
100
AcDbScale
 70
     0
300
1:1
140
1.0
141
1.0
290
     1
  0
SCALE
  5
6A50
102
{ACAD_REACTORS
330
6A4E
102
}
330
6A4E
100
AcDbScale
 70
     0
300
1:2
140
1.0
141
2.0
290
     0
  0
SCALE
  5
6A51
102
{ACAD_REACTORS
330
6A4E
102
}
330
6A4E
100
AcDbScale
 70
     0
300
1:4
140
1.0
141
4.0
290
     0
  0
SCALE
  5
6A52
102
{ACAD_REACTORS
330
6A4E
102
}
330
6A4E
100
AcDbScale
 70
     0
300
1:5
140
1.0
141
5.0
290
     0
  0
SCALE
  5
6A53
102
{ACAD_REACTORS
330
6A4E
102
}
330
6A4E
100
AcDbScale
 70
     0
300
1:8
140
1.0
141
8.0
290
     0
  0
SCALE
  5
6A54
102
{ACAD_REACTORS
330
6A4E
102
}
330
6A4E
100
AcDbScale
 70
     0
300
1:10
140
1.0
141
10.0
290
     0
  0
SCALE
  5
6A55
102
{ACAD_REACTORS
330
6A4E
102
}
330
6A4E
100
AcDbScale
 70
     0
300
1:16
140
1.0
141
16.0
290
     0
  0
SCALE
  5
6A56
102
{ACAD_REACTORS
330
6A4E
102
}
330
6A4E
100
AcDbScale
 70
     0
300
1:20
140
1.0
141
20.0
290
     0
  0
SCALE
  5
6A57
102
{ACAD_REACTORS
330
6A4E
102
}
330
6A4E
100
AcDbScale
 70
     0
300
1:30
140
1.0
141
30.0
290
     0
  0
SCALE
  5
6A58
102
{ACAD_REACTORS
330
6A4E
102
}
330
6A4E
100
AcDbScale
 70
     0
300
1:40
140
1.0
141
40.0
290
     0
  0
SCALE
  5
6A59
102
{ACAD_REACTORS
330
6A4E
102
}
330
6A4E
100
AcDbScale
 70
     0
300
1:50
140
1.0
141
50.0
290
     0
  0
SCALE
  5
6A5A
102
{ACAD_REACTORS
330
6A4E
102
}
330
6A4E
100
AcDbScale
 70
     0
300
1:100
140
1.0
141
100.0
290
     0
  0
SCALE
  5
6A5B
102
{ACAD_REACTORS
330
6A4E
102
}
330
6A4E
100
AcDbScale
 70
     0
300
2:1
140
2.0
141
1.0
290
     0
  0
SCALE
  5
6A5C
102
{ACAD_REACTORS
330
6A4E
102
}
330
6A4E
100
AcDbScale
 70
     0
300
4:1
140
4.0
141
1.0
290
     0
  0
SCALE
  5
6A5D
102
{ACAD_REACTORS
330
6A4E
102
}
330
6A4E
100
AcDbScale
 70
     0
300
8:1
140
8.0
141
1.0
290
     0
  0
SCALE
  5
6A5E
102
{ACAD_REACTORS
330
6A4E
102
}
330
6A4E
100
AcDbScale
 70
     0
300
10:1
140
10.0
141
1.0
290
     0
  0
SCALE
  5
6A5F
102
{ACAD_REACTORS
330
6A4E
102
}
330
6A4E
100
AcDbScale
 70
     0
300
100:1
140
100.0
141
1.0
290
     0
  0
SCALE
  5
6A60
102
{ACAD_REACTORS
330
6A4E
102
}
330
6A4E
100
AcDbScale
 70
     0
300
1/128" = 1'-0"
140
0.0078125
141
12.0
290
     0
  0
SCALE
  5
6A61
102
{ACAD_REACTORS
330
6A4E
102
}
330
6A4E
100
AcDbScale
 70
     0
300
1/64" = 1'-0"
140
0.015625
141
12.0
290
     0
  0
SCALE
  5
6A62
102
{ACAD_REACTORS
330
6A4E
102
}
330
6A4E
100
AcDbScale
 70
     0
300
1/32" = 1'-0"
140
0.03125
141
12.0
290
     0
  0
SCALE
  5
6A63
102
{ACAD_REACTORS
330
6A4E
102
}
330
6A4E
100
AcDbScale
 70
     0
300
1/16" = 1'-0"
140
0.0625
141
12.0
290
     0
  0
SCALE
  5
6A64
102
{ACAD_REACTORS
330
6A4E
102
}
330
6A4E
100
AcDbScale
 70
     0
300
3/32" = 1'-0"
140
0.09375
141
12.0
290
     0
  0
SCALE
  5
6A65
102
{ACAD_REACTORS
330
6A4E
102
}
330
6A4E
100
AcDbScale
 70
     0
300
1/8" = 1'-0"
140
0.125
141
12.0
290
     0
  0
SCALE
  5
6A66
102
{ACAD_REACTORS
330
6A4E
102
}
330
6A4E
100
AcDbScale
 70
     0
300
3/16" = 1'-0"
140
0.1875
141
12.0
290
     0
  0
SCALE
  5
6A67
102
{ACAD_REACTORS
330
6A4E
102
}
330
6A4E
100
AcDbScale
 70
     0
300
1/4" = 1'-0"
140
0.25
141
12.0
290
     0
  0
SCALE
  5
6A68
102
{ACAD_REACTORS
330
6A4E
102
}
330
6A4E
100
AcDbScale
 70
     0
300
3/8" = 1'-0"
140
0.375
141
12.0
290
     0
  0
SCALE
  5
6A69
102
{ACAD_REACTORS
330
6A4E
102
}
330
6A4E
100
AcDbScale
 70
     0
300
1/2" = 1'-0"
140
0.5
141
12.0
290
     0
  0
SCALE
  5
6A6A
102
{ACAD_REACTORS
330
6A4E
102
}
330
6A4E
100
AcDbScale
 70
     0
300
3/4" = 1'-0"
140
0.75
141
12.0
290
     0
  0
SCALE
  5
6A6B
102
{ACAD_REACTORS
330
6A4E
102
}
330
6A4E
100
AcDbScale
 70
     0
300
1" = 1'-0"
140
1.0
141
12.0
290
     0
  0
SCALE
  5
6A6C
102
{ACAD_REACTORS
330
6A4E
102
}
330
6A4E
100
AcDbScale
 70
     0
300
1-1/2" = 1'-0"
140
1.5
141
12.0
290
     0
  0
SCALE
  5
6A6D
102
{ACAD_REACTORS
330
6A4E
102
}
330
6A4E
100
AcDbScale
 70
     0
300
3" = 1'-0"
140
3.0
141
12.0
290
     0
  0
SCALE
  5
6A6E
102
{ACAD_REACTORS
330
6A4E
102
}
330
6A4E
100
AcDbScale
 70
     0
300
6" = 1'-0"
140
6.0
141
12.0
290
     0
  0
SCALE
  5
6A6F
102
{ACAD_REACTORS
330
6A4E
102
}
330
6A4E
100
AcDbScale
 70
     0
300
1'-0" = 1'-0"
140
12.0
141
12.0
290
     0
  0
DICTIONARYVAR
  5
79F
102
{ACAD_REACTORS
330
79E
102
}
330
79E
100
DictionaryVariables
280
     0
  1
1
  0
DICTIONARYVAR
  5
264F
102
{ACAD_REACTORS
330
79E
102
}
330
79E
100
DictionaryVariables
280
     0
  1
96
  0
ENDSEC
  0
EOF
