  0
SECTION
  2
HEADER
  9
$ACADVER
  1
AC1015
  9
$ACADMAINTVER
 70
     6
  9
$DWGCODEPAGE
  3
ANSI_932
  9
$INSBASE
 10
0.0
 20
0.0
 30
0.0
  9
$EXTMIN
 10
399.9999999999986
 20
1189.999999999997
 30
0.0
  9
$EXTMAX
 10
3100.0
 20
2470.0
 30
0.0
  9
$LIMMIN
 10
0.0
 20
0.0
  9
$LIMMAX
 10
4200.0
 20
2970.0
  9
$ORTHOMODE
 70
     1
  9
$REGENMODE
 70
     1
  9
$FILLMODE
 70
     1
  9
$QTEXTMODE
 70
     0
  9
$MIRRTEXT
 70
     0
  9
$LTSCALE
 40
3.0
  9
$ATTMODE
 70
     1
  9
$TEXTSIZE
 40
30.0
  9
$TRACEWID
 40
1.0
  9
$TEXTSTYLE
  7
Standard
  9
$CLAYER
  8
01注記寸法
  9
$CELTYPE
  6
ByLayer
  9
$CECOLOR
 62
   256
  9
$CELTSCALE
 40
1.0
  9
$DISPSILH
 70
     0
  9
$DIMSCALE
 40
10.0
  9
$DIMASZ
 40
3.0
  9
$DIMEXO
 40
1.5
  9
$DIMDLI
 40
10.0
  9
$DIMRND
 40
0.0
  9
$DIMDLE
 40
0.0
  9
$DIMEXE
 40
1.0
  9
$DIMTP
 40
0.0
  9
$DIMTM
 40
0.0
  9
$DIMTXT
 40
3.0
  9
$DIMCEN
 40
1.5
  9
$DIMTSZ
 40
0.0
  9
$DIMTOL
 70
     0
  9
$DIMLIM
 70
     0
  9
$DIMTIH
 70
     0
  9
$DIMTOH
 70
     0
  9
$DIMSE1
 70
     0
  9
$DIMSE2
 70
     0
  9
$DIMTAD
 70
     1
  9
$DIMZIN
 70
     8
  9
$DIMBLK
  1
Open
  9
$DIMASO
 70
     1
  9
$DIMSHO
 70
     1
  9
$DIMPOST
  1

  9
$DIMAPOST
  1

  9
$DIMALT
 70
     0
  9
$DIMALTD
 70
     3
  9
$DIMALTF
 40
0.03937007874016
  9
$DIMLFAC
 40
1.0
  9
$DIMTOFL
 70
     1
  9
$DIMTVP
 40
0.0
  9
$DIMTIX
 70
     0
  9
$DIMSOXD
 70
     0
  9
$DIMSAH
 70
     0
  9
$DIMBLK1
  1

  9
$DIMBLK2
  1

  9
$DIMSTYLE
  2
NEMY-10
  9
$DIMCLRD
 70
     0
  9
$DIMCLRE
 70
     0
  9
$DIMCLRT
 70
     0
  9
$DIMTFAC
 40
1.0
  9
$DIMGAP
 40
1.0
  9
$DIMJUST
 70
     0
  9
$DIMSD1
 70
     0
  9
$DIMSD2
 70
     0
  9
$DIMTOLJ
 70
     0
  9
$DIMTZIN
 70
     8
  9
$DIMALTZ
 70
     0
  9
$DIMALTTZ
 70
     0
  9
$DIMUPT
 70
     0
  9
$DIMDEC
 70
     1
  9
$DIMTDEC
 70
     1
  9
$DIMALTU
 70
     2
  9
$DIMALTTD
 70
     3
  9
$DIMTXSTY
  7
Standard
  9
$DIMAUNIT
 70
     0
  9
$DIMADEC
 70
     0
  9
$DIMALTRND
 40
0.0
  9
$DIMAZIN
 70
     0
  9
$DIMDSEP
 70
    46
  9
$DIMATFIT
 70
     3
  9
$DIMFRAC
 70
     0
  9
$DIMLDRBLK
  1
Open
  9
$DIMLUNIT
 70
     2
  9
$DIMLWD
 70
    -2
  9
$DIMLWE
 70
    -2
  9
$DIMTMOVE
 70
     0
  9
$LUNITS
 70
     2
  9
$LUPREC
 70
     4
  9
$SKETCHINC
 40
1.0
  9
$FILLETRAD
 40
5.0
  9
$AUNITS
 70
     0
  9
$AUPREC
 70
     0
  9
$MENU
  1
.
  9
$ELEVATION
 40
0.0
  9
$PELEVATION
 40
0.0
  9
$THICKNESS
 40
0.0
  9
$LIMCHECK
 70
     0
  9
$CHAMFERA
 40
5.0
  9
$CHAMFERB
 40
5.0
  9
$CHAMFERC
 40
20.0
  9
$CHAMFERD
 40
0.0
  9
$SKPOLY
 70
     0
  9
$TDCREATE
 40
2455859.405048461
  9
$TDUCREATE
 40
2455859.030048461
  9
$TDUPDATE
 40
2459076.383560648
  9
$TDUUPDATE
 40
2459076.008560648
  9
$TDINDWG
 40
1.4787614583
  9
$TDUSRTIMER
 40
0.0005406134
  9
$USRTIMER
 70
     1
  9
$ANGBASE
 50
0.0
  9
$ANGDIR
 70
     0
  9
$PDMODE
 70
     0
  9
$PDSIZE
 40
0.0
  9
$PLINEWID
 40
0.0
  9
$SPLFRAME
 70
     0
  9
$SPLINETYPE
 70
     6
  9
$SPLINESEGS
 70
     8
  9
$HANDSEED
  5
12A61
  9
$SURFTAB1
 70
     6
  9
$SURFTAB2
 70
     6
  9
$SURFTYPE
 70
     6
  9
$SURFU
 70
     6
  9
$SURFV
 70
     6
  9
$UCSBASE
  2

  9
$UCSNAME
  2

  9
$UCSORG
 10
0.0
 20
0.0
 30
0.0
  9
$UCSXDIR
 10
1.0
 20
0.0
 30
0.0
  9
$UCSYDIR
 10
0.0
 20
1.0
 30
0.0
  9
$UCSORTHOREF
  2

  9
$UCSORTHOVIEW
 70
     0
  9
$UCSORGTOP
 10
0.0
 20
0.0
 30
0.0
  9
$UCSORGBOTTOM
 10
0.0
 20
0.0
 30
0.0
  9
$UCSORGLEFT
 10
0.0
 20
0.0
 30
0.0
  9
$UCSORGRIGHT
 10
0.0
 20
0.0
 30
0.0
  9
$UCSORGFRONT
 10
0.0
 20
0.0
 30
0.0
  9
$UCSORGBACK
 10
0.0
 20
0.0
 30
0.0
  9
$PUCSBASE
  2

  9
$PUCSNAME
  2

  9
$PUCSORG
 10
0.0
 20
0.0
 30
0.0
  9
$PUCSXDIR
 10
1.0
 20
0.0
 30
0.0
  9
$PUCSYDIR
 10
0.0
 20
1.0
 30
0.0
  9
$PUCSORTHOREF
  2

  9
$PUCSORTHOVIEW
 70
     0
  9
$PUCSORGTOP
 10
0.0
 20
0.0
 30
0.0
  9
$PUCSORGBOTTOM
 10
0.0
 20
0.0
 30
0.0
  9
$PUCSORGLEFT
 10
0.0
 20
0.0
 30
0.0
  9
$PUCSORGRIGHT
 10
0.0
 20
0.0
 30
0.0
  9
$PUCSORGFRONT
 10
0.0
 20
0.0
 30
0.0
  9
$PUCSORGBACK
 10
0.0
 20
0.0
 30
0.0
  9
$USERI1
 70
     0
  9
$USERI2
 70
     0
  9
$USERI3
 70
     0
  9
$USERI4
 70
     0
  9
$USERI5
 70
     0
  9
$USERR1
 40
0.0
  9
$USERR2
 40
0.0
  9
$USERR3
 40
0.0
  9
$USERR4
 40
0.0
  9
$USERR5
 40
0.0
  9
$WORLDVIEW
 70
     1
  9
$SHADEDGE
 70
     3
  9
$SHADEDIF
 70
    70
  9
$TILEMODE
 70
     1
  9
$MAXACTVP
 70
    64
  9
$PINSBASE
 10
0.0
 20
0.0
 30
0.0
  9
$PLIMCHECK
 70
     0
  9
$PEXTMIN
 10
1.000000000000000E+20
 20
1.000000000000000E+20
 30
1.000000000000000E+20
  9
$PEXTMAX
 10
-1.000000000000000E+20
 20
-1.000000000000000E+20
 30
-1.000000000000000E+20
  9
$PLIMMIN
 10
-7.5
 20
-20.0
  9
$PLIMMAX
 10
412.5
 20
277.0
  9
$UNITMODE
 70
     0
  9
$VISRETAIN
 70
     1
  9
$PLINEGEN
 70
     0
  9
$PSLTSCALE
 70
     1
  9
$TREEDEPTH
 70
  3020
  9
$CMLSTYLE
  2
Standard
  9
$CMLJUST
 70
     0
  9
$CMLSCALE
 40
20.0
  9
$PROXYGRAPHICS
 70
     1
  9
$MEASUREMENT
 70
     1
  9
$CELWEIGHT
370
    -1
  9
$ENDCAPS
280
     0
  9
$JOINSTYLE
280
     0
  9
$LWDISPLAY
290
     0
  9
$INSUNITS
 70
     4
  9
$HYPERLINKBASE
  1

  9
$STYLESHEET
  1
monochrome.ctb
  9
$XEDIT
290
     1
  9
$CEPSNTYPE
380
     0
  9
$PSTYLEMODE
290
     1
  9
$FINGERPRINTGUID
  2
{FDEAD578-A652-11D2-9A35-0060089B3A3F}
  9
$VERSIONGUID
  2
{11DB8456-EC16-47A0-BA21-BBDA07550E8A}
  9
$EXTNAMES
290
     1
  9
$PSVPSCALE
 40
0.0
  9
$OLESTARTUP
290
     0
  0
ENDSEC
  0
SECTION
  2
CLASSES
  0
CLASS
  1
ACDBDICTIONARYWDFLT
  2
AcDbDictionaryWithDefault
  3
ObjectDBX Classes
 90
        0
280
     0
281
     0
  0
CLASS
  1
ACDBPLACEHOLDER
  2
AcDbPlaceHolder
  3
ObjectDBX Classes
 90
        0
280
     0
281
     0
  0
CLASS
  1
LAYOUT
  2
AcDbLayout
  3
ObjectDBX Classes
 90
        0
280
     0
281
     0
  0
CLASS
  1
DICTIONARYVAR
  2
AcDbDictionaryVar
  3
ObjectDBX Classes
 90
        0
280
     0
281
     0
  0
CLASS
  1
SCALE
  2
AcDbScale
  3
ObjectDBX Classes
 90
     1153
280
     0
281
     0
  0
CLASS
  1
MATERIAL
  2
AcDbMaterial
  3
ObjectDBX Classes
 90
     1153
280
     0
281
     0
  0
CLASS
  1
VISUALSTYLE
  2
AcDbVisualStyle
  3
ObjectDBX Classes
 90
     4095
280
     0
281
     0
  0
CLASS
  1
TABLESTYLE
  2
AcDbTableStyle
  3
ObjectDBX Classes
 90
     4095
280
     0
281
     0
  0
CLASS
  1
RASTERVARIABLES
  2
AcDbRasterVariables
  3
ISM
 90
        0
280
     0
281
     0
  0
CLASS
  1
SORTENTSTABLE
  2
AcDbSortentsTable
  3
ObjectDBX Classes
 90
        0
280
     0
281
     0
  0
CLASS
  1
SUN
  2
AcDbSun
  3
SCENEOE
 90
     1153
280
     0
281
     0
  0
CLASS
  1
MLEADERSTYLE
  2
AcDbMLeaderStyle
  3
ACDB_MLEADERSTYLE_CLASS
 90
     4095
280
     0
281
     0
  0
ENDSEC
  0
SECTION
  2
TABLES
  0
TABLE
  2
VPORT
  5
8
330
0
100
AcDbSymbolTable
 70
     1
  0
VPORT
  5
7A57
330
8
100
AcDbSymbolTableRecord
100
AcDbViewportTableRecord
  2
*Active
 70
     0
 10
0.0
 20
0.0
 11
1.0
 21
1.0
 12
1678.965927413129
 22
1897.511043144963
 13
0.0
 23
0.0
 14
10.0
 24
10.0
 15
10.0
 25
10.0
 16
0.0
 26
0.0
 36
1.0
 17
0.0
 27
0.0
 37
0.0
 40
3553.650308178308
 41
1.430340557275542
 42
50.0
 43
0.0
 44
0.0
 50
0.0
 51
0.0
 71
    16
 72
   100
 73
     1
 74
     2
 75
     0
 76
     0
 77
     0
 78
     0
281
     0
 65
     1
110
0.0
120
0.0
130
0.0
111
1.0
121
0.0
131
0.0
112
0.0
122
1.0
132
0.0
 79
     0
146
0.0
  0
ENDTAB
  0
TABLE
  2
LTYPE
  5
5
330
0
100
AcDbSymbolTable
 70
     5
  0
LTYPE
  5
14
330
5
100
AcDbSymbolTableRecord
100
AcDbLinetypeTableRecord
  2
ByBlock
 70
     0
  3

 72
    65
 73
     0
 40
0.0
  0
LTYPE
  5
15
330
5
100
AcDbSymbolTableRecord
100
AcDbLinetypeTableRecord
  2
ByLayer
 70
     0
  3

 72
    65
 73
     0
 40
0.0
  0
LTYPE
  5
16
330
5
100
AcDbSymbolTableRecord
100
AcDbLinetypeTableRecord
  2
Continuous
 70
     0
  3
Solid line
 72
    65
 73
     0
 40
0.0
  0
LTYPE
  5
BA
330
5
100
AcDbSymbolTableRecord
100
AcDbLinetypeTableRecord
  2
HIDDEN
 70
     0
  3
Hidden __ __ __ __ __ __ __ __ __ __ __ __ __ _
 72
    65
 73
     2
 40
9.524999999999999
 49
6.35
 74
     0
 49
-3.175
 74
     0
  0
LTYPE
  5
BB
330
5
100
AcDbSymbolTableRecord
100
AcDbLinetypeTableRecord
  2
PHANTOM
 70
     0
  3
Phantom ______  __  __  ______  __  __  ______
 72
    65
 73
     6
 40
63.5
 49
31.75
 74
     0
 49
-6.35
 74
     0
 49
6.35
 74
     0
 49
-6.35
 74
     0
 49
6.35
 74
     0
 49
-6.35
 74
     0
  0
LTYPE
  5
BC
330
5
100
AcDbSymbolTableRecord
100
AcDbLinetypeTableRecord
  2
CENTER
 70
     0
  3
Center ____ _ ____ _ ____ _ ____ _ ____ _ ____
 72
    65
 73
     4
 40
50.8
 49
31.75
 74
     0
 49
-6.35
 74
     0
 49
6.35
 74
     0
 49
-6.35
 74
     0
  0
LTYPE
  5
47C
330
5
100
AcDbSymbolTableRecord
100
AcDbLinetypeTableRecord
  2
DOT
 70
     0
  3
Dot . . . . . . . . . . . . . . . . . . . . . .
 72
    65
 73
     2
 40
6.35
 49
0.0
 74
     0
 49
-6.35
 74
     0
  0
ENDTAB
  0
TABLE
  2
LAYER
  5
2
102
{ACAD_XDICTIONARY
360
7A6F
102
}
330
0
100
AcDbSymbolTable
 70
    13
  0
LAYER
  5
10
330
2
100
AcDbSymbolTableRecord
100
AcDbLayerTableRecord
  2
0
 70
     0
 62
     7
  6
Continuous
370
    -3
390
F
  0
LAYER
  5
45
330
2
100
AcDbSymbolTableRecord
100
AcDbLayerTableRecord
  2
01注記寸法
 70
     0
 62
     7
  6
Continuous
370
     9
390
F
  0
LAYER
  5
46
330
2
100
AcDbSymbolTableRecord
100
AcDbLayerTableRecord
  2
02実線
 70
     0
 62
     2
  6
Continuous
370
    15
390
F
  0
LAYER
  5
5F
330
2
100
AcDbSymbolTableRecord
100
AcDbLayerTableRecord
  2
Defpoints
 70
     0
 62
     7
  6
Continuous
290
     0
370
    -3
390
F
  0
LAYER
  5
7E52
330
2
100
AcDbSymbolTableRecord
100
AcDbLayerTableRecord
  2
03破線
 70
     0
 62
     3
  6
HIDDEN
370
     9
390
F
  0
LAYER
  5
7E55
330
2
100
AcDbSymbolTableRecord
100
AcDbLayerTableRecord
  2
04一点鎖線
 70
     0
 62
    70
  6
CENTER
370
     9
390
F
  0
LAYER
  5
7E58
330
2
100
AcDbSymbolTableRecord
100
AcDbLayerTableRecord
  2
05二点鎖線
 70
     0
 62
   110
  6
PHANTOM
370
     9
390
F
  0
LAYER
  5
7E5B
330
2
100
AcDbSymbolTableRecord
100
AcDbLayerTableRecord
  2
06点線
 70
     0
 62
    96
  6
DOT
370
     9
390
F
  0
LAYER
  5
7E5E
330
2
100
AcDbSymbolTableRecord
100
AcDbLayerTableRecord
  2
07その他
 70
     0
 62
     6
  6
Continuous
370
    13
390
F
  0
LAYER
  5
7E60
330
2
100
AcDbSymbolTableRecord
100
AcDbLayerTableRecord
  2
08非表示
 70
     0
 62
     4
  6
Continuous
290
     0
370
     0
390
F
  0
LAYER
  5
7E62
330
2
100
AcDbSymbolTableRecord
100
AcDbLayerTableRecord
  2
09図枠
 70
     0
 62
     1
  6
Continuous
370
    30
390
F
  0
LAYER
  5
835A
330
2
100
AcDbSymbolTableRecord
100
AcDbLayerTableRecord
  2
10副資材
 70
     0
 62
    51
  6
Continuous
290
     0
370
    -3
390
F
1001
AcAecLayerStandard
1000

1000

  0
LAYER
  5
8CAC
330
2
100
AcDbSymbolTableRecord
100
AcDbLayerTableRecord
  2
11機器
 70
     0
 62
    11
  6
Continuous
290
     0
370
    -3
390
F
1001
AcAecLayerStandard
1000

1000

  0
ENDTAB
  0
TABLE
  2
STYLE
  5
3
330
0
100
AcDbSymbolTable
 70
     1
  0
STYLE
  5
11
330
3
100
AcDbSymbolTableRecord
100
AcDbTextStyleTableRecord
  2
Standard
 70
     0
 40
0.0
 41
1.0
 50
0.0
 71
     0
 42
30.0
  3
MSGOTHIC.TTC
  4

1001
ACAD
1000
MS Gothic
1071
    32817
  0
ENDTAB
  0
TABLE
  2
VIEW
  5
6
330
0
100
AcDbSymbolTable
 70
     0
  0
ENDTAB
  0
TABLE
  2
UCS
  5
7
330
0
100
AcDbSymbolTable
 70
     0
  0
ENDTAB
  0
TABLE
  2
APPID
  5
9
330
0
100
AcDbSymbolTable
 70
     9
  0
APPID
  5
12
330
9
100
AcDbSymbolTableRecord
100
AcDbRegAppTableRecord
  2
ACAD
 70
     0
  0
APPID
  5
6A9E
330
9
100
AcDbSymbolTableRecord
100
AcDbRegAppTableRecord
  2
ACAD_DSTYLE_DIMRADIAL_EXTENSION
 70
     0
  0
APPID
  5
742C
330
9
100
AcDbSymbolTableRecord
100
AcDbRegAppTableRecord
  2
ACAD_PSEXT
 70
     0
  0
APPID
  5
742D
330
9
100
AcDbSymbolTableRecord
100
AcDbRegAppTableRecord
  2
ACAD_DSTYLE_DIMJAG
 70
     0
  0
APPID
  5
742E
330
9
100
AcDbSymbolTableRecord
100
AcDbRegAppTableRecord
  2
ACAD_DSTYLE_DIMTALN
 70
     0
  0
APPID
  5
835C
330
9
100
AcDbSymbolTableRecord
100
AcDbRegAppTableRecord
  2
AcAecLayerStandard
 70
     0
  0
APPID
  5
1253F
330
9
100
AcDbSymbolTableRecord
100
AcDbRegAppTableRecord
  2
HATCHBACKGROUNDCOLOR
 70
     0
  0
APPID
  5
1262E
330
9
100
AcDbSymbolTableRecord
100
AcDbRegAppTableRecord
  2
PE_URL
 70
     0
  0
APPID
  5
1287B
330
9
100
AcDbSymbolTableRecord
100
AcDbRegAppTableRecord
  2
PLOTTRANSPARENCY
 70
     0
  0
ENDTAB
  0
TABLE
  2
DIMSTYLE
  5
A
330
0
100
AcDbSymbolTable
 70
    24
100
AcDbDimStyleTable
  0
DIMSTYLE
105
73
330
A
100
AcDbSymbolTableRecord
100
AcDbDimStyleTableRecord
  2
NEMY-1
 70
     0
 41
3.0
 42
1.5
 43
10.0
 44
1.0
 73
     0
 74
     0
 77
     1
 78
     8
140
3.0
141
1.5
143
0.03937007874016
147
1.0
171
     3
172
     1
178
     0
271
     1
272
     1
274
     3
283
     0
284
     8
340
11
341
8F
342
8F
  0
DIMSTYLE
105
4DCE
330
A
100
AcDbSymbolTableRecord
100
AcDbDimStyleTableRecord
  2
NEMY-2
 70
     0
 40
2.0
 41
3.0
 42
1.5
 43
10.0
 44
1.0
 73
     0
 74
     0
 77
     1
 78
     8
140
3.0
141
1.5
143
0.03937007874016
147
1.0
171
     3
172
     1
178
     0
271
     1
272
     1
274
     3
283
     0
284
     8
340
11
341
8F
342
8F
  0
DIMSTYLE
105
4DCF
330
A
100
AcDbSymbolTableRecord
100
AcDbDimStyleTableRecord
  2
NEMY-3
 70
     0
 40
3.0
 41
3.0
 42
1.5
 43
10.0
 44
1.0
 73
     0
 74
     0
 77
     1
 78
     8
140
3.0
141
1.5
143
0.03937007874016
147
1.0
171
     3
172
     1
178
     0
271
     1
272
     1
274
     3
283
     0
284
     8
340
11
341
8F
342
8F
  0
DIMSTYLE
105
4DD0
330
A
100
AcDbSymbolTableRecord
100
AcDbDimStyleTableRecord
  2
NEMY-5
 70
     0
 40
5.0
 41
3.0
 42
1.5
 43
10.0
 44
1.0
 73
     0
 74
     0
 77
     1
 78
     8
140
3.0
141
1.5
143
0.03937007874016
147
1.0
171
     3
172
     1
178
     0
271
     1
272
     1
274
     3
283
     0
284
     8
340
11
341
8F
342
8F
  0
DIMSTYLE
105
4DD1
330
A
100
AcDbSymbolTableRecord
100
AcDbDimStyleTableRecord
  2
NEMY-8
 70
     0
 40
8.0
 41
3.0
 42
1.5
 43
10.0
 44
1.0
 73
     0
 74
     0
 77
     1
 78
     8
140
3.0
141
1.5
143
0.03937007874016
147
1.0
171
     3
172
     1
178
     0
271
     1
272
     1
274
     3
283
     0
284
     8
340
11
341
8F
342
8F
  0
DIMSTYLE
105
4DD2
330
A
100
AcDbSymbolTableRecord
100
AcDbDimStyleTableRecord
  2
NEMY-15
 70
     0
 40
15.0
 41
3.0
 42
1.5
 43
10.0
 44
1.0
 73
     0
 74
     0
 77
     1
 78
     8
140
3.0
141
1.5
143
0.03937007874016
147
1.0
171
     3
172
     1
178
     0
271
     1
272
     1
274
     3
283
     0
284
     8
340
11
341
8F
342
8F
  0
DIMSTYLE
105
4DD3
102
{ACAD_REACTORS
330
12937
330
12944
102
}
330
A
100
AcDbSymbolTableRecord
100
AcDbDimStyleTableRecord
  2
NEMY-10
 70
     0
 40
10.0
 41
3.0
 42
1.5
 43
10.0
 44
1.0
 73
     0
 74
     0
 77
     1
 78
     8
140
3.0
141
1.5
143
0.03937007874016
147
1.0
171
     3
172
     1
178
     0
271
     1
272
     1
274
     3
283
     0
284
     8
340
11
341
8F
342
8F
  0
DIMSTYLE
105
4DD4
330
A
100
AcDbSymbolTableRecord
100
AcDbDimStyleTableRecord
  2
NEMY-25
 70
     0
 40
25.0
 41
3.0
 42
1.5
 43
10.0
 44
1.0
 73
     0
 74
     0
 77
     1
 78
     8
140
3.0
141
1.5
143
0.03937007874016
147
1.0
171
     3
172
     1
178
     0
271
     1
272
     1
274
     3
283
     0
284
     8
340
11
341
8F
342
8F
  0
DIMSTYLE
105
4DD5
330
A
100
AcDbSymbolTableRecord
100
AcDbDimStyleTableRecord
  2
NEMY-30
 70
     0
 40
30.0
 41
3.0
 42
1.5
 43
10.0
 44
1.0
 73
     0
 74
     0
 77
     1
 78
     8
140
3.0
141
1.5
143
0.03937007874016
147
1.0
171
     3
172
     1
178
     0
271
     1
272
     1
274
     3
283
     0
284
     8
340
11
341
8F
342
8F
  0
DIMSTYLE
105
4DD6
330
A
100
AcDbSymbolTableRecord
100
AcDbDimStyleTableRecord
  2
NEMY-50
 70
     0
 40
50.0
 41
3.0
 42
1.5
 43
10.0
 44
1.0
 73
     0
 74
     0
 77
     1
 78
     8
140
3.0
141
1.5
143
0.03937007874016
147
1.0
171
     3
172
     1
178
     0
271
     1
272
     1
274
     3
283
     0
284
     8
340
11
341
8F
342
8F
  0
DIMSTYLE
105
4E6F
330
A
100
AcDbSymbolTableRecord
100
AcDbDimStyleTableRecord
  2
NEMY-20
 70
     0
 40
20.0
 41
3.0
 42
1.5
 43
10.0
 44
1.0
 73
     0
 74
     0
 77
     1
 78
     8
140
3.0
141
1.5
143
0.03937007874016
147
1.0
171
     3
172
     1
178
     0
271
     1
272
     1
274
     3
283
     0
284
     8
340
11
341
8F
342
8F
  0
DIMSTYLE
105
4F44
330
A
100
AcDbSymbolTableRecord
100
AcDbDimStyleTableRecord
  2
NEMY-10$3
 70
     0
 40
10.0
 41
3.0
 42
1.5
 43
10.0
 44
1.0
 77
     1
 78
     8
140
3.0
141
1.5
143
0.03937007874016
147
1.0
171
     3
172
     1
178
     0
271
     1
272
     1
274
     3
283
     0
284
     8
340
11
341
8F
342
8F
  0
DIMSTYLE
105
4F45
330
A
100
AcDbSymbolTableRecord
100
AcDbDimStyleTableRecord
  2
NEMY-1$3
 70
     0
 41
3.0
 42
1.5
 43
10.0
 44
1.0
 77
     1
 78
     8
140
3.0
141
1.5
143
0.03937007874016
147
1.0
171
     3
172
     1
178
     0
271
     1
272
     1
274
     3
283
     0
284
     8
340
11
341
8F
342
8F
  0
DIMSTYLE
105
4F46
330
A
100
AcDbSymbolTableRecord
100
AcDbDimStyleTableRecord
  2
NEMY-12
 70
     0
 40
12.0
 41
3.0
 42
1.5
 43
10.0
 44
1.0
 73
     0
 74
     0
 77
     1
 78
     8
140
3.0
141
1.5
143
0.03937007874016
147
1.0
171
     3
172
     1
178
     0
271
     1
272
     1
274
     3
283
     0
284
     8
340
11
341
8F
342
8F
  0
DIMSTYLE
105
4F47
330
A
100
AcDbSymbolTableRecord
100
AcDbDimStyleTableRecord
  2
NEMY-12$3
 70
     0
 40
12.0
 41
3.0
 42
1.5
 43
10.0
 44
1.0
 77
     1
 78
     8
140
3.0
141
1.5
143
0.03937007874016
147
1.0
171
     3
172
     1
178
     0
271
     1
272
     1
274
     3
283
     0
284
     8
340
11
341
8F
342
8F
  0
DIMSTYLE
105
5E6E
330
A
100
AcDbSymbolTableRecord
100
AcDbDimStyleTableRecord
  2
NEMY-8$3
 70
     0
 40
8.0
 41
3.0
 42
1.5
 43
10.0
 44
1.0
 77
     1
 78
     8
140
3.0
141
1.5
143
0.03937007874016
147
1.0
171
     3
172
     1
178
     0
271
     1
272
     1
274
     3
283
     0
284
     8
340
11
341
8F
342
8F
  0
DIMSTYLE
105
5E6F
330
A
100
AcDbSymbolTableRecord
100
AcDbDimStyleTableRecord
  2
NEMY-50$3
 70
     0
 40
50.0
 41
3.0
 42
1.5
 43
10.0
 44
1.0
 77
     1
 78
     8
140
3.0
141
1.5
143
0.03937007874016
147
1.0
171
     3
172
     1
178
     0
271
     1
272
     1
274
     3
283
     0
284
     8
340
11
341
8F
342
8F
  0
DIMSTYLE
105
5E70
330
A
100
AcDbSymbolTableRecord
100
AcDbDimStyleTableRecord
  2
NEMY-5$3
 70
     0
 40
5.0
 41
3.0
 42
1.5
 43
10.0
 44
1.0
 77
     1
 78
     8
140
3.0
141
1.5
143
0.03937007874016
147
1.0
171
     3
172
     1
178
     0
271
     1
272
     1
274
     3
283
     0
284
     8
340
11
341
8F
342
8F
  0
DIMSTYLE
105
5E71
330
A
100
AcDbSymbolTableRecord
100
AcDbDimStyleTableRecord
  2
NEMY-30$3
 70
     0
 40
30.0
 41
3.0
 42
1.5
 43
10.0
 44
1.0
 77
     1
 78
     8
140
3.0
141
1.5
143
0.03937007874016
147
1.0
171
     3
172
     1
178
     0
271
     1
272
     1
274
     3
283
     0
284
     8
340
11
341
8F
342
8F
  0
DIMSTYLE
105
5E72
330
A
100
AcDbSymbolTableRecord
100
AcDbDimStyleTableRecord
  2
NEMY-3$3
 70
     0
 40
3.0
 41
3.0
 42
1.5
 43
10.0
 44
1.0
 77
     1
 78
     8
140
3.0
141
1.5
143
0.03937007874016
147
1.0
171
     3
172
     1
178
     0
271
     1
272
     1
274
     3
283
     0
284
     8
340
11
341
8F
342
8F
  0
DIMSTYLE
105
5E73
330
A
100
AcDbSymbolTableRecord
100
AcDbDimStyleTableRecord
  2
NEMY-25$3
 70
     0
 40
25.0
 41
3.0
 42
1.5
 43
10.0
 44
1.0
 77
     1
 78
     8
140
3.0
141
1.5
143
0.03937007874016
147
1.0
171
     3
172
     1
178
     0
271
     1
272
     1
274
     3
283
     0
284
     8
340
11
341
8F
342
8F
  0
DIMSTYLE
105
5E74
330
A
100
AcDbSymbolTableRecord
100
AcDbDimStyleTableRecord
  2
NEMY-20$3
 70
     0
 40
20.0
 41
3.0
 42
1.5
 43
10.0
 44
1.0
 77
     1
 78
     8
140
3.0
141
1.5
143
0.03937007874016
147
1.0
171
     3
172
     1
178
     0
271
     1
272
     1
274
     3
283
     0
284
     8
340
11
341
8F
342
8F
  0
DIMSTYLE
105
5E75
330
A
100
AcDbSymbolTableRecord
100
AcDbDimStyleTableRecord
  2
NEMY-2$3
 70
     0
 40
2.0
 41
3.0
 42
1.5
 43
10.0
 44
1.0
 77
     1
 78
     8
140
3.0
141
1.5
143
0.03937007874016
147
1.0
171
     3
172
     1
178
     0
271
     1
272
     1
274
     3
283
     0
284
     8
340
11
341
8F
342
8F
  0
DIMSTYLE
105
5E76
330
A
100
AcDbSymbolTableRecord
100
AcDbDimStyleTableRecord
  2
NEMY-15$3
 70
     0
 40
15.0
 41
3.0
 42
1.5
 43
10.0
 44
1.0
 77
     1
 78
     8
140
3.0
141
1.5
143
0.03937007874016
147
1.0
171
     3
172
     1
178
     0
271
     1
272
     1
274
     3
283
     0
284
     8
340
11
341
8F
342
8F
  0
ENDTAB
  0
TABLE
  2
BLOCK_RECORD
  5
1
330
0
100
AcDbSymbolTable
 70
    36
  0
BLOCK_RECORD
  5
1F
102
{ACAD_XDICTIONARY
360
969E
102
}
330
1
100
AcDbSymbolTableRecord
100
AcDbBlockTableRecord
  2
*Model_Space
340
22
  0
BLOCK_RECORD
  5
1B
330
1
100
AcDbSymbolTableRecord
100
AcDbBlockTableRecord
  2
*Paper_Space
340
1E
  0
BLOCK_RECORD
  5
8F
330
1
100
AcDbSymbolTableRecord
100
AcDbBlockTableRecord
  2
_Open
340
0
102
{BLKREFS
331
EE6C
331
EE86
331
EE92
331
EE9E
331
125CE
331
125DA
331
12837
331
12884
331
12891
331
128AD
331
128D8
331
1293D
331
1294A
331
1296C
331
129CD
331
129FA
331
12A07
331
12A14
331
EE6D
331
EE87
331
EE93
331
EE9F
331
125CF
331
125DB
331
12838
331
12885
331
12892
331
128AE
331
128D9
331
1293E
331
1294B
331
1296D
331
129CE
331
129FB
331
12A08
331
12A15
331
EE7A
331
1262A
331
1282A
331
12846
331
12857
331
12866
331
12875
331
128BC
331
128CB
331
128E7
331
1295F
331
1297B
331
EE7B
331
1262B
331
1282B
331
12847
331
12858
331
12867
331
12876
331
128BD
331
128CC
331
128E8
331
12960
331
1297C
331
128A2
331
128A3
102
}
  0
BLOCK_RECORD
  5
82F2
330
1
100
AcDbSymbolTableRecord
100
AcDbBlockTableRecord
  2
hole-φ16
340
0
102
{BLKREFS
331
0
331
0
331
0
331
0
331
12501
331
0
331
12814
331
1281C
331
12820
331
0
331
0
102
}
  0
BLOCK_RECORD
  5
EE66
330
1
100
AcDbSymbolTableRecord
100
AcDbBlockTableRecord
  2
*D1102
340
0
  0
BLOCK_RECORD
  5
EE72
330
1
100
AcDbSymbolTableRecord
100
AcDbBlockTableRecord
  2
*D1103
340
0
  0
BLOCK_RECORD
  5
EE80
330
1
100
AcDbSymbolTableRecord
100
AcDbBlockTableRecord
  2
*D1104
340
0
  0
BLOCK_RECORD
  5
EE8C
330
1
100
AcDbSymbolTableRecord
100
AcDbBlockTableRecord
  2
*D1105
340
0
  0
BLOCK_RECORD
  5
EE98
330
1
100
AcDbSymbolTableRecord
100
AcDbBlockTableRecord
  2
*D1106
340
0
  0
BLOCK_RECORD
  5
11E63
330
1
100
AcDbSymbolTableRecord
100
AcDbBlockTableRecord
  2
シール(検査済)
340
0
102
{BLKREFS
331
0
102
}
  0
BLOCK_RECORD
  5
11E69
330
1
100
AcDbSymbolTableRecord
100
AcDbBlockTableRecord
  2
シール(型式)
340
0
102
{BLKREFS
331
0
102
}
  0
BLOCK_RECORD
  5
125C8
330
1
100
AcDbSymbolTableRecord
100
AcDbBlockTableRecord
  2
*D1735
340
0
  0
BLOCK_RECORD
  5
125D4
330
1
100
AcDbSymbolTableRecord
100
AcDbBlockTableRecord
  2
*D1736
340
0
  0
BLOCK_RECORD
  5
12622
330
1
100
AcDbSymbolTableRecord
100
AcDbBlockTableRecord
  2
*D1741
340
0
  0
BLOCK_RECORD
  5
12822
330
1
100
AcDbSymbolTableRecord
100
AcDbBlockTableRecord
  2
*D1750
340
0
  0
BLOCK_RECORD
  5
12831
330
1
100
AcDbSymbolTableRecord
100
AcDbBlockTableRecord
  2
*D1751
340
0
  0
BLOCK_RECORD
  5
1283E
330
1
100
AcDbSymbolTableRecord
100
AcDbBlockTableRecord
  2
*D1752
340
0
  0
BLOCK_RECORD
  5
1284F
330
1
100
AcDbSymbolTableRecord
100
AcDbBlockTableRecord
  2
*D1753
340
0
  0
BLOCK_RECORD
  5
1285E
330
1
100
AcDbSymbolTableRecord
100
AcDbBlockTableRecord
  2
*D1754
340
0
  0
BLOCK_RECORD
  5
1286D
330
1
100
AcDbSymbolTableRecord
100
AcDbBlockTableRecord
  2
*D1755
340
0
  0
BLOCK_RECORD
  5
1287E
330
1
100
AcDbSymbolTableRecord
100
AcDbBlockTableRecord
  2
*D1756
340
0
  0
BLOCK_RECORD
  5
1288B
330
1
100
AcDbSymbolTableRecord
100
AcDbBlockTableRecord
  2
*D1757
340
0
  0
BLOCK_RECORD
  5
12898
330
1
100
AcDbSymbolTableRecord
100
AcDbBlockTableRecord
  2
*D1758
340
0
  0
BLOCK_RECORD
  5
128A7
330
1
100
AcDbSymbolTableRecord
100
AcDbBlockTableRecord
  2
*D1759
340
0
  0
BLOCK_RECORD
  5
128B4
330
1
100
AcDbSymbolTableRecord
100
AcDbBlockTableRecord
  2
*D1760
340
0
  0
BLOCK_RECORD
  5
128C3
330
1
100
AcDbSymbolTableRecord
100
AcDbBlockTableRecord
  2
*D1761
340
0
  0
BLOCK_RECORD
  5
128D2
330
1
100
AcDbSymbolTableRecord
100
AcDbBlockTableRecord
  2
*D1762
340
0
  0
BLOCK_RECORD
  5
128DF
330
1
100
AcDbSymbolTableRecord
100
AcDbBlockTableRecord
  2
*D1763
340
0
  0
BLOCK_RECORD
  5
12928
330
1
100
AcDbSymbolTableRecord
100
AcDbBlockTableRecord
  2
PW-P560DJ3
340
0
102
{BLKREFS
331
0
102
}
  0
BLOCK_RECORD
  5
12938
330
1
100
AcDbSymbolTableRecord
100
AcDbBlockTableRecord
  2
*D1766
340
0
  0
BLOCK_RECORD
  5
12945
330
1
100
AcDbSymbolTableRecord
100
AcDbBlockTableRecord
  2
*D1767
340
0
  0
BLOCK_RECORD
  5
12957
330
1
100
AcDbSymbolTableRecord
100
AcDbBlockTableRecord
  2
*D1768
340
0
  0
BLOCK_RECORD
  5
12966
330
1
100
AcDbSymbolTableRecord
100
AcDbBlockTableRecord
  2
*D1769
340
0
  0
BLOCK_RECORD
  5
12973
330
1
100
AcDbSymbolTableRecord
100
AcDbBlockTableRecord
  2
*D1770
340
0
  0
BLOCK_RECORD
  5
129C7
330
1
100
AcDbSymbolTableRecord
100
AcDbBlockTableRecord
  2
*D1773
340
0
  0
BLOCK_RECORD
  5
129F4
330
1
100
AcDbSymbolTableRecord
100
AcDbBlockTableRecord
  2
*D1775
340
0
  0
BLOCK_RECORD
  5
12A01
330
1
100
AcDbSymbolTableRecord
100
AcDbBlockTableRecord
  2
*D1776
340
0
  0
BLOCK_RECORD
  5
12A0E
330
1
100
AcDbSymbolTableRecord
100
AcDbBlockTableRecord
  2
*D1777
340
0
  0
ENDTAB
  0
ENDSEC
  0
SECTION
  2
BLOCKS
  0
BLOCK
  5
20
330
1F
100
AcDbEntity
  8
0
100
AcDbBlockBegin
  2
*Model_Space
 70
     0
 10
0.0
 20
0.0
 30
0.0
  3
*Model_Space
  1

  0
ENDBLK
  5
21
330
1F
100
AcDbEntity
  8
0
100
AcDbBlockEnd
  0
BLOCK
  5
1C
330
1B
100
AcDbEntity
 67
     1
  8
0
100
AcDbBlockBegin
  2
*Paper_Space
 70
     0
 10
0.0
 20
0.0
 30
0.0
  3
*Paper_Space
  1

  0
ENDBLK
  5
1D
330
1B
100
AcDbEntity
 67
     1
  8
0
100
AcDbBlockEnd
  0
BLOCK
  5
93
330
8F
100
AcDbEntity
  8
0
100
AcDbBlockBegin
  2
_Open
 70
     0
 10
0.0
 20
0.0
 30
0.0
  3
_Open
  1

  0
LINE
  5
90
330
8F
100
AcDbEntity
  8
01注記寸法
 62
     0
370
    -2
100
AcDbLine
 10
-1.0
 20
0.1666666666666667
 30
0.0
 11
0.0
 21
0.0
 31
0.0
  0
LINE
  5
91
330
8F
100
AcDbEntity
  8
01注記寸法
 62
     0
370
    -2
100
AcDbLine
 10
-1.0
 20
-0.1666666666666667
 30
0.0
 11
0.0
 21
0.0
 31
0.0
  0
LINE
  5
92
330
8F
100
AcDbEntity
  8
01注記寸法
 62
     0
370
    -2
100
AcDbLine
 10
0.0
 20
0.0
 30
0.0
 11
-1.0
 21
0.0
 31
0.0
  0
ENDBLK
  5
94
330
8F
100
AcDbEntity
  8
0
100
AcDbBlockEnd
  0
BLOCK
  5
82F3
330
82F2
100
AcDbEntity
  8
0
100
AcDbBlockBegin
  2
hole-φ16
 70
     0
 10
0.0
 20
0.0
 30
0.0
  3
hole-φ16
  1

  0
CIRCLE
  5
82F4
330
82F2
100
AcDbEntity
  8
02実線
100
AcDbCircle
 10
0.0
 20
0.0
 30
0.0
 40
8.0
  0
LINE
  5
82F5
330
82F2
100
AcDbEntity
  8
04一点鎖線
  6
CENTER
 48
0.2
100
AcDbLine
 10
0.0
 20
-20.0
 30
0.0
 11
0.0
 21
20.0
 31
0.0
  0
LINE
  5
82F6
330
82F2
100
AcDbEntity
  8
04一点鎖線
  6
CENTER
 48
0.2
100
AcDbLine
 10
-20.0
 20
0.0
 30
0.0
 11
20.0
 21
0.0
 31
0.0
  0
ENDBLK
  5
82F7
330
82F2
100
AcDbEntity
  8
0
100
AcDbBlockEnd
  0
BLOCK
  5
EE67
330
EE66
100
AcDbEntity
  8
0
100
AcDbBlockBegin
  2
*D1102
 70
     1
 10
0.0
 20
0.0
 30
0.0
  3
*D1102
  1

  0
LINE
  5
EE69
330
EE66
100
AcDbEntity
  8
01注記寸法
 62
     0
370
    -2
100
AcDbLine
 10
435.0
 20
1200.0
 30
0.0
 11
290.0000000000011
 21
1200.0
 31
0.0
  0
LINE
  5
EE6A
330
EE66
100
AcDbEntity
  8
01注記寸法
 62
     0
370
    -2
100
AcDbLine
 10
385.0000000000011
 20
1400.0
 30
0.0
 11
290.0000000000011
 21
1400.0
 31
0.0
  0
LINE
  5
EE6B
330
EE66
100
AcDbEntity
  8
01注記寸法
 62
     0
370
    -2
100
AcDbLine
 10
300.0000000000011
 20
1230.0
 30
0.0
 11
300.0000000000011
 21
1370.0
 31
0.0
  0
INSERT
  5
EE6C
330
EE66
100
AcDbEntity
  8
01注記寸法
 62
     0
370
    -2
100
AcDbBlockReference
  2
_Open
 10
300.0000000000011
 20
1200.0
 30
0.0
 41
30.0
 42
30.0
 43
30.0
 50
270.0
  0
INSERT
  5
EE6D
330
EE66
100
AcDbEntity
  8
01注記寸法
 62
     0
370
    -2
100
AcDbBlockReference
  2
_Open
 10
300.0000000000011
 20
1400.0
 30
0.0
 41
30.0
 42
30.0
 43
30.0
 50
90.0
  0
MTEXT
  5
EE6E
330
EE66
100
AcDbEntity
  8
01注記寸法
 62
     0
100
AcDbMText
 10
274.9943728898347
 20
1300.0
 30
0.0
 40
30.0
 41
0.0
 71
     5
 72
     1
  1
200
 11
0.0
 21
1.0
 31
0.0
 73
     1
 44
1.0
  0
POINT
  5
EE6F
330
EE66
100
AcDbEntity
  8
Defpoints
 62
     0
100
AcDbPoint
 10
450.0
 20
1200.0
 30
0.0
  0
POINT
  5
EE70
330
EE66
100
AcDbEntity
  8
Defpoints
 62
     0
100
AcDbPoint
 10
400.0000000000011
 20
1400.0
 30
0.0
  0
POINT
  5
EE71
330
EE66
100
AcDbEntity
  8
Defpoints
 62
     0
100
AcDbPoint
 10
300.0000000000011
 20
1400.0
 30
0.0
  0
ENDBLK
  5
EE68
330
EE66
100
AcDbEntity
  8
0
100
AcDbBlockEnd
  0
BLOCK
  5
EE73
330
EE72
100
AcDbEntity
  8
0
100
AcDbBlockBegin
  2
*D1103
 70
     1
 10
0.0
 20
0.0
 30
0.0
  3
*D1103
  1

  0
LINE
  5
EE75
330
EE72
100
AcDbEntity
  8
01注記寸法
 62
     0
370
    -2
100
AcDbLine
 10
385.0000000000011
 20
1400.0
 30
0.0
 11
290.0000000000011
 21
1400.0
 31
0.0
  0
LINE
  5
EE76
330
EE72
100
AcDbEntity
  8
01注記寸法
 62
     0
370
    -2
100
AcDbLine
 10
385.0000000000011
 20
1410.0
 30
0.0
 11
290.0000000000011
 21
1410.0
 31
0.0
  0
LINE
  5
EE77
330
EE72
100
AcDbEntity
  8
01注記寸法
 62
     0
370
    -2
100
AcDbLine
 10
300.0000000000011
 20
1440.0
 30
0.0
 11
300.0000000000011
 21
1545.453763911466
 31
0.0
  0
LINE
  5
EE78
330
EE72
100
AcDbEntity
  8
01注記寸法
 62
     0
370
    -2
100
AcDbLine
 10
300.0000000000011
 20
1400.0
 30
0.0
 11
300.0000000000011
 21
1410.0
 31
0.0
  0
LINE
  5
EE79
330
EE72
100
AcDbEntity
  8
01注記寸法
 62
     0
370
    -2
100
AcDbLine
 10
300.0000000000011
 20
1370.0
 30
0.0
 11
300.0000000000011
 21
1340.0
 31
0.0
  0
INSERT
  5
EE7A
330
EE72
100
AcDbEntity
  8
01注記寸法
 62
     0
370
    -2
100
AcDbBlockReference
  2
_Open
 10
300.0000000000011
 20
1400.0
 30
0.0
 41
30.0
 42
30.0
 43
30.0
 50
90.0
  0
INSERT
  5
EE7B
330
EE72
100
AcDbEntity
  8
01注記寸法
 62
     0
370
    -2
100
AcDbBlockReference
  2
_Open
 10
300.0000000000011
 20
1410.0
 30
0.0
 41
30.0
 42
30.0
 43
30.0
 50
270.0
  0
MTEXT
  5
EE7C
330
EE72
100
AcDbEntity
  8
01注記寸法
 62
     0
100
AcDbMText
 10
274.9943728898347
 20
1507.726881955733
 30
0.0
 40
30.0
 41
0.0
 71
     5
 72
     1
  1
t10
 11
0.0
 21
1.0
 31
0.0
 73
     1
 44
1.0
  0
POINT
  5
EE7D
330
EE72
100
AcDbEntity
  8
Defpoints
 62
     0
100
AcDbPoint
 10
400.0000000000011
 20
1400.0
 30
0.0
  0
POINT
  5
EE7E
330
EE72
100
AcDbEntity
  8
Defpoints
 62
     0
100
AcDbPoint
 10
400.0000000000011
 20
1410.0
 30
0.0
  0
POINT
  5
EE7F
330
EE72
100
AcDbEntity
  8
Defpoints
 62
     0
100
AcDbPoint
 10
300.0000000000011
 20
1410.0
 30
0.0
  0
ENDBLK
  5
EE74
330
EE72
100
AcDbEntity
  8
0
100
AcDbBlockEnd
  0
BLOCK
  5
EE81
330
EE80
100
AcDbEntity
  8
0
100
AcDbBlockBegin
  2
*D1104
 70
     1
 10
0.0
 20
0.0
 30
0.0
  3
*D1104
  1

  0
LINE
  5
EE83
330
EE80
100
AcDbEntity
  8
08非表示
 62
     0
370
    -2
100
AcDbLine
 10
2415.0
 20
1425.0
 30
0.0
 11
2415.0
 21
1510.0
 31
0.0
  0
LINE
  5
EE84
330
EE80
100
AcDbEntity
  8
08非表示
 62
     0
370
    -2
100
AcDbLine
 10
3100.0
 20
1425.0
 30
0.0
 11
3100.0
 21
1510.0
 31
0.0
  0
LINE
  5
EE85
330
EE80
100
AcDbEntity
  8
08非表示
 62
     0
370
    -2
100
AcDbLine
 10
2445.0
 20
1500.0
 30
0.0
 11
3070.0
 21
1500.0
 31
0.0
  0
INSERT
  5
EE86
330
EE80
100
AcDbEntity
  8
08非表示
 62
     0
370
    -2
100
AcDbBlockReference
  2
_Open
 10
2415.0
 20
1500.0
 30
0.0
 41
30.0
 42
30.0
 43
30.0
 50
180.0
  0
INSERT
  5
EE87
330
EE80
100
AcDbEntity
  8
08非表示
 62
     0
370
    -2
100
AcDbBlockReference
  2
_Open
 10
3100.0
 20
1500.0
 30
0.0
 41
30.0
 42
30.0
 43
30.0
  0
MTEXT
  5
EE88
330
EE80
100
AcDbEntity
  8
08非表示
 62
     0
100
AcDbMText
 10
2757.5
 20
1525.005627110166
 30
0.0
 40
30.0
 41
0.0
 71
     5
 72
     1
  1
685
 73
     1
 44
1.0
  0
POINT
  5
EE89
330
EE80
100
AcDbEntity
  8
Defpoints
 62
     0
100
AcDbPoint
 10
2415.0
 20
1410.0
 30
0.0
  0
POINT
  5
EE8A
330
EE80
100
AcDbEntity
  8
Defpoints
 62
     0
100
AcDbPoint
 10
3100.0
 20
1410.0
 30
0.0
  0
POINT
  5
EE8B
330
EE80
100
AcDbEntity
  8
Defpoints
 62
     0
100
AcDbPoint
 10
3100.0
 20
1500.0
 30
0.0
  0
ENDBLK
  5
EE82
330
EE80
100
AcDbEntity
  8
0
100
AcDbBlockEnd
  0
BLOCK
  5
EE8D
330
EE8C
100
AcDbEntity
  8
0
100
AcDbBlockBegin
  2
*D1105
 70
     1
 10
0.0
 20
0.0
 30
0.0
  3
*D1105
  1

  0
LINE
  5
EE8F
330
EE8C
100
AcDbEntity
  8
01注記寸法
 62
     0
370
    -2
100
AcDbLine
 10
435.0
 20
1785.0
 30
0.0
 11
190.0
 21
1785.0
 31
0.0
  0
LINE
  5
EE90
330
EE8C
100
AcDbEntity
  8
01注記寸法
 62
     0
370
    -2
100
AcDbLine
 10
435.0
 20
2470.0
 30
0.0
 11
190.0
 21
2470.0
 31
0.0
  0
LINE
  5
EE91
330
EE8C
100
AcDbEntity
  8
01注記寸法
 62
     0
370
    -2
100
AcDbLine
 10
200.0
 20
1815.0
 30
0.0
 11
200.0
 21
2440.0
 31
0.0
  0
INSERT
  5
EE92
330
EE8C
100
AcDbEntity
  8
01注記寸法
 62
     0
370
    -2
100
AcDbBlockReference
  2
_Open
 10
200.0
 20
1785.0
 30
0.0
 41
30.0
 42
30.0
 43
30.0
 50
270.0
  0
INSERT
  5
EE93
330
EE8C
100
AcDbEntity
  8
01注記寸法
 62
     0
370
    -2
100
AcDbBlockReference
  2
_Open
 10
200.0
 20
2470.0
 30
0.0
 41
30.0
 42
30.0
 43
30.0
 50
90.0
  0
MTEXT
  5
EE94
330
EE8C
100
AcDbEntity
  8
01注記寸法
 62
     0
100
AcDbMText
 10
174.9943728898338
 20
2127.5
 30
0.0
 40
30.0
 41
0.0
 71
     5
 72
     1
  1
685
 11
4.149154661372848E-17
 21
1.0
 31
0.0
 73
     1
 44
1.0
  0
POINT
  5
EE95
330
EE8C
100
AcDbEntity
  8
Defpoints
 62
     0
100
AcDbPoint
 10
450.0
 20
1785.0
 30
0.0
  0
POINT
  5
EE96
330
EE8C
100
AcDbEntity
  8
Defpoints
 62
     0
100
AcDbPoint
 10
450.0
 20
2470.0
 30
0.0
  0
POINT
  5
EE97
330
EE8C
100
AcDbEntity
  8
Defpoints
 62
     0
100
AcDbPoint
 10
200.0
 20
2470.0
 30
0.0
  0
ENDBLK
  5
EE8E
330
EE8C
100
AcDbEntity
  8
0
100
AcDbBlockEnd
  0
BLOCK
  5
EE99
330
EE98
100
AcDbEntity
  8
0
100
AcDbBlockBegin
  2
*D1106
 70
     1
 10
0.0
 20
0.0
 30
0.0
  3
*D1106
  1

  0
LINE
  5
EE9B
330
EE98
100
AcDbEntity
  8
01注記寸法
 62
     0
370
    -2
100
AcDbLine
 10
424.9999999999986
 20
2445.0
 30
0.0
 11
424.9999999999986
 21
2680.0
 31
0.0
  0
LINE
  5
EE9C
330
EE98
100
AcDbEntity
  8
01注記寸法
 62
     0
370
    -2
100
AcDbLine
 10
2260.000000000001
 20
2445.0
 30
0.0
 11
2260.000000000001
 21
2680.0
 31
0.0
  0
LINE
  5
EE9D
330
EE98
100
AcDbEntity
  8
01注記寸法
 62
     0
370
    -2
100
AcDbLine
 10
454.9999999999986
 20
2670.0
 30
0.0
 11
2230.000000000001
 21
2670.0
 31
0.0
  0
INSERT
  5
EE9E
330
EE98
100
AcDbEntity
  8
01注記寸法
 62
     0
370
    -2
100
AcDbBlockReference
  2
_Open
 10
424.9999999999986
 20
2670.0
 30
0.0
 41
30.0
 42
30.0
 43
30.0
 50
180.0
  0
INSERT
  5
EE9F
330
EE98
100
AcDbEntity
  8
01注記寸法
 62
     0
370
    -2
100
AcDbBlockReference
  2
_Open
 10
2260.000000000001
 20
2670.0
 30
0.0
 41
30.0
 42
30.0
 43
30.0
  0
MTEXT
  5
EEA0
330
EE98
100
AcDbEntity
  8
01注記寸法
 62
     0
100
AcDbMText
 10
1342.5
 20
2695.005627110166
 30
0.0
 40
30.0
 41
0.0
 71
     5
 72
     1
  1
1835
 73
     1
 44
1.0
  0
POINT
  5
EEA1
330
EE98
100
AcDbEntity
  8
Defpoints
 62
     0
100
AcDbPoint
 10
424.9999999999986
 20
2430.0
 30
0.0
  0
POINT
  5
EEA2
330
EE98
100
AcDbEntity
  8
Defpoints
 62
     0
100
AcDbPoint
 10
2260.000000000001
 20
2430.0
 30
0.0
  0
POINT
  5
EEA3
330
EE98
100
AcDbEntity
  8
Defpoints
 62
     0
100
AcDbPoint
 10
2260.000000000001
 20
2670.0
 30
0.0
  0
ENDBLK
  5
EE9A
330
EE98
100
AcDbEntity
  8
0
100
AcDbBlockEnd
  0
BLOCK
  5
11E66
330
11E63
100
AcDbEntity
  8
0
100
AcDbBlockBegin
  2
シール(検査済)
 70
     0
 10
0.0
 20
0.0
 30
0.0
  3
シール(検査済)
  1

  0
LWPOLYLINE
  5
11E64
330
11E63
100
AcDbEntity
  8
07その他
100
AcDbPolyline
 90
        4
 70
     1
 43
0.0
 10
0.0
 20
0.0
 10
0.0
 20
25.0
 10
75.0
 20
25.0
 10
75.0
 20
0.0
  0
TEXT
  5
11E65
330
11E63
100
AcDbEntity
  8
08非表示
100
AcDbText
 10
8.25
 20
5.0
 30
0.0
 40
15.0
  1
検査済
 72
     1
 11
37.5
 21
12.5
 31
0.0
100
AcDbText
 73
     2
  0
ENDBLK
  5
11E67
330
11E63
100
AcDbEntity
  8
0
100
AcDbBlockEnd
  0
BLOCK
  5
11E6C
330
11E69
100
AcDbEntity
  8
0
100
AcDbBlockBegin
  2
シール(型式)
 70
     0
 10
0.0
 20
0.0
 30
0.0
  3
シール(型式)
  1

  0
LWPOLYLINE
  5
11E6A
330
11E69
100
AcDbEntity
  8
07その他
100
AcDbPolyline
 90
        4
 70
     1
 43
0.0
 10
0.0
 20
0.0
 10
0.0
 20
24.0
 10
94.0
 20
24.0
 10
94.0
 20
0.0
  0
TEXT
  5
11E6B
330
11E69
100
AcDbEntity
  8
08非表示
100
AcDbText
 10
27.5
 20
5.0
 30
0.0
 40
15.0
  1
型式
 72
     1
 11
47.0
 21
12.5
 31
0.0
100
AcDbText
 73
     2
  0
ENDBLK
  5
11E6D
330
11E69
100
AcDbEntity
  8
0
100
AcDbBlockEnd
  0
BLOCK
  5
125C9
330
125C8
100
AcDbEntity
  8
0
100
AcDbBlockBegin
  2
*D1735
 70
     1
 10
0.0
 20
0.0
 30
0.0
  3
*D1735
  1

  0
LINE
  5
125CB
330
125C8
100
AcDbEntity
  8
01注記寸法
 62
     0
370
    -2
100
AcDbLine
 10
2750.000000000001
 20
550.0000000000009
 30
0.0
 11
2750.000000000001
 21
645.0000000000009
 31
0.0
  0
LINE
  5
125CC
330
125C8
100
AcDbEntity
  8
01注記寸法
 62
     0
370
    -2
100
AcDbLine
 10
2975.000000000001
 20
520.0000000000005
 30
0.0
 11
2975.000000000001
 21
645.0000000000009
 31
0.0
  0
LINE
  5
125CD
330
125C8
100
AcDbEntity
  8
01注記寸法
 62
     0
370
    -2
100
AcDbLine
 10
2780.000000000001
 20
635.0000000000009
 30
0.0
 11
2945.000000000001
 21
635.0000000000009
 31
0.0
  0
INSERT
  5
125CE
330
125C8
100
AcDbEntity
  8
01注記寸法
 62
     0
370
    -2
100
AcDbBlockReference
  2
_Open
 10
2750.000000000001
 20
635.0000000000009
 30
0.0
 41
30.0
 42
30.0
 43
30.0
 50
180.0
  0
INSERT
  5
125CF
330
125C8
100
AcDbEntity
  8
01注記寸法
 62
     0
370
    -2
100
AcDbBlockReference
  2
_Open
 10
2975.000000000001
 20
635.0000000000009
 30
0.0
 41
30.0
 42
30.0
 43
30.0
  0
MTEXT
  5
125D0
330
125C8
100
AcDbEntity
  8
01注記寸法
 62
     0
100
AcDbMText
 10
2862.500000000001
 20
660.0056271101672
 30
0.0
 40
30.0
 41
0.0
 71
     5
 72
     1
  1
75
 73
     1
 44
1.0
  0
POINT
  5
125D1
330
125C8
100
AcDbEntity
  8
Defpoints
 62
     0
100
AcDbPoint
 10
2750.000000000001
 20
535.0000000000009
 30
0.0
  0
POINT
  5
125D2
330
125C8
100
AcDbEntity
  8
Defpoints
 62
     0
100
AcDbPoint
 10
2975.000000000001
 20
505.0000000000005
 30
0.0
  0
POINT
  5
125D3
330
125C8
100
AcDbEntity
  8
Defpoints
 62
     0
100
AcDbPoint
 10
2975.000000000001
 20
635.0000000000009
 30
0.0
  0
ENDBLK
  5
125CA
330
125C8
100
AcDbEntity
  8
0
100
AcDbBlockEnd
  0
BLOCK
  5
125D5
330
125D4
100
AcDbEntity
  8
0
100
AcDbBlockBegin
  2
*D1736
 70
     1
 10
0.0
 20
0.0
 30
0.0
  3
*D1736
  1

  0
LINE
  5
125D7
330
125D4
100
AcDbEntity
  8
01注記寸法
 62
     0
370
    -2
100
AcDbLine
 10
2900.000000000001
 20
445.0000000000005
 30
0.0
 11
2640.000000000001
 21
445.0000000000005
 31
0.0
  0
LINE
  5
125D8
330
125D4
100
AcDbEntity
  8
01注記寸法
 62
     0
370
    -2
100
AcDbLine
 10
2735.000000000001
 20
535.0000000000009
 30
0.0
 11
2640.000000000001
 21
535.0000000000009
 31
0.0
  0
LINE
  5
125D9
330
125D4
100
AcDbEntity
  8
01注記寸法
 62
     0
370
    -2
100
AcDbLine
 10
2650.000000000001
 20
475.0000000000005
 30
0.0
 11
2650.000000000001
 21
505.0000000000009
 31
0.0
  0
INSERT
  5
125DA
330
125D4
100
AcDbEntity
  8
01注記寸法
 62
     0
370
    -2
100
AcDbBlockReference
  2
_Open
 10
2650.000000000001
 20
445.0000000000005
 30
0.0
 41
30.0
 42
30.0
 43
30.0
 50
270.0
  0
INSERT
  5
125DB
330
125D4
100
AcDbEntity
  8
01注記寸法
 62
     0
370
    -2
100
AcDbBlockReference
  2
_Open
 10
2650.000000000001
 20
535.0000000000009
 30
0.0
 41
30.0
 42
30.0
 43
30.0
 50
90.0
  0
MTEXT
  5
125DC
330
125D4
100
AcDbEntity
  8
01注記寸法
 62
     0
100
AcDbMText
 10
2624.994372889835
 20
490.0000000000007
 30
0.0
 40
30.0
 41
0.0
 71
     5
 72
     1
  1
30
 11
0.0
 21
1.0
 31
0.0
 73
     1
 44
1.0
  0
POINT
  5
125DD
330
125D4
100
AcDbEntity
  8
Defpoints
 62
     0
100
AcDbPoint
 10
2915.000000000001
 20
445.0000000000005
 30
0.0
  0
POINT
  5
125DE
330
125D4
100
AcDbEntity
  8
Defpoints
 62
     0
100
AcDbPoint
 10
2750.000000000001
 20
535.0000000000009
 30
0.0
  0
POINT
  5
125DF
330
125D4
100
AcDbEntity
  8
Defpoints
 62
     0
100
AcDbPoint
 10
2650.000000000001
 20
535.0000000000009
 30
0.0
  0
ENDBLK
  5
125D6
330
125D4
100
AcDbEntity
  8
0
100
AcDbBlockEnd
  0
BLOCK
  5
12623
330
12622
100
AcDbEntity
  8
0
100
AcDbBlockBegin
  2
*D1741
 70
     1
 10
0.0
 20
0.0
 30
0.0
  3
*D1741
  1

  0
LINE
  5
12625
330
12622
100
AcDbEntity
  8
01注記寸法
 62
     0
370
    -2
100
AcDbLine
 10
2822.036232337128
 20
225.0
 30
0.0
 11
2900.000000000001
 21
225.0
 31
0.0
  0
LINE
  5
12626
330
12622
100
AcDbEntity
  8
01注記寸法
 62
     0
370
    -2
100
AcDbLine
 10
2900.000000000001
 20
225.0
 30
0.0
 11
2957.575607899441
 21
393.8884498383594
 31
0.0
  0
LINE
  5
12627
330
12622
100
AcDbEntity
  8
01注記寸法
 62
     0
370
    -2
100
AcDbLine
 10
2992.42439210056
 20
496.1115501616415
 30
0.0
 11
3002.104609934205
 21
524.5068558069977
 31
0.0
  0
MTEXT
  5
12628
330
12622
100
AcDbEntity
  8
01注記寸法
 62
     0
100
AcDbMText
 10
2856.018116168565
 20
252.4421658121796
 30
0.0
 40
30.0
 41
0.0
 71
     5
 72
     1
  1
φ16
 73
     1
 44
1.0
  0
LINE
  5
12629
330
12622
100
AcDbEntity
  8
01注記寸法
 62
     0
370
    -2
100
AcDbLine
 10
2982.744174266916
 20
467.7162445162853
 30
0.0
 11
2967.255825733086
 21
422.2837554837156
 31
0.0
  0
INSERT
  5
1262A
330
12622
100
AcDbEntity
  8
01注記寸法
 62
     0
370
    -2
100
AcDbBlockReference
  2
_Open
 10
2982.744174266916
 20
467.7162445162853
 30
0.0
 41
30.0
 42
30.0
 43
30.0
 50
251.17528998176
  0
INSERT
  5
1262B
330
12622
100
AcDbEntity
  8
01注記寸法
 62
     0
370
    -2
100
AcDbBlockReference
  2
_Open
 10
2967.255825733086
 20
422.2837554837156
 30
0.0
 41
30.0
 42
30.0
 43
30.0
 50
71.17528998176003
  0
POINT
  5
1262C
330
12622
100
AcDbEntity
  8
Defpoints
 62
     0
100
AcDbPoint
 10
2967.255825733086
 20
422.2837554837156
 30
0.0
  0
POINT
  5
1262D
330
12622
100
AcDbEntity
  8
Defpoints
 62
     0
100
AcDbPoint
 10
2982.744174266916
 20
467.7162445162853
 30
0.0
  0
ENDBLK
  5
12624
330
12622
100
AcDbEntity
  8
0
100
AcDbBlockEnd
  0
BLOCK
  5
12823
330
12822
100
AcDbEntity
  8
0
100
AcDbBlockBegin
  2
*D1750
 70
     1
 10
0.0
 20
0.0
 30
0.0
  3
*D1750
  1

  0
LINE
  5
12825
330
12822
100
AcDbEntity
  8
01注記寸法
 62
     0
370
    -2
100
AcDbLine
 10
435.0
 20
2470.0
 30
0.0
 11
290.0
 21
2470.0
 31
0.0
  0
LINE
  5
12826
330
12822
100
AcDbEntity
  8
01注記寸法
 62
     0
370
    -2
100
AcDbLine
 10
389.9999999999986
 20
2410.0
 30
0.0
 11
290.0
 21
2410.0
 31
0.0
  0
LINE
  5
12827
330
12822
100
AcDbEntity
  8
01注記寸法
 62
     0
370
    -2
100
AcDbLine
 10
300.0
 20
2470.0
 30
0.0
 11
300.0
 21
2410.0
 31
0.0
  0
LINE
  5
12828
330
12822
100
AcDbEntity
  8
01注記寸法
 62
     0
370
    -2
100
AcDbLine
 10
300.0
 20
2500.0
 30
0.0
 11
300.0
 21
2530.0
 31
0.0
  0
LINE
  5
12829
330
12822
100
AcDbEntity
  8
01注記寸法
 62
     0
370
    -2
100
AcDbLine
 10
300.0
 20
2380.0
 30
0.0
 11
300.0
 21
2350.0
 31
0.0
  0
INSERT
  5
1282A
330
12822
100
AcDbEntity
  8
01注記寸法
 62
     0
370
    -2
100
AcDbBlockReference
  2
_Open
 10
300.0
 20
2470.0
 30
0.0
 41
30.0
 42
30.0
 43
30.0
 50
270.0
  0
INSERT
  5
1282B
330
12822
100
AcDbEntity
  8
01注記寸法
 62
     0
370
    -2
100
AcDbBlockReference
  2
_Open
 10
300.0
 20
2410.0
 30
0.0
 41
30.0
 42
30.0
 43
30.0
 50
90.0
  0
MTEXT
  5
1282C
330
12822
100
AcDbEntity
  8
01注記寸法
 62
     0
100
AcDbMText
 10
275.0
 20
2440.0
 30
0.0
 40
30.0
 41
0.0
 71
     5
 72
     1
  1
60
 11
0.0
 21
1.0
 31
0.0
 73
     1
 44
1.0
  0
POINT
  5
1282D
330
12822
100
AcDbEntity
  8
Defpoints
 62
     0
100
AcDbPoint
 10
450.0
 20
2470.0
 30
0.0
  0
POINT
  5
1282E
330
12822
100
AcDbEntity
  8
Defpoints
 62
     0
100
AcDbPoint
 10
404.9999999999986
 20
2410.0
 30
0.0
  0
POINT
  5
1282F
330
12822
100
AcDbEntity
  8
Defpoints
 62
     0
100
AcDbPoint
 10
300.0
 20
2410.0
 30
0.0
  0
ENDBLK
  5
12824
330
12822
100
AcDbEntity
  8
0
100
AcDbBlockEnd
  0
BLOCK
  5
12832
330
12831
100
AcDbEntity
  8
0
100
AcDbBlockBegin
  2
*D1751
 70
     1
 10
0.0
 20
0.0
 30
0.0
  3
*D1751
  1

  0
LINE
  5
12834
330
12831
100
AcDbEntity
  8
01注記寸法
 62
     0
370
    -2
100
AcDbLine
 10
389.9999999999986
 20
2410.0
 30
0.0
 11
290.0000000000001
 21
2410.0
 31
0.0
  0
LINE
  5
12835
330
12831
100
AcDbEntity
  8
01注記寸法
 62
     0
370
    -2
100
AcDbLine
 10
389.9999999999991
 20
1850.0
 30
0.0
 11
290.0
 21
1850.0
 31
0.0
  0
LINE
  5
12836
330
12831
100
AcDbEntity
  8
01注記寸法
 62
     0
370
    -2
100
AcDbLine
 10
300.0000000000001
 20
2380.0
 30
0.0
 11
300.0
 21
1880.0
 31
0.0
  0
INSERT
  5
12837
330
12831
100
AcDbEntity
  8
01注記寸法
 62
     0
370
    -2
100
AcDbBlockReference
  2
_Open
 10
300.0000000000001
 20
2410.0
 30
0.0
 41
30.0
 42
30.0
 43
30.0
 50
90.0
  0
INSERT
  5
12838
330
12831
100
AcDbEntity
  8
01注記寸法
 62
     0
370
    -2
100
AcDbBlockReference
  2
_Open
 10
300.0
 20
1850.0
 30
0.0
 41
30.0
 42
30.0
 43
30.0
 50
270.0
  0
MTEXT
  5
12839
330
12831
100
AcDbEntity
  8
01注記寸法
 62
     0
100
AcDbMText
 10
274.9943728898338
 20
2130.0
 30
0.0
 40
30.0
 41
0.0
 71
     5
 72
     1
  1
560
 11
1.015061051085856E-16
 21
1.0
 31
0.0
 73
     1
 44
1.0
  0
POINT
  5
1283A
330
12831
100
AcDbEntity
  8
Defpoints
 62
     0
100
AcDbPoint
 10
404.9999999999986
 20
2410.0
 30
0.0
  0
POINT
  5
1283B
330
12831
100
AcDbEntity
  8
Defpoints
 62
     0
100
AcDbPoint
 10
404.9999999999991
 20
1850.0
 30
0.0
  0
POINT
  5
1283C
330
12831
100
AcDbEntity
  8
Defpoints
 62
     0
100
AcDbPoint
 10
300.0
 20
1850.0
 30
0.0
  0
ENDBLK
  5
12833
330
12831
100
AcDbEntity
  8
0
100
AcDbBlockEnd
  0
BLOCK
  5
1283F
330
1283E
100
AcDbEntity
  8
0
100
AcDbBlockBegin
  2
*D1752
 70
     1
 10
0.0
 20
0.0
 30
0.0
  3
*D1752
  1

  0
LINE
  5
12841
330
1283E
100
AcDbEntity
  8
01注記寸法
 62
     0
370
    -2
100
AcDbLine
 10
389.9999999999991
 20
1850.0
 30
0.0
 11
290.0
 21
1850.0
 31
0.0
  0
LINE
  5
12842
330
1283E
100
AcDbEntity
  8
01注記寸法
 62
     0
370
    -2
100
AcDbLine
 10
435.0
 20
1785.0
 30
0.0
 11
290.0
 21
1785.0
 31
0.0
  0
LINE
  5
12843
330
1283E
100
AcDbEntity
  8
01注記寸法
 62
     0
370
    -2
100
AcDbLine
 10
300.0
 20
1850.0
 30
0.0
 11
300.0
 21
1785.0
 31
0.0
  0
LINE
  5
12844
330
1283E
100
AcDbEntity
  8
01注記寸法
 62
     0
370
    -2
100
AcDbLine
 10
300.0
 20
1880.0
 30
0.0
 11
300.0
 21
1910.0
 31
0.0
  0
LINE
  5
12845
330
1283E
100
AcDbEntity
  8
01注記寸法
 62
     0
370
    -2
100
AcDbLine
 10
300.0
 20
1755.0
 30
0.0
 11
300.0
 21
1725.0
 31
0.0
  0
INSERT
  5
12846
330
1283E
100
AcDbEntity
  8
01注記寸法
 62
     0
370
    -2
100
AcDbBlockReference
  2
_Open
 10
300.0
 20
1850.0
 30
0.0
 41
30.0
 42
30.0
 43
30.0
 50
270.0
  0
INSERT
  5
12847
330
1283E
100
AcDbEntity
  8
01注記寸法
 62
     0
370
    -2
100
AcDbBlockReference
  2
_Open
 10
300.0
 20
1785.0
 30
0.0
 41
30.0
 42
30.0
 43
30.0
 50
90.0
  0
MTEXT
  5
12848
330
1283E
100
AcDbEntity
  8
01注記寸法
 62
     0
100
AcDbMText
 10
274.9943728898336
 20
1817.5
 30
0.0
 40
30.0
 41
0.0
 71
     5
 72
     1
  1
65
 11
0.0
 21
1.0
 31
0.0
 73
     1
 44
1.0
  0
POINT
  5
12849
330
1283E
100
AcDbEntity
  8
Defpoints
 62
     0
100
AcDbPoint
 10
404.9999999999991
 20
1850.0
 30
0.0
  0
POINT
  5
1284A
330
1283E
100
AcDbEntity
  8
Defpoints
 62
     0
100
AcDbPoint
 10
450.0
 20
1785.0
 30
0.0
  0
POINT
  5
1284B
330
1283E
100
AcDbEntity
  8
Defpoints
 62
     0
100
AcDbPoint
 10
300.0
 20
1785.0
 30
0.0
  0
ENDBLK
  5
12840
330
1283E
100
AcDbEntity
  8
0
100
AcDbBlockEnd
  0
BLOCK
  5
12850
330
1284F
100
AcDbEntity
  8
0
100
AcDbBlockBegin
  2
*D1753
 70
     1
 10
0.0
 20
0.0
 30
0.0
  3
*D1753
  1

  0
LINE
  5
12852
330
1284F
100
AcDbEntity
  8
01注記寸法
 62
     0
370
    -2
100
AcDbLine
 10
2285.000000000001
 20
1810.0
 30
0.0
 11
2285.000000000001
 21
1675.0
 31
0.0
  0
LINE
  5
12853
330
1284F
100
AcDbEntity
  8
01注記寸法
 62
     0
370
    -2
100
AcDbLine
 10
2235.0
 20
1770.0
 30
0.0
 11
2235.0
 21
1675.0
 31
0.0
  0
LINE
  5
12854
330
1284F
100
AcDbEntity
  8
01注記寸法
 62
     0
370
    -2
100
AcDbLine
 10
2205.0
 20
1685.0
 30
0.0
 11
2119.203607602851
 21
1685.0
 31
0.0
  0
LINE
  5
12855
330
1284F
100
AcDbEntity
  8
01注記寸法
 62
     0
370
    -2
100
AcDbLine
 10
2285.000000000001
 20
1685.0
 30
0.0
 11
2235.0
 21
1685.0
 31
0.0
  0
LINE
  5
12856
330
1284F
100
AcDbEntity
  8
01注記寸法
 62
     0
370
    -2
100
AcDbLine
 10
2315.000000000001
 20
1685.0
 30
0.0
 11
2345.000000000001
 21
1685.0
 31
0.0
  0
INSERT
  5
12857
330
1284F
100
AcDbEntity
  8
01注記寸法
 62
     0
370
    -2
100
AcDbBlockReference
  2
_Open
 10
2285.000000000001
 20
1685.0
 30
0.0
 41
30.0
 42
30.0
 43
30.0
 50
180.0
  0
INSERT
  5
12858
330
1284F
100
AcDbEntity
  8
01注記寸法
 62
     0
370
    -2
100
AcDbBlockReference
  2
_Open
 10
2235.0
 20
1685.0
 30
0.0
 41
30.0
 42
30.0
 43
30.0
  0
MTEXT
  5
12859
330
1284F
100
AcDbEntity
  8
01注記寸法
 62
     0
100
AcDbMText
 10
2147.101803801425
 20
1710.005627110166
 30
0.0
 40
30.0
 41
0.0
 71
     5
 72
     1
  1
50
 73
     1
 44
1.0
  0
POINT
  5
1285A
330
1284F
100
AcDbEntity
  8
Defpoints
 62
     0
100
AcDbPoint
 10
2285.000000000001
 20
1825.0
 30
0.0
  0
POINT
  5
1285B
330
1284F
100
AcDbEntity
  8
Defpoints
 62
     0
100
AcDbPoint
 10
2235.0
 20
1785.0
 30
0.0
  0
POINT
  5
1285C
330
1284F
100
AcDbEntity
  8
Defpoints
 62
     0
100
AcDbPoint
 10
2235.0
 20
1685.0
 30
0.0
  0
ENDBLK
  5
12851
330
1284F
100
AcDbEntity
  8
0
100
AcDbBlockEnd
  0
BLOCK
  5
1285F
330
1285E
100
AcDbEntity
  8
0
100
AcDbBlockBegin
  2
*D1754
 70
     1
 10
0.0
 20
0.0
 30
0.0
  3
*D1754
  1

  0
LINE
  5
12861
330
1285E
100
AcDbEntity
  8
01注記寸法
 62
     0
370
    -2
100
AcDbLine
 10
2295.000000000001
 20
1850.0
 30
0.0
 11
2395.0
 21
1850.0
 31
0.0
  0
LINE
  5
12862
330
1285E
100
AcDbEntity
  8
01注記寸法
 62
     0
370
    -2
100
AcDbLine
 10
2300.000000000001
 20
1880.0
 30
0.0
 11
2395.0
 21
1880.0
 31
0.0
  0
LINE
  5
12863
330
1285E
100
AcDbEntity
  8
01注記寸法
 62
     0
370
    -2
100
AcDbLine
 10
2385.0
 20
1910.0
 30
0.0
 11
2385.0
 21
1995.796392397149
 31
0.0
  0
LINE
  5
12864
330
1285E
100
AcDbEntity
  8
01注記寸法
 62
     0
370
    -2
100
AcDbLine
 10
2385.0
 20
1850.0
 30
0.0
 11
2385.0
 21
1880.0
 31
0.0
  0
LINE
  5
12865
330
1285E
100
AcDbEntity
  8
01注記寸法
 62
     0
370
    -2
100
AcDbLine
 10
2385.0
 20
1820.0
 30
0.0
 11
2385.0
 21
1790.0
 31
0.0
  0
INSERT
  5
12866
330
1285E
100
AcDbEntity
  8
01注記寸法
 62
     0
370
    -2
100
AcDbBlockReference
  2
_Open
 10
2385.0
 20
1850.0
 30
0.0
 41
30.0
 42
30.0
 43
30.0
 50
90.0
  0
INSERT
  5
12867
330
1285E
100
AcDbEntity
  8
01注記寸法
 62
     0
370
    -2
100
AcDbBlockReference
  2
_Open
 10
2385.0
 20
1880.0
 30
0.0
 41
30.0
 42
30.0
 43
30.0
 50
270.0
  0
MTEXT
  5
12868
330
1285E
100
AcDbEntity
  8
01注記寸法
 62
     0
100
AcDbMText
 10
2359.994372889833
 20
1967.898196198574
 30
0.0
 40
30.0
 41
0.0
 71
     5
 72
     1
  1
30
 11
0.0
 21
1.0
 31
0.0
 73
     1
 44
1.0
  0
POINT
  5
12869
330
1285E
100
AcDbEntity
  8
Defpoints
 62
     0
100
AcDbPoint
 10
2280.000000000001
 20
1850.0
 30
0.0
  0
POINT
  5
1286A
330
1285E
100
AcDbEntity
  8
Defpoints
 62
     0
100
AcDbPoint
 10
2285.000000000001
 20
1880.0
 30
0.0
  0
POINT
  5
1286B
330
1285E
100
AcDbEntity
  8
Defpoints
 62
     0
100
AcDbPoint
 10
2385.0
 20
1880.0
 30
0.0
  0
ENDBLK
  5
12860
330
1285E
100
AcDbEntity
  8
0
100
AcDbBlockEnd
  0
BLOCK
  5
1286E
330
1286D
100
AcDbEntity
  8
0
100
AcDbBlockBegin
  2
*D1755
 70
     1
 10
0.0
 20
0.0
 30
0.0
  3
*D1755
  1

  0
LINE
  5
12870
330
1286D
100
AcDbEntity
  8
01注記寸法
 62
     0
370
    -2
100
AcDbLine
 10
2295.000000000001
 20
1820.0
 30
0.0
 11
2495.0
 21
1820.0
 31
0.0
  0
LINE
  5
12871
330
1286D
100
AcDbEntity
  8
01注記寸法
 62
     0
370
    -2
100
AcDbLine
 10
2300.000000000001
 20
1880.0
 30
0.0
 11
2495.0
 21
1880.0
 31
0.0
  0
LINE
  5
12872
330
1286D
100
AcDbEntity
  8
01注記寸法
 62
     0
370
    -2
100
AcDbLine
 10
2485.0
 20
1820.0
 30
0.0
 11
2485.0
 21
1880.0
 31
0.0
  0
LINE
  5
12873
330
1286D
100
AcDbEntity
  8
01注記寸法
 62
     0
370
    -2
100
AcDbLine
 10
2485.0
 20
1790.0
 30
0.0
 11
2485.0
 21
1760.0
 31
0.0
  0
LINE
  5
12874
330
1286D
100
AcDbEntity
  8
01注記寸法
 62
     0
370
    -2
100
AcDbLine
 10
2485.0
 20
1910.0
 30
0.0
 11
2485.0
 21
1940.0
 31
0.0
  0
INSERT
  5
12875
330
1286D
100
AcDbEntity
  8
01注記寸法
 62
     0
370
    -2
100
AcDbBlockReference
  2
_Open
 10
2485.0
 20
1820.0
 30
0.0
 41
30.0
 42
30.0
 43
30.0
 50
90.0
  0
INSERT
  5
12876
330
1286D
100
AcDbEntity
  8
01注記寸法
 62
     0
370
    -2
100
AcDbBlockReference
  2
_Open
 10
2485.0
 20
1880.0
 30
0.0
 41
30.0
 42
30.0
 43
30.0
 50
270.0
  0
MTEXT
  5
12877
330
1286D
100
AcDbEntity
  8
01注記寸法
 62
     0
100
AcDbMText
 10
2460.0
 20
1850.0
 30
0.0
 40
30.0
 41
0.0
 71
     5
 72
     1
  1
60
 11
0.0
 21
1.0
 31
0.0
 73
     1
 44
1.0
  0
POINT
  5
12878
330
1286D
100
AcDbEntity
  8
Defpoints
 62
     0
100
AcDbPoint
 10
2280.000000000001
 20
1820.0
 30
0.0
  0
POINT
  5
12879
330
1286D
100
AcDbEntity
  8
Defpoints
 62
     0
100
AcDbPoint
 10
2285.000000000001
 20
1880.0
 30
0.0
  0
POINT
  5
1287A
330
1286D
100
AcDbEntity
  8
Defpoints
 62
     0
100
AcDbPoint
 10
2485.0
 20
1880.0
 30
0.0
  0
ENDBLK
  5
1286F
330
1286D
100
AcDbEntity
  8
0
100
AcDbBlockEnd
  0
BLOCK
  5
1287F
330
1287E
100
AcDbEntity
  8
0
100
AcDbBlockBegin
  2
*D1756
 70
     1
 10
0.0
 20
0.0
 30
0.0
  3
*D1756
  1

  0
LINE
  5
12881
330
1287E
100
AcDbEntity
  8
08非表示
 62
     0
370
    -2
100
AcDbLine
 10
1784.331106178098
 20
756.6666666666656
 30
0.0
 11
1767.638716375848
 21
756.6666666666656
 31
0.0
  0
LINE
  5
12882
330
1287E
100
AcDbEntity
  8
08非表示
 62
     0
370
    -2
100
AcDbLine
 10
1784.331106178098
 20
299.9999999999989
 30
0.0
 11
1767.638716375848
 21
299.9999999999989
 31
0.0
  0
LINE
  5
12883
330
1287E
100
AcDbEntity
  8
08非表示
 62
     0
370
    -2
100
AcDbLine
 10
1777.638716375848
 20
726.6666666666656
 30
0.0
 11
1777.638716375848
 21
329.9999999999989
 31
0.0
  0
INSERT
  5
12884
330
1287E
100
AcDbEntity
  8
08非表示
 62
     0
370
    -2
100
AcDbBlockReference
  2
_Open
 10
1777.638716375848
 20
756.6666666666656
 30
0.0
 41
30.0
 42
30.0
 43
30.0
 50
90.0
  0
INSERT
  5
12885
330
1287E
100
AcDbEntity
  8
08非表示
 62
     0
370
    -2
100
AcDbBlockReference
  2
_Open
 10
1777.638716375848
 20
299.9999999999989
 30
0.0
 41
30.0
 42
30.0
 43
30.0
 50
270.0
  0
MTEXT
  5
12886
330
1287E
100
AcDbEntity
  8
08非表示
 62
     0
100
AcDbMText
 10
1752.633089265682
 20
528.3333333333322
 30
0.0
 40
30.0
 41
0.0
 71
     5
 72
     1
  1
685
 11
0.0
 21
1.0
 31
0.0
 73
     1
 44
1.0
  0
POINT
  5
12887
330
1287E
100
AcDbEntity
  8
Defpoints
 62
     0
100
AcDbPoint
 10
1799.331106178098
 20
756.6666666666656
 30
0.0
  0
POINT
  5
12888
330
1287E
100
AcDbEntity
  8
Defpoints
 62
     0
100
AcDbPoint
 10
1799.331106178098
 20
299.9999999999989
 30
0.0
  0
POINT
  5
12889
330
1287E
100
AcDbEntity
  8
Defpoints
 62
     0
100
AcDbPoint
 10
1777.638716375848
 20
299.9999999999989
 30
0.0
  0
ENDBLK
  5
12880
330
1287E
100
AcDbEntity
  8
0
100
AcDbBlockEnd
  0
BLOCK
  5
1288C
330
1288B
100
AcDbEntity
  8
0
100
AcDbBlockBegin
  2
*D1757
 70
     1
 10
0.0
 20
0.0
 30
0.0
  3
*D1757
  1

  0
LINE
  5
1288E
330
1288B
100
AcDbEntity
  8
08非表示
 62
     0
370
    -2
100
AcDbLine
 10
705.0000033333331
 20
389.9516658977377
 30
0.0
 11
705.0000033333331
 21
421.1056489014875
 31
0.0
  0
LINE
  5
1288F
330
1288B
100
AcDbEntity
  8
08非表示
 62
     0
370
    -2
100
AcDbLine
 10
1894.999996666667
 20
389.9516658977377
 30
0.0
 11
1894.999996666667
 21
421.1056489014875
 31
0.0
  0
LINE
  5
12890
330
1288B
100
AcDbEntity
  8
08非表示
 62
     0
370
    -2
100
AcDbLine
 10
735.0000033333331
 20
411.1056489014875
 30
0.0
 11
1864.999996666667
 21
411.1056489014875
 31
0.0
  0
INSERT
  5
12891
330
1288B
100
AcDbEntity
  8
08非表示
 62
     0
370
    -2
100
AcDbBlockReference
  2
_Open
 10
705.0000033333331
 20
411.1056489014875
 30
0.0
 41
30.0
 42
30.0
 43
30.0
 50
180.0
  0
INSERT
  5
12892
330
1288B
100
AcDbEntity
  8
08非表示
 62
     0
370
    -2
100
AcDbBlockReference
  2
_Open
 10
1894.999996666667
 20
411.1056489014875
 30
0.0
 41
30.0
 42
30.0
 43
30.0
  0
MTEXT
  5
12893
330
1288B
100
AcDbEntity
  8
08非表示
 62
     0
100
AcDbMText
 10
1300.0
 20
436.1112760116538
 30
0.0
 40
30.0
 41
0.0
 71
     5
 72
     1
  1
1785
 73
     1
 44
1.0
  0
POINT
  5
12894
330
1288B
100
AcDbEntity
  8
Defpoints
 62
     0
100
AcDbPoint
 10
705.0000033333331
 20
374.9516658977377
 30
0.0
  0
POINT
  5
12895
330
1288B
100
AcDbEntity
  8
Defpoints
 62
     0
100
AcDbPoint
 10
1894.999996666667
 20
374.9516658977377
 30
0.0
  0
POINT
  5
12896
330
1288B
100
AcDbEntity
  8
Defpoints
 62
     0
100
AcDbPoint
 10
1894.999996666667
 20
411.1056489014875
 30
0.0
  0
ENDBLK
  5
1288D
330
1288B
100
AcDbEntity
  8
0
100
AcDbBlockEnd
  0
BLOCK
  5
12899
330
12898
100
AcDbEntity
  8
0
100
AcDbBlockBegin
  2
*D1758
 70
     1
 10
0.0
 20
0.0
 30
0.0
  3
*D1758
  1

  0
LINE
  5
1289B
330
12898
100
AcDbEntity
  8
01注記寸法
 62
     0
370
    -2
100
AcDbLine
 10
796.274552748029
 20
896.672293776832
 30
0.0
 11
742.0017004284091
 21
896.672293776832
 31
0.0
  0
LINE
  5
1289C
330
12898
100
AcDbEntity
  8
01注記寸法
 62
     0
370
    -2
100
AcDbLine
 10
742.0017004284091
 20
896.672293776832
 30
0.0
 11
730.0000033333331
 21
856.6666666666657
 31
0.0
  0
LINE
  5
1289D
330
12898
100
AcDbEntity
  8
01注記寸法
 62
     0
370
    -2
100
AcDbLine
 10
705.0000033333331
 20
771.6666666666656
 30
0.0
 11
705.0000033333331
 21
866.6666666666657
 31
0.0
  0
LINE
  5
1289E
330
12898
100
AcDbEntity
  8
01注記寸法
 62
     0
370
    -2
100
AcDbLine
 10
755.0000033333331
 20
764.999999999999
 30
0.0
 11
755.0000033333331
 21
866.6666666666657
 31
0.0
  0
LINE
  5
1289F
330
12898
100
AcDbEntity
  8
01注記寸法
 62
     0
370
    -2
100
AcDbLine
 10
705.0000033333331
 20
856.6666666666657
 30
0.0
 11
755.0000033333331
 21
856.6666666666657
 31
0.0
  0
LINE
  5
128A0
330
12898
100
AcDbEntity
  8
01注記寸法
 62
     0
370
    -2
100
AcDbLine
 10
675.0000033333331
 20
856.6666666666657
 30
0.0
 11
645.0000033333331
 21
856.6666666666657
 31
0.0
  0
LINE
  5
128A1
330
12898
100
AcDbEntity
  8
01注記寸法
 62
     0
370
    -2
100
AcDbLine
 10
785.0000033333331
 20
856.6666666666657
 30
0.0
 11
815.0000033333331
 21
856.6666666666657
 31
0.0
  0
INSERT
  5
128A2
330
12898
100
AcDbEntity
  8
01注記寸法
 62
     0
370
    -2
100
AcDbBlockReference
  2
_Open
 10
705.0000033333331
 20
856.6666666666657
 30
0.0
 41
30.0
 42
30.0
 43
30.0
  0
INSERT
  5
128A3
330
12898
100
AcDbEntity
  8
01注記寸法
 62
     0
370
    -2
100
AcDbBlockReference
  2
_Open
 10
755.0000033333331
 20
856.6666666666657
 30
0.0
 41
30.0
 42
30.0
 43
30.0
 50
180.0
  0
MTEXT
  5
128A4
330
12898
100
AcDbEntity
  8
01注記寸法
 62
     0
100
AcDbMText
 10
769.138126588219
 20
921.6779208869983
 30
0.0
 40
30.0
 41
0.0
 71
     5
 72
     1
  1
75
 73
     1
 44
1.0
  0
POINT
  5
128A5
330
12898
100
AcDbEntity
  8
Defpoints
 62
     0
100
AcDbPoint
 10
705.0000033333331
 20
756.6666666666656
 30
0.0
  0
POINT
  5
128ED
330
12898
100
AcDbEntity
  8
Defpoints
 62
     0
100
AcDbPoint
 10
755.0000033333331
 20
749.999999999999
 30
0.0
  0
POINT
  5
128EE
330
12898
100
AcDbEntity
  8
Defpoints
 62
     0
100
AcDbPoint
 10
755.0000033333331
 20
856.6666666666657
 30
0.0
  0
ENDBLK
  5
1289A
330
12898
100
AcDbEntity
  8
0
100
AcDbBlockEnd
  0
BLOCK
  5
128A8
330
128A7
100
AcDbEntity
  8
0
100
AcDbBlockBegin
  2
*D1759
 70
     1
 10
0.0
 20
0.0
 30
0.0
  3
*D1759
  1

  0
LINE
  5
128AA
330
128A7
100
AcDbEntity
  8
01注記寸法
 62
     0
370
    -2
100
AcDbLine
 10
755.0000033333331
 20
764.999999999999
 30
0.0
 11
755.0000033333331
 21
866.6666666666657
 31
0.0
  0
LINE
  5
128AB
330
128A7
100
AcDbEntity
  8
01注記寸法
 62
     0
370
    -2
100
AcDbLine
 10
1300.000003333333
 20
764.999999999999
 30
0.0
 11
1300.000003333333
 21
866.6666666666657
 31
0.0
  0
LINE
  5
128AC
330
128A7
100
AcDbEntity
  8
01注記寸法
 62
     0
370
    -2
100
AcDbLine
 10
785.0000033333331
 20
856.6666666666657
 30
0.0
 11
1270.000003333333
 21
856.6666666666657
 31
0.0
  0
INSERT
  5
128AD
330
128A7
100
AcDbEntity
  8
01注記寸法
 62
     0
370
    -2
100
AcDbBlockReference
  2
_Open
 10
755.0000033333331
 20
856.6666666666657
 30
0.0
 41
30.0
 42
30.0
 43
30.0
 50
180.0
  0
INSERT
  5
128AE
330
128A7
100
AcDbEntity
  8
01注記寸法
 62
     0
370
    -2
100
AcDbBlockReference
  2
_Open
 10
1300.000003333333
 20
856.6666666666657
 30
0.0
 41
30.0
 42
30.0
 43
30.0
  0
MTEXT
  5
128AF
330
128A7
100
AcDbEntity
  8
01注記寸法
 62
     0
100
AcDbMText
 10
1027.500003333333
 20
881.672293776832
 30
0.0
 40
30.0
 41
0.0
 71
     5
 72
     1
  1
817.5
 73
     1
 44
1.0
  0
POINT
  5
128B0
330
128A7
100
AcDbEntity
  8
Defpoints
 62
     0
100
AcDbPoint
 10
755.0000033333331
 20
749.999999999999
 30
0.0
  0
POINT
  5
128B1
330
128A7
100
AcDbEntity
  8
Defpoints
 62
     0
100
AcDbPoint
 10
1300.000003333333
 20
749.999999999999
 30
0.0
  0
POINT
  5
128B2
330
128A7
100
AcDbEntity
  8
Defpoints
 62
     0
100
AcDbPoint
 10
1300.000003333333
 20
856.6666666666657
 30
0.0
  0
ENDBLK
  5
128A9
330
128A7
100
AcDbEntity
  8
0
100
AcDbBlockEnd
  0
BLOCK
  5
128B5
330
128B4
100
AcDbEntity
  8
0
100
AcDbBlockBegin
  2
*D1760
 70
     1
 10
0.0
 20
0.0
 30
0.0
  3
*D1760
  1

  0
LINE
  5
128B7
330
128B4
100
AcDbEntity
  8
01注記寸法
 62
     0
370
    -2
100
AcDbLine
 10
1844.999996666667
 20
764.999999999999
 30
0.0
 11
1844.999996666667
 21
866.6666666666657
 31
0.0
  0
LINE
  5
128B8
330
128B4
100
AcDbEntity
  8
01注記寸法
 62
     0
370
    -2
100
AcDbLine
 10
1894.999996666667
 20
771.6666666666656
 30
0.0
 11
1894.999996666667
 21
866.6666666666657
 31
0.0
  0
LINE
  5
128B9
330
128B4
100
AcDbEntity
  8
01注記寸法
 62
     0
370
    -2
100
AcDbLine
 10
1924.999996666667
 20
856.6666666666657
 30
0.0
 11
2009.272848986286
 21
856.6666666666657
 31
0.0
  0
LINE
  5
128BA
330
128B4
100
AcDbEntity
  8
01注記寸法
 62
     0
370
    -2
100
AcDbLine
 10
1844.999996666667
 20
856.6666666666657
 30
0.0
 11
1894.999996666667
 21
856.6666666666657
 31
0.0
  0
LINE
  5
128BB
330
128B4
100
AcDbEntity
  8
01注記寸法
 62
     0
370
    -2
100
AcDbLine
 10
1814.999996666667
 20
856.6666666666657
 30
0.0
 11
1784.999996666667
 21
856.6666666666657
 31
0.0
  0
INSERT
  5
128BC
330
128B4
100
AcDbEntity
  8
01注記寸法
 62
     0
370
    -2
100
AcDbBlockReference
  2
_Open
 10
1844.999996666667
 20
856.6666666666657
 30
0.0
 41
30.0
 42
30.0
 43
30.0
  0
INSERT
  5
128BD
330
128B4
100
AcDbEntity
  8
01注記寸法
 62
     0
370
    -2
100
AcDbBlockReference
  2
_Open
 10
1894.999996666667
 20
856.6666666666657
 30
0.0
 41
30.0
 42
30.0
 43
30.0
 50
180.0
  0
MTEXT
  5
128BE
330
128B4
100
AcDbEntity
  8
01注記寸法
 62
     0
100
AcDbMText
 10
1982.136422826477
 20
881.672293776832
 30
0.0
 40
30.0
 41
0.0
 71
     5
 72
     1
  1
75
 73
     1
 44
1.0
  0
POINT
  5
128BF
330
128B4
100
AcDbEntity
  8
Defpoints
 62
     0
100
AcDbPoint
 10
1844.999996666667
 20
749.999999999999
 30
0.0
  0
POINT
  5
128C0
330
128B4
100
AcDbEntity
  8
Defpoints
 62
     0
100
AcDbPoint
 10
1894.999996666667
 20
756.6666666666656
 30
0.0
  0
POINT
  5
128C1
330
128B4
100
AcDbEntity
  8
Defpoints
 62
     0
100
AcDbPoint
 10
1894.999996666667
 20
856.6666666666657
 30
0.0
  0
ENDBLK
  5
128B6
330
128B4
100
AcDbEntity
  8
0
100
AcDbBlockEnd
  0
BLOCK
  5
128C4
330
128C3
100
AcDbEntity
  8
0
100
AcDbBlockBegin
  2
*D1761
 70
     1
 10
0.0
 20
0.0
 30
0.0
  3
*D1761
  1

  0
LINE
  5
128C6
330
128C3
100
AcDbEntity
  8
01注記寸法
 62
     0
370
    -2
100
AcDbLine
 10
726.6666699999997
 20
736.6666666666656
 30
0.0
 11
595.0000033333331
 21
736.6666666666656
 31
0.0
  0
LINE
  5
128C7
330
128C3
100
AcDbEntity
  8
01注記寸法
 62
     0
370
    -2
100
AcDbLine
 10
690.0000033333331
 20
756.6666666666656
 30
0.0
 11
595.0000033333331
 21
756.6666666666656
 31
0.0
  0
LINE
  5
128C8
330
128C3
100
AcDbEntity
  8
01注記寸法
 62
     0
370
    -2
100
AcDbLine
 10
605.0000033333331
 20
786.6666666666656
 30
0.0
 11
605.0000033333331
 21
872.4630590638146
 31
0.0
  0
LINE
  5
128C9
330
128C3
100
AcDbEntity
  8
01注記寸法
 62
     0
370
    -2
100
AcDbLine
 10
605.0000033333331
 20
736.6666666666656
 30
0.0
 11
605.0000033333331
 21
756.6666666666656
 31
0.0
  0
LINE
  5
128CA
330
128C3
100
AcDbEntity
  8
01注記寸法
 62
     0
370
    -2
100
AcDbLine
 10
605.0000033333331
 20
706.6666666666656
 30
0.0
 11
605.0000033333331
 21
676.6666666666656
 31
0.0
  0
INSERT
  5
128CB
330
128C3
100
AcDbEntity
  8
01注記寸法
 62
     0
370
    -2
100
AcDbBlockReference
  2
_Open
 10
605.0000033333331
 20
736.6666666666656
 30
0.0
 41
30.0
 42
30.0
 43
30.0
 50
90.0
  0
INSERT
  5
128CC
330
128C3
100
AcDbEntity
  8
01注記寸法
 62
     0
370
    -2
100
AcDbBlockReference
  2
_Open
 10
605.0000033333331
 20
756.6666666666656
 30
0.0
 41
30.0
 42
30.0
 43
30.0
 50
270.0
  0
MTEXT
  5
128CD
330
128C3
100
AcDbEntity
  8
01注記寸法
 62
     0
100
AcDbMText
 10
579.9943762231668
 20
844.5648628652401
 30
0.0
 40
30.0
 41
0.0
 71
     5
 72
     1
  1
30
 11
0.0
 21
1.0
 31
0.0
 73
     1
 44
1.0
  0
POINT
  5
128CE
330
128C3
100
AcDbEntity
  8
Defpoints
 62
     0
100
AcDbPoint
 10
741.6666699999997
 20
736.6666666666656
 30
0.0
  0
POINT
  5
128CF
330
128C3
100
AcDbEntity
  8
Defpoints
 62
     0
100
AcDbPoint
 10
705.0000033333331
 20
756.6666666666656
 30
0.0
  0
POINT
  5
128D0
330
128C3
100
AcDbEntity
  8
Defpoints
 62
     0
100
AcDbPoint
 10
605.0000033333331
 20
756.6666666666656
 30
0.0
  0
ENDBLK
  5
128C5
330
128C3
100
AcDbEntity
  8
0
100
AcDbBlockEnd
  0
BLOCK
  5
128D3
330
128D2
100
AcDbEntity
  8
0
100
AcDbBlockBegin
  2
*D1762
 70
     1
 10
0.0
 20
0.0
 30
0.0
  3
*D1762
  1

  0
LINE
  5
128D5
330
128D2
100
AcDbEntity
  8
01注記寸法
 62
     0
370
    -2
100
AcDbLine
 10
726.6666699999997
 20
736.6666666666656
 30
0.0
 11
595.000003333333
 21
736.6666666666656
 31
0.0
  0
LINE
  5
128D6
330
128D2
100
AcDbEntity
  8
01注記寸法
 62
     0
370
    -2
100
AcDbLine
 10
726.6666699999997
 20
319.9999999999989
 30
0.0
 11
595.000003333333
 21
319.9999999999989
 31
0.0
  0
LINE
  5
128D7
330
128D2
100
AcDbEntity
  8
01注記寸法
 62
     0
370
    -2
100
AcDbLine
 10
605.000003333333
 20
706.6666666666656
 30
0.0
 11
605.000003333333
 21
349.9999999999989
 31
0.0
  0
INSERT
  5
128D8
330
128D2
100
AcDbEntity
  8
01注記寸法
 62
     0
370
    -2
100
AcDbBlockReference
  2
_Open
 10
605.000003333333
 20
736.6666666666656
 30
0.0
 41
30.0
 42
30.0
 43
30.0
 50
90.0
  0
INSERT
  5
128D9
330
128D2
100
AcDbEntity
  8
01注記寸法
 62
     0
370
    -2
100
AcDbBlockReference
  2
_Open
 10
605.000003333333
 20
319.9999999999989
 30
0.0
 41
30.0
 42
30.0
 43
30.0
 50
270.0
  0
MTEXT
  5
128DA
330
128D2
100
AcDbEntity
  8
01注記寸法
 62
     0
100
AcDbMText
 10
579.9943762231667
 20
528.3333333333322
 30
0.0
 40
30.0
 41
0.0
 71
     5
 72
     1
  1
625
 11
0.0
 21
1.0
 31
0.0
 73
     1
 44
1.0
  0
POINT
  5
128DB
330
128D2
100
AcDbEntity
  8
Defpoints
 62
     0
100
AcDbPoint
 10
741.6666699999997
 20
736.6666666666656
 30
0.0
  0
POINT
  5
128DC
330
128D2
100
AcDbEntity
  8
Defpoints
 62
     0
100
AcDbPoint
 10
741.6666699999997
 20
319.9999999999989
 30
0.0
  0
POINT
  5
128DD
330
128D2
100
AcDbEntity
  8
Defpoints
 62
     0
100
AcDbPoint
 10
605.000003333333
 20
319.9999999999989
 30
0.0
  0
ENDBLK
  5
128D4
330
128D2
100
AcDbEntity
  8
0
100
AcDbBlockEnd
  0
BLOCK
  5
128E0
330
128DF
100
AcDbEntity
  8
0
100
AcDbBlockBegin
  2
*D1763
 70
     1
 10
0.0
 20
0.0
 30
0.0
  3
*D1763
  1

  0
LINE
  5
128E2
330
128DF
100
AcDbEntity
  8
01注記寸法
 62
     0
370
    -2
100
AcDbLine
 10
726.6666699999997
 20
319.9999999999989
 30
0.0
 11
595.000003333333
 21
319.9999999999989
 31
0.0
  0
LINE
  5
128E3
330
128DF
100
AcDbEntity
  8
01注記寸法
 62
     0
370
    -2
100
AcDbLine
 10
690.0000033333331
 20
299.9999999999989
 30
0.0
 11
595.000003333333
 21
299.9999999999989
 31
0.0
  0
LINE
  5
128E4
330
128DF
100
AcDbEntity
  8
01注記寸法
 62
     0
370
    -2
100
AcDbLine
 10
605.000003333333
 20
269.9999999999989
 30
0.0
 11
605.000003333333
 21
184.2036076028499
 31
0.0
  0
LINE
  5
128E5
330
128DF
100
AcDbEntity
  8
01注記寸法
 62
     0
370
    -2
100
AcDbLine
 10
605.000003333333
 20
319.9999999999989
 30
0.0
 11
605.000003333333
 21
299.9999999999989
 31
0.0
  0
LINE
  5
128E6
330
128DF
100
AcDbEntity
  8
01注記寸法
 62
     0
370
    -2
100
AcDbLine
 10
605.000003333333
 20
349.9999999999989
 30
0.0
 11
605.000003333333
 21
379.9999999999989
 31
0.0
  0
INSERT
  5
128E7
330
128DF
100
AcDbEntity
  8
01注記寸法
 62
     0
370
    -2
100
AcDbBlockReference
  2
_Open
 10
605.000003333333
 20
319.9999999999989
 30
0.0
 41
30.0
 42
30.0
 43
30.0
 50
270.0
  0
INSERT
  5
128E8
330
128DF
100
AcDbEntity
  8
01注記寸法
 62
     0
370
    -2
100
AcDbBlockReference
  2
_Open
 10
605.000003333333
 20
299.9999999999989
 30
0.0
 41
30.0
 42
30.0
 43
30.0
 50
90.0
  0
MTEXT
  5
128E9
330
128DF
100
AcDbEntity
  8
01注記寸法
 62
     0
100
AcDbMText
 10
579.9943762231667
 20
212.1018038014244
 30
0.0
 40
30.0
 41
0.0
 71
     5
 72
     1
  1
30
 11
0.0
 21
1.0
 31
0.0
 73
     1
 44
1.0
  0
POINT
  5
128EA
330
128DF
100
AcDbEntity
  8
Defpoints
 62
     0
100
AcDbPoint
 10
741.6666699999997
 20
319.9999999999989
 30
0.0
  0
POINT
  5
128EB
330
128DF
100
AcDbEntity
  8
Defpoints
 62
     0
100
AcDbPoint
 10
705.0000033333331
 20
299.9999999999989
 30
0.0
  0
POINT
  5
128EC
330
128DF
100
AcDbEntity
  8
Defpoints
 62
     0
100
AcDbPoint
 10
605.000003333333
 20
299.9999999999989
 30
0.0
  0
ENDBLK
  5
128E1
330
128DF
100
AcDbEntity
  8
0
100
AcDbBlockEnd
  0
BLOCK
  5
12929
330
12928
100
AcDbEntity
  8
0
100
AcDbBlockBegin
  2
PW-P560DJ3
 70
     0
 10
0.0
 20
0.0
 30
0.0
  3
PW-P560DJ3
  1

  0
LWPOLYLINE
  5
1292A
330
12928
100
AcDbEntity
  8
11機器
100
AcDbPolyline
 90
        4
 70
     1
 43
0.0
 10
0.0
 20
-678.0
 10
0.0
 20
0.0
 10
1785.0
 20
0.0
 10
1785.0
 20
-678.0
  0
LWPOLYLINE
  5
1292B
330
12928
100
AcDbEntity
  8
11機器
  6
PHANTOM
 48
0.5
100
AcDbPolyline
 90
        6
 70
     1
 43
0.0
 10
-12.5
 20
-676.0
 10
-12.5
 20
14.0
 10
1797.5
 20
14.0
 10
1797.5
 20
-676.0
 42
-0.414213562373095
 10
1767.5
 20
-706.0
 10
17.5
 20
-706.0
 42
-0.414213562373095
  0
CIRCLE
  5
1292C
330
12928
100
AcDbEntity
  8
11機器
100
AcDbCircle
 10
-25.0
 20
-54.99999999999955
 30
0.0
 40
8.5
  0
LWPOLYLINE
  5
1292D
330
12928
100
AcDbEntity
  8
11機器
100
AcDbPolyline
 90
        4
 70
     1
 43
0.0
 10
-50.0
 20
-84.99999999999955
 10
-50.0
 20
-24.99999999999955
 10
0.0
 20
-24.99999999999955
 10
0.0
 20
-84.99999999999955
  0
CIRCLE
  5
1292E
330
12928
100
AcDbEntity
  8
11機器
100
AcDbCircle
 10
-25.0
 20
-614.9999999999995
 30
0.0
 40
8.5
  0
LWPOLYLINE
  5
1292F
330
12928
100
AcDbEntity
  8
11機器
100
AcDbPolyline
 90
        4
 70
     1
 43
0.0
 10
-50.0
 20
-644.9999999999995
 10
-50.0
 20
-584.9999999999995
 10
0.0
 20
-584.9999999999995
 10
0.0
 20
-644.9999999999995
  0
CIRCLE
  5
12930
330
12928
100
AcDbEntity
  8
11機器
100
AcDbCircle
 10
1810.0
 20
-614.9999999999995
 30
0.0
 40
8.5
  0
LWPOLYLINE
  5
12931
330
12928
100
AcDbEntity
  8
11機器
100
AcDbPolyline
 90
        4
 70
     1
 43
0.0
 10
1835.0
 20
-644.9999999999995
 10
1835.0
 20
-584.9999999999995
 10
1785.0
 20
-584.9999999999995
 10
1785.0
 20
-644.9999999999995
  0
CIRCLE
  5
12932
330
12928
100
AcDbEntity
  8
11機器
100
AcDbCircle
 10
1810.0
 20
-54.99999999999955
 30
0.0
 40
8.5
  0
LWPOLYLINE
  5
12933
330
12928
100
AcDbEntity
  8
11機器
100
AcDbPolyline
 90
        4
 70
     1
 43
0.0
 10
1835.0
 20
-84.99999999999955
 10
1835.0
 20
-24.99999999999955
 10
1785.0
 20
-24.99999999999955
 10
1785.0
 20
-84.99999999999955
  0
CIRCLE
  5
12934
330
12928
100
AcDbEntity
  8
11機器
100
AcDbCircle
 10
880.0
 20
-440.0
 30
0.0
 40
30.0
  0
TEXT
  5
12935
330
12928
100
AcDbEntity
  8
11機器
100
AcDbText
 10
870.2463423783919
 20
-455.0
 30
0.0
 40
30.0
  1
G
 72
     1
 11
880.0
 21
-440.0
 31
0.0
100
AcDbText
 73
     2
  0
TEXT
  5
12936
330
12928
100
AcDbEntity
  8
11機器
100
AcDbText
 10
910.0
 20
-455.0
 30
0.0
 40
30.0
  1
 Hg 800
 11
910.0
 21
-440.0
 31
0.0
100
AcDbText
 73
     2
  0
DIMENSION
  5
12937
330
12928
100
AcDbEntity
  8
11機器
100
AcDbDimension
  2
*D1766
 10
786.8982925095097
 20
0.0000000000000039
 30
0.0
 11
761.8982925095097
 21
-220.0
 31
0.0
 70
    32
 71
     5
 42
440.0
  3
NEMY-10
100
AcDbAlignedDimension
 13
850.0
 23
-440.0
 33
0.0
 14
850.0
 24
0.0
 34
0.0
 50
90.0
100
AcDbRotatedDimension
  0
DIMENSION
  5
12944
330
12928
100
AcDbEntity
  8
11機器
100
AcDbDimension
  2
*D1767
 10
0.0
 20
-342.1483650690648
 30
0.0
 11
440.0
 21
-317.1483650690648
 31
0.0
 70
    32
 71
     5
 42
880.0
  3
NEMY-10
100
AcDbAlignedDimension
 13
880.0
 23
-410.0
 33
0.0
 14
0.0
 24
-410.0
 34
0.0
100
AcDbRotatedDimension
  0
ENDBLK
  5
12951
330
12928
100
AcDbEntity
  8
0
100
AcDbBlockEnd
  0
BLOCK
  5
12939
330
12938
100
AcDbEntity
  8
0
100
AcDbBlockBegin
  2
*D1766
 70
     1
 10
0.0
 20
0.0
 30
0.0
  3
*D1766
  1

  0
LINE
  5
1293A
330
12938
100
AcDbEntity
  8
11機器
 62
     0
370
    -2
100
AcDbLine
 10
835.0
 20
-440.0
 30
0.0
 11
776.8982925095097
 21
-440.0
 31
0.0
  0
LINE
  5
1293B
330
12938
100
AcDbEntity
  8
11機器
 62
     0
370
    -2
100
AcDbLine
 10
835.0
 20
0.0000000000000009
 30
0.0
 11
776.8982925095097
 21
0.0000000000000045
 31
0.0
  0
LINE
  5
1293C
330
12938
100
AcDbEntity
  8
11機器
 62
     0
370
    -2
100
AcDbLine
 10
786.8982925095097
 20
-410.0
 30
0.0
 11
786.8982925095097
 21
-30.0
 31
0.0
  0
INSERT
  5
1293D
330
12938
100
AcDbEntity
  8
11機器
 62
     0
370
    -2
100
AcDbBlockReference
  2
_Open
 10
786.8982925095097
 20
-440.0
 30
0.0
 41
30.0
 42
30.0
 43
30.0
 50
270.0
  0
INSERT
  5
1293E
330
12938
100
AcDbEntity
  8
11機器
 62
     0
370
    -2
100
AcDbBlockReference
  2
_Open
 10
786.8982925095097
 20
0.0000000000000039
 30
0.0
 41
30.0
 42
30.0
 43
30.0
 50
90.0
  0
MTEXT
  5
1293F
330
12938
100
AcDbEntity
  8
11機器
 62
     0
100
AcDbMText
 10
761.8982925095097
 20
-220.0
 30
0.0
 40
30.0
 41
0.0
 71
     5
 72
     1
  1
440
 11
0.0
 21
1.0
 31
0.0
 73
     1
 44
1.0
  0
POINT
  5
12940
330
12938
100
AcDbEntity
  8
Defpoints
 62
     0
100
AcDbPoint
 10
850.0
 20
-440.0
 30
0.0
  0
POINT
  5
12941
330
12938
100
AcDbEntity
  8
Defpoints
 62
     0
100
AcDbPoint
 10
850.0
 20
0.0
 30
0.0
  0
POINT
  5
12942
330
12938
100
AcDbEntity
  8
Defpoints
 62
     0
100
AcDbPoint
 10
786.8982925095097
 20
0.0000000000000039
 30
0.0
  0
ENDBLK
  5
12943
330
12938
100
AcDbEntity
  8
0
100
AcDbBlockEnd
  0
BLOCK
  5
12946
330
12945
100
AcDbEntity
  8
0
100
AcDbBlockBegin
  2
*D1767
 70
     1
 10
0.0
 20
0.0
 30
0.0
  3
*D1767
  1

  0
LINE
  5
12947
330
12945
100
AcDbEntity
  8
11機器
 62
     0
370
    -2
100
AcDbLine
 10
880.0
 20
-395.0
 30
0.0
 11
880.0
 21
-332.1483650690648
 31
0.0
  0
LINE
  5
12948
330
12945
100
AcDbEntity
  8
11機器
 62
     0
370
    -2
100
AcDbLine
 10
0.0
 20
-395.0
 30
0.0
 11
0.0
 21
-332.1483650690648
 31
0.0
  0
LINE
  5
12949
330
12945
100
AcDbEntity
  8
11機器
 62
     0
370
    -2
100
AcDbLine
 10
850.0
 20
-342.1483650690648
 30
0.0
 11
30.0
 21
-342.1483650690648
 31
0.0
  0
INSERT
  5
1294A
330
12945
100
AcDbEntity
  8
11機器
 62
     0
370
    -2
100
AcDbBlockReference
  2
_Open
 10
880.0
 20
-342.1483650690648
 30
0.0
 41
30.0
 42
30.0
 43
30.0
  0
INSERT
  5
1294B
330
12945
100
AcDbEntity
  8
11機器
 62
     0
370
    -2
100
AcDbBlockReference
  2
_Open
 10
0.0
 20
-342.1483650690648
 30
0.0
 41
30.0
 42
30.0
 43
30.0
 50
180.0
  0
MTEXT
  5
1294C
330
12945
100
AcDbEntity
  8
11機器
 62
     0
100
AcDbMText
 10
440.0
 20
-317.1483650690648
 30
0.0
 40
30.0
 41
0.0
 71
     5
 72
     1
  1
880
 73
     1
 44
1.0
  0
POINT
  5
1294D
330
12945
100
AcDbEntity
  8
Defpoints
 62
     0
100
AcDbPoint
 10
880.0
 20
-410.0
 30
0.0
  0
POINT
  5
1294E
330
12945
100
AcDbEntity
  8
Defpoints
 62
     0
100
AcDbPoint
 10
0.0
 20
-410.0
 30
0.0
  0
POINT
  5
1294F
330
12945
100
AcDbEntity
  8
Defpoints
 62
     0
100
AcDbPoint
 10
0.0
 20
-342.1483650690648
 30
0.0
  0
ENDBLK
  5
12950
330
12945
100
AcDbEntity
  8
0
100
AcDbBlockEnd
  0
BLOCK
  5
12958
330
12957
100
AcDbEntity
  8
0
100
AcDbBlockBegin
  2
*D1768
 70
     1
 10
0.0
 20
0.0
 30
0.0
  3
*D1768
  1

  0
LINE
  5
1295A
330
12957
100
AcDbEntity
  8
01注記寸法
 62
     0
370
    -2
100
AcDbLine
 10
450.0
 20
2485.0
 30
0.0
 11
450.0
 21
2580.0
 31
0.0
  0
LINE
  5
1295B
330
12957
100
AcDbEntity
  8
01注記寸法
 62
     0
370
    -2
100
AcDbLine
 10
424.9999999999986
 20
2445.0
 30
0.0
 11
424.9999999999986
 21
2580.0
 31
0.0
  0
LINE
  5
1295C
330
12957
100
AcDbEntity
  8
01注記寸法
 62
     0
370
    -2
100
AcDbLine
 10
394.9999999999986
 20
2570.0
 30
0.0
 11
310.1269225959721
 21
2570.0
 31
0.0
  0
LINE
  5
1295D
330
12957
100
AcDbEntity
  8
01注記寸法
 62
     0
370
    -2
100
AcDbLine
 10
450.0
 20
2570.0
 30
0.0
 11
424.9999999999986
 21
2570.0
 31
0.0
  0
LINE
  5
1295E
330
12957
100
AcDbEntity
  8
01注記寸法
 62
     0
370
    -2
100
AcDbLine
 10
480.0
 20
2570.0
 30
0.0
 11
510.0
 21
2570.0
 31
0.0
  0
INSERT
  5
1295F
330
12957
100
AcDbEntity
  8
01注記寸法
 62
     0
370
    -2
100
AcDbBlockReference
  2
_Open
 10
450.0
 20
2570.0
 30
0.0
 41
30.0
 42
30.0
 43
30.0
 50
180.0
  0
INSERT
  5
12960
330
12957
100
AcDbEntity
  8
01注記寸法
 62
     0
370
    -2
100
AcDbBlockReference
  2
_Open
 10
424.9999999999986
 20
2570.0
 30
0.0
 41
30.0
 42
30.0
 43
30.0
  0
MTEXT
  5
12961
330
12957
100
AcDbEntity
  8
01注記寸法
 62
     0
100
AcDbMText
 10
337.5634612979854
 20
2595.005627110166
 30
0.0
 40
30.0
 41
0.0
 71
     5
 72
     1
  1
25
 73
     1
 44
1.0
  0
POINT
  5
12962
330
12957
100
AcDbEntity
  8
Defpoints
 62
     0
100
AcDbPoint
 10
450.0
 20
2470.0
 30
0.0
  0
POINT
  5
12963
330
12957
100
AcDbEntity
  8
Defpoints
 62
     0
100
AcDbPoint
 10
424.9999999999986
 20
2430.0
 30
0.0
  0
POINT
  5
12964
330
12957
100
AcDbEntity
  8
Defpoints
 62
     0
100
AcDbPoint
 10
424.9999999999986
 20
2570.0
 30
0.0
  0
ENDBLK
  5
12959
330
12957
100
AcDbEntity
  8
0
100
AcDbBlockEnd
  0
BLOCK
  5
12967
330
12966
100
AcDbEntity
  8
0
100
AcDbBlockBegin
  2
*D1769
 70
     1
 10
0.0
 20
0.0
 30
0.0
  3
*D1769
  1

  0
LINE
  5
12969
330
12966
100
AcDbEntity
  8
01注記寸法
 62
     0
370
    -2
100
AcDbLine
 10
450.0
 20
2485.0
 30
0.0
 11
450.0
 21
2580.0
 31
0.0
  0
LINE
  5
1296A
330
12966
100
AcDbEntity
  8
01注記寸法
 62
     0
370
    -2
100
AcDbLine
 10
2235.0
 20
2485.0
 30
0.0
 11
2235.0
 21
2580.0
 31
0.0
  0
LINE
  5
1296B
330
12966
100
AcDbEntity
  8
01注記寸法
 62
     0
370
    -2
100
AcDbLine
 10
480.0
 20
2570.0
 30
0.0
 11
2205.0
 21
2570.0
 31
0.0
  0
INSERT
  5
1296C
330
12966
100
AcDbEntity
  8
01注記寸法
 62
     0
370
    -2
100
AcDbBlockReference
  2
_Open
 10
450.0
 20
2570.0
 30
0.0
 41
30.0
 42
30.0
 43
30.0
 50
180.0
  0
INSERT
  5
1296D
330
12966
100
AcDbEntity
  8
01注記寸法
 62
     0
370
    -2
100
AcDbBlockReference
  2
_Open
 10
2235.0
 20
2570.0
 30
0.0
 41
30.0
 42
30.0
 43
30.0
  0
MTEXT
  5
1296E
330
12966
100
AcDbEntity
  8
01注記寸法
 62
     0
100
AcDbMText
 10
1342.5
 20
2595.005627110166
 30
0.0
 40
30.0
 41
0.0
 71
     5
 72
     1
  1
1785
 73
     1
 44
1.0
  0
POINT
  5
1296F
330
12966
100
AcDbEntity
  8
Defpoints
 62
     0
100
AcDbPoint
 10
450.0
 20
2470.0
 30
0.0
  0
POINT
  5
12970
330
12966
100
AcDbEntity
  8
Defpoints
 62
     0
100
AcDbPoint
 10
2235.0
 20
2470.0
 30
0.0
  0
POINT
  5
12971
330
12966
100
AcDbEntity
  8
Defpoints
 62
     0
100
AcDbPoint
 10
2235.0
 20
2570.0
 30
0.0
  0
ENDBLK
  5
12968
330
12966
100
AcDbEntity
  8
0
100
AcDbBlockEnd
  0
BLOCK
  5
12974
330
12973
100
AcDbEntity
  8
0
100
AcDbBlockBegin
  2
*D1770
 70
     1
 10
0.0
 20
0.0
 30
0.0
  3
*D1770
  1

  0
LINE
  5
12976
330
12973
100
AcDbEntity
  8
01注記寸法
 62
     0
370
    -2
100
AcDbLine
 10
2235.0
 20
2485.0
 30
0.0
 11
2235.0
 21
2580.0
 31
0.0
  0
LINE
  5
12977
330
12973
100
AcDbEntity
  8
01注記寸法
 62
     0
370
    -2
100
AcDbLine
 10
2260.000000000001
 20
2445.0
 30
0.0
 11
2260.000000000001
 21
2580.0
 31
0.0
  0
LINE
  5
12978
330
12973
100
AcDbEntity
  8
01注記寸法
 62
     0
370
    -2
100
AcDbLine
 10
2290.000000000001
 20
2570.0
 30
0.0
 11
2374.873077404028
 21
2570.0
 31
0.0
  0
LINE
  5
12979
330
12973
100
AcDbEntity
  8
01注記寸法
 62
     0
370
    -2
100
AcDbLine
 10
2235.0
 20
2570.0
 30
0.0
 11
2260.000000000001
 21
2570.0
 31
0.0
  0
LINE
  5
1297A
330
12973
100
AcDbEntity
  8
01注記寸法
 62
     0
370
    -2
100
AcDbLine
 10
2205.0
 20
2570.0
 30
0.0
 11
2175.0
 21
2570.0
 31
0.0
  0
INSERT
  5
1297B
330
12973
100
AcDbEntity
  8
01注記寸法
 62
     0
370
    -2
100
AcDbBlockReference
  2
_Open
 10
2235.0
 20
2570.0
 30
0.0
 41
30.0
 42
30.0
 43
30.0
  0
INSERT
  5
1297C
330
12973
100
AcDbEntity
  8
01注記寸法
 62
     0
370
    -2
100
AcDbBlockReference
  2
_Open
 10
2260.000000000001
 20
2570.0
 30
0.0
 41
30.0
 42
30.0
 43
30.0
 50
180.0
  0
MTEXT
  5
1297D
330
12973
100
AcDbEntity
  8
01注記寸法
 62
     0
100
AcDbMText
 10
2347.436538702015
 20
2595.005627110166
 30
0.0
 40
30.0
 41
0.0
 71
     5
 72
     1
  1
25
 73
     1
 44
1.0
  0
POINT
  5
1297E
330
12973
100
AcDbEntity
  8
Defpoints
 62
     0
100
AcDbPoint
 10
2235.0
 20
2470.0
 30
0.0
  0
POINT
  5
1297F
330
12973
100
AcDbEntity
  8
Defpoints
 62
     0
100
AcDbPoint
 10
2260.000000000001
 20
2430.0
 30
0.0
  0
POINT
  5
12980
330
12973
100
AcDbEntity
  8
Defpoints
 62
     0
100
AcDbPoint
 10
2260.000000000001
 20
2570.0
 30
0.0
  0
ENDBLK
  5
12975
330
12973
100
AcDbEntity
  8
0
100
AcDbBlockEnd
  0
BLOCK
  5
129C8
330
129C7
100
AcDbEntity
  8
0
100
AcDbBlockBegin
  2
*D1773
 70
     1
 10
0.0
 20
0.0
 30
0.0
  3
*D1773
  1

  0
LINE
  5
129CA
330
129C7
100
AcDbEntity
  8
01注記寸法
 62
     0
370
    -2
100
AcDbLine
 10
1300.000003333333
 20
764.999999999999
 30
0.0
 11
1300.000003333333
 21
866.6666666666656
 31
0.0
  0
LINE
  5
129CB
330
129C7
100
AcDbEntity
  8
01注記寸法
 62
     0
370
    -2
100
AcDbLine
 10
1844.999996666667
 20
764.999999999999
 30
0.0
 11
1844.999996666667
 21
866.6666666666656
 31
0.0
  0
LINE
  5
129CC
330
129C7
100
AcDbEntity
  8
01注記寸法
 62
     0
370
    -2
100
AcDbLine
 10
1330.000003333333
 20
856.6666666666656
 30
0.0
 11
1814.999996666667
 21
856.6666666666656
 31
0.0
  0
INSERT
  5
129CD
330
129C7
100
AcDbEntity
  8
01注記寸法
 62
     0
370
    -2
100
AcDbBlockReference
  2
_Open
 10
1300.000003333333
 20
856.6666666666656
 30
0.0
 41
30.0
 42
30.0
 43
30.0
 50
180.0
  0
INSERT
  5
129CE
330
129C7
100
AcDbEntity
  8
01注記寸法
 62
     0
370
    -2
100
AcDbBlockReference
  2
_Open
 10
1844.999996666667
 20
856.6666666666656
 30
0.0
 41
30.0
 42
30.0
 43
30.0
  0
MTEXT
  5
129CF
330
129C7
100
AcDbEntity
  8
01注記寸法
 62
     0
100
AcDbMText
 10
1572.5
 20
881.6722937768319
 30
0.0
 40
30.0
 41
0.0
 71
     5
 72
     1
  1
817.5
 73
     1
 44
1.0
  0
POINT
  5
129D0
330
129C7
100
AcDbEntity
  8
Defpoints
 62
     0
100
AcDbPoint
 10
1300.000003333333
 20
749.999999999999
 30
0.0
  0
POINT
  5
129D1
330
129C7
100
AcDbEntity
  8
Defpoints
 62
     0
100
AcDbPoint
 10
1844.999996666667
 20
749.999999999999
 30
0.0
  0
POINT
  5
129D2
330
129C7
100
AcDbEntity
  8
Defpoints
 62
     0
100
AcDbPoint
 10
1844.999996666667
 20
856.6666666666656
 30
0.0
  0
ENDBLK
  5
129C9
330
129C7
100
AcDbEntity
  8
0
100
AcDbBlockEnd
  0
BLOCK
  5
129F5
330
129F4
100
AcDbEntity
  8
0
100
AcDbBlockBegin
  2
*D1775
 70
     1
 10
0.0
 20
0.0
 30
0.0
  3
*D1775
  1

  0
LINE
  5
129F7
330
129F4
100
AcDbEntity
  8
01注記寸法
 62
     0
370
    -2
100
AcDbLine
 10
1101.666673333333
 20
708.3333333333322
 30
0.0
 11
1101.666673333333
 21
601.1000364984045
 31
0.0
  0
LINE
  5
129F8
330
129F4
100
AcDbEntity
  8
01注記寸法
 62
     0
370
    -2
100
AcDbLine
 10
1498.333333333333
 20
708.3333333333322
 30
0.0
 11
1498.333333333333
 21
601.1000364984045
 31
0.0
  0
LINE
  5
129F9
330
129F4
100
AcDbEntity
  8
01注記寸法
 62
     0
370
    -2
100
AcDbLine
 10
1131.666673333333
 20
611.1000364984045
 30
0.0
 11
1468.333333333333
 21
611.1000364984045
 31
0.0
  0
INSERT
  5
129FA
330
129F4
100
AcDbEntity
  8
01注記寸法
 62
     0
370
    -2
100
AcDbBlockReference
  2
_Open
 10
1101.666673333333
 20
611.1000364984045
 30
0.0
 41
30.0
 42
30.0
 43
30.0
 50
180.0
  0
INSERT
  5
129FB
330
129F4
100
AcDbEntity
  8
01注記寸法
 62
     0
370
    -2
100
AcDbBlockReference
  2
_Open
 10
1498.333333333333
 20
611.1000364984045
 30
0.0
 41
30.0
 42
30.0
 43
30.0
  0
MTEXT
  5
129FC
330
129F4
100
AcDbEntity
  8
01注記寸法
 62
     0
100
AcDbMText
 10
1300.000003333333
 20
638.6116033359685
 30
0.0
 40
30.0
 41
0.0
 71
     5
 72
     1
  1
(595)
 73
     1
 44
1.0
  0
POINT
  5
129FD
330
129F4
100
AcDbEntity
  8
Defpoints
 62
     0
100
AcDbPoint
 10
1101.666673333333
 20
723.3333333333322
 30
0.0
  0
POINT
  5
129FE
330
129F4
100
AcDbEntity
  8
Defpoints
 62
     0
100
AcDbPoint
 10
1498.333333333333
 20
723.3333333333322
 30
0.0
  0
POINT
  5
129FF
330
129F4
100
AcDbEntity
  8
Defpoints
 62
     0
100
AcDbPoint
 10
1498.333333333333
 20
611.1000364984045
 30
0.0
  0
ENDBLK
  5
129F6
330
129F4
100
AcDbEntity
  8
0
100
AcDbBlockEnd
  0
BLOCK
  5
12A02
330
12A01
100
AcDbEntity
  8
0
100
AcDbBlockBegin
  2
*D1776
 70
     1
 10
0.0
 20
0.0
 30
0.0
  3
*D1776
  1

  0
LINE
  5
12A04
330
12A01
100
AcDbEntity
  8
01注記寸法
 62
     0
370
    -2
100
AcDbLine
 10
1101.666673333333
 20
708.3333333333322
 30
0.0
 11
1101.666673333333
 21
601.1000364984045
 31
0.0
  0
LINE
  5
12A05
330
12A01
100
AcDbEntity
  8
01注記寸法
 62
     0
370
    -2
100
AcDbLine
 10
705.0000033333331
 20
623.7442626875504
 30
0.0
 11
705.0000033333331
 21
601.1000364984045
 31
0.0
  0
LINE
  5
12A06
330
12A01
100
AcDbEntity
  8
01注記寸法
 62
     0
370
    -2
100
AcDbLine
 10
1071.666673333333
 20
611.1000364984045
 30
0.0
 11
735.0000033333331
 21
611.1000364984045
 31
0.0
  0
INSERT
  5
12A07
330
12A01
100
AcDbEntity
  8
01注記寸法
 62
     0
370
    -2
100
AcDbBlockReference
  2
_Open
 10
1101.666673333333
 20
611.1000364984045
 30
0.0
 41
30.0
 42
30.0
 43
30.0
  0
INSERT
  5
12A08
330
12A01
100
AcDbEntity
  8
01注記寸法
 62
     0
370
    -2
100
AcDbBlockReference
  2
_Open
 10
705.0000033333331
 20
611.1000364984045
 30
0.0
 41
30.0
 42
30.0
 43
30.0
 50
180.0
  0
MTEXT
  5
12A09
330
12A01
100
AcDbEntity
  8
01注記寸法
 62
     0
100
AcDbMText
 10
903.3333383333332
 20
638.6116033359685
 30
0.0
 40
30.0
 41
0.0
 71
     5
 72
     1
  1
(595)
 73
     1
 44
1.0
  0
POINT
  5
12A0A
330
12A01
100
AcDbEntity
  8
Defpoints
 62
     0
100
AcDbPoint
 10
1101.666673333333
 20
723.3333333333322
 30
0.0
  0
POINT
  5
12A0B
330
12A01
100
AcDbEntity
  8
Defpoints
 62
     0
100
AcDbPoint
 10
705.0000033333331
 20
638.7442626875504
 30
0.0
  0
POINT
  5
12A0C
330
12A01
100
AcDbEntity
  8
Defpoints
 62
     0
100
AcDbPoint
 10
705.0000033333331
 20
611.1000364984045
 30
0.0
  0
ENDBLK
  5
12A03
330
12A01
100
AcDbEntity
  8
0
100
AcDbBlockEnd
  0
BLOCK
  5
12A0F
330
12A0E
100
AcDbEntity
  8
0
100
AcDbBlockBegin
  2
*D1777
 70
     1
 10
0.0
 20
0.0
 30
0.0
  3
*D1777
  1

  0
LINE
  5
12A11
330
12A0E
100
AcDbEntity
  8
01注記寸法
 62
     0
370
    -2
100
AcDbLine
 10
1498.333333333333
 20
708.3333333333322
 30
0.0
 11
1498.333333333333
 21
601.1000364984045
 31
0.0
  0
LINE
  5
12A12
330
12A0E
100
AcDbEntity
  8
01注記寸法
 62
     0
370
    -2
100
AcDbLine
 10
1895.000003333333
 20
623.7442626875504
 30
0.0
 11
1895.000003333333
 21
601.1000364984045
 31
0.0
  0
LINE
  5
12A13
330
12A0E
100
AcDbEntity
  8
01注記寸法
 62
     0
370
    -2
100
AcDbLine
 10
1528.333333333333
 20
611.1000364984045
 30
0.0
 11
1865.000003333333
 21
611.1000364984045
 31
0.0
  0
INSERT
  5
12A14
330
12A0E
100
AcDbEntity
  8
01注記寸法
 62
     0
370
    -2
100
AcDbBlockReference
  2
_Open
 10
1498.333333333333
 20
611.1000364984045
 30
0.0
 41
30.0
 42
30.0
 43
30.0
 50
180.0
  0
INSERT
  5
12A15
330
12A0E
100
AcDbEntity
  8
01注記寸法
 62
     0
370
    -2
100
AcDbBlockReference
  2
_Open
 10
1895.000003333333
 20
611.1000364984045
 30
0.0
 41
30.0
 42
30.0
 43
30.0
  0
MTEXT
  5
12A16
330
12A0E
100
AcDbEntity
  8
01注記寸法
 62
     0
100
AcDbMText
 10
1696.666668333333
 20
638.6116033359685
 30
0.0
 40
30.0
 41
0.0
 71
     5
 72
     1
  1
(595)
 73
     1
 44
1.0
  0
POINT
  5
12A17
330
12A0E
100
AcDbEntity
  8
Defpoints
 62
     0
100
AcDbPoint
 10
1498.333333333333
 20
723.3333333333322
 30
0.0
  0
POINT
  5
12A18
330
12A0E
100
AcDbEntity
  8
Defpoints
 62
     0
100
AcDbPoint
 10
1895.000003333333
 20
638.7442626875504
 30
0.0
  0
POINT
  5
12A19
330
12A0E
100
AcDbEntity
  8
Defpoints
 62
     0
100
AcDbPoint
 10
1895.000003333333
 20
611.1000364984045
 30
0.0
  0
ENDBLK
  5
12A10
330
12A0E
100
AcDbEntity
  8
0
100
AcDbBlockEnd
  0
ENDSEC
  0
SECTION
  2
ENTITIES
  0
LWPOLYLINE
  5
ECC5
330
1F
100
AcDbEntity
  8
02実線
100
AcDbPolyline
 90
        4
 70
     1
 43
0.0
 10
450.0
 20
1785.0
 10
450.0
 20
2470.0
 10
2235.0
 20
2470.0
 10
2235.0
 20
1785.0
  0
LWPOLYLINE
  5
ECC6
330
1F
100
AcDbEntity
  8
02実線
100
AcDbPolyline
 90
        4
 70
     1
 43
0.0
 10
500.0
 20
1835.0
 10
500.0
 20
2420.0
 10
2185.0
 20
2420.0
 10
2185.0
 20
1835.0
  0
LWPOLYLINE
  5
ECC7
330
1F
100
AcDbEntity
  8
03破線
100
AcDbPolyline
 90
        4
 70
     1
 43
0.0
 10
453.2000000000007
 20
1788.200000000004
 10
453.2000000000007
 20
2466.800000000003
 10
2231.799999999999
 20
2466.800000000003
 10
2231.799999999999
 20
1788.200000000004
  0
LWPOLYLINE
  5
ECCA
330
1F
100
AcDbEntity
  8
02実線
100
AcDbPolyline
 90
        4
 70
     1
 43
0.0
 10
450.0
 20
1200.0
 10
450.0000000000011
 20
1400.0
 10
2235.000000000001
 20
1400.0
 10
2235.0
 20
1200.0
  0
LWPOLYLINE
  5
ECCB
330
1F
100
AcDbEntity
  8
03破線
100
AcDbPolyline
 90
        4
 70
     1
 43
0.0
 10
453.2000000000007
 20
1203.199999999997
 10
453.2000000000019
 20
1396.800000000003
 10
2231.8
 20
1396.800000000003
 10
2231.799999999999
 20
1203.199999999997
  0
LWPOLYLINE
  5
ECCD
330
1F
100
AcDbEntity
  8
02実線
100
AcDbPolyline
 90
        4
 70
     1
 43
0.0
 10
2415.0
 20
1200.0
 10
2415.0
 20
1400.0
 10
3100.0
 20
1400.0
 10
3100.0
 20
1200.0
  0
LWPOLYLINE
  5
ECCE
330
1F
100
AcDbEntity
  8
03破線
100
AcDbPolyline
 90
        4
 70
     1
 43
0.0
 10
2418.200000000001
 20
1203.199999999997
 10
2418.200000000001
 20
1396.800000000002
 10
3096.799999999999
 20
1396.800000000002
 10
3096.799999999999
 20
1203.199999999997
  0
LINE
  5
ECCF
330
1F
100
AcDbEntity
  8
04一点鎖線
100
AcDbLine
 10
525.0
 20
1213.199999999997
 30
0.0
 11
525.0
 21
1190.0
 31
0.0
  0
LINE
  5
ECD0
330
1F
100
AcDbEntity
  8
04一点鎖線
100
AcDbLine
 10
2160.0
 20
1213.199999999997
 30
0.0
 11
2160.0
 21
1190.0
 31
0.0
  0
LINE
  5
ECD1
330
1F
100
AcDbEntity
  8
04一点鎖線
100
AcDbLine
 10
2445.0
 20
1213.199999999997
 30
0.0
 11
2445.0
 21
1190.0
 31
0.0
  0
LINE
  5
ECD2
330
1F
100
AcDbEntity
  8
04一点鎖線
100
AcDbLine
 10
3070.0
 20
1213.199999999997
 30
0.0
 11
3070.0
 21
1190.0
 31
0.0
  0
LINE
  5
ECED
330
1F
100
AcDbEntity
  8
03破線
100
AcDbLine
 10
2465.0
 20
1200.0
 30
0.0
 11
2465.0
 21
1203.200000000004
 31
0.0
  0
LINE
  5
ECEF
330
1F
100
AcDbEntity
  8
03破線
100
AcDbLine
 10
2465.0
 20
1400.0
 30
0.0
 11
2465.0
 21
1396.800000000002
 31
0.0
  0
LINE
  5
ECF0
330
1F
100
AcDbEntity
  8
03破線
100
AcDbLine
 10
3050.0
 20
1200.0
 30
0.0
 11
3050.0
 21
1203.200000000004
 31
0.0
  0
LINE
  5
ECF1
330
1F
100
AcDbEntity
  8
03破線
100
AcDbLine
 10
3050.0
 20
1400.0
 30
0.0
 11
3050.0
 21
1396.800000000002
 31
0.0
  0
LINE
  5
ECF3
330
1F
100
AcDbEntity
  8
03破線
100
AcDbLine
 10
500.0000000000011
 20
1400.0
 30
0.0
 11
500.0000000000011
 21
1396.800000000003
 31
0.0
  0
LINE
  5
ECF4
330
1F
100
AcDbEntity
  8
03破線
100
AcDbLine
 10
500.0
 20
1200.0
 30
0.0
 11
500.0
 21
1203.200000000004
 31
0.0
  0
LINE
  5
ECF6
330
1F
100
AcDbEntity
  8
03破線
100
AcDbLine
 10
2185.000000000001
 20
1400.0
 30
0.0
 11
2185.000000000001
 21
1396.800000000003
 31
0.0
  0
LINE
  5
ECF7
330
1F
100
AcDbEntity
  8
03破線
100
AcDbLine
 10
2185.0
 20
1200.0
 30
0.0
 11
2185.0
 21
1203.200000000004
 31
0.0
  0
LINE
  5
ECFB
330
1F
100
AcDbEntity
  8
03破線
100
AcDbLine
 10
2465.0
 20
1396.800000000002
 30
0.0
 11
2465.0
 21
1203.200000000004
 31
0.0
  0
LINE
  5
ECFC
330
1F
100
AcDbEntity
  8
03破線
100
AcDbLine
 10
3050.0
 20
1396.800000000002
 30
0.0
 11
3050.0
 21
1203.200000000004
 31
0.0
  0
LWPOLYLINE
  5
ED10
102
{ACAD_REACTORS
330
ED11
102
}
330
1F
100
AcDbEntity
  8
02実線
100
AcDbPolyline
 90
        4
 70
     1
 43
0.0
 10
450.0000000000011
 20
1400.0
 10
450.0000000000011
 20
1410.0
 10
2235.000000000001
 20
1410.0
 10
2235.000000000001
 20
1400.0
  0
HATCH
  5
ED11
330
1F
100
AcDbEntity
  8
01注記寸法
100
AcDbHatch
 10
0.0
 20
0.0
 30
0.0
210
0.0
220
0.0
230
1.0
  2
ANSI31
 70
     0
 71
     1
 91
        1
 92
        1
 93
        4
 72
     1
 10
450.0000000000011
 20
1400.0
 11
450.0000000000011
 21
1410.0
 72
     1
 10
450.0000000000011
 20
1410.0
 11
2235.000000000001
 21
1410.0
 72
     1
 10
2235.000000000001
 20
1410.0
 11
2235.000000000001
 21
1400.0
 72
     1
 10
2235.000000000001
 20
1400.0
 11
450.0000000000011
 21
1400.0
 97
        1
330
ED10
 75
     0
 76
     1
 52
45.0
 41
5.000000000000007
 77
     0
 78
     1
 53
90.0
 43
13295.0
 44
0.0000000000086402
 45
-15.875
 46
0.000000000000001
 79
     0
 98
        1
 10
13295.0
 20
-10890.0
1001
ACAD
1010
0.0
1020
0.0
1030
0.0
  0
LWPOLYLINE
  5
ED12
102
{ACAD_REACTORS
330
ED13
102
}
330
1F
100
AcDbEntity
  8
02実線
100
AcDbPolyline
 90
        4
 70
     1
 43
0.0
 10
2415.0
 20
1400.0
 10
2415.0
 20
1410.0
 10
3100.0
 20
1410.0
 10
3100.0
 20
1400.0
  0
HATCH
  5
ED13
330
1F
100
AcDbEntity
  8
01注記寸法
100
AcDbHatch
 10
0.0
 20
0.0
 30
0.0
210
0.0
220
0.0
230
1.0
  2
ANSI31
 70
     0
 71
     1
 91
        1
 92
        1
 93
        4
 72
     1
 10
2415.0
 20
1400.0
 11
2415.0
 21
1410.0
 72
     1
 10
2415.0
 20
1410.0
 11
3100.0
 21
1410.0
 72
     1
 10
3100.0
 20
1410.0
 11
3100.0
 21
1400.0
 72
     1
 10
3100.0
 20
1400.0
 11
2415.0
 21
1400.0
 97
        1
330
ED12
 75
     0
 76
     1
 52
45.0
 41
5.000000000000009
 77
     0
 78
     1
 53
90.0
 43
13600.0
 44
0.0000000000081855
 45
-15.875
 46
0.000000000000001
 79
     0
 98
        1
 10
14800.0
 20
-10890.0
1001
ACAD
1010
0.0
1020
0.0
1030
0.0
  0
LWPOLYLINE
  5
124FD
102
{ACAD_REACTORS
330
1280B
102
}
330
1F
100
AcDbEntity
  8
02実線
100
AcDbPolyline
 90
        5
 70
     1
 43
0.0
 10
399.9999999999991
 20
1825.0
 10
399.9999999999991
 20
1880.0
 10
449.9999999999991
 20
1880.0
 10
449.9999999999991
 20
1820.0
 10
404.9999999999991
 20
1820.0
  0
LWPOLYLINE
  5
124FE
330
1F
100
AcDbEntity
  8
03破線
100
AcDbPolyline
 90
        4
 70
     1
 43
0.0
 10
399.9999999999991
 20
1876.8
 10
399.9999999999991
 20
1880.0
 10
449.9999999999991
 20
1880.0
 10
449.9999999999991
 20
1876.8
  0
INSERT
  5
12501
102
{ACAD_REACTORS
330
1280B
102
}
330
1F
100
AcDbEntity
  8
02実線
100
AcDbBlockReference
  2
hole-φ16
 10
424.9999999999991
 20
1850.0
 30
0.0
  0
LWPOLYLINE
  5
12502
330
1F
100
AcDbEntity
  8
02実線
100
AcDbPolyline
 90
        4
 70
     1
 43
0.0
 10
400.0000000000011
 20
1396.8
 10
400.0000000000011
 20
1400.0
 10
450.0000000000011
 20
1400.0
 10
450.0000000000011
 20
1396.8
  0
LWPOLYLINE
  5
12503
330
1F
100
AcDbEntity
  8
02実線
100
AcDbPolyline
 90
        5
 70
     1
 43
0.0
 10
400.0000000000011
 20
1355.0
 10
400.0000000000011
 20
1400.0
 10
450.0000000000011
 20
1400.0
 10
450.0000000000011
 20
1350.0
 10
405.0000000000011
 20
1350.0
  0
LWPOLYLINE
  5
12504
102
{ACAD_REACTORS
330
12506
102
}
330
1F
100
AcDbEntity
  8
02実線
100
AcDbPolyline
 90
        4
 70
     1
 43
0.0
 10
400.0000000000011
 20
1400.0
 10
400.0000000000011
 20
1410.0
 10
450.0000000000011
 20
1410.0
 10
450.0000000000011
 20
1400.0
  0
LINE
  5
12505
330
1F
100
AcDbEntity
  8
04一点鎖線
100
AcDbLine
 10
425.0000000000011
 20
1381.8
 30
0.0
 11
425.0000000000011
 21
1425.0
 31
0.0
  0
HATCH
  5
12506
330
1F
100
AcDbEntity
  8
01注記寸法
100
AcDbHatch
 10
0.0
 20
0.0
 30
0.0
210
0.0
220
0.0
230
1.0
  2
ANSI31
 70
     0
 71
     1
 91
        1
 92
        1
 93
        4
 72
     1
 10
400.0000000000011
 20
1400.0
 11
400.0000000000011
 21
1410.0
 72
     1
 10
400.0000000000011
 20
1410.0
 11
450.0000000000011
 21
1410.0
 72
     1
 10
450.0000000000011
 20
1410.0
 11
450.0000000000011
 21
1400.0
 72
     1
 10
450.0000000000011
 20
1400.0
 11
400.0000000000011
 21
1400.0
 97
        1
330
12504
 75
     0
 76
     1
 52
45.0
 41
5.000000000000005
 77
     0
 78
     1
 53
90.0
 43
4071.681869869738
 44
2426.698660858377
 45
-15.875
 46
0.000000000000001
 79
     0
 98
        1
 10
4071.681869869738
 20
2416.698660858377
1001
ACAD
1010
0.0
1020
0.0
1030
0.0
  0
LWPOLYLINE
  5
12507
330
1F
100
AcDbEntity
  8
02実線
100
AcDbPolyline
 90
        9
 70
     0
 43
0.0
 10
2450.0
 20
1400.0
 10
2503.6
 20
1400.0
 42
-0.4142135623730948
 10
2510.0
 20
1393.599999999999
 10
2510.0
 20
1350.0
 10
2506.8
 20
1350.0
 10
2506.8
 20
1393.599999999999
 42
0.4142135623730948
 10
2503.6
 20
1396.799999999999
 10
2450.0
 20
1396.8
 10
2450.0
 20
1400.0
  0
LWPOLYLINE
  5
12508
102
{ACAD_REACTORS
330
1250A
102
}
330
1F
100
AcDbEntity
  8
02実線
100
AcDbPolyline
 90
        4
 70
     1
 43
0.0
 10
2450.0
 20
1400.0
 10
2450.0
 20
1410.0
 10
2510.0
 20
1410.0
 10
2510.0
 20
1400.0
  0
LINE
  5
12509
330
1F
100
AcDbEntity
  8
04一点鎖線
100
AcDbLine
 10
2480.0
 20
1381.8
 30
0.0
 11
2480.0
 21
1425.0
 31
0.0
  0
HATCH
  5
1250A
330
1F
100
AcDbEntity
  8
01注記寸法
100
AcDbHatch
 10
0.0
 20
0.0
 30
0.0
210
0.0
220
0.0
230
1.0
  2
ANSI31
 70
     0
 71
     1
 91
        1
 92
        1
 93
        4
 72
     1
 10
2450.0
 20
1400.0
 11
2450.0
 21
1410.0
 72
     1
 10
2450.0
 20
1410.0
 11
2510.0
 21
1410.0
 72
     1
 10
2510.0
 20
1410.0
 11
2510.0
 21
1400.0
 72
     1
 10
2510.0
 20
1400.0
 11
2450.0
 21
1400.0
 97
        1
330
12508
 75
     0
 76
     1
 52
45.0
 41
5.000000000000005
 77
     0
 78
     1
 53
90.0
 43
6001.681869869737
 44
2426.698660858377
 45
-15.875
 46
0.000000000000001
 79
     0
 98
        1
 10
6001.681869869737
 20
2426.698660858377
1001
ACAD
1010
0.0
1020
0.0
1030
0.0
  0
LWPOLYLINE
  5
1275F
102
{ACAD_REACTORS
330
12762
102
}
330
1F
100
AcDbEntity
  8
01注記寸法
100
AcDbPolyline
 90
        4
 70
     1
 43
0.0
 10
450.0
 20
1785.0
 10
450.0
 20
1835.0
 10
2235.0
 20
1835.0
 10
2235.0
 20
1785.0
  0
LWPOLYLINE
  5
12760
102
{ACAD_REACTORS
330
12764
102
}
330
1F
100
AcDbEntity
  8
01注記寸法
100
AcDbPolyline
 90
        4
 70
     1
 43
0.0
 10
450.0
 20
1835.0
 10
450.0
 20
2420.0
 10
500.0
 20
2420.0
 10
500.0
 20
1835.0
  0
HATCH
  5
12762
330
1F
100
AcDbEntity
  8
01注記寸法
100
AcDbHatch
 10
0.0
 20
0.0
 30
0.0
210
0.0
220
0.0
230
1.0
  2
ANSI31
 70
     0
 71
     1
 91
        1
 92
        1
 93
        4
 72
     1
 10
450.0
 20
1785.0
 11
450.0
 21
1835.0
 72
     1
 10
450.0
 20
1835.0
 11
2235.0
 21
1835.0
 72
     1
 10
2235.0
 20
1835.0
 11
2235.0
 21
1785.0
 72
     1
 10
2235.0
 20
1785.0
 11
450.0
 21
1785.0
 97
        1
330
1275F
 75
     0
 76
     1
 52
45.0
 41
10.00000000000001
 77
     0
 78
     1
 53
90.0
 43
6895.0
 44
-184.9999999999914
 45
-31.75
 46
0.0000000000000019
 79
     0
 98
        1
 10
6895.0
 20
-184.9999999999914
1001
ACAD
1010
0.0
1020
0.0
1030
0.0
1001
HATCHBACKGROUNDCOLOR
1071
-939524096
1000

1000

  0
HATCH
  5
12764
330
1F
100
AcDbEntity
  8
01注記寸法
100
AcDbHatch
 10
0.0
 20
0.0
 30
0.0
210
0.0
220
0.0
230
1.0
  2
ANSI31
 70
     0
 71
     1
 91
        1
 92
        1
 93
        4
 72
     1
 10
450.0
 20
1835.0
 11
450.0
 21
2420.0
 72
     1
 10
450.0
 20
2420.0
 11
500.0
 21
2420.0
 72
     1
 10
500.0
 20
2420.0
 11
500.0
 21
1835.0
 72
     1
 10
500.0
 20
1835.0
 11
450.0
 21
1835.0
 97
        1
330
12760
 75
     0
 76
     1
 52
135.0
 41
10.0
 77
     0
 78
     1
 53
180.0
 43
6250.0
 44
0.0000000000086402
 45
-0.0000000000000039
 46
-31.75
 79
     0
 98
        1
 10
6250.0
 20
0.0000000000086402
1001
ACAD
1010
0.0
1020
0.0
1030
0.0
1001
HATCHBACKGROUNDCOLOR
1071
-939524096
1000

1000

  0
HATCH
  5
12765
330
1F
100
AcDbEntity
  8
01注記寸法
100
AcDbHatch
 10
0.0
 20
0.0
 30
0.0
210
0.0
220
0.0
230
1.0
  2
ANSI31
 70
     0
 71
     1
 91
        1
 92
        1
 93
        4
 72
     1
 10
2185.0
 20
1835.0
 11
2185.0
 21
2420.0
 72
     1
 10
2185.0
 20
2420.0
 11
2235.0
 21
2420.0
 72
     1
 10
2235.0
 20
2420.0
 11
2235.0
 21
1835.0
 72
     1
 10
2235.0
 20
1835.0
 11
2185.0
 21
1835.0
 97
        1
330
12766
 75
     0
 76
     1
 52
135.0
 41
10.0
 77
     0
 78
     1
 53
180.0
 43
7985.0
 44
0.0000000000086402
 45
-0.0000000000000039
 46
-31.75
 79
     0
 98
        1
 10
7985.0
 20
0.0000000000086402
1001
ACAD
1010
0.0
1020
0.0
1030
0.0
1001
HATCHBACKGROUNDCOLOR
1071
-939524096
1000

1000

  0
LWPOLYLINE
  5
12766
102
{ACAD_REACTORS
330
12765
102
}
330
1F
100
AcDbEntity
  8
01注記寸法
100
AcDbPolyline
 90
        4
 70
     1
 43
0.0
 10
2185.0
 20
1835.0
 10
2185.0
 20
2420.0
 10
2235.0
 20
2420.0
 10
2235.0
 20
1835.0
  0
HATCH
  5
12767
330
1F
100
AcDbEntity
  8
01注記寸法
100
AcDbHatch
 10
0.0
 20
0.0
 30
0.0
210
0.0
220
0.0
230
1.0
  2
ANSI31
 70
     0
 71
     1
 91
        1
 92
        1
 93
        4
 72
     1
 10
450.0
 20
2420.0
 11
450.0
 21
2470.0
 72
     1
 10
450.0
 20
2470.0
 11
2235.0
 21
2470.0
 72
     1
 10
2235.0
 20
2470.0
 11
2235.0
 21
2420.0
 72
     1
 10
2235.0
 20
2420.0
 11
450.0
 21
2420.0
 97
        1
330
12768
 75
     0
 76
     1
 52
45.0
 41
10.00000000000001
 77
     0
 78
     1
 53
90.0
 43
6895.0
 44
450.0000000000086
 45
-31.75
 46
0.0000000000000019
 79
     0
 98
        1
 10
6895.0
 20
450.0000000000086
1001
ACAD
1010
0.0
1020
0.0
1030
0.0
1001
HATCHBACKGROUNDCOLOR
1071
-939524096
1000

1000

  0
LWPOLYLINE
  5
12768
102
{ACAD_REACTORS
330
12767
102
}
330
1F
100
AcDbEntity
  8
01注記寸法
100
AcDbPolyline
 90
        4
 70
     1
 43
0.0
 10
450.0
 20
2420.0
 10
450.0
 20
2470.0
 10
2235.0
 20
2470.0
 10
2235.0
 20
2420.0
  0
HATCH
  5
1280B
330
1F
100
AcDbEntity
  8
01注記寸法
100
AcDbHatch
 10
0.0
 20
0.0
 30
0.0
210
0.0
220
0.0
230
1.0
  2
ANSI31
 70
     0
 71
     1
 91
        2
 92
        1
 93
        5
 72
     1
 10
399.9999999999991
 20
1825.0
 11
399.9999999999991
 21
1880.0
 72
     1
 10
399.9999999999991
 20
1880.0
 11
449.9999999999991
 21
1880.0
 72
     1
 10
449.9999999999991
 20
1880.0
 11
449.9999999999991
 21
1820.0
 72
     1
 10
449.9999999999991
 20
1820.0
 11
404.9999999999991
 21
1820.0
 72
     1
 10
404.9999999999991
 20
1820.0
 11
399.9999999999991
 21
1825.0
 97
        1
330
124FD
 92
       16
 93
        1
 72
     2
 10
424.9999999999991
 20
1850.0
 40
8.0
 50
0.0
 51
360.0
 73
     1
 97
        1
330
12501
 75
     0
 76
     1
 52
135.0
 41
5.0
 77
     0
 78
     1
 53
180.0
 43
2852.466567269129
 44
2766.698660858377
 45
-0.0000000000000019
 46
-15.875
 79
     0
 98
        1
 10
2852.466567269129
 20
2766.698660858377
1001
ACAD
1010
0.0
1020
0.0
1030
0.0
1001
HATCHBACKGROUNDCOLOR
1071
-939524096
1000

1000

  0
LWPOLYLINE
  5
1280C
330
1F
100
AcDbEntity
  8
02実線
100
AcDbPolyline
 90
        4
 70
     1
 43
0.0
 10
2285.000000000001
 20
1396.8
 10
2285.000000000001
 20
1400.0
 10
2235.000000000001
 20
1400.0
 10
2235.000000000001
 20
1396.8
  0
LWPOLYLINE
  5
1280D
330
1F
100
AcDbEntity
  8
02実線
100
AcDbPolyline
 90
        5
 70
     1
 43
0.0
 10
2285.000000000001
 20
1355.0
 10
2285.000000000001
 20
1400.0
 10
2235.000000000001
 20
1400.0
 10
2235.000000000001
 20
1350.0
 10
2280.000000000001
 20
1350.0
  0
LWPOLYLINE
  5
1280E
102
{ACAD_REACTORS
330
12810
102
}
330
1F
100
AcDbEntity
  8
02実線
100
AcDbPolyline
 90
        4
 70
     1
 43
0.0
 10
2285.000000000001
 20
1400.0
 10
2285.000000000001
 20
1410.0
 10
2235.000000000001
 20
1410.0
 10
2235.000000000001
 20
1400.0
  0
LINE
  5
1280F
330
1F
100
AcDbEntity
  8
04一点鎖線
100
AcDbLine
 10
2260.000000000001
 20
1381.8
 30
0.0
 11
2260.000000000001
 21
1425.0
 31
0.0
  0
HATCH
  5
12810
330
1F
100
AcDbEntity
  8
01注記寸法
100
AcDbHatch
 10
0.0
 20
0.0
 30
0.0
210
0.0
220
0.0
230
1.0
  2
ANSI31
 70
     0
 71
     1
 91
        1
 92
        1
 93
        4
 72
     1
 10
2285.000000000001
 20
1400.0
 11
2285.000000000001
 21
1410.0
 72
     1
 10
2285.000000000001
 20
1410.0
 11
2235.000000000001
 21
1410.0
 72
     1
 10
2235.000000000001
 20
1410.0
 11
2235.000000000001
 21
1400.0
 72
     1
 10
2235.000000000001
 20
1400.0
 11
2285.000000000001
 21
1400.0
 97
        1
330
1280E
 75
     0
 76
     1
 52
45.0
 41
5.000000000000007
 77
     0
 78
     1
 53
90.0
 43
4234.652359716841
 44
100.0000000000068
 45
-15.87500000000001
 46
0.000000000000001
 79
     0
 98
        1
 10
-1386.681869869736
 20
2416.698660858377
1001
ACAD
1010
0.0
1020
0.0
1030
0.0
  0
LWPOLYLINE
  5
12811
330
1F
100
AcDbEntity
  8
03破線
100
AcDbPolyline
 90
        4
 70
     1
 43
0.0
 10
399.9999999999986
 20
2383.200000000001
 10
399.9999999999986
 20
2380.000000000001
 10
449.9999999999986
 20
2380.000000000001
 10
449.9999999999986
 20
2383.200000000001
  0
HATCH
  5
12812
330
1F
100
AcDbEntity
  8
01注記寸法
100
AcDbHatch
 10
0.0
 20
0.0
 30
0.0
210
0.0
220
0.0
230
1.0
  2
ANSI31
 70
     0
 71
     1
 91
        2
 92
        1
 93
        5
 72
     1
 10
399.9999999999986
 20
2435.0
 11
399.9999999999986
 21
2380.000000000001
 72
     1
 10
399.9999999999986
 20
2380.000000000001
 11
449.9999999999986
 21
2380.000000000001
 72
     1
 10
449.9999999999986
 20
2380.000000000001
 11
449.9999999999986
 21
2440.0
 72
     1
 10
449.9999999999986
 20
2440.0
 11
404.9999999999986
 21
2440.0
 72
     1
 10
404.9999999999986
 20
2440.0
 11
399.9999999999986
 21
2435.0
 97
        1
330
12813
 92
       16
 93
        1
 72
     2
 10
424.9999999999986
 20
2410.0
 40
8.0
 50
0.0
 51
360.0
 73
     1
 97
        1
330
12814
 75
     0
 76
     1
 52
135.0
 41
5.0
 77
     0
 78
     1
 53
180.0
 43
3599.65235971684
 44
5.000000000006821
 45
-0.0000000000000019
 46
-15.875
 79
     0
 98
        1
 10
2852.466567269131
 20
1493.301339141629
1001
ACAD
1010
0.0
1020
0.0
1030
0.0
1001
HATCHBACKGROUNDCOLOR
1071
-939524096
1000

1000

  0
LWPOLYLINE
  5
12813
102
{ACAD_REACTORS
330
12812
102
}
330
1F
100
AcDbEntity
  8
02実線
100
AcDbPolyline
 90
        5
 70
     1
 43
0.0
 10
399.9999999999986
 20
2435.0
 10
399.9999999999986
 20
2380.000000000001
 10
449.9999999999986
 20
2380.000000000001
 10
449.9999999999986
 20
2440.0
 10
404.9999999999986
 20
2440.0
  0
INSERT
  5
12814
102
{ACAD_REACTORS
330
12812
102
}
330
1F
100
AcDbEntity
  8
02実線
100
AcDbBlockReference
  2
hole-φ16
 10
424.9999999999986
 20
2410.0
 30
0.0
 41
-1.0
 50
180.0000000000002
  0
LWPOLYLINE
  5
12815
330
1F
100
AcDbEntity
  8
02実線
100
AcDbPolyline
 90
        9
 70
     0
 43
0.0
 10
3070.0
 20
1400.000000000002
 10
3016.400000000001
 20
1400.000000000001
 42
0.4142135623730948
 10
3010.0
 20
1393.600000000001
 10
3010.000000000001
 20
1350.000000000001
 10
3013.200000000001
 20
1350.000000000001
 10
3013.2
 20
1393.600000000001
 42
-0.4142135623730948
 10
3016.4
 20
1396.800000000001
 10
3070.0
 20
1396.800000000002
 10
3070.0
 20
1400.000000000002
  0
LWPOLYLINE
  5
12816
102
{ACAD_REACTORS
330
12818
102
}
330
1F
100
AcDbEntity
  8
02実線
100
AcDbPolyline
 90
        4
 70
     1
 43
0.0
 10
3070.0
 20
1400.000000000002
 10
3070.0
 20
1410.000000000002
 10
3010.0
 20
1410.000000000001
 10
3010.0
 20
1400.000000000001
  0
LINE
  5
12817
330
1F
100
AcDbEntity
  8
04一点鎖線
100
AcDbLine
 10
3040.000000000001
 20
1381.800000000001
 30
0.0
 11
3040.0
 21
1425.000000000001
 31
0.0
  0
HATCH
  5
12818
330
1F
100
AcDbEntity
  8
01注記寸法
100
AcDbHatch
 10
0.0
 20
0.0
 30
0.0
210
0.0
220
0.0
230
1.0
  2
ANSI31
 70
     0
 71
     1
 91
        1
 92
        1
 93
        4
 72
     1
 10
3070.0
 20
1400.000000000002
 11
3070.0
 21
1410.000000000002
 72
     1
 10
3070.0
 20
1410.000000000002
 11
3010.0
 21
1410.000000000001
 72
     1
 10
3010.0
 20
1410.000000000001
 11
3010.0
 21
1400.000000000001
 72
     1
 10
3010.0
 20
1400.000000000001
 11
3070.0
 21
1400.000000000002
 97
        1
330
12816
 75
     0
 76
     1
 52
45.0
 41
5.000000000000006
 77
     0
 78
     1
 53
90.0
 43
3699.65235971684
 44
100.0000000000068
 45
-15.87500000000001
 46
0.000000000000001
 79
     0
 98
        1
 10
-481.6818698697416
 20
2426.698660858361
1001
ACAD
1010
0.0
1020
0.0
1030
0.0
  0
LWPOLYLINE
  5
12819
330
1F
100
AcDbEntity
  8
03破線
100
AcDbPolyline
 90
        4
 70
     1
 43
0.0
 10
2285.000000000001
 20
1876.8
 10
2285.000000000001
 20
1880.0
 10
2235.000000000001
 20
1880.0
 10
2235.000000000001
 20
1876.8
  0
HATCH
  5
1281A
330
1F
100
AcDbEntity
  8
01注記寸法
100
AcDbHatch
 10
0.0
 20
0.0
 30
0.0
210
0.0
220
0.0
230
1.0
  2
ANSI31
 70
     0
 71
     1
 91
        2
 92
        1
 93
        5
 72
     1
 10
2285.000000000001
 20
1825.0
 11
2285.000000000001
 21
1880.0
 72
     1
 10
2285.000000000001
 20
1880.0
 11
2235.000000000001
 21
1880.0
 72
     1
 10
2235.000000000001
 20
1880.0
 11
2235.000000000001
 21
1820.0
 72
     1
 10
2235.000000000001
 20
1820.0
 11
2280.000000000001
 21
1820.0
 72
     1
 10
2280.000000000001
 20
1820.0
 11
2285.000000000001
 21
1825.0
 97
        1
330
1281B
 92
       16
 93
        1
 72
     2
 10
2260.000000000001
 20
1850.0
 40
8.0
 50
0.0
 51
360.0
 73
     1
 97
        1
330
1281C
 75
     0
 76
     1
 52
135.0
 41
5.0
 77
     0
 78
     1
 53
180.0
 43
3939.65235971684
 44
0.0000000000068212
 45
-0.0000000000000019
 46
-15.875
 79
     0
 98
        1
 10
-167.466567269129
 20
2766.698660858377
1001
ACAD
1010
0.0
1020
0.0
1030
0.0
1001
HATCHBACKGROUNDCOLOR
1071
-939524096
1000

1000

  0
LWPOLYLINE
  5
1281B
102
{ACAD_REACTORS
330
1281A
102
}
330
1F
100
AcDbEntity
  8
02実線
100
AcDbPolyline
 90
        5
 70
     1
 43
0.0
 10
2285.000000000001
 20
1825.0
 10
2285.000000000001
 20
1880.0
 10
2235.000000000001
 20
1880.0
 10
2235.000000000001
 20
1820.0
 10
2280.000000000001
 20
1820.0
  0
INSERT
  5
1281C
102
{ACAD_REACTORS
330
1281A
102
}
330
1F
100
AcDbEntity
  8
02実線
100
AcDbBlockReference
  2
hole-φ16
 10
2260.000000000001
 20
1850.0
 30
0.0
 41
-1.0
  0
LWPOLYLINE
  5
1281D
330
1F
100
AcDbEntity
  8
03破線
100
AcDbPolyline
 90
        4
 70
     1
 43
0.0
 10
2285.000000000001
 20
2383.200000000001
 10
2285.000000000001
 20
2380.000000000001
 10
2235.000000000001
 20
2380.000000000001
 10
2235.000000000001
 20
2383.200000000001
  0
HATCH
  5
1281E
330
1F
100
AcDbEntity
  8
01注記寸法
100
AcDbHatch
 10
0.0
 20
0.0
 30
0.0
210
0.0
220
0.0
230
1.0
  2
ANSI31
 70
     0
 71
     1
 91
        2
 92
        1
 93
        5
 72
     1
 10
2285.000000000001
 20
2435.0
 11
2285.000000000001
 21
2380.000000000001
 72
     1
 10
2285.000000000001
 20
2380.000000000001
 11
2235.000000000001
 21
2380.000000000001
 72
     1
 10
2235.000000000001
 20
2380.000000000001
 11
2235.000000000001
 21
2440.0
 72
     1
 10
2235.000000000001
 20
2440.0
 11
2280.000000000001
 21
2440.0
 72
     1
 10
2280.000000000001
 20
2440.0
 11
2285.000000000001
 21
2435.0
 97
        1
330
1281F
 92
       16
 93
        1
 72
     2
 10
2260.000000000001
 20
2410.0
 40
8.0
 50
0.0
 51
360.0
 73
     1
 97
        1
330
12820
 75
     0
 76
     1
 52
135.0
 41
5.0
 77
     0
 78
     1
 53
180.0
 43
3939.65235971684
 44
0.0000000000068212
 45
-0.0000000000000019
 46
-15.875
 79
     0
 98
        1
 10
-167.4665672691308
 20
1493.301339141629
1001
ACAD
1010
0.0
1020
0.0
1030
0.0
1001
HATCHBACKGROUNDCOLOR
1071
-939524096
1000

1000

  0
LWPOLYLINE
  5
1281F
102
{ACAD_REACTORS
330
1281E
102
}
330
1F
100
AcDbEntity
  8
02実線
100
AcDbPolyline
 90
        5
 70
     1
 43
0.0
 10
2285.000000000001
 20
2435.0
 10
2285.000000000001
 20
2380.000000000001
 10
2235.000000000001
 20
2380.000000000001
 10
2235.000000000001
 20
2440.0
 10
2280.000000000001
 20
2440.0
  0
INSERT
  5
12820
102
{ACAD_REACTORS
330
1281E
102
}
330
1F
100
AcDbEntity
  8
02実線
100
AcDbBlockReference
  2
hole-φ16
 10
2260.000000000001
 20
2410.0
 30
0.0
 50
179.9999999999999
  0
LWPOLYLINE
  5
1299C
330
1F
100
AcDbEntity
  8
03破線
100
AcDbPolyline
 90
        4
 70
     1
 43
0.0
 10
1045.0
 20
2420.0
 10
1045.0
 20
2466.8
 10
1048.2
 20
2466.8
 10
1048.2
 20
2420.0
  0
LWPOLYLINE
  5
1299D
330
1F
100
AcDbEntity
  8
03破線
100
AcDbPolyline
 90
        4
 70
     1
 43
0.0
 10
1640.0
 20
2420.0
 10
1640.0
 20
2466.8
 10
1636.8
 20
2466.8
 10
1636.8
 20
2420.0
  0
LWPOLYLINE
  5
1299E
330
1F
100
AcDbEntity
  8
03破線
100
AcDbPolyline
 90
        4
 70
     1
 43
0.0
 10
1045.0
 20
1835.0
 10
1045.0
 20
1788.2
 10
1048.2
 20
1788.2
 10
1048.2
 20
1835.0
  0
LWPOLYLINE
  5
1299F
330
1F
100
AcDbEntity
  8
03破線
100
AcDbPolyline
 90
        4
 70
     1
 43
0.0
 10
1640.0
 20
1835.0
 10
1640.0
 20
1788.2
 10
1636.8
 20
1788.2
 10
1636.8
 20
1835.0
  0
LWPOLYLINE
  5
129B9
330
1F
100
AcDbEntity
  8
03破線
100
AcDbPolyline
 90
        4
 70
     1
 43
0.0
 10
1045.0
 20
1203.199999999997
 10
1045.000000000001
 20
1396.799999999997
 10
1048.200000000001
 20
1396.799999999997
 10
1048.2
 20
1203.199999999997
  0
LWPOLYLINE
  5
129BA
330
1F
100
AcDbEntity
  8
03破線
100
AcDbPolyline
 90
        4
 70
     1
 43
0.0
 10
1640.0
 20
1203.199999999997
 10
1640.000000000001
 20
1396.799999999997
 10
1636.800000000001
 20
1396.799999999997
 10
1636.8
 20
1203.199999999997
  0
LINE
  5
129BF
330
1F
100
AcDbEntity
  8
04一点鎖線
100
AcDbLine
 10
1342.5
 20
1213.199999999994
 30
0.0
 11
1342.5
 21
1189.999999999997
 31
0.0
  0
VIEWPORT
  5
9F0D
330
1B
100
AcDbEntity
 67
     1
  8
0
100
AcDbViewport
 10
202.5
 20
128.5
 30
0.0
 40
486.0
 41
308.4
 68
     1
 69
     1
 12
202.5
 22
128.5
 13
0.0
 23
0.0
 14
0.5
 24
0.5
 15
0.0
 25
0.0
 16
0.0
 26
0.0
 36
1.0
 17
0.0
 27
0.0
 37
0.0
 42
50.0
 43
0.0
 44
0.0
 45
308.4
 50
0.0
 51
0.0
 72
   100
 90
   557152
  1

281
     0
 71
     1
 74
     0
110
0.0
120
0.0
130
0.0
111
1.0
121
0.0
131
0.0
112
0.0
122
1.0
132
0.0
 79
     0
146
0.0
  0
VIEWPORT
  5
9F0E
330
1B
100
AcDbEntity
 67
     1
  8
0
100
AcDbViewport
 10
202.5
 20
128.5
 30
0.0
 40
324.0
 41
205.6
 68
     2
 69
     2
 12
-3224.9849078482
 22
3553.815758143106
 13
0.0
 23
0.0
 14
0.5
 24
0.5
 15
0.0
 25
0.0
 16
0.0
 26
0.0
 36
1.0
 17
0.0
 27
0.0
 37
0.0
 42
50.0
 43
0.0
 44
0.0
 45
10712.16027781073
 50
0.0
 51
0.0
 72
   100
 90
   557152
  1

281
     0
 71
     1
 74
     0
110
0.0
120
0.0
130
0.0
111
1.0
121
0.0
131
0.0
112
0.0
122
1.0
132
0.0
 79
     0
146
0.0
  0
ENDSEC
  0
SECTION
  2
OBJECTS
  0
DICTIONARY
  5
C
330
0
100
AcDbDictionary
281
     1
  3
ACAD_DETAILVIEWSTYLE
350
12677
  3
ACAD_GROUP
350
D
  3
ACAD_IMAGE_VARS
350
6A88
  3
ACAD_LAYOUT
350
1A
  3
ACAD_MLINESTYLE
350
17
  3
ACAD_PLOTSETTINGS
350
19
  3
ACAD_PLOTSTYLENAME
350
E
  3
ACAD_SCALELIST
350
6A4E
  3
ACAD_SECTIONVIEWSTYLE
350
12678
  3
AcadDim
350
FB97
  3
AcDbVariableDictionary
350
79E
  3
APPDATA
350
6A87
  3
DWGPROPS
350
12A60
  0
DICTIONARY
  5
7A6F
330
2
100
AcDbDictionary
280
     1
281
     1
  3
ACAD_LAYERSTATES
360
7A70
  3
ACLYDICTIONARY
360
F959
  0
DICTIONARY
  5
969E
330
1F
100
AcDbDictionary
280
     1
281
     1
  3
ACAD_SORTENTS
360
969F
  0
DICTIONARY
  5
12677
102
{ACAD_REACTORS
330
C
102
}
330
C
100
AcDbDictionary
281
     1
  0
DICTIONARY
  5
D
102
{ACAD_REACTORS
330
C
102
}
330
C
100
AcDbDictionary
281
     1
  3
*A1
350
1228F
  3
*A2
350
12290
  3
*A3
350
12291
  3
*A4
350
12292
  3
*A5
350
12293
  0
RASTERVARIABLES
  5
6A88
102
{ACAD_REACTORS
330
C
102
}
330
C
100
AcDbRasterVariables
 90
        0
 70
     1
 71
     1
 72
     1
  0
DICTIONARY
  5
1A
102
{ACAD_REACTORS
330
C
102
}
330
C
100
AcDbDictionary
281
     1
  3
Layout1
350
1E
  3
Model
350
22
  0
DICTIONARY
  5
17
102
{ACAD_REACTORS
330
C
102
}
330
C
100
AcDbDictionary
281
     1
  3
Standard
350
18
  0
DICTIONARY
  5
19
102
{ACAD_REACTORS
330
C
102
}
330
C
100
AcDbDictionary
281
     1
  0
ACDBDICTIONARYWDFLT
  5
E
102
{ACAD_REACTORS
330
C
102
}
330
C
100
AcDbDictionary
281
     1
  3
Normal
350
F
100
AcDbDictionaryWithDefault
340
F
  0
DICTIONARY
  5
6A4E
102
{ACAD_REACTORS
330
C
102
}
330
C
100
AcDbDictionary
281
     1
  3
A0
350
6A4F
  3
A1
350
6A50
  3
A2
350
6A51
  3
A3
350
6A52
  3
A4
350
6A53
  3
A5
350
6A54
  3
A6
350
6A55
  3
A7
350
6A56
  3
A8
350
6A57
  3
A9
350
6A58
  3
B0
350
6A59
  3
B1
350
6A5A
  3
B2
350
6A5B
  3
B3
350
6A5C
  3
B4
350
6A5D
  3
B5
350
6A5E
  3
B6
350
6A5F
  3
B7
350
6A60
  3
B8
350
6A61
  3
B9
350
6A62
  3
C0
350
6A63
  3
C1
350
6A64
  3
C2
350
6A65
  3
C3
350
6A66
  3
C4
350
6A67
  3
C5
350
6A68
  3
C6
350
6A69
  3
C7
350
6A6A
  3
C8
350
6A6B
  3
C9
350
6A6C
  3
D0
350
6A6D
  3
D1
350
6A6E
  3
D2
350
6A6F
  0
DICTIONARY
  5
12678
102
{ACAD_REACTORS
330
C
102
}
330
C
100
AcDbDictionary
281
     1
  0
XRECORD
  5
FB97
102
{ACAD_REACTORS
330
C
102
}
330
C
100
AcDbXrecord
280
     1
340
0
 72
     0
 71
     0
 70
     0
 69
     0
 68
     1
 67
     3
 66
     0
 65
     0
 64
     0
 63
     3
 62
     1
 61
     0
 60
     0
 40
0.0
  0
DICTIONARY
  5
79E
102
{ACAD_REACTORS
330
C
102
}
330
C
100
AcDbDictionary
281
     1
  3
DIMASSOC
350
79F
  3
SORTENTS
350
264F
  0
DICTIONARY
  5
6A87
102
{ACAD_REACTORS
330
C
102
}
330
C
100
AcDbDictionary
281
     1
  0
XRECORD
  5
12A60
102
{ACAD_REACTORS
330
C
102
}
330
C
100
AcDbXrecord
280
     1
  1
DWGPROPS COOKIE
  2

  3

  4

  6

  7

  8
Sales
  9

300
=
301
=
302
=
303
=
304
=
305
=
306
=
307
=
308
=
309
=
 40
0.0
 41
2455859.030048461
 42
2459076.008560648
  1

 90
        0
  0
DICTIONARY
  5
7A70
102
{ACAD_REACTORS
330
7A6F
102
}
330
7A6F
100
AcDbDictionary
281
     1
  0
DICTIONARY
  5
F959
102
{ACAD_REACTORS
330
7A6F
102
}
330
7A6F
100
AcDbDictionary
281
     1
1001
ACAD
1000
<All
  0
SORTENTSTABLE
  5
969F
102
{ACAD_REACTORS
330
969E
102
}
330
969E
100
AcDbSortentsTable
330
1F
331
0
  5
A9E5
331
0
  5
7E94
331
0
  5
12394
331
0
  5
122EF
331
0
  5
122EE
331
0
  5
122ED
331
0
  5
A78F
331
0
  5
7E95
331
0
  5
A790
331
0
  5
122EC
331
0
  5
A791
331
0
  5
A793
331
0
  5
A794
331
0
  5
122EB
331
0
  5
122EA
331
0
  5
A795
331
0
  5
A796
331
0
  5
122E9
331
0
  5
12395
331
0
  5
A77F
331
0
  5
A780
331
0
  5
A781
331
0
  5
A782
331
0
  5
A783
331
0
  5
A784
331
0
  5
A785
331
0
  5
A786
331
0
  5
A797
331
0
  5
A798
331
0
  5
A799
331
0
  5
A79A
331
0
  5
A79B
331
0
  5
A79C
331
0
  5
A79D
331
0
  5
A79E
331
0
  5
A79F
331
0
  5
A7A0
331
0
  5
A7A1
331
0
  5
A7A2
331
0
  5
A7A3
331
0
  5
7E97
331
0
  5
7E98
331
0
  5
7EA4
331
0
  5
122E8
331
0
  5
A7A4
331
0
  5
A7A5
331
0
  5
A7A6
331
0
  5
A7A7
331
0
  5
A7A8
331
0
  5
7EA5
331
0
  5
7EA6
331
0
  5
A7A9
331
0
  5
A7AA
331
0
  5
A7AB
331
0
  5
A7B1
331
0
  5
A7B2
331
0
  5
7EA7
331
0
  5
7EA8
331
0
  5
A7B3
331
0
  5
A7B4
331
0
  5
A7B5
331
0
  5
A7B6
331
0
  5
A7B7
331
0
  5
7EA9
331
0
  5
7EAA
331
0
  5
A7B8
331
0
  5
A7B9
331
0
  5
A7BA
331
0
  5
A7BB
331
0
  5
A7BC
331
0
  5
7EB1
331
0
  5
7EB3
331
0
  5
A7BD
331
0
  5
A7BE
331
0
  5
A7BF
331
0
  5
A7C0
331
0
  5
A7C1
331
0
  5
A7C2
331
0
  5
A7C3
331
0
  5
A7C4
331
0
  5
A7C5
331
0
  5
A7C6
331
0
  5
A7C7
331
0
  5
A7C9
331
0
  5
A843
331
0
  5
A845
331
0
  5
A846
331
0
  5
A847
331
0
  5
A848
331
0
  5
A849
331
0
  5
A84A
331
0
  5
A84B
331
0
  5
A84C
331
0
  5
A84D
331
0
  5
A84E
331
0
  5
A859
331
0
  5
A85A
331
0
  5
A85B
331
0
  5
A85C
331
0
  5
A85D
331
0
  5
A85E
331
0
  5
A85F
331
0
  5
A865
331
0
  5
A867
331
0
  5
A868
331
0
  5
A8E7
331
0
  5
A8E8
331
0
  5
A8E9
331
0
  5
A8EA
331
0
  5
A916
331
0
  5
A917
331
0
  5
A919
331
0
  5
A91A
331
0
  5
A91B
331
0
  5
A91D
331
0
  5
7EB4
331
0
  5
7EB5
331
0
  5
7EB6
331
0
  5
7EB9
331
0
  5
7EBA
331
0
  5
7ED4
331
0
  5
A91E
331
0
  5
A91F
331
0
  5
A9BF
331
0
  5
7ED7
331
0
  5
7EDC
331
0
  5
7EDD
331
0
  5
7EDE
331
0
  5
7EDF
331
0
  5
7EE0
331
0
  5
7EE2
331
0
  5
7EE3
331
0
  5
7EE4
331
0
  5
A9C1
331
0
  5
A9C2
331
0
  5
A9C3
331
0
  5
7EE8
331
0
  5
7EE9
331
0
  5
7EEA
331
0
  5
7EEB
331
0
  5
7EED
331
0
  5
7EEF
331
0
  5
AA35
331
0
  5
AA36
331
0
  5
AA5A
331
0
  5
7F17
331
0
  5
ADA8
331
0
  5
7E90
331
0
  5
7F4B
331
0
  5
7F4C
331
0
  5
7F4D
331
0
  5
7F91
331
0
  5
7F92
331
0
  5
7F93
331
0
  5
7F94
331
0
  5
7F95
331
0
  5
8083
331
0
  5
8084
331
0
  5
8192
331
0
  5
8193
331
0
  5
8194
331
0
  5
8195
331
0
  5
8196
331
0
  5
8197
331
0
  5
8198
331
0
  5
819A
331
0
  5
819C
331
0
  5
819D
331
0
  5
819F
331
0
  5
81A1
331
0
  5
81AB
331
0
  5
81B0
331
0
  5
81B1
331
0
  5
81B2
331
0
  5
81BA
331
0
  5
81BB
331
0
  5
81BD
331
0
  5
81BE
331
0
  5
81BF
331
0
  5
81C0
331
0
  5
81C4
331
0
  5
81C5
331
0
  5
81C6
331
0
  5
86B2
331
0
  5
86B3
331
0
  5
86B4
331
0
  5
86B5
331
0
  5
86B7
331
0
  5
86B8
331
0
  5
86B9
331
0
  5
86C4
331
0
  5
86C5
331
0
  5
86F1
331
0
  5
86F2
331
0
  5
86F3
331
0
  5
8ACA
331
0
  5
8BC5
331
0
  5
D2BD
331
0
  5
D2BE
331
0
  5
D2BF
331
0
  5
D2C0
331
0
  5
D2C1
331
0
  5
12111
331
0
  5
12110
331
0
  5
A787
331
0
  5
A788
331
0
  5
A789
331
0
  5
A78A
331
0
  5
A78B
331
0
  5
A78C
331
0
  5
A78D
331
0
  5
A78E
331
0
  5
EE44
331
ECC5
  5
EE46
331
ECC6
  5
EE47
331
ECC7
  5
A570
331
ECCA
  5
EE48
331
ECCB
  5
A573
331
ECCD
  5
EE49
331
ECCE
  5
A575
331
ECCF
  5
EE4B
331
ECD0
  5
EE4C
331
ECD1
  5
EE4E
331
ECD2
  5
EE4F
331
ECED
  5
A581
331
ECEF
  5
A582
331
ECF0
  5
A583
331
ECF1
  5
A585
331
ECF3
  5
A586
331
ECF4
  5
A588
331
ECF6
  5
A589
331
ECF7
  5
A58B
331
ECFB
  5
A58C
331
ECFC
  5
A58D
331
ED10
  5
F115
331
ED11
  5
F118
331
ED12
  5
F119
331
ED13
  5
F11A
331
0
  5
F11B
331
0
  5
F11D
331
0
  5
8FAD
331
0
  5
F11E
331
0
  5
F121
331
0
  5
F122
331
0
  5
F124
331
0
  5
F125
331
0
  5
F12D
331
0
  5
F1C0
331
0
  5
F1C1
331
0
  5
F1C2
331
0
  5
92A3
331
0
  5
92A4
331
0
  5
FC05
331
0
  5
FC0A
331
0
  5
FC0D
331
0
  5
FC1D
331
0
  5
FE7A
331
0
  5
FE87
331
0
  5
9433
331
0
  5
9436
331
0
  5
9437
331
0
  5
9438
331
0
  5
9439
331
0
  5
9525
331
0
  5
9526
331
0
  5
FE88
331
0
  5
10071
331
0
  5
9757
331
0
  5
9771
331
0
  5
9772
331
0
  5
11A6F
331
0
  5
11A70
331
0
  5
11A71
331
0
  5
11A78
331
0
  5
9774
331
0
  5
11D91
331
0
  5
11DAA
331
0
  5
9801
331
0
  5
11E7A
331
0
  5
120AE
331
0
  5
11EA7
331
0
  5
9802
331
0
  5
9803
331
0
  5
11EA8
331
0
  5
9806
331
0
  5
11EAA
331
0
  5
9A0E
331
0
  5
11EAD
331
0
  5
9AF2
331
0
  5
9A0F
331
0
  5
9A10
331
0
  5
11EB0
331
0
  5
11EB1
331
0
  5
9A59
331
0
  5
9A5A
331
0
  5
11EB3
331
0
  5
9AF1
331
0
  5
9AF3
331
0
  5
123E2
331
0
  5
123E4
331
0
  5
9AF4
331
0
  5
9B90
331
0
  5
9B91
331
0
  5
9BBB
331
0
  5
9BBC
331
0
  5
9BBD
331
0
  5
12434
331
0
  5
12435
331
0
  5
12436
331
0
  5
9BBE
331
0
  5
9BBF
331
0
  5
9BC0
331
0
  5
9BC1
331
0
  5
12437
331
0
  5
12438
331
0
  5
12463
331
0
  5
9BDC
331
0
  5
9BDD
331
0
  5
9BEC
331
0
  5
12464
331
0
  5
124B8
331
0
  5
124B9
331
0
  5
124FD
331
124FD
  5
12501
331
12501
  5
12504
331
12502
  5
12505
331
12503
  5
12506
331
12504
  5
12507
331
12505
  5
12508
331
12506
  5
12509
331
12507
  5
1250A
331
12508
  5
12584
331
12509
  5
12585
331
1250A
  5
12586
331
0
  5
125BB
331
0
  5
125BC
331
0
  5
125BD
331
0
  5
125BE
331
0
  5
125BF
331
0
  5
125C0
331
0
  5
125C1
331
0
  5
125C2
331
0
  5
125C5
331
0
  5
125C6
331
0
  5
12620
331
0
  5
12621
331
0
  5
12654
331
0
  5
12655
331
0
  5
12664
331
0
  5
1273A
331
0
  5
12753
331
0
  5
12754
331
0
  5
12755
331
0
  5
12756
331
0
  5
12757
331
0
  5
12758
331
1275F
  5
12765
331
12760
  5
12767
331
12762
  5
12764
331
12764
  5
12766
331
12765
  5
12768
331
12766
  5
12769
331
12767
  5
1276A
331
12768
  5
1276B
331
0
  5
127EA
331
0
  5
127EB
331
0
  5
127EC
331
0
  5
127F9
331
0
  5
1280A
331
1280B
  5
12500
331
1280C
  5
1280D
331
1280D
  5
1280E
331
1280E
  5
1280F
331
1280F
  5
12810
331
12810
  5
12811
331
12811
  5
12812
331
12812
  5
12813
331
12813
  5
12814
331
12814
  5
12815
331
12815
  5
12816
331
12816
  5
12817
331
12817
  5
12818
331
12818
  5
12819
331
12819
  5
1281A
331
1281A
  5
1281B
331
1281B
  5
1281C
331
1281C
  5
1281D
331
1281D
  5
1281E
331
1281E
  5
1281F
331
1281F
  5
12820
331
12820
  5
12821
331
0
  5
12830
331
0
  5
1283D
331
0
  5
1284C
331
0
  5
1284E
331
0
  5
1285D
331
0
  5
1286C
331
0
  5
1287C
331
0
  5
7E8F
  0
GROUP
  5
1228F
102
{ACAD_REACTORS
330
D
102
}
330
D
100
AcDbGroup
300

 70
     1
 71
     1
  0
GROUP
  5
12290
102
{ACAD_REACTORS
330
D
102
}
330
D
100
AcDbGroup
300

 70
     1
 71
     1
  0
GROUP
  5
12291
102
{ACAD_REACTORS
330
D
102
}
330
D
100
AcDbGroup
300

 70
     1
 71
     1
  0
GROUP
  5
12292
102
{ACAD_REACTORS
330
D
102
}
330
D
100
AcDbGroup
300

 70
     1
 71
     1
  0
GROUP
  5
12293
102
{ACAD_REACTORS
330
D
102
}
330
D
100
AcDbGroup
300

 70
     1
 71
     1
  0
LAYOUT
  5
1E
102
{ACAD_REACTORS
330
1A
102
}
330
1A
100
AcDbPlotSettings
  1

  2
none_device
  4
ISO_A3_(420.00_x_297.00_MM)
  6

 40
7.5
 41
20.0
 42
7.5
 43
20.0
 44
420.0
 45
297.0
 46
0.0
 47
0.0
 48
0.0
 49
0.0
140
0.0
141
0.0
142
1.0
143
1.0
 70
   688
 72
     1
 73
     0
 74
     5
  7

 75
    16
147
1.0
148
0.0
149
0.0
100
AcDbLayout
  1
Layout1
 70
     1
 71
     1
 10
0.0
 20
0.0
 11
412.5
 21
277.0
 12
0.0
 22
0.0
 32
0.0
 14
1.000000000000000E+20
 24
1.000000000000000E+20
 34
1.000000000000000E+20
 15
-1.000000000000000E+20
 25
-1.000000000000000E+20
 35
-1.000000000000000E+20
146
0.0
 13
0.0
 23
0.0
 33
0.0
 16
1.0
 26
0.0
 36
0.0
 17
0.0
 27
1.0
 37
0.0
 76
     0
330
1B
331
9F0D
  0
LAYOUT
  5
22
102
{ACAD_REACTORS
330
1A
102
}
330
1A
100
AcDbPlotSettings
  1

  2
none_device
  4
A3
  6

 40
3.174999952316284
 41
3.174999952316284
 42
3.17498779296875
 43
3.17498779296875
 44
297.0318298339844
 45
420.1583251953125
 46
-3.16
 47
-3.1
 48
-90.0
 49
-90.0
140
329.9999999999998
141
207.0
142
1.0
143
1.0
 70
 11940
 72
     1
 73
     1
 74
     4
  7
monochrome.ctb
 75
     0
147
1.0
148
90.0
149
90.0
100
AcDbLayout
  1
Model
 70
     1
 71
     0
 10
0.0
 20
0.0
 11
4200.0
 21
2970.0
 12
0.0
 22
0.0
 32
0.0
 14
399.9999999999986
 24
1189.999999999997
 34
0.0
 15
3100.0
 25
2470.0
 35
0.0
146
0.0
 13
0.0
 23
0.0
 33
0.0
 16
1.0
 26
0.0
 36
0.0
 17
0.0
 27
1.0
 37
0.0
 76
     0
330
1F
331
7A57
  0
MLINESTYLE
  5
18
102
{ACAD_REACTORS
330
17
102
}
330
17
100
AcDbMlineStyle
  2
STANDARD
 70
     0
  3

 62
   256
 51
90.0
 52
90.0
 71
     2
 49
0.5
 62
   256
  6
BYLAYER
 49
-0.5
 62
   256
  6
BYLAYER
  0
ACDBPLACEHOLDER
  5
F
102
{ACAD_REACTORS
330
E
102
}
330
E
  0
SCALE
  5
6A4F
102
{ACAD_REACTORS
330
6A4E
102
}
330
6A4E
100
AcDbScale
 70
     0
300
1:1
140
1.0
141
1.0
290
     1
  0
SCALE
  5
6A50
102
{ACAD_REACTORS
330
6A4E
102
}
330
6A4E
100
AcDbScale
 70
     0
300
1:2
140
1.0
141
2.0
290
     0
  0
SCALE
  5
6A51
102
{ACAD_REACTORS
330
6A4E
102
}
330
6A4E
100
AcDbScale
 70
     0
300
1:4
140
1.0
141
4.0
290
     0
  0
SCALE
  5
6A52
102
{ACAD_REACTORS
330
6A4E
102
}
330
6A4E
100
AcDbScale
 70
     0
300
1:5
140
1.0
141
5.0
290
     0
  0
SCALE
  5
6A53
102
{ACAD_REACTORS
330
6A4E
102
}
330
6A4E
100
AcDbScale
 70
     0
300
1:8
140
1.0
141
8.0
290
     0
  0
SCALE
  5
6A54
102
{ACAD_REACTORS
330
6A4E
102
}
330
6A4E
100
AcDbScale
 70
     0
300
1:10
140
1.0
141
10.0
290
     0
  0
SCALE
  5
6A55
102
{ACAD_REACTORS
330
6A4E
102
}
330
6A4E
100
AcDbScale
 70
     0
300
1:16
140
1.0
141
16.0
290
     0
  0
SCALE
  5
6A56
102
{ACAD_REACTORS
330
6A4E
102
}
330
6A4E
100
AcDbScale
 70
     0
300
1:20
140
1.0
141
20.0
290
     0
  0
SCALE
  5
6A57
102
{ACAD_REACTORS
330
6A4E
102
}
330
6A4E
100
AcDbScale
 70
     0
300
1:30
140
1.0
141
30.0
290
     0
  0
SCALE
  5
6A58
102
{ACAD_REACTORS
330
6A4E
102
}
330
6A4E
100
AcDbScale
 70
     0
300
1:40
140
1.0
141
40.0
290
     0
  0
SCALE
  5
6A59
102
{ACAD_REACTORS
330
6A4E
102
}
330
6A4E
100
AcDbScale
 70
     0
300
1:50
140
1.0
141
50.0
290
     0
  0
SCALE
  5
6A5A
102
{ACAD_REACTORS
330
6A4E
102
}
330
6A4E
100
AcDbScale
 70
     0
300
1:100
140
1.0
141
100.0
290
     0
  0
SCALE
  5
6A5B
102
{ACAD_REACTORS
330
6A4E
102
}
330
6A4E
100
AcDbScale
 70
     0
300
2:1
140
2.0
141
1.0
290
     0
  0
SCALE
  5
6A5C
102
{ACAD_REACTORS
330
6A4E
102
}
330
6A4E
100
AcDbScale
 70
     0
300
4:1
140
4.0
141
1.0
290
     0
  0
SCALE
  5
6A5D
102
{ACAD_REACTORS
330
6A4E
102
}
330
6A4E
100
AcDbScale
 70
     0
300
8:1
140
8.0
141
1.0
290
     0
  0
SCALE
  5
6A5E
102
{ACAD_REACTORS
330
6A4E
102
}
330
6A4E
100
AcDbScale
 70
     0
300
10:1
140
10.0
141
1.0
290
     0
  0
SCALE
  5
6A5F
102
{ACAD_REACTORS
330
6A4E
102
}
330
6A4E
100
AcDbScale
 70
     0
300
100:1
140
100.0
141
1.0
290
     0
  0
SCALE
  5
6A60
102
{ACAD_REACTORS
330
6A4E
102
}
330
6A4E
100
AcDbScale
 70
     0
300
1/128" = 1'-0"
140
0.0078125
141
12.0
290
     0
  0
SCALE
  5
6A61
102
{ACAD_REACTORS
330
6A4E
102
}
330
6A4E
100
AcDbScale
 70
     0
300
1/64" = 1'-0"
140
0.015625
141
12.0
290
     0
  0
SCALE
  5
6A62
102
{ACAD_REACTORS
330
6A4E
102
}
330
6A4E
100
AcDbScale
 70
     0
300
1/32" = 1'-0"
140
0.03125
141
12.0
290
     0
  0
SCALE
  5
6A63
102
{ACAD_REACTORS
330
6A4E
102
}
330
6A4E
100
AcDbScale
 70
     0
300
1/16" = 1'-0"
140
0.0625
141
12.0
290
     0
  0
SCALE
  5
6A64
102
{ACAD_REACTORS
330
6A4E
102
}
330
6A4E
100
AcDbScale
 70
     0
300
3/32" = 1'-0"
140
0.09375
141
12.0
290
     0
  0
SCALE
  5
6A65
102
{ACAD_REACTORS
330
6A4E
102
}
330
6A4E
100
AcDbScale
 70
     0
300
1/8" = 1'-0"
140
0.125
141
12.0
290
     0
  0
SCALE
  5
6A66
102
{ACAD_REACTORS
330
6A4E
102
}
330
6A4E
100
AcDbScale
 70
     0
300
3/16" = 1'-0"
140
0.1875
141
12.0
290
     0
  0
SCALE
  5
6A67
102
{ACAD_REACTORS
330
6A4E
102
}
330
6A4E
100
AcDbScale
 70
     0
300
1/4" = 1'-0"
140
0.25
141
12.0
290
     0
  0
SCALE
  5
6A68
102
{ACAD_REACTORS
330
6A4E
102
}
330
6A4E
100
AcDbScale
 70
     0
300
3/8" = 1'-0"
140
0.375
141
12.0
290
     0
  0
SCALE
  5
6A69
102
{ACAD_REACTORS
330
6A4E
102
}
330
6A4E
100
AcDbScale
 70
     0
300
1/2" = 1'-0"
140
0.5
141
12.0
290
     0
  0
SCALE
  5
6A6A
102
{ACAD_REACTORS
330
6A4E
102
}
330
6A4E
100
AcDbScale
 70
     0
300
3/4" = 1'-0"
140
0.75
141
12.0
290
     0
  0
SCALE
  5
6A6B
102
{ACAD_REACTORS
330
6A4E
102
}
330
6A4E
100
AcDbScale
 70
     0
300
1" = 1'-0"
140
1.0
141
12.0
290
     0
  0
SCALE
  5
6A6C
102
{ACAD_REACTORS
330
6A4E
102
}
330
6A4E
100
AcDbScale
 70
     0
300
1-1/2" = 1'-0"
140
1.5
141
12.0
290
     0
  0
SCALE
  5
6A6D
102
{ACAD_REACTORS
330
6A4E
102
}
330
6A4E
100
AcDbScale
 70
     0
300
3" = 1'-0"
140
3.0
141
12.0
290
     0
  0
SCALE
  5
6A6E
102
{ACAD_REACTORS
330
6A4E
102
}
330
6A4E
100
AcDbScale
 70
     0
300
6" = 1'-0"
140
6.0
141
12.0
290
     0
  0
SCALE
  5
6A6F
102
{ACAD_REACTORS
330
6A4E
102
}
330
6A4E
100
AcDbScale
 70
     0
300
1'-0" = 1'-0"
140
12.0
141
12.0
290
     0
  0
DICTIONARYVAR
  5
79F
102
{ACAD_REACTORS
330
79E
102
}
330
79E
100
DictionaryVariables
280
     0
  1
1
  0
DICTIONARYVAR
  5
264F
102
{ACAD_REACTORS
330
79E
102
}
330
79E
100
DictionaryVariables
280
     0
  1
96
  0
ENDSEC
  0
EOF
